  0
SECTION
  2
HEADER
  9
$ACADVER
  1
AC1024
  9
$DWGCODEPAGE
  3
ANSI_1252
  9
$EXTMAX
 10
297.0
 20
210.0
 30
0.0
  9
$EXTMIN
 10
0.0
 20
0.0
 30
0.0
  9
$LIMMIN
 10
0.0
 20
0.0
  9
$LIMMAX
 10
297.0
 20
210.0
  9
$VIEWCTR
 10
148.5
 20
105.0
  9
$VIEWSIZE
 40
210.0
  9
$CLAYER
  8
0
  9
$LTSCALE
 40
16.335
  9
$CELTYPE
  6
BYLAYER
  9
$DIMSCALE
 40
1.0
  9
$DIMASZ
 40
3.0
  9
$DIMEXO
 40
0.5
  9
$DIMDLI
 40
11.286
  9
$DIMEXE
 40
1.5
  9
$DIMCEN
 40
2.673
  9
$DIMLFAC
 40
1.0
  9
$DIMBLK
  1
_FILLED
  9
$DIMALT
 70
0
  9
$DIMALTF
 40
0.0393700787
  9
$DIMTXT
 40
3.0
  9
$DIMTOL
 70
1
  9
$DIMLIM
 70
0
  9
$DIMTFAC
 40
1.0
  9
$DIMTP
 40
0.01
  9
$DIMTM
 40
0.01
  9
$DIMGAP
 40
0.625
  9
$DIMDSEP
 70
44
  9
$AUNITS
 70
0
  9
$PDMODE
 70
3
  9
$PDSIZE
 40
3.0
  9
$HANDSEED
  5
516
  9
$TILEMODE
 70
1
  9
$MEASUREMENT
 70
1
  9
$INSUNITS
 70
4
  0
ENDSEC
  0
SECTION
  2
CLASSES
  0
CLASS
  1
ACDBDICTIONARYWDFLT
  2
AcDbDictionaryWithDefault
  3
AutoCAD 2000
 90
0
 91
1
280
0
281
0
  0
CLASS
  1
ACDBPLACEHOLDER
  2
AcDbPlaceHolder
  3
AutoCAD 2000
 90
0
 91
1
280
0
281
0
  0
CLASS
  1
LAYOUT
  2
AcDbLayout
  3
AutoCAD 2000
 90
0
 91
0
280
0
281
0
  0
ENDSEC
  0
SECTION
  2
TABLES
  0
TABLE
  2
VPORT
  5
8
100
AcDbSymbolTable
 70
2
  0
VPORT
  5
1F4
100
AcDbSymbolTableRecord
100
AcDbViewportTableRecord
  2
*ACTIVE
 70
0
 10
0.0
 20
0.0
 11
1.0
 21
1.0
 12
148.5
 22
105.0
 13
0.0
 23
0.0
 14
1.0
 24
1.0
 15
0.0
 25
0.0
 16
0.0
 26
0.0
 36
1.0
 17
0.0
 27
0.0
 37
0.0
 40
210.0
 41
1.4142857143
 42
50.0
 43
0.0
 44
0.0
 50
0.0
 51
0.0
 71
0
 72
100
 73
1
 74
1
 75
0
 76
0
 77
0
 78
0
  0
ENDTAB
  0
TABLE
  2
LTYPE
  5
5
100
AcDbSymbolTable
 70
6
  0
LTYPE
  5
14
100
AcDbSymbolTableRecord
100
AcDbLinetypeTableRecord
  2
BYBLOCK
 70
0
  3

 72
65
 73
0
 40
0.0
  0
LTYPE
  5
15
100
AcDbSymbolTableRecord
100
AcDbLinetypeTableRecord
  2
BYLAYER
 70
0
  3

 72
65
 73
0
 40
0.0
  0
LTYPE
  5
16
100
AcDbSymbolTableRecord
100
AcDbLinetypeTableRecord
  2
CONTINUOUS
 70
64
  3
Solid line
 72
65
 73
0
 40
0.0
  0
LTYPE
  5
1F5
100
AcDbSymbolTableRecord
100
AcDbLinetypeTableRecord
  2
CENTER
 70
64
  3
____ _ ____ _ ____ _ ____ _ ____ _ ____ _ ____
 72
65
 73
4
 40
0.6
 49
0.375
 74
0
 49
-0.075
 74
0
 49
0.075
 74
0
 49
-0.075
 74
0
  0
LTYPE
  5
1F6
100
AcDbSymbolTableRecord
100
AcDbLinetypeTableRecord
  2
HIDDEN
 70
64
  3
- - - - - - - - - - - - - - - - - - - -
 72
65
 73
2
 40
0.2
 49
0.1
 74
0
 49
-0.1
 74
0
  0
LTYPE
  5
1F7
100
AcDbSymbolTableRecord
100
AcDbLinetypeTableRecord
  2
PHANTOM
 70
64
  3
_____ _ _ _____ _ _ _____ _ _ _____
 72
65
 73
6
 40
0.8
 49
0.45
 74
0
 49
-0.05
 74
0
 49
0.1
 74
0
 49
-0.05
 74
0
 49
0.1
 74
0
 49
-0.05
 74
0
  0
LTYPE
  5
1F8
100
AcDbSymbolTableRecord
100
AcDbLinetypeTableRecord
  2
DOT
 70
64
  3
. . . . . . . . . . . . . . . . . . . .
 72
65
 73
2
 40
0.2
 49
0.1
 74
0
 49
-0.1
 74
0
  0
LTYPE
  5
1F9
100
AcDbSymbolTableRecord
100
AcDbLinetypeTableRecord
  2
DASHED
 70
64
  3
- - - - - - - - - - - - - - - - - - - -
 72
65
 73
2
 40
0.2
 49
0.1
 74
0
 49
-0.1
 74
0
  0
ENDTAB
  0
TABLE
  2
LAYER
  5
2
100
AcDbSymbolTable
 70
36
  0
LAYER
  5
10
100
AcDbSymbolTableRecord
100
AcDbLayerTableRecord
  2
0
 70
0
 62
7
  6
CONTINUOUS
370
-3
390
F
  0
LAYER
  5
1FA
100
AcDbSymbolTableRecord
100
AcDbLayerTableRecord
  2
DEFAULT_1
 70
0
 62
7
  6
CENTER
370
-3
390
F
  0
LAYER
  5
1FB
100
AcDbSymbolTableRecord
100
AcDbLayerTableRecord
  2
DEFAULT_2
 70
0
 62
7
  6
HIDDEN
370
-3
390
F
  0
LAYER
  5
1FC
100
AcDbSymbolTableRecord
100
AcDbLayerTableRecord
  2
DEFAULT_3
 70
0
 62
7
  6
PHANTOM
370
-3
390
F
  0
LAYER
  5
1FD
100
AcDbSymbolTableRecord
100
AcDbLayerTableRecord
  2
ASSI
 70
0
 62
7
  6
CONTINUOUS
370
-3
390
F
  0
LAYER
  5
1FE
100
AcDbSymbolTableRecord
100
AcDbLayerTableRecord
  2
COORDINATE
 70
0
 62
7
  6
CONTINUOUS
370
-3
390
F
  0
LAYER
  5
1FF
100
AcDbSymbolTableRecord
100
AcDbLayerTableRecord
  2
COORD_ORIGINE
 70
0
 62
7
  6
CONTINUOUS
370
-3
390
F
  0
LAYER
  5
200
100
AcDbSymbolTableRecord
100
AcDbLayerTableRecord
  2
COPY_PUBLISH
 70
0
 62
7
  6
CONTINUOUS
370
-3
390
F
  0
LAYER
  5
201
100
AcDbSymbolTableRecord
100
AcDbLayerTableRecord
  2
COSMETICI
 70
0
 62
7
  6
CONTINUOUS
370
-3
390
F
  0
LAYER
  5
202
100
AcDbSymbolTableRecord
100
AcDbLayerTableRecord
  2
CURVE
 70
0
 62
7
  6
CONTINUOUS
370
-3
390
F
  0
LAYER
  5
203
100
AcDbSymbolTableRecord
100
AcDbLayerTableRecord
  2
DRAFT
 70
0
 62
7
  6
CONTINUOUS
370
-3
390
F
  0
LAYER
  5
204
100
AcDbSymbolTableRecord
100
AcDbLayerTableRecord
  2
IGES
 70
0
 62
7
  6
CONTINUOUS
370
-3
390
F
  0
LAYER
  5
205
100
AcDbSymbolTableRecord
100
AcDbLayerTableRecord
  2
IMPORT_IGES
 70
0
 62
7
  6
CONTINUOUS
370
-3
390
F
  0
LAYER
  5
206
100
AcDbSymbolTableRecord
100
AcDbLayerTableRecord
  2
NOTE
 70
0
 62
7
  6
CONTINUOUS
370
-3
390
F
  0
LAYER
  5
207
100
AcDbSymbolTableRecord
100
AcDbLayerTableRecord
  2
PIANI
 70
0
 62
7
  6
CONTINUOUS
370
-3
390
F
  0
LAYER
  5
208
100
AcDbSymbolTableRecord
100
AcDbLayerTableRecord
  2
PIANI_ORIGINE
 70
0
 62
7
  6
CONTINUOUS
370
-3
390
F
  0
LAYER
  5
209
100
AcDbSymbolTableRecord
100
AcDbLayerTableRecord
  2
PIANI_RIFERIMENTO
 70
0
 62
7
  6
CONTINUOUS
370
-3
390
F
  0
LAYER
  5
20A
100
AcDbSymbolTableRecord
100
AcDbLayerTableRecord
  2
PUNTI
 70
0
 62
7
  6
CONTINUOUS
370
-3
390
F
  0
LAYER
  5
20B
100
AcDbSymbolTableRecord
100
AcDbLayerTableRecord
  2
RACCORDO
 70
0
 62
7
  6
CONTINUOUS
370
-3
390
F
  0
LAYER
  5
20C
100
AcDbSymbolTableRecord
100
AcDbLayerTableRecord
  2
SIMBOLI
 70
0
 62
7
  6
CONTINUOUS
370
-3
390
F
  0
LAYER
  5
20D
100
AcDbSymbolTableRecord
100
AcDbLayerTableRecord
  2
SMUSSO
 70
0
 62
7
  6
CONTINUOUS
370
-3
390
F
  0
LAYER
  5
20E
100
AcDbSymbolTableRecord
100
AcDbLayerTableRecord
  2
SNAPLINE
 70
0
 62
7
  6
CONTINUOUS
370
-3
390
F
  0
LAYER
  5
20F
100
AcDbSymbolTableRecord
100
AcDbLayerTableRecord
  2
SUPERFICI
 70
0
 62
7
  6
CONTINUOUS
370
-3
390
F
  0
LAYER
  5
210
100
AcDbSymbolTableRecord
100
AcDbLayerTableRecord
  2
TRASH
 70
0
 62
7
  6
CONTINUOUS
370
-3
390
F
  0
LAYER
  5
211
100
AcDbSymbolTableRecord
100
AcDbLayerTableRecord
  2
XSEC_DATUMS
 70
0
 62
7
  6
CONTINUOUS
370
-3
390
F
  0
ENDTAB
  0
TABLE
  2
STYLE
  5
3
100
AcDbSymbolTable
 70
1
  0
STYLE
  5
11
100
AcDbSymbolTableRecord
100
AcDbTextStyleTableRecord
  2
STANDARD
 70
0
 40
0.0
 41
0.8
 50
0.0
 71
0
 42
0.2
  3
txt
  4

  0
STYLE
  5
212
100
AcDbSymbolTableRecord
100
AcDbTextStyleTableRecord
  2
TEXTSTYLE_1
 70
0
 40
0.0
 41
0.8
 50
0.0
 71
0
 42
0.2
  3
gdt
  4

  0
ENDTAB
  0
TABLE
  2
VIEW
  5
6
100
AcDbSymbolTable
 70
0
  0
ENDTAB
  0
TABLE
  2
UCS
  5
7
100
AcDbSymbolTable
 70
0
  0
ENDTAB
  0
TABLE
  2
APPID
  5
9
100
AcDbSymbolTable
 70
1
  0
APPID
  5
213
100
AcDbSymbolTableRecord
100
AcDbRegAppTableRecord
  2
ACAD
 70
0
  0
ENDTAB
  0
TABLE
  2
BLOCK_RECORD
  5
1
100
AcDbSymbolTable
 70
0
  0
BLOCK_RECORD
  5
214
100
AcDbSymbolTableRecord
100
AcDbBlockTableRecord
  2
*Model_Space
  0
BLOCK_RECORD
  5
215
100
AcDbSymbolTableRecord
100
AcDbBlockTableRecord
  2
*Paper_Space
  0
BLOCK_RECORD
  5
216
100
AcDbSymbolTableRecord
100
AcDbBlockTableRecord
  2
_FILLED
  0
BLOCK_RECORD
  5
217
100
AcDbSymbolTableRecord
100
AcDbBlockTableRecord
  2
*D0
  0
BLOCK_RECORD
  5
218
100
AcDbSymbolTableRecord
100
AcDbBlockTableRecord
  2
*D1
  0
BLOCK_RECORD
  5
219
100
AcDbSymbolTableRecord
100
AcDbBlockTableRecord
  2
*D2
  0
ENDTAB
  0
TABLE
  2
DIMSTYLE
  5
A
100
AcDbSymbolTable
 70
1
100
AcDbDimStyleTable
 71
0
  0
DIMSTYLE
105
21A
100
AcDbSymbolTableRecord
100
AcDbDimStyleTableRecord
  2
STANDARD
 70
0
  3

  4

 40
1.0
 41
3.0
 42
0.5
 43
0.38
 44
1.5
 45
0.0
 46
0.0
 47
0.01
 48
0.01
140
3.0
141
0.09
142
0.0
143
25.4
144
1.0
145
0.0
146
1.0
147
0.625
 71
1
 72
0
 73
0
 74
0
 75
0
 76
0
 77
1
 78
8
 79
2
170
0
171
1
172
0
173
0
174
0
175
0
176
0
177
0
178
0
270
2
179
2
271
2
272
2
273
2
274
2
275
0
280
0
281
0
282
0
283
1
284
8
285
0
286
0
287
3
288
0
340
11
278
44
341
216
342
216
343
216
344
216
  0
DIMSTYLE
105
21B
100
AcDbSymbolTableRecord
100
AcDbDimStyleTableRecord
  2
DIMSTYLE_1
 70
0
  3

  4

 40
1.0
 41
3.0
 42
0.5
 43
0.38
 44
1.5
 45
0.0
 46
0.0
 47
0.0
 48
0.0
140
3.0
141
0.09
142
0.0
143
25.4
144
1.0
145
0.0
146
1.0
147
0.75
 71
0
 72
0
 73
0
 74
0
 75
0
 76
0
 77
1
 78
8
 79
2
170
0
171
1
172
0
173
0
174
0
175
0
176
0
177
0
178
0
270
2
179
2
271
2
272
2
273
2
274
2
275
0
280
0
281
0
282
0
283
1
284
8
285
0
286
0
287
3
288
0
340
11
278
44
341
216
342
216
343
216
344
216
  0
DIMSTYLE
105
21C
100
AcDbSymbolTableRecord
100
AcDbDimStyleTableRecord
  2
DIMSTYLE_2
 70
0
  3

  4

 40
1.0
 41
3.0
 42
0.5
 43
0.38
 44
1.5
 45
0.0
 46
0.0
 47
0.0
 48
0.0
140
3.0
141
0.09
142
0.0
143
25.4
144
1.0
145
0.0
146
1.0
147
0.75
 71
0
 72
0
 73
0
 74
0
 75
0
 76
0
 77
1
 78
8
 79
2
170
0
171
1
172
0
173
0
174
0
175
0
176
0
177
0
178
0
270
2
179
2
271
1
272
1
273
2
274
2
275
0
280
0
281
0
282
0
283
1
284
8
285
0
286
0
287
3
288
0
340
11
278
44
341
216
342
216
343
216
344
216
  0
ENDTAB
  0
ENDSEC
  0
SECTION
  2
BLOCKS
  0
BLOCK
  5
20
100
AcDbEntity
  8
0
100
AcDbBlockBegin
  2
*Model_Space
 70
0
 10
0.0
 20
0.0
 30
0.0
  3
*Model_Space
  1

  0
ENDBLK
  5
21
100
AcDbEntity
  8
0
100
AcDbBlockEnd
  0
BLOCK
  5
1C
100
AcDbEntity
  8
0
100
AcDbBlockBegin
  2
*Paper_Space
 70
0
 10
0.0
 20
0.0
 30
0.0
  3
*Paper_Space
  1

  0
ENDBLK
  5
1D
100
AcDbEntity
  8
0
100
AcDbBlockEnd
  0
BLOCK
  5
21D
100
AcDbEntity
  8
0
100
AcDbBlockBegin
  2
_FILLED
 70
64
 10
0.0
 20
0.0
  3
_FILLED
  1

  0
SOLID
  5
21E
100
AcDbEntity
  8
0
  6
BYBLOCK
 62
0
100
AcDbTrace
 10
0.0
 20
0.0
 11
-1.0
 21
0.3166666667
 12
-1.0
 22
-0.3166666667
 13
-1.0
 23
-0.3166666667
  0
ENDBLK
  5
21F
100
AcDbEntity
  8
0
  6
BYBLOCK
 62
0
100
AcDbBlockEnd
  0
BLOCK
  5
220
100
AcDbEntity
  8
0
100
AcDbBlockBegin
 62
7
  6
CONTINUOUS
  2
*D0
 70
65
 10
0.0
 20
0.0
  3
*D0
  1

  0
LINE
  5
221
100
AcDbEntity
  8
0
100
AcDbLine
 62
7
  6
CONTINUOUS
 10
128.4144727659
 20
124.2374674634
 11
128.4144727659
 21
142.2967801692
  0
LINE
  5
222
100
AcDbEntity
  8
0
100
AcDbLine
 62
7
  6
CONTINUOUS
 10
122.7145939726
 20
111.4856110601
 11
122.7145939726
 21
142.2967801692
  0
LINE
  5
223
100
AcDbEntity
  8
0
100
AcDbLine
 62
7
  6
CONTINUOUS
 10
128.4144727659
 20
140.7967801692
 11
141.6517236867
 21
140.7967801692
  0
LINE
  5
224
100
AcDbEntity
  8
0
100
AcDbLine
 62
7
  6
CONTINUOUS
 10
141.6517236867
 20
140.7967801692
 11
125.5645333692
 21
140.7967801692
  0
LINE
  5
225
100
AcDbEntity
  8
0
100
AcDbLine
 62
7
  6
CONTINUOUS
 10
122.7145939726
 20
140.7967801692
 11
118.7145939726
 21
140.7967801692
  0
LINE
  5
226
100
AcDbEntity
  8
0
100
AcDbLine
 62
7
  6
CONTINUOUS
 10
118.7145939726
 20
140.7967801692
 11
125.5645333692
 21
140.7967801692
  0
INSERT
  5
227
100
AcDbEntity
  8
0
100
AcDbBlockReference
 62
7
  6
CONTINUOUS
  2
_FILLED
 10
128.4144727659
 20
140.7967801692
 41
3.0
 42
3.0
 43
3.0
 50
180.0
  0
INSERT
  5
228
100
AcDbEntity
  8
0
100
AcDbBlockReference
 62
7
  6
CONTINUOUS
  2
_FILLED
 10
122.7145939726
 20
140.7967801692
 41
3.0
 42
3.0
 43
3.0
  0
ENDBLK
  5
229
100
AcDbEntity
  8
0
  6
BYBLOCK
 62
0
100
AcDbBlockEnd
  0
BLOCK
  5
22A
100
AcDbEntity
  8
0
100
AcDbBlockBegin
 62
7
  6
CONTINUOUS
  2
*D1
 70
65
 10
0.0
 20
0.0
  3
*D1
  1

  0
LINE
  5
22B
100
AcDbEntity
  8
0
100
AcDbLine
 62
7
  6
CONTINUOUS
 10
169.4028656616
 20
124.2374674634
 11
169.4028656616
 21
142.3068654156
  0
LINE
  5
22C
100
AcDbEntity
  8
0
100
AcDbLine
 62
7
  6
CONTINUOUS
 10
191.7028656616
 20
124.2374674634
 11
191.7028656616
 21
142.3068654156
  0
LINE
  5
22D
100
AcDbEntity
  8
0
100
AcDbLine
 62
7
  6
CONTINUOUS
 10
169.4028656616
 20
140.8068654156
 11
180.5528656616
 21
140.8068654156
  0
LINE
  5
22E
100
AcDbEntity
  8
0
100
AcDbLine
 62
7
  6
CONTINUOUS
 10
191.7028656616
 20
140.8068654156
 11
180.5528656616
 21
140.8068654156
  0
INSERT
  5
22F
100
AcDbEntity
  8
0
100
AcDbBlockReference
 62
7
  6
CONTINUOUS
  2
_FILLED
 10
169.4028656616
 20
140.8068654156
 41
3.0
 42
3.0
 43
3.0
 50
180.0
  0
INSERT
  5
230
100
AcDbEntity
  8
0
100
AcDbBlockReference
 62
7
  6
CONTINUOUS
  2
_FILLED
 10
191.7028656616
 20
140.8068654156
 41
3.0
 42
3.0
 43
3.0
  0
ENDBLK
  5
231
100
AcDbEntity
  8
0
  6
BYBLOCK
 62
0
100
AcDbBlockEnd
  0
BLOCK
  5
232
100
AcDbEntity
  8
0
100
AcDbBlockBegin
 62
7
  6
CONTINUOUS
  2
*D2
 70
65
 10
0.0
 20
0.0
  3
*D2
  1

  0
LINE
  5
233
100
AcDbEntity
  8
0
100
AcDbLine
 62
7
  6
CONTINUOUS
 10
191.689411601
 20
132.7967801692
 11
201.2272524879
 21
132.7967801692
  0
LINE
  5
234
100
AcDbEntity
  8
0
100
AcDbLine
 62
7
  6
CONTINUOUS
 10
191.689411601
 20
88.4781547577
 11
201.2272524879
 21
88.4781547577
  0
LINE
  5
235
100
AcDbEntity
  8
0
100
AcDbLine
 62
7
  6
CONTINUOUS
 10
199.7272524879
 20
132.7967801692
 11
199.7272524879
 21
110.6374674634
  0
LINE
  5
236
100
AcDbEntity
  8
0
100
AcDbLine
 62
7
  6
CONTINUOUS
 10
199.7272524879
 20
88.4781547577
 11
199.7272524879
 21
110.6374674634
  0
INSERT
  5
237
100
AcDbEntity
  8
0
100
AcDbBlockReference
 62
7
  6
CONTINUOUS
  2
_FILLED
 10
199.7272524879
 20
132.7967801692
 41
3.0
 42
3.0
 43
3.0
 50
90.0
  0
INSERT
  5
238
100
AcDbEntity
  8
0
100
AcDbBlockReference
 62
7
  6
CONTINUOUS
  2
_FILLED
 10
199.7272524879
 20
88.4781547577
 41
3.0
 42
3.0
 43
3.0
 50
270.0
  0
ENDBLK
  5
239
100
AcDbEntity
  8
0
  6
BYBLOCK
 62
0
100
AcDbBlockEnd
  0
ENDSEC
  0
SECTION
  2
ENTITIES
  0
DIMENSION
  5
23A
100
AcDbEntity
  8
0
100
AcDbDimension
 62
7
  6
CONTINUOUS
  2
*D0
 10
122.7145939726
 20
140.7967801692
 11
135.4374379725
 21
140.7967801692
 70
160
 71
1
 72
2
 41
0.9
 42
5.6998787933
  3
DIMSTYLE_1
100
AcDbAlignedDimension
 13
128.4144727659
 23
123.7374674634
 14
122.7145939726
 24
110.9856110601
 50
180.0
100
AcDbRotatedDimension
  0
DIMENSION
  5
23B
100
AcDbEntity
  8
0
100
AcDbDimension
 62
7
  6
CONTINUOUS
  2
*D1
 10
191.7028656616
 20
140.8068654156
 11
176.2671513759
 21
140.8068654156
 70
160
 71
2
 72
2
 41
0.9
 42
22.3
  3
DIMSTYLE_1
100
AcDbAlignedDimension
 13
169.4028656616
 23
123.7374674634
 14
191.7028656616
 24
123.7374674634
100
AcDbRotatedDimension
  0
DIMENSION
  5
23C
100
AcDbEntity
  8
0
100
AcDbDimension
 62
7
  6
CONTINUOUS
  2
*D2
 10
199.7272524879
 20
88.4781547577
 11
199.7272524879
 21
106.3517531777
 70
160
 71
2
 72
2
 41
0.9
 42
44.3186254114
  3
DIMSTYLE_2
100
AcDbAlignedDimension
 13
191.189411601
 23
132.7967801692
 14
191.189411601
 24
88.4781547577
 50
270.0
100
AcDbRotatedDimension
  0
LWPOLYLINE
  5
23D
100
AcDbEntity
  8
0
100
AcDbPolyline
 62
7
  6
CONTINUOUS
 90
5
 70
0
 43
0.3500000006
 10
183.5528703003
 20
143.2711437378
 10
183.9100171509
 20
143.4854282227
 10
183.9100171509
 20
144.1282998047
 10
183.5528703003
 20
144.5568687744
 10
182.6957142334
 20
144.5568687744
  0
LWPOLYLINE
  5
23E
100
AcDbEntity
  8
RACCORDO
100
AcDbPolyline
 62
250
  6
CONTINUOUS
 90
15
 70
0
 10
169.4864083108
 20
131.1793733199
 10
169.4877367837
 20
131.1805558418
 10
169.4907151031
 20
131.1817344508
 10
169.4953334138
 20
131.1829052467
 10
169.5015764339
 20
131.1840643554
 10
169.5094235053
 20
131.1852079416
 10
169.5188486622
 20
131.1863322209
 10
169.5298207167
 20
131.1874334733
 10
169.5423033626
 20
131.1885080547
 10
169.5562552947
 20
131.1895524093
 10
169.5716303465
 20
131.1905630813
 10
169.5883776419
 20
131.1915367265
 10
169.6064417644
 20
131.1924701231
 10
169.6257629399
 20
131.1933601824
 10
169.646277235
 20
131.1942039593
  0
LWPOLYLINE
  5
23F
100
AcDbEntity
  8
ASSI
100
AcDbPolyline
 62
250
  6
CONTINUOUS
 90
15
 70
0
 10
169.4864083108
 20
131.1793733199
 10
169.4877367837
 20
131.1805558418
 10
169.4907151031
 20
131.1817344508
 10
169.4953334138
 20
131.1829052467
 10
169.5015764339
 20
131.1840643554
 10
169.5094235053
 20
131.1852079416
 10
169.5188486622
 20
131.1863322209
 10
169.5298207167
 20
131.1874334733
 10
169.5423033626
 20
131.1885080547
 10
169.5562552947
 20
131.1895524093
 10
169.5716303465
 20
131.1905630813
 10
169.5883776419
 20
131.1915367265
 10
169.6064417644
 20
131.1924701231
 10
169.6257629399
 20
131.1933601824
 10
169.646277235
 20
131.1942039593
  0
LINE
  5
240
100
AcDbEntity
  8
RACCORDO
100
AcDbLine
 62
7
  6
CONTINUOUS
 10
183.9444406686
 20
88.4781547577
 11
184.2951306347
 21
88.5099879157
  0
LINE
  5
241
100
AcDbEntity
  8
ASSI
100
AcDbLine
 62
7
  6
CONTINUOUS
 10
183.9444406686
 20
88.4781547577
 11
184.2951306347
 21
88.5099879157
  0
LINE
  5
242
100
AcDbEntity
  8
RACCORDO
100
AcDbLine
 62
7
  6
CONTINUOUS
 10
172.7444406686
 20
88.4781547577
 11
173.0951306347
 21
88.5099879157
  0
LINE
  5
243
100
AcDbEntity
  8
ASSI
100
AcDbLine
 62
7
  6
CONTINUOUS
 10
172.7444406686
 20
88.4781547577
 11
173.0951306347
 21
88.5099879157
  0
LINE
  5
244
100
AcDbEntity
  8
RACCORDO
100
AcDbLine
 62
7
  6
CONTINUOUS
 10
169.9163197222
 20
88.4781547577
 11
172.7444406686
 21
88.4781547577
  0
LINE
  5
245
100
AcDbEntity
  8
ASSI
100
AcDbLine
 62
7
  6
CONTINUOUS
 10
169.9163197222
 20
88.4781547577
 11
172.7444406686
 21
88.4781547577
  0
LINE
  5
246
100
AcDbEntity
  8
DRAFT
100
AcDbLine
 62
7
  6
CONTINUOUS
 10
177.1612906546
 20
88.4781547577
 11
183.9444406686
 21
88.4781547577
  0
LINE
  5
247
100
AcDbEntity
  8
ASSI
100
AcDbLine
 62
7
  6
CONTINUOUS
 10
177.1612906546
 20
88.4781547577
 11
183.9444406686
 21
88.4781547577
  0
LINE
  5
248
100
AcDbEntity
  8
RACCORDO
100
AcDbLine
 62
7
  6
CONTINUOUS
 10
188.3612906546
 20
88.4781547577
 11
191.189411601
 21
88.4781547577
  0
LINE
  5
249
100
AcDbEntity
  8
ASSI
100
AcDbLine
 62
7
  6
CONTINUOUS
 10
188.3612906546
 20
88.4781547577
 11
191.189411601
 21
88.4781547577
  0
LINE
  5
24A
100
AcDbEntity
  8
RACCORDO
100
AcDbLine
 62
7
  6
CONTINUOUS
 10
173.2683357154
 20
88.5152286936
 11
176.6373956077
 21
88.5152286936
  0
LINE
  5
24B
100
AcDbEntity
  8
ASSI
100
AcDbLine
 62
7
  6
CONTINUOUS
 10
173.2683357154
 20
88.5152286936
 11
176.6373956077
 21
88.5152286936
  0
LINE
  5
24C
100
AcDbEntity
  8
RACCORDO
100
AcDbLine
 62
7
  6
CONTINUOUS
 10
184.4683357154
 20
88.5152286936
 11
187.8373956077
 21
88.5152286936
  0
LINE
  5
24D
100
AcDbEntity
  8
ASSI
100
AcDbLine
 62
7
  6
CONTINUOUS
 10
184.4683357154
 20
88.5152286936
 11
187.8373956077
 21
88.5152286936
  0
LINE
  5
24E
100
AcDbEntity
  8
RACCORDO
100
AcDbLine
 62
250
  6
CONTINUOUS
 10
191.1359262377
 20
88.6387413338
 11
169.9698050855
 21
88.6387413338
  0
LINE
  5
24F
100
AcDbEntity
  8
ASSI
100
AcDbLine
 62
250
  6
CONTINUOUS
 10
191.1359262377
 20
88.6387413338
 11
169.9698050855
 21
88.6387413338
  0
LINE
  5
250
100
AcDbEntity
  8
RACCORDO
100
AcDbLine
 62
7
  6
CONTINUOUS
 10
177.1612906546
 20
88.4781547577
 11
176.8106006885
 21
88.5099879157
  0
LINE
  5
251
100
AcDbEntity
  8
ASSI
100
AcDbLine
 62
7
  6
CONTINUOUS
 10
177.1612906546
 20
88.4781547577
 11
176.8106006885
 21
88.5099879157
  0
LINE
  5
252
100
AcDbEntity
  8
RACCORDO
100
AcDbLine
 62
7
  6
CONTINUOUS
 10
188.3612906546
 20
88.4781547577
 11
188.0106006885
 21
88.5099879157
  0
LINE
  5
253
100
AcDbEntity
  8
ASSI
100
AcDbLine
 62
7
  6
CONTINUOUS
 10
188.3612906546
 20
88.4781547577
 11
188.0106006885
 21
88.5099879157
  0
LWPOLYLINE
  5
254
100
AcDbEntity
  8
RACCORDO
100
AcDbPolyline
 62
250
  6
CONTINUOUS
 90
17
 70
0
 10
169.4864083108
 20
90.0955616069
 10
169.4877367652
 20
90.0943790844
 10
169.4907150676
 20
90.0932004749
 10
169.4953333629
 20
90.0920296783
 10
169.5015763691
 20
90.0908705688
 10
169.5094234282
 20
90.089726982
 10
169.5188485744
 20
90.0886027018
 10
169.52982062
 20
90.0875014487
 10
169.5423032584
 20
90.0864268665
 10
169.5562551848
 20
90.0853825111
 10
169.5716302323
 20
90.0843718382
 10
169.5883775252
 20
90.0833981922
 10
169.6064416466
 20
90.0824647949
 10
169.6257628225
 20
90.0815747348
 10
169.6462771195
 20
90.0807309571
 10
169.6679166557
 20
90.0799362539
 10
169.7142815395
 20
90.0785044186
  0
LWPOLYLINE
  5
255
100
AcDbEntity
  8
ASSI
100
AcDbPolyline
 62
250
  6
CONTINUOUS
 90
17
 70
0
 10
169.4864083108
 20
90.0955616069
 10
169.4877367652
 20
90.0943790844
 10
169.4907150676
 20
90.0932004749
 10
169.4953333629
 20
90.0920296783
 10
169.5015763691
 20
90.0908705688
 10
169.5094234282
 20
90.089726982
 10
169.5188485744
 20
90.0886027018
 10
169.52982062
 20
90.0875014487
 10
169.5423032584
 20
90.0864268665
 10
169.5562551848
 20
90.0853825111
 10
169.5716302323
 20
90.0843718382
 10
169.5883775252
 20
90.0833981922
 10
169.6064416466
 20
90.0824647949
 10
169.6257628225
 20
90.0815747348
 10
169.6462771195
 20
90.0807309571
 10
169.6679166557
 20
90.0799362539
 10
169.7142815395
 20
90.0785044186
  0
LINE
  5
256
100
AcDbEntity
  8
RACCORDO
100
AcDbLine
 62
250
  6
CONTINUOUS
 10
191.4594540881
 20
90.0807309675
 11
191.4151213891
 21
90.0791932668
  0
LINE
  5
257
100
AcDbEntity
  8
ASSI
100
AcDbLine
 62
250
  6
CONTINUOUS
 10
191.4594540881
 20
90.0807309675
 11
191.4151213891
 21
90.0791932668
  0
LINE
  5
258
100
AcDbEntity
  8
RACCORDO
100
AcDbLine
 62
250
  6
CONTINUOUS
 10
191.4151213891
 20
90.0791932668
 11
191.3668777618
 21
90.0778720377
  0
LINE
  5
259
100
AcDbEntity
  8
ASSI
100
AcDbLine
 62
250
  6
CONTINUOUS
 10
191.4151213891
 20
90.0791932668
 11
191.3668777618
 21
90.0778720377
  0
LINE
  5
25A
100
AcDbEntity
  8
RACCORDO
100
AcDbLine
 62
250
  6
CONTINUOUS
 10
191.3668777618
 20
90.0778720377
 11
191.3153612286
 21
90.0767847534
  0
LINE
  5
25B
100
AcDbEntity
  8
ASSI
100
AcDbLine
 62
250
  6
CONTINUOUS
 10
191.3668777618
 20
90.0778720377
 11
191.3153612286
 21
90.0767847534
  0
LINE
  5
25C
100
AcDbEntity
  8
RACCORDO
100
AcDbLine
 62
250
  6
CONTINUOUS
 10
191.3153612286
 20
90.0767847534
 11
191.2612530959
 21
90.0759457934
  0
LINE
  5
25D
100
AcDbEntity
  8
ASSI
100
AcDbLine
 62
250
  6
CONTINUOUS
 10
191.3153612286
 20
90.0767847534
 11
191.2612530959
 21
90.0759457934
  0
LINE
  5
25E
100
AcDbEntity
  8
RACCORDO
100
AcDbLine
 62
250
  6
CONTINUOUS
 10
191.2612530959
 20
90.0759457934
 11
191.2052689442
 21
90.0753662528
  0
LINE
  5
25F
100
AcDbEntity
  8
ASSI
100
AcDbLine
 62
250
  6
CONTINUOUS
 10
191.2612530959
 20
90.0759457934
 11
191.2052689442
 21
90.0753662528
  0
LINE
  5
260
100
AcDbEntity
  8
RACCORDO
100
AcDbLine
 62
250
  6
CONTINUOUS
 10
191.2052689442
 20
90.0753662528
 11
191.1481491642
 21
90.0750537962
  0
LINE
  5
261
100
AcDbEntity
  8
ASSI
100
AcDbLine
 62
250
  6
CONTINUOUS
 10
191.2052689442
 20
90.0753662528
 11
191.1481491642
 21
90.0750537962
  0
LINE
  5
262
100
AcDbEntity
  8
RACCORDO
100
AcDbLine
 62
250
  6
CONTINUOUS
 10
191.1481491642
 20
90.0750537962
 11
169.9863321829
 21
90.0750196325
  0
LINE
  5
263
100
AcDbEntity
  8
ASSI
100
AcDbLine
 62
250
  6
CONTINUOUS
 10
191.1481491642
 20
90.0750537962
 11
169.9863321829
 21
90.0750196325
  0
LINE
  5
264
100
AcDbEntity
  8
RACCORDO
100
AcDbLine
 62
250
  6
CONTINUOUS
 10
169.9289272686
 20
90.0751762807
 11
169.9863321584
 21
90.0749991386
  0
LINE
  5
265
100
AcDbEntity
  8
ASSI
100
AcDbLine
 62
250
  6
CONTINUOUS
 10
169.9289272686
 20
90.0751762807
 11
169.9863321584
 21
90.0749991386
  0
LINE
  5
266
100
AcDbEntity
  8
RACCORDO
100
AcDbLine
 62
250
  6
CONTINUOUS
 10
169.8722815594
 20
90.0756230191
 11
169.9289272686
 21
90.0751762807
  0
LINE
  5
267
100
AcDbEntity
  8
ASSI
100
AcDbLine
 62
250
  6
CONTINUOUS
 10
169.8722815594
 20
90.0756230191
 11
169.9289272686
 21
90.0751762807
  0
LINE
  5
268
100
AcDbEntity
  8
RACCORDO
100
AcDbLine
 62
250
  6
CONTINUOUS
 10
169.8171441714
 20
90.0763334456
 11
169.8722815594
 21
90.0756230191
  0
LINE
  5
269
100
AcDbEntity
  8
ASSI
100
AcDbLine
 62
250
  6
CONTINUOUS
 10
169.8171441714
 20
90.0763334456
 11
169.8722815594
 21
90.0756230191
  0
LINE
  5
26A
100
AcDbEntity
  8
RACCORDO
100
AcDbLine
 62
250
  6
CONTINUOUS
 10
169.7642442975
 20
90.077298165
 11
169.8171441714
 21
90.0763334456
  0
LINE
  5
26B
100
AcDbEntity
  8
ASSI
100
AcDbLine
 62
250
  6
CONTINUOUS
 10
169.7642442975
 20
90.077298165
 11
169.8171441714
 21
90.0763334456
  0
LINE
  5
26C
100
AcDbEntity
  8
RACCORDO
100
AcDbLine
 62
250
  6
CONTINUOUS
 10
169.7142815395
 20
90.0785044186
 11
169.7642442975
 21
90.077298165
  0
LINE
  5
26D
100
AcDbEntity
  8
ASSI
100
AcDbLine
 62
250
  6
CONTINUOUS
 10
169.7142815395
 20
90.0785044186
 11
169.7642442975
 21
90.077298165
  0
LWPOLYLINE
  5
26E
100
AcDbEntity
  8
RACCORDO
100
AcDbPolyline
 62
250
  6
CONTINUOUS
 90
28
 70
0
 10
169.4698815402
 20
89.1380570088
 10
169.4707528836
 20
89.1090412972
 10
169.4733108989
 20
89.0801236505
 10
169.477546941
 20
89.0514018033
 10
169.4834466932
 20
89.0229728282
 10
169.4909902159
 20
88.994932808
 10
169.500152014
 20
88.9673765109
 10
169.5109011232
 20
88.9403970703
 10
169.5232012142
 20
88.9140856702
 10
169.5370107159
 20
88.8885312364
 10
169.5522829559
 20
88.8638201366
 10
169.5689663178
 20
88.8400358883
 10
169.5870044161
 20
88.8172588764
 10
169.6063362868
 20
88.7955660816
 10
169.6268965929
 20
88.7750308202
 10
169.6486158458
 20
88.7557224964
 10
169.6714206399
 20
88.7377063677
 10
169.6952339008
 20
88.7210433241
 10
169.7199751454
 20
88.7057896828
 10
169.7455607547
 20
88.6919969974
 10
169.7719042556
 20
88.6797118837
 10
169.7989166135
 20
88.6689758626
 10
169.8265065334
 20
88.6598252193
 10
169.8545807683
 20
88.6522908806
 10
169.883044434
 20
88.6463983109
 10
169.9118013303
 20
88.6421674256
 10
169.9407542661
 20
88.6396125242
 10
169.9698053878
 20
88.6387422415
  0
LWPOLYLINE
  5
26F
100
AcDbEntity
  8
ASSI
100
AcDbPolyline
 62
250
  6
CONTINUOUS
 90
28
 70
0
 10
169.4698815402
 20
89.1380570088
 10
169.4707528836
 20
89.1090412972
 10
169.4733108989
 20
89.0801236505
 10
169.477546941
 20
89.0514018033
 10
169.4834466932
 20
89.0229728282
 10
169.4909902159
 20
88.994932808
 10
169.500152014
 20
88.9673765109
 10
169.5109011232
 20
88.9403970703
 10
169.5232012142
 20
88.9140856702
 10
169.5370107159
 20
88.8885312364
 10
169.5522829559
 20
88.8638201366
 10
169.5689663178
 20
88.8400358883
 10
169.5870044161
 20
88.8172588764
 10
169.6063362868
 20
88.7955660816
 10
169.6268965929
 20
88.7750308202
 10
169.6486158458
 20
88.7557224964
 10
169.6714206399
 20
88.7377063677
 10
169.6952339008
 20
88.7210433241
 10
169.7199751454
 20
88.7057896828
 10
169.7455607547
 20
88.6919969974
 10
169.7719042556
 20
88.6797118837
 10
169.7989166135
 20
88.6689758626
 10
169.8265065334
 20
88.6598252193
 10
169.8545807683
 20
88.6522908806
 10
169.883044434
 20
88.6463983109
 10
169.9118013303
 20
88.6421674256
 10
169.9407542661
 20
88.6396125242
 10
169.9698053878
 20
88.6387422415
  0
LWPOLYLINE
  5
270
100
AcDbEntity
  8
RACCORDO
100
AcDbPolyline
 62
250
  6
CONTINUOUS
 90
28
 70
0
 10
169.4698815402
 20
132.136877918
 10
169.4707528841
 20
132.165893639
 10
169.473310901
 20
132.1948112941
 10
169.4775469455
 20
132.2235331488
 10
169.4834467007
 20
132.2519621304
 10
169.490990227
 20
132.2800021561
 10
169.5001520292
 20
132.3075584576
 10
169.5109011426
 20
132.3345379014
 10
169.5232012378
 20
132.3608493037
 10
169.5370107438
 20
132.3864037386
 10
169.5522829876
 20
132.4111148385
 10
169.5689663531
 20
132.434899086
 10
169.5870044546
 20
132.4576760963
 10
169.6063363277
 20
132.4793688887
 10
169.6268966356
 20
132.499904147
 10
169.6486158896
 20
132.5192124673
 10
169.671420684
 20
132.5372285921
 10
169.6952339443
 20
132.5538916314
 10
169.7199751875
 20
132.5691452684
 10
169.7455607946
 20
132.5829379496
 10
169.7719042924
 20
132.5952230591
 10
169.7989166466
 20
132.6059590763
 10
169.8265065622
 20
132.6151097162
 10
169.854580792
 20
132.6226440519
 10
169.8830444522
 20
132.6285366192
 10
169.9118013427
 20
132.6327675027
 10
169.9407542725
 20
132.6353224031
 10
169.9698053878
 20
132.6361926854
  0
LWPOLYLINE
  5
271
100
AcDbEntity
  8
ASSI
100
AcDbPolyline
 62
250
  6
CONTINUOUS
 90
28
 70
0
 10
169.4698815402
 20
132.136877918
 10
169.4707528841
 20
132.165893639
 10
169.473310901
 20
132.1948112941
 10
169.4775469455
 20
132.2235331488
 10
169.4834467007
 20
132.2519621304
 10
169.490990227
 20
132.2800021561
 10
169.5001520292
 20
132.3075584576
 10
169.5109011426
 20
132.3345379014
 10
169.5232012378
 20
132.3608493037
 10
169.5370107438
 20
132.3864037386
 10
169.5522829876
 20
132.4111148385
 10
169.5689663531
 20
132.434899086
 10
169.5870044546
 20
132.4576760963
 10
169.6063363277
 20
132.4793688887
 10
169.6268966356
 20
132.499904147
 10
169.6486158896
 20
132.5192124673
 10
169.671420684
 20
132.5372285921
 10
169.6952339443
 20
132.5538916314
 10
169.7199751875
 20
132.5691452684
 10
169.7455607946
 20
132.5829379496
 10
169.7719042924
 20
132.5952230591
 10
169.7989166466
 20
132.6059590763
 10
169.8265065622
 20
132.6151097162
 10
169.854580792
 20
132.6226440519
 10
169.8830444522
 20
132.6285366192
 10
169.9118013427
 20
132.6327675027
 10
169.9407542725
 20
132.6353224031
 10
169.9698053878
 20
132.6361926854
  0
LWPOLYLINE
  5
272
100
AcDbEntity
  8
RACCORDO
100
AcDbPolyline
 62
250
  6
CONTINUOUS
 90
9
 70
0
 10
169.4754531519
 20
132.0666632495
 10
169.4747820201
 20
132.0811407307
 10
169.4741022669
 20
132.0940102713
 10
169.4734138409
 20
132.1052635859
 10
169.4727167936
 20
132.1149089598
 10
169.4720146839
 20
132.1228979266
 10
169.4713086983
 20
132.1292143309
 10
169.4705976504
 20
132.133874328
 10
169.4698815402
 20
132.136877918
  0
LWPOLYLINE
  5
273
100
AcDbEntity
  8
ASSI
100
AcDbPolyline
 62
250
  6
CONTINUOUS
 90
9
 70
0
 10
169.4754531519
 20
132.0666632495
 10
169.4747820201
 20
132.0811407307
 10
169.4741022669
 20
132.0940102713
 10
169.4734138409
 20
132.1052635859
 10
169.4727167936
 20
132.1149089598
 10
169.4720146839
 20
132.1228979266
 10
169.4713086983
 20
132.1292143309
 10
169.4705976504
 20
132.133874328
 10
169.4698815402
 20
132.136877918
  0
LWPOLYLINE
  5
274
100
AcDbEntity
  8
RACCORDO
100
AcDbPolyline
 62
250
  6
CONTINUOUS
 90
22
 70
0
 10
169.4937822307
 20
110.9828994407
 10
169.4943435552
 20
110.9679554137
 10
169.4960198385
 20
110.9530949453
 10
169.4988017076
 20
110.9384011253
 10
169.5026736078
 20
110.9239561115
 10
169.5076138899
 20
110.909840671
 10
169.5135949303
 20
110.8961337286
 10
169.5205832866
 20
110.8829119241
 10
169.5285398841
 20
110.8702491848
 10
169.5374202341
 20
110.8582163125
 10
169.5471746832
 20
110.8468805866
 10
169.5577486904
 20
110.8363053884
 10
169.5690831324
 20
110.8265498471
 10
169.581114634
 20
110.8176685086
 10
169.593775923
 20
110.8097110306
 10
169.6069962052
 20
110.8027219054
 10
169.6207015616
 20
110.7967402107
 10
169.6348153609
 20
110.7917993912
 10
169.6492586882
 20
110.787927072
 10
169.6639507861
 20
110.7851449033
 10
169.6788095065
 20
110.7834684404
 10
169.6937517698
 20
110.7829070561
  0
LWPOLYLINE
  5
275
100
AcDbEntity
  8
ASSI
100
AcDbPolyline
 62
250
  6
CONTINUOUS
 90
22
 70
0
 10
169.4937822307
 20
110.9828994407
 10
169.4943435552
 20
110.9679554137
 10
169.4960198385
 20
110.9530949453
 10
169.4988017076
 20
110.9384011253
 10
169.5026736078
 20
110.9239561115
 10
169.5076138899
 20
110.909840671
 10
169.5135949303
 20
110.8961337286
 10
169.5205832866
 20
110.8829119241
 10
169.5285398841
 20
110.8702491848
 10
169.5374202341
 20
110.8582163125
 10
169.5471746832
 20
110.8468805866
 10
169.5577486904
 20
110.8363053884
 10
169.5690831324
 20
110.8265498471
 10
169.581114634
 20
110.8176685086
 10
169.593775923
 20
110.8097110306
 10
169.6069962052
 20
110.8027219054
 10
169.6207015616
 20
110.7967402107
 10
169.6348153609
 20
110.7917993912
 10
169.6492586882
 20
110.787927072
 10
169.6639507861
 20
110.7851449033
 10
169.6788095065
 20
110.7834684404
 10
169.6937517698
 20
110.7829070561
  0
LINE
  5
276
100
AcDbEntity
  8
RACCORDO
100
AcDbLine
 62
250
  6
CONTINUOUS
 10
169.4767592669
 20
132.0330968539
 11
169.4754531519
 21
132.0666632495
  0
LINE
  5
277
100
AcDbEntity
  8
ASSI
100
AcDbLine
 62
250
  6
CONTINUOUS
 10
169.4767592669
 20
132.0330968539
 11
169.4754531519
 21
132.0666632495
  0
LINE
  5
278
100
AcDbEntity
  8
RACCORDO
100
AcDbLine
 62
250
  6
CONTINUOUS
 10
169.9753771601
 20
132.5308835454
 11
169.9740263013
 21
132.5718852915
  0
LINE
  5
279
100
AcDbEntity
  8
ASSI
100
AcDbLine
 62
250
  6
CONTINUOUS
 10
169.9753771601
 20
132.5308835454
 11
169.9740263013
 21
132.5718852915
  0
LINE
  5
27A
100
AcDbEntity
  8
RACCORDO
100
AcDbLine
 62
250
  6
CONTINUOUS
 10
169.478014016
 20
131.9934804676
 11
169.4767592669
 21
132.0330968539
  0
LINE
  5
27B
100
AcDbEntity
  8
ASSI
100
AcDbLine
 62
250
  6
CONTINUOUS
 10
169.478014016
 20
131.9934804676
 11
169.4767592669
 21
132.0330968539
  0
LINE
  5
27C
100
AcDbEntity
  8
RACCORDO
100
AcDbLine
 62
250
  6
CONTINUOUS
 10
169.4792077458
 20
131.9480954184
 11
169.478014016
 21
131.9934804676
  0
LINE
  5
27D
100
AcDbEntity
  8
ASSI
100
AcDbLine
 62
250
  6
CONTINUOUS
 10
169.4792077458
 20
131.9480954184
 11
169.478014016
 21
131.9934804676
  0
LINE
  5
27E
100
AcDbEntity
  8
RACCORDO
100
AcDbLine
 62
250
  6
CONTINUOUS
 10
169.976683237
 20
132.480505873
 11
169.9753771601
 21
132.5308835454
  0
LINE
  5
27F
100
AcDbEntity
  8
ASSI
100
AcDbLine
 62
250
  6
CONTINUOUS
 10
169.976683237
 20
132.480505873
 11
169.9753771601
 21
132.5308835454
  0
LINE
  5
280
100
AcDbEntity
  8
RACCORDO
100
AcDbLine
 62
250
  6
CONTINUOUS
 10
169.4808662518
 20
131.8699212313
 11
169.4792077458
 21
131.9480954184
  0
LINE
  5
281
100
AcDbEntity
  8
ASSI
100
AcDbLine
 62
250
  6
CONTINUOUS
 10
169.4808662518
 20
131.8699212313
 11
169.4792077458
 21
131.9480954184
  0
LINE
  5
282
100
AcDbEntity
  8
RACCORDO
100
AcDbLine
 62
250
  6
CONTINUOUS
 10
169.9785423775
 20
132.3881201155
 11
169.976683237
 21
132.480505873
  0
LINE
  5
283
100
AcDbEntity
  8
ASSI
100
AcDbLine
 62
250
  6
CONTINUOUS
 10
169.9785423775
 20
132.3881201155
 11
169.976683237
 21
132.480505873
  0
LINE
  5
284
100
AcDbEntity
  8
RACCORDO
100
AcDbLine
 62
250
  6
CONTINUOUS
 10
169.482793241
 20
131.7487087429
 11
169.4808662518
 21
131.8699212313
  0
LINE
  5
285
100
AcDbEntity
  8
ASSI
100
AcDbLine
 62
250
  6
CONTINUOUS
 10
169.482793241
 20
131.7487087429
 11
169.4808662518
 21
131.8699212313
  0
LINE
  5
286
100
AcDbEntity
  8
RACCORDO
100
AcDbLine
 62
250
  6
CONTINUOUS
 10
169.9807900568
 20
132.2357897112
 11
169.9785423775
 21
132.3881201155
  0
LINE
  5
287
100
AcDbEntity
  8
ASSI
100
AcDbLine
 62
250
  6
CONTINUOUS
 10
169.9807900568
 20
132.2357897112
 11
169.9785423775
 21
132.3881201155
  0
LINE
  5
288
100
AcDbEntity
  8
RACCORDO
100
AcDbLine
 62
250
  6
CONTINUOUS
 10
169.4846744258
 20
131.5745004874
 11
169.482793241
 21
131.7487087429
  0
LINE
  5
289
100
AcDbEntity
  8
ASSI
100
AcDbLine
 62
250
  6
CONTINUOUS
 10
169.4846744258
 20
131.5745004874
 11
169.482793241
 21
131.7487087429
  0
LINE
  5
28A
100
AcDbEntity
  8
RACCORDO
100
AcDbLine
 62
250
  6
CONTINUOUS
 10
169.9835441824
 20
131.9534700871
 11
169.9807900568
 21
132.2357897112
  0
LINE
  5
28B
100
AcDbEntity
  8
ASSI
100
AcDbLine
 62
250
  6
CONTINUOUS
 10
169.9835441824
 20
131.9534700871
 11
169.9807900568
 21
132.2357897112
  0
LINE
  5
28C
100
AcDbEntity
  8
RACCORDO
100
AcDbLine
 62
250
  6
CONTINUOUS
 10
169.4860567726
 20
131.3420166978
 11
169.4846744258
 21
131.5745004874
  0
LINE
  5
28D
100
AcDbEntity
  8
ASSI
100
AcDbLine
 62
250
  6
CONTINUOUS
 10
169.4860567726
 20
131.3420166978
 11
169.4846744258
 21
131.5745004874
  0
LINE
  5
28E
100
AcDbEntity
  8
RACCORDO
100
AcDbLine
 62
250
  6
CONTINUOUS
 10
169.9858200384
 20
131.5039580198
 11
169.9835441824
 21
131.9534700871
  0
LINE
  5
28F
100
AcDbEntity
  8
ASSI
100
AcDbLine
 62
250
  6
CONTINUOUS
 10
169.9858200384
 20
131.5039580198
 11
169.9835441824
 21
131.9534700871
  0
LINE
  5
290
100
AcDbEntity
  8
RACCORDO
100
AcDbLine
 62
7
  6
CONTINUOUS
 10
169.4028656616
 20
97.5374674634
 11
169.4159398989
 21
88.9761004855
  0
LINE
  5
291
100
AcDbEntity
  8
ASSI
100
AcDbLine
 62
7
  6
CONTINUOUS
 10
169.4028656616
 20
97.5374674634
 11
169.4159398989
 21
88.9761004855
  0
LINE
  5
292
100
AcDbEntity
  8
RACCORDO
100
AcDbLine
 62
250
  6
CONTINUOUS
 10
169.4875673987
 20
129.4970299392
 11
169.4860567726
 21
131.3420166978
  0
LINE
  5
293
100
AcDbEntity
  8
ASSI
100
AcDbLine
 62
250
  6
CONTINUOUS
 10
169.4875673987
 20
129.4970299392
 11
169.4860567726
 21
131.3420166978
  0
LINE
  5
294
100
AcDbEntity
  8
RACCORDO
100
AcDbLine
 62
250
  6
CONTINUOUS
 10
169.9885510837
 20
127.8321602887
 11
169.9858200384
 21
131.5039580198
  0
LINE
  5
295
100
AcDbEntity
  8
ASSI
100
AcDbLine
 62
250
  6
CONTINUOUS
 10
169.9885510837
 20
127.8321602887
 11
169.9858200384
 21
131.5039580198
  0
LINE
  5
296
100
AcDbEntity
  8
RACCORDO
100
AcDbLine
 62
250
  6
CONTINUOUS
 10
169.4912135899
 20
122.766273199
 11
169.4875673987
 21
129.4970299392
  0
LINE
  5
297
100
AcDbEntity
  8
ASSI
100
AcDbLine
 62
250
  6
CONTINUOUS
 10
169.4912135899
 20
122.766273199
 11
169.4875673987
 21
129.4970299392
  0
LINE
  5
298
100
AcDbEntity
  8
RACCORDO
100
AcDbLine
 62
250
  6
CONTINUOUS
 10
169.9911370179
 20
122.7794107907
 11
169.9885510837
 21
127.8321602887
  0
LINE
  5
299
100
AcDbEntity
  8
ASSI
100
AcDbLine
 62
250
  6
CONTINUOUS
 10
169.9911370179
 20
122.7794107907
 11
169.9885510837
 21
127.8321602887
  0
LINE
  5
29A
100
AcDbEntity
  8
RACCORDO
100
AcDbLine
 62
250
  6
CONTINUOUS
 10
169.4929086094
 20
117.7168714955
 11
169.4912135899
 21
122.766273199
  0
LINE
  5
29B
100
AcDbEntity
  8
ASSI
100
AcDbLine
 62
250
  6
CONTINUOUS
 10
169.4929086094
 20
117.7168714955
 11
169.4912135899
 21
122.766273199
  0
LINE
  5
29C
100
AcDbEntity
  8
RACCORDO
100
AcDbLine
 62
250
  6
CONTINUOUS
 10
169.9928308238
 20
117.725548897
 11
169.9911370179
 21
122.7794107907
  0
LINE
  5
29D
100
AcDbEntity
  8
ASSI
100
AcDbLine
 62
250
  6
CONTINUOUS
 10
169.9928308238
 20
117.725548897
 11
169.9911370179
 21
122.7794107907
  0
LINE
  5
29E
100
AcDbEntity
  8
RACCORDO
100
AcDbLine
 62
7
  6
CONTINUOUS
 10
169.4028656616
 20
110.3374903087
 11
169.4028656616
 21
97.5374674634
  0
LINE
  5
29F
100
AcDbEntity
  8
ASSI
100
AcDbLine
 62
7
  6
CONTINUOUS
 10
169.4028656616
 20
110.3374903087
 11
169.4028656616
 21
97.5374674634
  0
LINE
  5
2A0
100
AcDbEntity
  8
RACCORDO
100
AcDbLine
 62
7
  6
CONTINUOUS
 10
169.4028656616
 20
110.9374446181
 11
169.4028656616
 21
123.7374674634
  0
LINE
  5
2A1
100
AcDbEntity
  8
ASSI
100
AcDbLine
 62
7
  6
CONTINUOUS
 10
169.4028656616
 20
110.9374446181
 11
169.4028656616
 21
123.7374674634
  0
LINE
  5
2A2
100
AcDbEntity
  8
RACCORDO
100
AcDbLine
 62
250
  6
CONTINUOUS
 10
169.4937819407
 20
110.9828992957
 11
169.4929086094
 21
117.7168714955
  0
LINE
  5
2A3
100
AcDbEntity
  8
ASSI
100
AcDbLine
 62
250
  6
CONTINUOUS
 10
169.4937819407
 20
110.9828992957
 11
169.4929086094
 21
117.7168714955
  0
LINE
  5
2A4
100
AcDbEntity
  8
RACCORDO
100
AcDbLine
 62
250
  6
CONTINUOUS
 10
169.9937060497
 20
110.78547941
 11
169.9928308238
 21
117.725548897
  0
LINE
  5
2A5
100
AcDbEntity
  8
ASSI
100
AcDbLine
 62
250
  6
CONTINUOUS
 10
169.9937060497
 20
110.78547941
 11
169.9928308238
 21
117.725548897
  0
LINE
  5
2A6
100
AcDbEntity
  8
RACCORDO
100
AcDbLine
 62
250
  6
CONTINUOUS
 10
169.4929086094
 20
103.5580634314
 11
169.4937819407
 21
110.2920356312
  0
LINE
  5
2A7
100
AcDbEntity
  8
ASSI
100
AcDbLine
 62
250
  6
CONTINUOUS
 10
169.4929086094
 20
103.5580634314
 11
169.4937819407
 21
110.2920356312
  0
LINE
  5
2A8
100
AcDbEntity
  8
RACCORDO
100
AcDbLine
 62
250
  6
CONTINUOUS
 10
169.9931990579
 20
105.2342304019
 11
169.9937060497
 21
110.4894555168
  0
LINE
  5
2A9
100
AcDbEntity
  8
ASSI
100
AcDbLine
 62
250
  6
CONTINUOUS
 10
169.9931990579
 20
105.2342304019
 11
169.9937060497
 21
110.4894555168
  0
LINE
  5
2AA
100
AcDbEntity
  8
RACCORDO
100
AcDbLine
 62
250
  6
CONTINUOUS
 10
169.9911370179
 20
98.4955241362
 11
169.9931990579
 21
105.2342304019
  0
LINE
  5
2AB
100
AcDbEntity
  8
ASSI
100
AcDbLine
 62
250
  6
CONTINUOUS
 10
169.9911370179
 20
98.4955241362
 11
169.9931990579
 21
105.2342304019
  0
LINE
  5
2AC
100
AcDbEntity
  8
RACCORDO
100
AcDbLine
 62
250
  6
CONTINUOUS
 10
169.4904505662
 20
96.825763786
 11
169.4929086094
 21
103.5580634314
  0
LINE
  5
2AD
100
AcDbEntity
  8
ASSI
100
AcDbLine
 62
250
  6
CONTINUOUS
 10
169.4904505662
 20
96.825763786
 11
169.4929086094
 21
103.5580634314
  0
LWPOLYLINE
  5
2AE
100
AcDbEntity
  8
RACCORDO
100
AcDbPolyline
 62
250
  6
CONTINUOUS
 90
3
 70
0
 10
169.4875673987
 20
91.7779049877
 10
169.4886274706
 20
93.4603854159
 10
169.4904505662
 20
96.825763786
  0
LWPOLYLINE
  5
2AF
100
AcDbEntity
  8
ASSI
100
AcDbPolyline
 62
250
  6
CONTINUOUS
 90
3
 70
0
 10
169.4875673987
 20
91.7779049877
 10
169.4886274706
 20
93.4603854159
 10
169.4904505662
 20
96.825763786
  0
LWPOLYLINE
  5
2B0
100
AcDbEntity
  8
RACCORDO
100
AcDbPolyline
 62
250
  6
CONTINUOUS
 90
3
 70
0
 10
169.9874911231
 20
91.7588083067
 10
169.9885510837
 20
93.442774638
 10
169.9911370179
 20
98.4955241362
  0
LWPOLYLINE
  5
2B1
100
AcDbEntity
  8
ASSI
100
AcDbPolyline
 62
250
  6
CONTINUOUS
 90
3
 70
0
 10
169.9874911231
 20
91.7588083067
 10
169.9885510837
 20
93.442774638
 10
169.9911370179
 20
98.4955241362
  0
LINE
  5
2B2
100
AcDbEntity
  8
RACCORDO
100
AcDbLine
 62
7
  6
CONTINUOUS
 10
169.4028656616
 20
123.7374674634
 11
169.4159398989
 21
132.2988344414
  0
LINE
  5
2B3
100
AcDbEntity
  8
ASSI
100
AcDbLine
 62
7
  6
CONTINUOUS
 10
169.4028656616
 20
123.7374674634
 11
169.4159398989
 21
132.2988344414
  0
LINE
  5
2B4
100
AcDbEntity
  8
RACCORDO
100
AcDbLine
 62
250
  6
CONTINUOUS
 10
169.4857076209
 20
89.8533199462
 11
169.4875673987
 21
91.7779049877
  0
LINE
  5
2B5
100
AcDbEntity
  8
ASSI
100
AcDbLine
 62
250
  6
CONTINUOUS
 10
169.4857076209
 20
89.8533199462
 11
169.4875673987
 21
91.7779049877
  0
LINE
  5
2B6
100
AcDbEntity
  8
RACCORDO
100
AcDbLine
 62
250
  6
CONTINUOUS
 10
169.9848972439
 20
89.5381745365
 11
169.9874911231
 21
91.7588083067
  0
LINE
  5
2B7
100
AcDbEntity
  8
ASSI
100
AcDbLine
 62
250
  6
CONTINUOUS
 10
169.9848972439
 20
89.5381745365
 11
169.9874911231
 21
91.7588083067
  0
LINE
  5
2B8
100
AcDbEntity
  8
RACCORDO
100
AcDbLine
 62
250
  6
CONTINUOUS
 10
169.9822683871
 20
89.1730136452
 11
169.9848972439
 21
89.5381745365
  0
LINE
  5
2B9
100
AcDbEntity
  8
ASSI
100
AcDbLine
 62
250
  6
CONTINUOUS
 10
169.9822683871
 20
89.1730136452
 11
169.9848972439
 21
89.5381745365
  0
LINE
  5
2BA
100
AcDbEntity
  8
RACCORDO
100
AcDbLine
 62
250
  6
CONTINUOUS
 10
169.4839971356
 20
89.6281119094
 11
169.4857076209
 21
89.8533199462
  0
LINE
  5
2BB
100
AcDbEntity
  8
ASSI
100
AcDbLine
 62
250
  6
CONTINUOUS
 10
169.4839971356
 20
89.6281119094
 11
169.4857076209
 21
89.8533199462
  0
LINE
  5
2BC
100
AcDbEntity
  8
RACCORDO
100
AcDbLine
 62
250
  6
CONTINUOUS
 10
169.482344627
 20
89.4942648603
 11
169.4839971356
 21
89.6281119094
  0
LINE
  5
2BD
100
AcDbEntity
  8
ASSI
100
AcDbLine
 62
250
  6
CONTINUOUS
 10
169.482344627
 20
89.4942648603
 11
169.4839971356
 21
89.6281119094
  0
LINE
  5
2BE
100
AcDbEntity
  8
RACCORDO
100
AcDbLine
 62
250
  6
CONTINUOUS
 10
169.9797026664
 20
88.9590147474
 11
169.9822683871
 21
89.1730136452
  0
LINE
  5
2BF
100
AcDbEntity
  8
ASSI
100
AcDbLine
 62
250
  6
CONTINUOUS
 10
169.9797026664
 20
88.9590147474
 11
169.9822683871
 21
89.1730136452
  0
LINE
  5
2C0
100
AcDbEntity
  8
RACCORDO
100
AcDbLine
 62
250
  6
CONTINUOUS
 10
169.9779379278
 20
88.8538422255
 11
169.9797026664
 21
88.9590147474
  0
LINE
  5
2C1
100
AcDbEntity
  8
ASSI
100
AcDbLine
 62
250
  6
CONTINUOUS
 10
169.9779379278
 20
88.8538422255
 11
169.9797026664
 21
88.9590147474
  0
LINE
  5
2C2
100
AcDbEntity
  8
RACCORDO
100
AcDbLine
 62
250
  6
CONTINUOUS
 10
169.4803316269
 20
89.3776325032
 11
169.482344627
 21
89.4942648603
  0
LINE
  5
2C3
100
AcDbEntity
  8
ASSI
100
AcDbLine
 62
250
  6
CONTINUOUS
 10
169.4803316269
 20
89.3776325032
 11
169.482344627
 21
89.4942648603
  0
LINE
  5
2C4
100
AcDbEntity
  8
RACCORDO
100
AcDbLine
 62
250
  6
CONTINUOUS
 10
169.9766832369
 20
88.7944290533
 11
169.9779379278
 21
88.8538422255
  0
LINE
  5
2C5
100
AcDbEntity
  8
ASSI
100
AcDbLine
 62
250
  6
CONTINUOUS
 10
169.9766832369
 20
88.7944290533
 11
169.9779379278
 21
88.8538422255
  0
LINE
  5
2C6
100
AcDbEntity
  8
RACCORDO
100
AcDbLine
 62
250
  6
CONTINUOUS
 10
169.4786184894
 20
89.3034277047
 11
169.4803316269
 21
89.3776325032
  0
LINE
  5
2C7
100
AcDbEntity
  8
ASSI
100
AcDbLine
 62
250
  6
CONTINUOUS
 10
169.4786184894
 20
89.3034277047
 11
169.4803316269
 21
89.3776325032
  0
LINE
  5
2C8
100
AcDbEntity
  8
RACCORDO
100
AcDbLine
 62
250
  6
CONTINUOUS
 10
169.9753771601
 20
88.744051381
 11
169.9766832369
 21
88.7944290533
  0
LINE
  5
2C9
100
AcDbEntity
  8
ASSI
100
AcDbLine
 62
250
  6
CONTINUOUS
 10
169.9753771601
 20
88.744051381
 11
169.9766832369
 21
88.7944290533
  0
LINE
  5
2CA
100
AcDbEntity
  8
RACCORDO
100
AcDbLine
 62
250
  6
CONTINUOUS
 10
169.47739425
 20
89.260926987
 11
169.4786184894
 21
89.3034277047
  0
LINE
  5
2CB
100
AcDbEntity
  8
ASSI
100
AcDbLine
 62
250
  6
CONTINUOUS
 10
169.47739425
 20
89.260926987
 11
169.4786184894
 21
89.3034277047
  0
LWPOLYLINE
  5
2CC
100
AcDbEntity
  8
RACCORDO
100
AcDbPolyline
 62
250
  6
CONTINUOUS
 90
22
 70
0
 10
169.4937822307
 20
110.2920354862
 10
169.4943435534
 20
110.3069794896
 10
169.4960198317
 20
110.3218399363
 10
169.4988016928
 20
110.3365337368
 10
169.5026735825
 20
110.3509787331
 10
169.5076138518
 20
110.3650941589
 10
169.5135948781
 20
110.3788010901
 10
169.5205832196
 20
110.3920228869
 10
169.5285398021
 20
110.4046856219
 10
169.537420138
 20
110.4167184938
 10
169.5471745742
 20
110.4280542229
 10
169.5577485708
 20
110.4386294275
 10
169.5690830049
 20
110.4483849781
 10
169.5811145023
 20
110.4572663285
 10
169.5937757909
 20
110.46522382
 10
169.6069960773
 20
110.4722129599
 10
169.6207014427
 20
110.4781946695
 10
169.634815256
 20
110.4831355033
 10
169.6492586023
 20
110.4870078353
 10
169.6639507243
 20
110.4897900142
 10
169.6788094734
 20
110.4914664839
 10
169.6937517698
 20
110.4920278708
  0
LWPOLYLINE
  5
2CD
100
AcDbEntity
  8
ASSI
100
AcDbPolyline
 62
250
  6
CONTINUOUS
 90
22
 70
0
 10
169.4937822307
 20
110.2920354862
 10
169.4943435534
 20
110.3069794896
 10
169.4960198317
 20
110.3218399363
 10
169.4988016928
 20
110.3365337368
 10
169.5026735825
 20
110.3509787331
 10
169.5076138518
 20
110.3650941589
 10
169.5135948781
 20
110.3788010901
 10
169.5205832196
 20
110.3920228869
 10
169.5285398021
 20
110.4046856219
 10
169.537420138
 20
110.4167184938
 10
169.5471745742
 20
110.4280542229
 10
169.5577485708
 20
110.4386294275
 10
169.5690830049
 20
110.4483849781
 10
169.5811145023
 20
110.4572663285
 10
169.5937757909
 20
110.46522382
 10
169.6069960773
 20
110.4722129599
 10
169.6207014427
 20
110.4781946695
 10
169.634815256
 20
110.4831355033
 10
169.6492586023
 20
110.4870078353
 10
169.6639507243
 20
110.4897900142
 10
169.6788094734
 20
110.4914664839
 10
169.6937517698
 20
110.4920278708
  0
LINE
  5
2CE
100
AcDbEntity
  8
SIMBOLI
100
AcDbLine
 62
250
  6
CONTINUOUS
 10
180.5528656616
 20
126.1374674634
 11
176.0528656616
 21
121.6374674634
  0
LINE
  5
2CF
100
AcDbEntity
  8
SIMBOLI
100
AcDbLine
 62
250
  6
CONTINUOUS
 10
185.0528656616
 20
99.6374674634
 11
176.0528656616
 21
99.6374674634
  0
LINE
  5
2D0
100
AcDbEntity
  8
SIMBOLI
100
AcDbLine
 62
250
  6
CONTINUOUS
 10
176.0528656616
 20
99.6374674634
 11
180.5528656616
 21
95.1374674634
  0
LWPOLYLINE
  5
2D1
100
AcDbEntity
  8
RACCORDO
100
AcDbPolyline
 62
250
  6
CONTINUOUS
 90
7
 70
0
 10
169.9740263013
 20
132.5718852915
 10
169.9733379363
 20
132.5887802527
 10
169.9726409602
 20
132.6032324717
 10
169.9719388496
 20
132.6152180001
 10
169.9712327634
 20
132.6247167093
 10
169.9705215426
 20
132.6317125025
 10
169.9698051874
 20
132.636193593
  0
LWPOLYLINE
  5
2D2
100
AcDbEntity
  8
ASSI
100
AcDbPolyline
 62
250
  6
CONTINUOUS
 90
7
 70
0
 10
169.9740263013
 20
132.5718852915
 10
169.9733379363
 20
132.5887802527
 10
169.9726409602
 20
132.6032324717
 10
169.9719388496
 20
132.6152180001
 10
169.9712327634
 20
132.6247167093
 10
169.9705215426
 20
132.6317125025
 10
169.9698051874
 20
132.636193593
  0
LWPOLYLINE
  5
2D3
100
AcDbEntity
  8
0
100
AcDbPolyline
 62
7
  6
CONTINUOUS
 90
3
 70
0
 43
0.3500000006
 10
181.6957139282
 20
141.8425744629
 10
181.6242918091
 20
141.628289978
 10
181.4814294434
 20
141.342583374
  0
LWPOLYLINE
  5
2D4
100
AcDbEntity
  8
RACCORDO
100
AcDbPolyline
 62
250
  6
CONTINUOUS
 90
8
 70
0
 10
169.9698051874
 20
88.6387413339
 10
169.9705215426
 20
88.6432224243
 10
169.9712327633
 20
88.6502182174
 10
169.9719388496
 20
88.6597169266
 10
169.9726409602
 20
88.6717024548
 10
169.9733379363
 20
88.6861546738
 10
169.9740263013
 20
88.7030496349
 10
169.9753771601
 20
88.744051381
  0
LWPOLYLINE
  5
2D5
100
AcDbEntity
  8
ASSI
100
AcDbPolyline
 62
250
  6
CONTINUOUS
 90
8
 70
0
 10
169.9698051874
 20
88.6387413339
 10
169.9705215426
 20
88.6432224243
 10
169.9712327633
 20
88.6502182174
 10
169.9719388496
 20
88.6597169266
 10
169.9726409602
 20
88.6717024548
 10
169.9733379363
 20
88.6861546738
 10
169.9740263013
 20
88.7030496349
 10
169.9753771601
 20
88.744051381
  0
LWPOLYLINE
  5
2D6
100
AcDbEntity
  8
RACCORDO
100
AcDbPolyline
 62
250
  6
CONTINUOUS
 90
11
 70
0
 10
169.4698815402
 20
89.1380570088
 10
169.4705976504
 20
89.1410605988
 10
169.4713086983
 20
89.1457205959
 10
169.4720146839
 20
89.1520370001
 10
169.4727167936
 20
89.1600259669
 10
169.4734138409
 20
89.1696713407
 10
169.4741022669
 20
89.1809246553
 10
169.4747820201
 20
89.1937941958
 10
169.4754531519
 20
89.208271677
 10
169.4761122579
 20
89.2242837762
 10
169.47739425
 20
89.260926987
  0
LWPOLYLINE
  5
2D7
100
AcDbEntity
  8
ASSI
100
AcDbPolyline
 62
250
  6
CONTINUOUS
 90
11
 70
0
 10
169.4698815402
 20
89.1380570088
 10
169.4705976504
 20
89.1410605988
 10
169.4713086983
 20
89.1457205959
 10
169.4720146839
 20
89.1520370001
 10
169.4727167936
 20
89.1600259669
 10
169.4734138409
 20
89.1696713407
 10
169.4741022669
 20
89.1809246553
 10
169.4747820201
 20
89.1937941958
 10
169.4754531519
 20
89.208271677
 10
169.4761122579
 20
89.2242837762
 10
169.47739425
 20
89.260926987
  0
LINE
  5
2D8
100
AcDbEntity
  8
RACCORDO
100
AcDbLine
 62
250
  6
CONTINUOUS
 10
169.4028656616
 20
110.9374446181
 11
169.4937819407
 21
110.9828992957
  0
LINE
  5
2D9
100
AcDbEntity
  8
ASSI
100
AcDbLine
 62
250
  6
CONTINUOUS
 10
169.4028656616
 20
110.9374446181
 11
169.4937819407
 21
110.9828992957
  0
LINE
  5
2DA
100
AcDbEntity
  8
RACCORDO
100
AcDbLine
 62
250
  6
CONTINUOUS
 10
169.6028656627
 20
110.7374674634
 11
169.6937517698
 21
110.7829070561
  0
LINE
  5
2DB
100
AcDbEntity
  8
ASSI
100
AcDbLine
 62
250
  6
CONTINUOUS
 10
169.6028656627
 20
110.7374674634
 11
169.6937517698
 21
110.7829070561
  0
LINE
  5
2DC
100
AcDbEntity
  8
RACCORDO
100
AcDbLine
 62
250
  6
CONTINUOUS
 10
169.4937819407
 20
110.2920356312
 11
169.4028656616
 21
110.3374903087
  0
LINE
  5
2DD
100
AcDbEntity
  8
ASSI
100
AcDbLine
 62
250
  6
CONTINUOUS
 10
169.4937819407
 20
110.2920356312
 11
169.4028656616
 21
110.3374903087
  0
LINE
  5
2DE
100
AcDbEntity
  8
RACCORDO
100
AcDbLine
 62
250
  6
CONTINUOUS
 10
169.6937517698
 20
110.4920278708
 11
169.6028656627
 21
110.5374674634
  0
LINE
  5
2DF
100
AcDbEntity
  8
ASSI
100
AcDbLine
 62
250
  6
CONTINUOUS
 10
169.6937517698
 20
110.4920278708
 11
169.6028656627
 21
110.5374674634
  0
LINE
  5
2E0
100
AcDbEntity
  8
RACCORDO
100
AcDbLine
 62
250
  6
CONTINUOUS
 10
169.4159398989
 20
88.9761004855
 11
169.4698815402
 21
89.1380570088
  0
LINE
  5
2E1
100
AcDbEntity
  8
ASSI
100
AcDbLine
 62
250
  6
CONTINUOUS
 10
169.4159398989
 20
88.9761004855
 11
169.4698815402
 21
89.1380570088
  0
LINE
  5
2E2
100
AcDbEntity
  8
RACCORDO
100
AcDbLine
 62
250
  6
CONTINUOUS
 10
169.9163197222
 20
88.4781547577
 11
169.9698050855
 21
88.6387413338
  0
LINE
  5
2E3
100
AcDbEntity
  8
ASSI
100
AcDbLine
 62
250
  6
CONTINUOUS
 10
169.9163197222
 20
88.4781547577
 11
169.9698050855
 21
88.6387413338
  0
LINE
  5
2E4
100
AcDbEntity
  8
DRAFT
100
AcDbLine
 62
7
  6
CONTINUOUS
 10
170.7069763629
 20
110.7645207536
 11
170.6528656616
 21
110.7374674634
  0
LINE
  5
2E5
100
AcDbEntity
  8
ASSI
100
AcDbLine
 62
7
  6
CONTINUOUS
 10
170.7069763629
 20
110.7645207536
 11
170.6528656616
 21
110.7374674634
  0
LWPOLYLINE
  5
2E6
100
AcDbEntity
  8
0
100
AcDbPolyline
 62
7
  6
CONTINUOUS
 90
2
 70
0
 43
0.3500000006
 10
198.9772564087
 20
107.3517545471
 10
197.4772468872
 20
107.3517545471
  0
LINE
  5
2E7
100
AcDbEntity
  8
DRAFT
100
AcDbLine
 62
7
  6
CONTINUOUS
 10
170.7069763629
 20
110.5104141733
 11
170.6528656616
 21
110.5374674634
  0
LINE
  5
2E8
100
AcDbEntity
  8
ASSI
100
AcDbLine
 62
7
  6
CONTINUOUS
 10
170.7069763629
 20
110.5104141733
 11
170.6528656616
 21
110.5374674634
  0
LINE
  5
2E9
100
AcDbEntity
  8
RACCORDO
100
AcDbLine
 62
250
  6
CONTINUOUS
 10
169.4698815402
 20
132.136877918
 11
169.4159398989
 21
132.2988344414
  0
LINE
  5
2EA
100
AcDbEntity
  8
ASSI
100
AcDbLine
 62
250
  6
CONTINUOUS
 10
169.4698815402
 20
132.136877918
 11
169.4159398989
 21
132.2988344414
  0
LINE
  5
2EB
100
AcDbEntity
  8
RACCORDO
100
AcDbLine
 62
250
  6
CONTINUOUS
 10
169.9698050855
 20
132.6361935931
 11
169.9163197222
 21
132.7967801692
  0
LINE
  5
2EC
100
AcDbEntity
  8
ASSI
100
AcDbLine
 62
250
  6
CONTINUOUS
 10
169.9698050855
 20
132.6361935931
 11
169.9163197222
 21
132.7967801692
  0
LINE
  5
2ED
100
AcDbEntity
  8
RACCORDO
100
AcDbLine
 62
250
  6
CONTINUOUS
 10
178.9334527446
 20
110.9856110521
 11
178.9334527445
 21
110.78547941
  0
LINE
  5
2EE
100
AcDbEntity
  8
ASSI
100
AcDbLine
 62
250
  6
CONTINUOUS
 10
178.9334527446
 20
110.9856110521
 11
178.9334527445
 21
110.78547941
  0
LINE
  5
2EF
100
AcDbEntity
  8
RACCORDO
100
AcDbLine
 62
250
  6
CONTINUOUS
 10
178.9334527446
 20
110.2893238748
 11
178.9334527446
 21
110.4894555168
  0
LINE
  5
2F0
100
AcDbEntity
  8
ASSI
100
AcDbLine
 62
250
  6
CONTINUOUS
 10
178.9334527446
 20
110.2893238748
 11
178.9334527446
 21
110.4894555168
  0
LWPOLYLINE
  5
2F1
100
AcDbEntity
  8
RACCORDO
100
AcDbPolyline
 62
250
  6
CONTINUOUS
 90
64
 70
0
 10
179.0298293777
 20
111.0589742271
 10
179.0481559457
 20
111.120518506
 10
179.0690291038
 20
111.1812996879
 10
179.092448852
 20
111.2413177722
 10
179.1184580832
 20
111.300719075
 10
179.1470139045
 20
111.359357279
 10
179.1779876373
 20
111.4167934337
 10
179.2114107046
 20
111.4730149037
 10
179.2472516835
 20
111.5280343243
 10
179.2852876267
 20
111.5814506516
 10
179.3255402714
 20
111.6332391916
 10
179.3679878804
 20
111.683424639
 10
179.4123422948
 20
111.7316800343
 10
179.4585886493
 20
111.7779610217
 10
179.5067418092
 20
111.8223119585
 10
179.5565582121
 20
111.864538955
 10
179.608030195
 20
111.904627731
 10
179.6611654208
 20
111.9425925685
 10
179.7157433161
 20
111.9782824219
 10
179.7717851757
 20
112.0117014157
 10
179.8292697048
 20
112.0428454275
 10
179.8879124458
 20
112.0715510403
 10
179.9477310215
 20
112.0978091203
 10
180.0087078091
 20
112.1216288035
 10
180.0705054831
 20
112.1428740776
 10
180.1331222521
 20
112.1615267221
 10
180.1965599075
 20
112.1776049593
 10
180.2604864983
 20
112.1910274405
 10
180.3249000822
 20
112.2017796628
 10
180.3898026014
 20
112.2098761303
 10
180.4548679319
 20
112.215279005
 10
180.5200959438
 20
112.2179756563
 10
180.585486767
 20
112.2179787151
 10
180.6507146656
 20
112.2152882352
 10
180.7157796569
 20
112.2098916197
 10
180.7806817238
 20
112.2018014651
 10
180.8450950793
 20
112.1910556151
 10
180.9090215633
 20
112.1776396712
 10
180.9724593361
 20
112.1615680308
 10
181.0350770918
 20
112.1429217316
 10
181.0968768941
 20
112.1216825187
 10
181.1578566794
 20
112.0978686452
 10
181.2176789508
 20
112.0716159111
 10
181.2763265356
 20
112.0429148025
 10
181.3338166065
 20
112.0117748312
 10
181.3898631849
 20
111.9783603358
 10
181.4444445755
 20
111.9426754361
 10
181.4975824734
 20
111.9047160101
 10
181.5490559862
 20
111.8646340338
 10
181.5988718899
 20
111.8224161715
 10
181.6470234085
 20
111.7780757569
 10
181.6932693206
 20
111.7318047706
 10
181.7376247647
 20
111.6835593732
 10
181.7800746024
 20
111.6333834024
 10
181.8203321973
 20
111.5816003551
 10
181.8583768019
 20
111.5281846879
 10
181.8942291638
 20
111.4731619434
 10
181.9276648891
 20
111.4169322468
 10
181.958652852
 20
111.3594820885
 10
181.9872241783
 20
111.3008249784
 10
182.0132478524
 20
111.2414015712
 10
182.0366802023
 20
111.1813587523
 10
182.0575649
 20
111.1205496374
 10
182.0759019455
 20
111.0589742271
  0
LWPOLYLINE
  5
2F2
100
AcDbEntity
  8
ASSI
100
AcDbPolyline
 62
250
  6
CONTINUOUS
 90
64
 70
0
 10
179.0298293777
 20
111.0589742271
 10
179.0481559457
 20
111.120518506
 10
179.0690291038
 20
111.1812996879
 10
179.092448852
 20
111.2413177722
 10
179.1184580832
 20
111.300719075
 10
179.1470139045
 20
111.359357279
 10
179.1779876373
 20
111.4167934337
 10
179.2114107046
 20
111.4730149037
 10
179.2472516835
 20
111.5280343243
 10
179.2852876267
 20
111.5814506516
 10
179.3255402714
 20
111.6332391916
 10
179.3679878804
 20
111.683424639
 10
179.4123422948
 20
111.7316800343
 10
179.4585886493
 20
111.7779610217
 10
179.5067418092
 20
111.8223119585
 10
179.5565582121
 20
111.864538955
 10
179.608030195
 20
111.904627731
 10
179.6611654208
 20
111.9425925685
 10
179.7157433161
 20
111.9782824219
 10
179.7717851757
 20
112.0117014157
 10
179.8292697048
 20
112.0428454275
 10
179.8879124458
 20
112.0715510403
 10
179.9477310215
 20
112.0978091203
 10
180.0087078091
 20
112.1216288035
 10
180.0705054831
 20
112.1428740776
 10
180.1331222521
 20
112.1615267221
 10
180.1965599075
 20
112.1776049593
 10
180.2604864983
 20
112.1910274405
 10
180.3249000822
 20
112.2017796628
 10
180.3898026014
 20
112.2098761303
 10
180.4548679319
 20
112.215279005
 10
180.5200959438
 20
112.2179756563
 10
180.585486767
 20
112.2179787151
 10
180.6507146656
 20
112.2152882352
 10
180.7157796569
 20
112.2098916197
 10
180.7806817238
 20
112.2018014651
 10
180.8450950793
 20
112.1910556151
 10
180.9090215633
 20
112.1776396712
 10
180.9724593361
 20
112.1615680308
 10
181.0350770918
 20
112.1429217316
 10
181.0968768941
 20
112.1216825187
 10
181.1578566794
 20
112.0978686452
 10
181.2176789508
 20
112.0716159111
 10
181.2763265356
 20
112.0429148025
 10
181.3338166065
 20
112.0117748312
 10
181.3898631849
 20
111.9783603358
 10
181.4444445755
 20
111.9426754361
 10
181.4975824734
 20
111.9047160101
 10
181.5490559862
 20
111.8646340338
 10
181.5988718899
 20
111.8224161715
 10
181.6470234085
 20
111.7780757569
 10
181.6932693206
 20
111.7318047706
 10
181.7376247647
 20
111.6835593732
 10
181.7800746024
 20
111.6333834024
 10
181.8203321973
 20
111.5816003551
 10
181.8583768019
 20
111.5281846879
 10
181.8942291638
 20
111.4731619434
 10
181.9276648891
 20
111.4169322468
 10
181.958652852
 20
111.3594820885
 10
181.9872241783
 20
111.3008249784
 10
182.0132478524
 20
111.2414015712
 10
182.0366802023
 20
111.1813587523
 10
182.0575649
 20
111.1205496374
 10
182.0759019455
 20
111.0589742271
  0
LWPOLYLINE
  5
2F3
100
AcDbEntity
  8
RACCORDO
100
AcDbPolyline
 62
250
  6
CONTINUOUS
 90
7
 70
0
 10
191.4119795534
 20
110.4920278708
 10
191.4112980464
 20
110.4918919571
 10
191.4098257447
 20
110.4917572229
 10
191.4075626481
 20
110.4916236681
 10
191.4044985852
 20
110.4914909365
 10
191.4006437275
 20
110.4913593843
 10
191.3960285899
 20
110.4912300806
  0
LWPOLYLINE
  5
2F4
100
AcDbEntity
  8
ASSI
100
AcDbPolyline
 62
250
  6
CONTINUOUS
 90
7
 70
0
 10
191.4119795534
 20
110.4920278708
 10
191.4112980464
 20
110.4918919571
 10
191.4098257447
 20
110.4917572229
 10
191.4075626481
 20
110.4916236681
 10
191.4044985852
 20
110.4914909365
 10
191.4006437275
 20
110.4913593843
 10
191.3960285899
 20
110.4912300806
  0
LWPOLYLINE
  5
2F5
100
AcDbEntity
  8
RACCORDO
100
AcDbPolyline
 62
250
  6
CONTINUOUS
 90
5
 70
0
 10
191.6119493822
 20
110.2920355773
 10
191.6108283451
 20
110.2918924269
 10
191.608370109
 20
110.2917504481
 10
191.6045815224
 20
110.2916096892
 10
191.599473257
 20
110.2914698836
  0
LWPOLYLINE
  5
2F6
100
AcDbEntity
  8
ASSI
100
AcDbPolyline
 62
250
  6
CONTINUOUS
 90
5
 70
0
 10
191.6119493822
 20
110.2920355773
 10
191.6108283451
 20
110.2918924269
 10
191.608370109
 20
110.2917504481
 10
191.6045815224
 20
110.2916096892
 10
191.599473257
 20
110.2914698836
  0
LWPOLYLINE
  5
2F7
100
AcDbEntity
  8
RACCORDO
100
AcDbPolyline
 62
250
  6
CONTINUOUS
 90
25
 70
0
 10
179.0298293777
 20
110.2159606998
 10
179.0282350041
 20
110.2211644586
 10
179.0263739857
 20
110.2262467327
 10
179.0242463224
 20
110.2312075221
 10
179.0218441934
 20
110.2360610019
 10
179.0191754196
 20
110.240792997
 10
179.0162634637
 20
110.2453609816
 10
179.0131061366
 20
110.24976335
 10
179.0097056275
 20
110.2540017079
 10
179.0060919665
 20
110.2580383471
 10
179.0022632149
 20
110.2618713878
 10
178.9982213115
 20
110.2655027097
 10
178.9940021034
 20
110.2689002437
 10
178.9896041997
 20
110.2720617856
 10
178.9850289912
 20
110.2749895395
 10
178.9803164979
 20
110.2776580483
 10
178.9754653903
 20
110.2800650723
 10
178.9704769979
 20
110.2822128512
 10
178.9653953284
 20
110.2840826468
 10
178.9602195609
 20
110.2856720065
 10
178.9549505162
 20
110.286983383
 10
178.9496346651
 20
110.288005396
 10
178.944287498
 20
110.2887342523
 10
178.9388935245
 20
110.2891737453
 10
178.9334527446
 20
110.2893238748
  0
LWPOLYLINE
  5
2F8
100
AcDbEntity
  8
ASSI
100
AcDbPolyline
 62
250
  6
CONTINUOUS
 90
25
 70
0
 10
179.0298293777
 20
110.2159606998
 10
179.0282350041
 20
110.2211644586
 10
179.0263739857
 20
110.2262467327
 10
179.0242463224
 20
110.2312075221
 10
179.0218441934
 20
110.2360610019
 10
179.0191754196
 20
110.240792997
 10
179.0162634637
 20
110.2453609816
 10
179.0131061366
 20
110.24976335
 10
179.0097056275
 20
110.2540017079
 10
179.0060919665
 20
110.2580383471
 10
179.0022632149
 20
110.2618713878
 10
178.9982213115
 20
110.2655027097
 10
178.9940021034
 20
110.2689002437
 10
178.9896041997
 20
110.2720617856
 10
178.9850289912
 20
110.2749895395
 10
178.9803164979
 20
110.2776580483
 10
178.9754653903
 20
110.2800650723
 10
178.9704769979
 20
110.2822128512
 10
178.9653953284
 20
110.2840826468
 10
178.9602195609
 20
110.2856720065
 10
178.9549505162
 20
110.286983383
 10
178.9496346651
 20
110.288005396
 10
178.944287498
 20
110.2887342523
 10
178.9388935245
 20
110.2891737453
 10
178.9334527446
 20
110.2893238748
  0
LWPOLYLINE
  5
2F9
100
AcDbEntity
  8
RACCORDO
100
AcDbPolyline
 62
250
  6
CONTINUOUS
 90
64
 70
0
 10
179.2225809465
 20
111.0054784586
 10
179.2385807475
 20
111.0590636307
 10
179.2568177649
 20
111.1121742276
 10
179.2772885392
 20
111.164713153
 10
179.2999997219
 20
111.2166135048
 10
179.3249273836
 20
111.2677442471
 10
179.3520042373
 20
111.3179165849
 10
179.3811988315
 20
111.3670384484
 10
179.4124742753
 20
111.4150162881
 10
179.4457264055
 20
111.4616731428
 10
179.4808958498
 20
111.5069216837
 10
179.5179280217
 20
111.5506878773
 10
179.5567015018
 20
111.5928322773
 10
179.5971176564
 20
111.6332627363
 10
179.6391254086
 20
111.6719425636
 10
179.6826646311
 20
111.7088253407
 10
179.7276478352
 20
111.7438447365
 10
179.774004194
 20
111.7769531308
 10
179.8217013415
 20
111.8081293439
 10
179.8706745163
 20
111.8373272727
 10
179.9208265804
 20
111.8644853236
 10
179.9720777279
 20
111.8895575741
 10
180.0243510478
 20
111.9125026575
 10
180.077549112
 20
111.9332741335
 10
180.1315576635
 20
111.9518261632
 10
180.1862778944
 20
111.9681256737
 10
180.2416221153
 20
111.9821473987
 10
180.2974896214
 20
111.9938666495
 10
180.3537808268
 20
112.0032639702
 10
180.4104030446
 20
112.0103253069
 10
180.4672648436
 20
112.0150400913
 10
180.524268339
 20
112.0174007354
 10
180.5813168029
 20
112.0174037569
 10
180.6383203088
 20
112.0150491662
 10
180.6951820504
 20
112.0103404728
 10
180.7518042284
 20
112.0032852822
 10
180.8080956564
 20
111.9938941372
 10
180.8639635466
 20
111.9821811045
 10
180.9193084207
 20
111.9681656127
 10
180.9740301091
 20
111.9518721671
 10
181.0280410979
 20
111.9333258851
 10
181.0812423491
 20
111.9125598187
 10
181.1335195092
 20
111.8896197599
 10
181.1847755557
 20
111.8645518574
 10
181.2349330753
 20
111.8373976108
 10
181.2839108919
 20
111.8082037134
 10
181.331611691
 20
111.7770320241
 10
181.3779710175
 20
111.7439286138
 10
181.4229560188
 20
111.7089152218
 10
181.4664951767
 20
111.6720403636
 10
181.5085020488
 20
111.63336985
 10
181.5489184821
 20
111.5929483543
 10
181.5876932219
 20
111.5508126095
 10
181.6247277056
 20
111.507054532
 10
181.659902328
 20
111.4618109273
 10
181.6931626825
 20
111.4151546666
 10
181.7244483231
 20
111.3671735988
 10
181.7536546724
 20
111.3180443608
 10
181.7807445928
 20
111.2678598525
 10
181.805685879
 20
111.2167124022
 10
181.8284101991
 20
111.1647919768
 10
181.8488931162
 20
111.1122300333
 10
181.8671411359
 20
111.059093056
 10
181.8831504554
 20
111.0054781738
  0
LWPOLYLINE
  5
2FA
100
AcDbEntity
  8
ASSI
100
AcDbPolyline
 62
250
  6
CONTINUOUS
 90
64
 70
0
 10
179.2225809465
 20
111.0054784586
 10
179.2385807475
 20
111.0590636307
 10
179.2568177649
 20
111.1121742276
 10
179.2772885392
 20
111.164713153
 10
179.2999997219
 20
111.2166135048
 10
179.3249273836
 20
111.2677442471
 10
179.3520042373
 20
111.3179165849
 10
179.3811988315
 20
111.3670384484
 10
179.4124742753
 20
111.4150162881
 10
179.4457264055
 20
111.4616731428
 10
179.4808958498
 20
111.5069216837
 10
179.5179280217
 20
111.5506878773
 10
179.5567015018
 20
111.5928322773
 10
179.5971176564
 20
111.6332627363
 10
179.6391254086
 20
111.6719425636
 10
179.6826646311
 20
111.7088253407
 10
179.7276478352
 20
111.7438447365
 10
179.774004194
 20
111.7769531308
 10
179.8217013415
 20
111.8081293439
 10
179.8706745163
 20
111.8373272727
 10
179.9208265804
 20
111.8644853236
 10
179.9720777279
 20
111.8895575741
 10
180.0243510478
 20
111.9125026575
 10
180.077549112
 20
111.9332741335
 10
180.1315576635
 20
111.9518261632
 10
180.1862778944
 20
111.9681256737
 10
180.2416221153
 20
111.9821473987
 10
180.2974896214
 20
111.9938666495
 10
180.3537808268
 20
112.0032639702
 10
180.4104030446
 20
112.0103253069
 10
180.4672648436
 20
112.0150400913
 10
180.524268339
 20
112.0174007354
 10
180.5813168029
 20
112.0174037569
 10
180.6383203088
 20
112.0150491662
 10
180.6951820504
 20
112.0103404728
 10
180.7518042284
 20
112.0032852822
 10
180.8080956564
 20
111.9938941372
 10
180.8639635466
 20
111.9821811045
 10
180.9193084207
 20
111.9681656127
 10
180.9740301091
 20
111.9518721671
 10
181.0280410979
 20
111.9333258851
 10
181.0812423491
 20
111.9125598187
 10
181.1335195092
 20
111.8896197599
 10
181.1847755557
 20
111.8645518574
 10
181.2349330753
 20
111.8373976108
 10
181.2839108919
 20
111.8082037134
 10
181.331611691
 20
111.7770320241
 10
181.3779710175
 20
111.7439286138
 10
181.4229560188
 20
111.7089152218
 10
181.4664951767
 20
111.6720403636
 10
181.5085020488
 20
111.63336985
 10
181.5489184821
 20
111.5929483543
 10
181.5876932219
 20
111.5508126095
 10
181.6247277056
 20
111.507054532
 10
181.659902328
 20
111.4618109273
 10
181.6931626825
 20
111.4151546666
 10
181.7244483231
 20
111.3671735988
 10
181.7536546724
 20
111.3180443608
 10
181.7807445928
 20
111.2678598525
 10
181.805685879
 20
111.2167124022
 10
181.8284101991
 20
111.1647919768
 10
181.8488931162
 20
111.1122300333
 10
181.8671411359
 20
111.059093056
 10
181.8831504554
 20
111.0054781738
  0
LWPOLYLINE
  5
2FB
100
AcDbEntity
  8
0
100
AcDbPolyline
 62
7
  6
CONTINUOUS
 90
25
 70
0
 10
179.2267713685
 20
111.0009216227
 10
179.2220523843
 20
110.9853586986
 10
179.2165173922
 20
110.9701300782
 10
179.2101663922
 20
110.9552357618
 10
179.2029660221
 20
110.9406149869
 10
179.1949496441
 20
110.926328516
 10
179.186217345
 20
110.9125586353
 10
179.1767871521
 20
110.8993455786
 10
179.1666410381
 20
110.8866491123
 10
179.1558250075
 20
110.8745308221
 10
179.1443110882
 20
110.8629679736
 10
179.1321272524
 20
110.8519833013
 10
179.1194034213
 20
110.8417065937
 10
179.1061297431
 20
110.8321508048
 10
179.0923160697
 20
110.8233029808
 10
179.0781218777
 20
110.8152540487
 10
179.0635772392
 20
110.8080250896
 10
179.0486520821
 20
110.8015950225
 10
179.033415667
 20
110.7959915316
 10
179.0178224346
 20
110.7912073609
 10
179.0019179442
 20
110.7872497664
 10
178.9859081338
 20
110.7841681995
 10
178.9698616496
 20
110.781979144
 10
178.9537098455
 20
110.780666116
 10
178.9374527214
 20
110.7802291156
  0
LWPOLYLINE
  5
2FC
100
AcDbEntity
  8
ASSI
100
AcDbPolyline
 62
7
  6
CONTINUOUS
 90
25
 70
0
 10
179.2267713685
 20
111.0009216227
 10
179.2220523843
 20
110.9853586986
 10
179.2165173922
 20
110.9701300782
 10
179.2101663922
 20
110.9552357618
 10
179.2029660221
 20
110.9406149869
 10
179.1949496441
 20
110.926328516
 10
179.186217345
 20
110.9125586353
 10
179.1767871521
 20
110.8993455786
 10
179.1666410381
 20
110.8866491123
 10
179.1558250075
 20
110.8745308221
 10
179.1443110882
 20
110.8629679736
 10
179.1321272524
 20
110.8519833013
 10
179.1194034213
 20
110.8417065937
 10
179.1061297431
 20
110.8321508048
 10
179.0923160697
 20
110.8233029808
 10
179.0781218777
 20
110.8152540487
 10
179.0635772392
 20
110.8080250896
 10
179.0486520821
 20
110.8015950225
 10
179.033415667
 20
110.7959915316
 10
179.0178224346
 20
110.7912073609
 10
179.0019179442
 20
110.7872497664
 10
178.9859081338
 20
110.7841681995
 10
178.9698616496
 20
110.781979144
 10
178.9537098455
 20
110.780666116
 10
178.9374527214
 20
110.7802291156
  0
LINE
  5
2FD
100
AcDbEntity
  8
RACCORDO
100
AcDbLine
 62
250
  6
CONTINUOUS
 10
179.2267713685
 20
110.2740133042
 11
179.2225808678
 21
110.269456753
  0
LINE
  5
2FE
100
AcDbEntity
  8
ASSI
100
AcDbLine
 62
250
  6
CONTINUOUS
 10
179.2267713685
 20
110.2740133042
 11
179.2225808678
 21
110.269456753
  0
LINE
  5
2FF
100
AcDbEntity
  8
DRAFT
100
AcDbLine
 62
7
  6
CONTINUOUS
 10
178.2511330811
 20
110.7645207536
 11
178.2565239316
 21
110.7671388139
  0
LINE
  5
300
100
AcDbEntity
  8
ASSI
100
AcDbLine
 62
7
  6
CONTINUOUS
 10
178.2511330811
 20
110.7645207536
 11
178.2565239316
 21
110.7671388139
  0
LINE
  5
301
100
AcDbEntity
  8
RACCORDO
100
AcDbLine
 62
250
  6
CONTINUOUS
 10
179.2219259736
 20
110.2692590543
 11
179.2225809346
 21
110.2694527769
  0
LINE
  5
302
100
AcDbEntity
  8
ASSI
100
AcDbLine
 62
250
  6
CONTINUOUS
 10
179.2219259736
 20
110.2692590543
 11
179.2225809346
 21
110.2694527769
  0
LINE
  5
303
100
AcDbEntity
  8
RACCORDO
100
AcDbLine
 62
250
  6
CONTINUOUS
 10
181.8838053496
 20
111.0056758726
 11
181.8831503886
 21
111.0054821499
  0
LINE
  5
304
100
AcDbEntity
  8
ASSI
100
AcDbLine
 62
250
  6
CONTINUOUS
 10
181.8838053496
 20
111.0056758726
 11
181.8831503886
 21
111.0054821499
  0
LINE
  5
305
100
AcDbEntity
  8
RACCORDO
100
AcDbLine
 62
250
  6
CONTINUOUS
 10
181.8921025339
 20
111.0080081398
 11
181.8838053496
 21
111.0056758726
  0
LINE
  5
306
100
AcDbEntity
  8
ASSI
100
AcDbLine
 62
250
  6
CONTINUOUS
 10
181.8921025339
 20
111.0080081398
 11
181.8838053496
 21
111.0056758726
  0
LINE
  5
307
100
AcDbEntity
  8
RACCORDO
100
AcDbLine
 62
250
  6
CONTINUOUS
 10
179.2136287893
 20
110.2669267871
 11
179.2219259736
 21
110.2692590543
  0
LINE
  5
308
100
AcDbEntity
  8
ASSI
100
AcDbLine
 62
250
  6
CONTINUOUS
 10
179.2136287893
 20
110.2669267871
 11
179.2219259736
 21
110.2692590543
  0
LINE
  5
309
100
AcDbEntity
  8
RACCORDO
100
AcDbLine
 62
250
  6
CONTINUOUS
 10
179.0298293777
 20
110.2159606998
 11
179.2136287893
 21
110.2669267871
  0
LINE
  5
30A
100
AcDbEntity
  8
ASSI
100
AcDbLine
 62
250
  6
CONTINUOUS
 10
179.0298293777
 20
110.2159606998
 11
179.2136287893
 21
110.2669267871
  0
LINE
  5
30B
100
AcDbEntity
  8
RACCORDO
100
AcDbLine
 62
250
  6
CONTINUOUS
 10
182.0759019455
 20
111.0589742271
 11
181.8921025339
 21
111.0080081398
  0
LINE
  5
30C
100
AcDbEntity
  8
ASSI
100
AcDbLine
 62
250
  6
CONTINUOUS
 10
182.0759019455
 20
111.0589742271
 11
181.8921025339
 21
111.0080081398
  0
LINE
  5
30D
100
AcDbEntity
  8
DRAFT
100
AcDbLine
 62
7
  6
CONTINUOUS
 10
182.4758798203
 20
110.5077961129
 11
182.422422858
 21
110.4947058113
  0
LINE
  5
30E
100
AcDbEntity
  8
ASSI
100
AcDbLine
 62
7
  6
CONTINUOUS
 10
182.4758798203
 20
110.5077961129
 11
182.422422858
 21
110.4947058113
  0
LWPOLYLINE
  5
30F
100
AcDbEntity
  8
RACCORDO
100
AcDbPolyline
 62
250
  6
CONTINUOUS
 90
25
 70
0
 10
182.1722785786
 20
110.2893238748
 10
182.1668377987
 20
110.2891737453
 10
182.1614438252
 20
110.2887342523
 10
182.156096658
 20
110.288005396
 10
182.150780807
 20
110.286983383
 10
182.1455117623
 20
110.2856720065
 10
182.1403359947
 20
110.2840826468
 10
182.1352543252
 20
110.2822128512
 10
182.1302659329
 20
110.2800650723
 10
182.1254148253
 20
110.2776580483
 10
182.120702332
 20
110.2749895395
 10
182.1161271235
 20
110.2720617856
 10
182.1117292198
 20
110.2689002437
 10
182.1075100117
 20
110.2655027097
 10
182.1034681083
 20
110.2618713878
 10
182.0996393566
 20
110.2580383471
 10
182.0960256957
 20
110.2540017079
 10
182.0926251866
 20
110.24976335
 10
182.0894678595
 20
110.2453609816
 10
182.0865559036
 20
110.240792997
 10
182.0838871298
 20
110.2360610019
 10
182.0814850008
 20
110.2312075221
 10
182.0793573375
 20
110.2262467327
 10
182.0774963191
 20
110.2211644586
 10
182.0759019455
 20
110.2159606998
  0
LWPOLYLINE
  5
310
100
AcDbEntity
  8
ASSI
100
AcDbPolyline
 62
250
  6
CONTINUOUS
 90
25
 70
0
 10
182.1722785786
 20
110.2893238748
 10
182.1668377987
 20
110.2891737453
 10
182.1614438252
 20
110.2887342523
 10
182.156096658
 20
110.288005396
 10
182.150780807
 20
110.286983383
 10
182.1455117623
 20
110.2856720065
 10
182.1403359947
 20
110.2840826468
 10
182.1352543252
 20
110.2822128512
 10
182.1302659329
 20
110.2800650723
 10
182.1254148253
 20
110.2776580483
 10
182.120702332
 20
110.2749895395
 10
182.1161271235
 20
110.2720617856
 10
182.1117292198
 20
110.2689002437
 10
182.1075100117
 20
110.2655027097
 10
182.1034681083
 20
110.2618713878
 10
182.0996393566
 20
110.2580383471
 10
182.0960256957
 20
110.2540017079
 10
182.0926251866
 20
110.24976335
 10
182.0894678595
 20
110.2453609816
 10
182.0865559036
 20
110.240792997
 10
182.0838871298
 20
110.2360610019
 10
182.0814850008
 20
110.2312075221
 10
182.0793573375
 20
110.2262467327
 10
182.0774963191
 20
110.2211644586
 10
182.0759019455
 20
110.2159606998
  0
LWPOLYLINE
  5
311
100
AcDbEntity
  8
RACCORDO
100
AcDbPolyline
 62
250
  6
CONTINUOUS
 90
25
 70
0
 10
182.1722785786
 20
110.4894555168
 10
182.1560254408
 20
110.4890142921
 10
182.1398204006
 20
110.4876932027
 10
182.1237110509
 20
110.4854961852
 10
182.1077450633
 20
110.482429829
 10
182.0919689456
 20
110.4785031538
 10
182.0764279528
 20
110.4737273854
 10
182.0611669976
 20
110.4681161233
 10
182.0462317509
 20
110.4616859543
 10
182.0316673424
 20
110.4544562897
 10
182.0175170803
 20
110.4464487923
 10
182.0038218822
 20
110.4376867874
 10
181.9906214295
 20
110.4281957147
 10
181.9779544673
 20
110.4180034203
 10
181.9658582338
 20
110.407139856
 10
181.954367914
 20
110.3956365588
 10
181.9435169237
 20
110.3835267864
 10
181.9333376502
 20
110.370846477
 10
181.923860816
 20
110.3576339361
 10
181.9151143786
 20
110.3439284227
 10
181.907123657
 20
110.3297699162
 10
181.8999120212
 20
110.3152000968
 10
181.8935005322
 20
110.300261821
 10
181.8879078862
 20
110.2849989925
 10
181.8831503767
 20
110.2694564681
  0
LWPOLYLINE
  5
312
100
AcDbEntity
  8
ASSI
100
AcDbPolyline
 62
250
  6
CONTINUOUS
 90
25
 70
0
 10
182.1722785786
 20
110.4894555168
 10
182.1560254408
 20
110.4890142921
 10
182.1398204006
 20
110.4876932027
 10
182.1237110509
 20
110.4854961852
 10
182.1077450633
 20
110.482429829
 10
182.0919689456
 20
110.4785031538
 10
182.0764279528
 20
110.4737273854
 10
182.0611669976
 20
110.4681161233
 10
182.0462317509
 20
110.4616859543
 10
182.0316673424
 20
110.4544562897
 10
182.0175170803
 20
110.4464487923
 10
182.0038218822
 20
110.4376867874
 10
181.9906214295
 20
110.4281957147
 10
181.9779544673
 20
110.4180034203
 10
181.9658582338
 20
110.407139856
 10
181.954367914
 20
110.3956365588
 10
181.9435169237
 20
110.3835267864
 10
181.9333376502
 20
110.370846477
 10
181.923860816
 20
110.3576339361
 10
181.9151143786
 20
110.3439284227
 10
181.907123657
 20
110.3297699162
 10
181.8999120212
 20
110.3152000968
 10
181.8935005322
 20
110.300261821
 10
181.8879078862
 20
110.2849989925
 10
181.8831503767
 20
110.2694564681
  0
LWPOLYLINE
  5
313
100
AcDbEntity
  8
RACCORDO
100
AcDbPolyline
 62
250
  6
CONTINUOUS
 90
25
 70
0
 10
178.9334527446
 20
110.78547941
 10
178.9497058824
 20
110.7859206348
 10
178.9659109226
 20
110.7872417241
 10
178.9820202723
 20
110.7894387417
 10
178.9979862598
 20
110.7925050979
 10
179.0137623775
 20
110.7964317731
 10
179.0293033704
 20
110.8012075414
 10
179.0445643255
 20
110.8068188035
 10
179.0594995723
 20
110.8132489726
 10
179.0740639808
 20
110.8204786372
 10
179.0882142429
 20
110.8284861346
 10
179.101909441
 20
110.8372481394
 10
179.1151098936
 20
110.8467392121
 10
179.1277768559
 20
110.8569315066
 10
179.1398730894
 20
110.8677950708
 10
179.1513634092
 20
110.8792983681
 10
179.1622143995
 20
110.8914081405
 10
179.172393673
 20
110.9040884499
 10
179.1818705072
 20
110.9173009907
 10
179.1906169446
 20
110.9310065041
 10
179.1986076662
 20
110.9451650106
 10
179.2058193019
 20
110.9597348301
 10
179.212230791
 20
110.9746731059
 10
179.2178234369
 20
110.9899359343
 10
179.2225809464
 20
111.0054784587
  0
LWPOLYLINE
  5
314
100
AcDbEntity
  8
ASSI
100
AcDbPolyline
 62
250
  6
CONTINUOUS
 90
25
 70
0
 10
178.9334527446
 20
110.78547941
 10
178.9497058824
 20
110.7859206348
 10
178.9659109226
 20
110.7872417241
 10
178.9820202723
 20
110.7894387417
 10
178.9979862598
 20
110.7925050979
 10
179.0137623775
 20
110.7964317731
 10
179.0293033704
 20
110.8012075414
 10
179.0445643255
 20
110.8068188035
 10
179.0594995723
 20
110.8132489726
 10
179.0740639808
 20
110.8204786372
 10
179.0882142429
 20
110.8284861346
 10
179.101909441
 20
110.8372481394
 10
179.1151098936
 20
110.8467392121
 10
179.1277768559
 20
110.8569315066
 10
179.1398730894
 20
110.8677950708
 10
179.1513634092
 20
110.8792983681
 10
179.1622143995
 20
110.8914081405
 10
179.172393673
 20
110.9040884499
 10
179.1818705072
 20
110.9173009907
 10
179.1906169446
 20
110.9310065041
 10
179.1986076662
 20
110.9451650106
 10
179.2058193019
 20
110.9597348301
 10
179.212230791
 20
110.9746731059
 10
179.2178234369
 20
110.9899359343
 10
179.2225809464
 20
111.0054784587
  0
LINE
  5
315
100
AcDbEntity
  8
RACCORDO
100
AcDbLine
 62
250
  6
CONTINUOUS
 10
191.3960285899
 20
110.4912300806
 11
191.3845049201
 21
110.4909782584
  0
LINE
  5
316
100
AcDbEntity
  8
ASSI
100
AcDbLine
 62
250
  6
CONTINUOUS
 10
191.3960285899
 20
110.4912300806
 11
191.3845049201
 21
110.4909782584
  0
LINE
  5
317
100
AcDbEntity
  8
RACCORDO
100
AcDbLine
 62
250
  6
CONTINUOUS
 10
191.599473257
 20
110.2914698836
 11
191.585355412
 21
110.2911952091
  0
LINE
  5
318
100
AcDbEntity
  8
ASSI
100
AcDbLine
 62
250
  6
CONTINUOUS
 10
191.599473257
 20
110.2914698836
 11
191.585355412
 21
110.2911952091
  0
LINE
  5
319
100
AcDbEntity
  8
RACCORDO
100
AcDbLine
 62
250
  6
CONTINUOUS
 10
191.3845049201
 20
110.4909782584
 11
191.3618022413
 21
110.4906235037
  0
LINE
  5
31A
100
AcDbEntity
  8
ASSI
100
AcDbLine
 62
250
  6
CONTINUOUS
 10
191.3845049201
 20
110.4909782584
 11
191.3618022413
 21
110.4906235037
  0
LINE
  5
31B
100
AcDbEntity
  8
RACCORDO
100
AcDbLine
 62
250
  6
CONTINUOUS
 10
191.585355412
 20
110.2911952091
 11
191.5547260266
 21
110.2908019011
  0
LINE
  5
31C
100
AcDbEntity
  8
ASSI
100
AcDbLine
 62
250
  6
CONTINUOUS
 10
191.585355412
 20
110.2911952091
 11
191.5547260266
 21
110.2908019011
  0
LINE
  5
31D
100
AcDbEntity
  8
RACCORDO
100
AcDbLine
 62
250
  6
CONTINUOUS
 10
191.3618022413
 20
110.4906235037
 11
191.3109480251
 21
110.4901138566
  0
LINE
  5
31E
100
AcDbEntity
  8
ASSI
100
AcDbLine
 62
250
  6
CONTINUOUS
 10
191.3618022413
 20
110.4906235037
 11
191.3109480251
 21
110.4901138566
  0
LINE
  5
31F
100
AcDbEntity
  8
RACCORDO
100
AcDbLine
 62
250
  6
CONTINUOUS
 10
191.5547260266
 20
110.2908019011
 11
191.4624787778
 21
110.2901164202
  0
LINE
  5
320
100
AcDbEntity
  8
ASSI
100
AcDbLine
 62
250
  6
CONTINUOUS
 10
191.5547260266
 20
110.2908019011
 11
191.4624787778
 21
110.2901164202
  0
LINE
  5
321
100
AcDbEntity
  8
RACCORDO
100
AcDbLine
 62
250
  6
CONTINUOUS
 10
191.3109480251
 20
110.4901138566
 11
191.2037082351
 21
110.489580774
  0
LINE
  5
322
100
AcDbEntity
  8
ASSI
100
AcDbLine
 62
250
  6
CONTINUOUS
 10
191.3109480251
 20
110.4901138566
 11
191.2037082351
 21
110.489580774
  0
LINE
  5
323
100
AcDbEntity
  8
RACCORDO
100
AcDbLine
 62
250
  6
CONTINUOUS
 10
169.8066967523
 20
110.7849084602
 11
169.9169181888
 21
110.7853921657
  0
LINE
  5
324
100
AcDbEntity
  8
ASSI
100
AcDbLine
 62
250
  6
CONTINUOUS
 10
169.8066967523
 20
110.7849084602
 11
169.9169181888
 21
110.7853921657
  0
LINE
  5
325
100
AcDbEntity
  8
RACCORDO
100
AcDbLine
 62
250
  6
CONTINUOUS
 10
191.4624787778
 20
110.2901164202
 11
191.264854929
 21
110.2894566154
  0
LINE
  5
326
100
AcDbEntity
  8
ASSI
100
AcDbLine
 62
250
  6
CONTINUOUS
 10
191.4624787778
 20
110.2901164202
 11
191.264854929
 21
110.2894566154
  0
LINE
  5
327
100
AcDbEntity
  8
ASSI
100
AcDbLine
 62
250
  6
CONTINUOUS
 10
191.2037082351
 20
110.489580774
 11
191.1120252735
 21
110.4894555168
  0
LINE
  5
328
100
AcDbEntity
  8
ASSI
100
AcDbLine
 62
250
  6
CONTINUOUS
 10
169.9169181888
 20
110.7853921657
 11
169.9937060497
 21
110.78547941
  0
LWPOLYLINE
  5
329
100
AcDbEntity
  8
0
100
AcDbPolyline
 62
7
  6
CONTINUOUS
 90
2
 70
0
 43
0.3500000006
 10
198.9772564087
 20
109.7088929443
 10
197.4772468872
 20
109.7088929443
  0
LINE
  5
32A
100
AcDbEntity
  8
RACCORDO
100
AcDbLine
 62
250
  6
CONTINUOUS
 10
191.264854929
 20
110.2894566154
 11
182.1722785786
 21
110.2893238748
  0
LINE
  5
32B
100
AcDbEntity
  8
ASSI
100
AcDbLine
 62
250
  6
CONTINUOUS
 10
191.264854929
 20
110.2894566154
 11
182.1722785786
 21
110.2893238748
  0
LINE
  5
32C
100
AcDbEntity
  8
RACCORDO
100
AcDbLine
 62
250
  6
CONTINUOUS
 10
191.2037082351
 20
110.489580774
 11
182.1722785786
 21
110.4894555168
  0
LINE
  5
32D
100
AcDbEntity
  8
ASSI
100
AcDbLine
 62
7
  6
CONTINUOUS
 10
191.1120252735
 20
110.4894555168
 11
182.1722785786
 21
110.4894555168
  0
LINE
  5
32E
100
AcDbEntity
  8
ASSI
100
AcDbLine
 62
7
  6
CONTINUOUS
 10
178.9334527446
 20
110.4894555168
 11
169.9937060497
 21
110.4894555168
  0
LINE
  5
32F
100
AcDbEntity
  8
0
100
AcDbLine
 62
7
  6
CONTINUOUS
 10
182.422422858
 20
110.4947058113
 11
182.1682786018
 21
110.4947058113
  0
LINE
  5
330
100
AcDbEntity
  8
ASSI
100
AcDbLine
 62
7
  6
CONTINUOUS
 10
182.422422858
 20
110.4947058113
 11
182.1682786018
 21
110.4947058113
  0
LINE
  5
331
100
AcDbEntity
  8
0
100
AcDbLine
 62
7
  6
CONTINUOUS
 10
178.9374527214
 20
110.4947058113
 11
178.6833084652
 21
110.4947058113
  0
LINE
  5
332
100
AcDbEntity
  8
ASSI
100
AcDbLine
 62
7
  6
CONTINUOUS
 10
178.9374527214
 20
110.4947058113
 11
178.6833084652
 21
110.4947058113
  0
LINE
  5
333
100
AcDbEntity
  8
DRAFT
100
AcDbLine
 62
7
  6
CONTINUOUS
 10
182.8492073916
 20
110.5077961129
 11
182.4758798203
 21
110.5077961129
  0
LINE
  5
334
100
AcDbEntity
  8
ASSI
100
AcDbLine
 62
7
  6
CONTINUOUS
 10
182.8492073916
 20
110.5077961129
 11
182.4758798203
 21
110.5077961129
  0
LINE
  5
335
100
AcDbEntity
  8
DRAFT
100
AcDbLine
 62
7
  6
CONTINUOUS
 10
178.6298515029
 20
110.5077961129
 11
178.2565239316
 21
110.5077961129
  0
LINE
  5
336
100
AcDbEntity
  8
ASSI
100
AcDbLine
 62
7
  6
CONTINUOUS
 10
178.6298515029
 20
110.5077961129
 11
178.2565239316
 21
110.5077961129
  0
LINE
  5
337
100
AcDbEntity
  8
DRAFT
100
AcDbLine
 62
7
  6
CONTINUOUS
 10
170.7069763629
 20
110.5104141733
 11
178.2511330811
 21
110.5104141733
  0
LINE
  5
338
100
AcDbEntity
  8
ASSI
100
AcDbLine
 62
7
  6
CONTINUOUS
 10
170.7069763629
 20
110.5104141733
 11
178.2511330811
 21
110.5104141733
  0
LINE
  5
339
100
AcDbEntity
  8
DRAFT
100
AcDbLine
 62
7
  6
CONTINUOUS
 10
182.8545982421
 20
110.5104141733
 11
190.3987549603
 21
110.5104141733
  0
LINE
  5
33A
100
AcDbEntity
  8
ASSI
100
AcDbLine
 62
7
  6
CONTINUOUS
 10
182.8545982421
 20
110.5104141733
 11
190.3987549603
 21
110.5104141733
  0
LINE
  5
33B
100
AcDbEntity
  8
RACCORDO
100
AcDbLine
 62
7
  6
CONTINUOUS
 10
169.6028656627
 20
110.5374674634
 11
170.6528656616
 21
110.5374674634
  0
LINE
  5
33C
100
AcDbEntity
  8
ASSI
100
AcDbLine
 62
7
  6
CONTINUOUS
 10
169.6028656627
 20
110.5374674634
 11
170.6528656616
 21
110.5374674634
  0
LINE
  5
33D
100
AcDbEntity
  8
RACCORDO
100
AcDbLine
 62
7
  6
CONTINUOUS
 10
190.4528656616
 20
110.5374674634
 11
191.5028656604
 21
110.5374674634
  0
LINE
  5
33E
100
AcDbEntity
  8
ASSI
100
AcDbLine
 62
7
  6
CONTINUOUS
 10
190.4528656616
 20
110.5374674634
 11
191.5028656604
 21
110.5374674634
  0
LINE
  5
33F
100
AcDbEntity
  8
RACCORDO
100
AcDbLine
 62
7
  6
CONTINUOUS
 10
191.5028656604
 20
110.7374674634
 11
190.4528656616
 21
110.7374674634
  0
LINE
  5
340
100
AcDbEntity
  8
ASSI
100
AcDbLine
 62
7
  6
CONTINUOUS
 10
191.5028656604
 20
110.7374674634
 11
190.4528656616
 21
110.7374674634
  0
LINE
  5
341
100
AcDbEntity
  8
RACCORDO
100
AcDbLine
 62
7
  6
CONTINUOUS
 10
170.6528656616
 20
110.7374674634
 11
169.6028656627
 21
110.7374674634
  0
LINE
  5
342
100
AcDbEntity
  8
ASSI
100
AcDbLine
 62
7
  6
CONTINUOUS
 10
170.6528656616
 20
110.7374674634
 11
169.6028656627
 21
110.7374674634
  0
LINE
  5
343
100
AcDbEntity
  8
DRAFT
100
AcDbLine
 62
7
  6
CONTINUOUS
 10
190.3987549603
 20
110.7645207536
 11
182.8545982421
 21
110.7645207536
  0
LINE
  5
344
100
AcDbEntity
  8
ASSI
100
AcDbLine
 62
7
  6
CONTINUOUS
 10
190.3987549603
 20
110.7645207536
 11
182.8545982421
 21
110.7645207536
  0
LINE
  5
345
100
AcDbEntity
  8
DRAFT
100
AcDbLine
 62
7
  6
CONTINUOUS
 10
178.2511330811
 20
110.7645207536
 11
170.7069763629
 21
110.7645207536
  0
LINE
  5
346
100
AcDbEntity
  8
ASSI
100
AcDbLine
 62
7
  6
CONTINUOUS
 10
178.2511330811
 20
110.7645207536
 11
170.7069763629
 21
110.7645207536
  0
LINE
  5
347
100
AcDbEntity
  8
DRAFT
100
AcDbLine
 62
7
  6
CONTINUOUS
 10
178.2565239316
 20
110.7671388139
 11
178.6298515029
 21
110.7671388139
  0
LINE
  5
348
100
AcDbEntity
  8
ASSI
100
AcDbLine
 62
7
  6
CONTINUOUS
 10
178.2565239316
 20
110.7671388139
 11
178.6298515029
 21
110.7671388139
  0
LINE
  5
349
100
AcDbEntity
  8
DRAFT
100
AcDbLine
 62
7
  6
CONTINUOUS
 10
182.4758798203
 20
110.7671388139
 11
182.8492073916
 21
110.7671388139
  0
LINE
  5
34A
100
AcDbEntity
  8
ASSI
100
AcDbLine
 62
7
  6
CONTINUOUS
 10
182.4758798203
 20
110.7671388139
 11
182.8492073916
 21
110.7671388139
  0
LINE
  5
34B
100
AcDbEntity
  8
ASSI
100
AcDbLine
 62
7
  6
CONTINUOUS
 10
178.6833084652
 20
110.7802291156
 11
178.9374527214
 21
110.7802291156
  0
LINE
  5
34C
100
AcDbEntity
  8
0
100
AcDbLine
 62
7
  6
CONTINUOUS
 10
178.6833084652
 20
110.7802291156
 11
178.9374527214
 21
110.7802291156
  0
LINE
  5
34D
100
AcDbEntity
  8
0
100
AcDbLine
 62
7
  6
CONTINUOUS
 10
182.1682786018
 20
110.7802291156
 11
182.422422858
 21
110.7802291156
  0
LINE
  5
34E
100
AcDbEntity
  8
ASSI
100
AcDbLine
 62
7
  6
CONTINUOUS
 10
182.1682786018
 20
110.7802291156
 11
182.422422858
 21
110.7802291156
  0
LINE
  5
34F
100
AcDbEntity
  8
RACCORDO
100
AcDbLine
 62
250
  6
CONTINUOUS
 10
169.9169181888
 20
110.7853921657
 11
178.9334527446
 21
110.78547941
  0
LINE
  5
350
100
AcDbEntity
  8
ASSI
100
AcDbLine
 62
7
  6
CONTINUOUS
 10
169.9937060497
 20
110.78547941
 11
178.9334527446
 21
110.78547941
  0
LINE
  5
351
100
AcDbEntity
  8
ASSI
100
AcDbLine
 62
7
  6
CONTINUOUS
 10
182.1722785786
 20
110.78547941
 11
191.1120252735
 21
110.78547941
  0
LINE
  5
352
100
AcDbEntity
  8
RACCORDO
100
AcDbLine
 62
250
  6
CONTINUOUS
 10
178.9334527446
 20
110.2893238748
 11
169.7690564232
 21
110.2896190313
  0
LINE
  5
353
100
AcDbEntity
  8
ASSI
100
AcDbLine
 62
250
  6
CONTINUOUS
 10
178.9334527446
 20
110.2893238748
 11
169.7690564232
 21
110.2896190313
  0
LINE
  5
354
100
AcDbEntity
  8
RACCORDO
100
AcDbLine
 62
250
  6
CONTINUOUS
 10
178.9334527446
 20
110.4894555168
 11
169.8589266317
 21
110.489734604
  0
LINE
  5
355
100
AcDbEntity
  8
ASSI
100
AcDbLine
 62
250
  6
CONTINUOUS
 10
169.9937060497
 20
110.4894555168
 11
169.8589266317
 21
110.489734604
  0
LINE
  5
356
100
AcDbEntity
  8
RACCORDO
100
AcDbLine
 62
250
  6
CONTINUOUS
 10
182.1722785786
 20
110.78547941
 11
191.2468046915
 21
110.7852003228
  0
LINE
  5
357
100
AcDbEntity
  8
ASSI
100
AcDbLine
 62
250
  6
CONTINUOUS
 10
191.1120252735
 20
110.78547941
 11
191.2468046915
 21
110.7852003228
  0
LINE
  5
358
100
AcDbEntity
  8
RACCORDO
100
AcDbLine
 62
250
  6
CONTINUOUS
 10
191.2468046915
 20
110.7852003228
 11
191.2990345703
 21
110.7849084602
  0
LINE
  5
359
100
AcDbEntity
  8
ASSI
100
AcDbLine
 62
250
  6
CONTINUOUS
 10
191.2468046915
 20
110.7852003228
 11
191.2990345703
 21
110.7849084602
  0
LINE
  5
35A
100
AcDbEntity
  8
RACCORDO
100
AcDbLine
 62
250
  6
CONTINUOUS
 10
169.7690564232
 20
110.2896190313
 11
169.5922947644
 21
110.2904394084
  0
LINE
  5
35B
100
AcDbEntity
  8
ASSI
100
AcDbLine
 62
250
  6
CONTINUOUS
 10
169.7690564232
 20
110.2896190313
 11
169.5922947644
 21
110.2904394084
  0
LINE
  5
35C
100
AcDbEntity
  8
RACCORDO
100
AcDbLine
 62
250
  6
CONTINUOUS
 10
169.8589266317
 20
110.489734604
 11
169.7726497078
 21
110.490303671
  0
LINE
  5
35D
100
AcDbEntity
  8
ASSI
100
AcDbLine
 62
250
  6
CONTINUOUS
 10
169.8589266317
 20
110.489734604
 11
169.7726497078
 21
110.490303671
  0
LINE
  5
35E
100
AcDbEntity
  8
RACCORDO
100
AcDbLine
 62
250
  6
CONTINUOUS
 10
169.5922947644
 20
110.2904394084
 11
169.5395687243
 21
110.2909299505
  0
LINE
  5
35F
100
AcDbEntity
  8
ASSI
100
AcDbLine
 62
250
  6
CONTINUOUS
 10
169.5922947644
 20
110.2904394084
 11
169.5395687243
 21
110.2909299505
  0
LINE
  5
360
100
AcDbEntity
  8
RACCORDO
100
AcDbLine
 62
250
  6
CONTINUOUS
 10
169.7726497078
 20
110.490303671
 11
169.7356487303
 21
110.4907384876
  0
LINE
  5
361
100
AcDbEntity
  8
ASSI
100
AcDbLine
 62
250
  6
CONTINUOUS
 10
169.7726497078
 20
110.490303671
 11
169.7356487303
 21
110.4907384876
  0
LINE
  5
362
100
AcDbEntity
  8
RACCORDO
100
AcDbLine
 62
250
  6
CONTINUOUS
 10
169.5395687243
 20
110.2909299505
 11
169.5203759116
 21
110.2911952091
  0
LINE
  5
363
100
AcDbEntity
  8
ASSI
100
AcDbLine
 62
250
  6
CONTINUOUS
 10
169.5395687243
 20
110.2909299505
 11
169.5203759116
 21
110.2911952091
  0
LINE
  5
364
100
AcDbEntity
  8
RACCORDO
100
AcDbLine
 62
250
  6
CONTINUOUS
 10
169.7356487303
 20
110.4907384876
 11
169.7212264034
 21
110.4909782584
  0
LINE
  5
365
100
AcDbEntity
  8
ASSI
100
AcDbLine
 62
250
  6
CONTINUOUS
 10
169.7356487303
 20
110.4907384876
 11
169.7212264034
 21
110.4909782584
  0
LWPOLYLINE
  5
366
100
AcDbEntity
  8
RACCORDO
100
AcDbPolyline
 62
250
  6
CONTINUOUS
 90
6
 70
0
 10
169.5203759116
 20
110.2911952091
 10
169.5062580665
 20
110.2914698836
 10
169.5011498011
 20
110.2916096892
 10
169.4973612143
 20
110.2917504481
 10
169.4949029781
 20
110.2918924269
 10
169.4937819409
 20
110.2920355773
  0
LWPOLYLINE
  5
367
100
AcDbEntity
  8
ASSI
100
AcDbPolyline
 62
250
  6
CONTINUOUS
 90
6
 70
0
 10
169.5203759116
 20
110.2911952091
 10
169.5062580665
 20
110.2914698836
 10
169.5011498011
 20
110.2916096892
 10
169.4973612143
 20
110.2917504481
 10
169.4949029781
 20
110.2918924269
 10
169.4937819409
 20
110.2920355773
  0
LWPOLYLINE
  5
368
100
AcDbEntity
  8
RACCORDO
100
AcDbPolyline
 62
250
  6
CONTINUOUS
 90
8
 70
0
 10
169.7212264034
 20
110.4909782584
 10
169.7097027335
 20
110.4912300806
 10
169.7050875959
 20
110.4913593843
 10
169.7012327382
 20
110.4914909365
 10
169.6981686752
 20
110.4916236681
 10
169.6959055786
 20
110.4917572229
 10
169.6944332768
 20
110.4918919571
 10
169.6937517698
 20
110.4920278708
  0
LWPOLYLINE
  5
369
100
AcDbEntity
  8
ASSI
100
AcDbPolyline
 62
250
  6
CONTINUOUS
 90
8
 70
0
 10
169.7212264034
 20
110.4909782584
 10
169.7097027335
 20
110.4912300806
 10
169.7050875959
 20
110.4913593843
 10
169.7012327382
 20
110.4914909365
 10
169.6981686752
 20
110.4916236681
 10
169.6959055786
 20
110.4917572229
 10
169.6944332768
 20
110.4918919571
 10
169.6937517698
 20
110.4920278708
  0
LWPOLYLINE
  5
36A
100
AcDbEntity
  8
0
100
AcDbPolyline
 62
7
  6
CONTINUOUS
 90
3
 70
0
 10
178.9374527214
 20
110.4947058113
 10
178.9537098455
 20
110.4942688109
 10
178.9698616496
 20
110.4929557829
  0
LWPOLYLINE
  5
36B
100
AcDbEntity
  8
ASSI
100
AcDbPolyline
 62
7
  6
CONTINUOUS
 90
3
 70
0
 10
178.9374527214
 20
110.4947058113
 10
178.9537098455
 20
110.4942688109
 10
178.9698616496
 20
110.4929557829
  0
LWPOLYLINE
  5
36C
100
AcDbEntity
  8
0
100
AcDbPolyline
 62
7
  6
CONTINUOUS
 90
3
 70
0
 10
182.1682786018
 20
110.7802291156
 10
182.1520214777
 20
110.780666116
 10
182.1358696736
 20
110.781979144
  0
LWPOLYLINE
  5
36D
100
AcDbEntity
  8
ASSI
100
AcDbPolyline
 62
7
  6
CONTINUOUS
 90
3
 70
0
 10
182.1682786018
 20
110.7802291156
 10
182.1520214777
 20
110.780666116
 10
182.1358696736
 20
110.781979144
  0
LWPOLYLINE
  5
36E
100
AcDbEntity
  8
0
100
AcDbPolyline
 62
7
  6
CONTINUOUS
 90
23
 70
0
 10
178.9698616496
 20
110.4929557829
 10
178.9859081338
 20
110.4907667274
 10
179.0019179442
 20
110.4876851604
 10
179.0178224346
 20
110.4837275659
 10
179.033415667
 20
110.4789433953
 10
179.0486520821
 20
110.4733399043
 10
179.0635772392
 20
110.4669098372
 10
179.0781218777
 20
110.4596808782
 10
179.0923160697
 20
110.4516319461
 10
179.1061297431
 20
110.442784122
 10
179.1194034213
 20
110.4332283332
 10
179.1321272524
 20
110.4229516256
 10
179.1443110882
 20
110.4119669533
 10
179.1558250075
 20
110.4004041048
 10
179.1666410381
 20
110.3882858146
 10
179.1767871521
 20
110.3755893482
 10
179.186217345
 20
110.3623762915
 10
179.1949496441
 20
110.3486064109
 10
179.2029660221
 20
110.3343199399
 10
179.2101663922
 20
110.3196991651
 10
179.2165173922
 20
110.3048048486
 10
179.2220523843
 20
110.2895762283
 10
179.2267713685
 20
110.2740133042
  0
LWPOLYLINE
  5
36F
100
AcDbEntity
  8
ASSI
100
AcDbPolyline
 62
7
  6
CONTINUOUS
 90
23
 70
0
 10
178.9698616496
 20
110.4929557829
 10
178.9859081338
 20
110.4907667274
 10
179.0019179442
 20
110.4876851604
 10
179.0178224346
 20
110.4837275659
 10
179.033415667
 20
110.4789433953
 10
179.0486520821
 20
110.4733399043
 10
179.0635772392
 20
110.4669098372
 10
179.0781218777
 20
110.4596808782
 10
179.0923160697
 20
110.4516319461
 10
179.1061297431
 20
110.442784122
 10
179.1194034213
 20
110.4332283332
 10
179.1321272524
 20
110.4229516256
 10
179.1443110882
 20
110.4119669533
 10
179.1558250075
 20
110.4004041048
 10
179.1666410381
 20
110.3882858146
 10
179.1767871521
 20
110.3755893482
 10
179.186217345
 20
110.3623762915
 10
179.1949496441
 20
110.3486064109
 10
179.2029660221
 20
110.3343199399
 10
179.2101663922
 20
110.3196991651
 10
179.2165173922
 20
110.3048048486
 10
179.2220523843
 20
110.2895762283
 10
179.2267713685
 20
110.2740133042
  0
LINE
  5
370
100
AcDbEntity
  8
DRAFT
100
AcDbLine
 62
7
  6
CONTINUOUS
 10
178.6833084652
 20
110.4947058113
 11
178.6298515029
 21
110.5077961129
  0
LINE
  5
371
100
AcDbEntity
  8
ASSI
100
AcDbLine
 62
7
  6
CONTINUOUS
 10
178.6833084652
 20
110.4947058113
 11
178.6298515029
 21
110.5077961129
  0
LWPOLYLINE
  5
372
100
AcDbEntity
  8
RACCORDO
100
AcDbPolyline
 62
250
  6
CONTINUOUS
 90
4
 70
0
 10
179.0298293777
 20
111.058974227
 10
179.2202096546
 20
111.006163144
 10
179.2219273197
 20
111.0056755003
 10
179.2225822867
 20
111.0054817758
  0
LWPOLYLINE
  5
373
100
AcDbEntity
  8
ASSI
100
AcDbPolyline
 62
250
  6
CONTINUOUS
 90
4
 70
0
 10
179.0298293777
 20
111.058974227
 10
179.2202096546
 20
111.006163144
 10
179.2219273197
 20
111.0056755003
 10
179.2225822867
 20
111.0054817758
  0
LWPOLYLINE
  5
374
100
AcDbEntity
  8
RACCORDO
100
AcDbPolyline
 62
250
  6
CONTINUOUS
 90
4
 70
0
 10
182.0759019455
 20
110.2159606999
 10
181.8855216685
 20
110.2687717829
 10
181.8838040035
 20
110.2692594266
 10
181.8831490365
 20
110.2694531511
  0
LWPOLYLINE
  5
375
100
AcDbEntity
  8
ASSI
100
AcDbPolyline
 62
250
  6
CONTINUOUS
 90
4
 70
0
 10
182.0759019455
 20
110.2159606999
 10
181.8855216685
 20
110.2687717829
 10
181.8838040035
 20
110.2692594266
 10
181.8831490365
 20
110.2694531511
  0
LINE
  5
376
100
AcDbEntity
  8
DRAFT
100
AcDbLine
 62
7
  6
CONTINUOUS
 10
178.2565239316
 20
110.5077961129
 11
178.2511330811
 21
110.5104141733
  0
LINE
  5
377
100
AcDbEntity
  8
ASSI
100
AcDbLine
 62
7
  6
CONTINUOUS
 10
178.2565239316
 20
110.5077961129
 11
178.2511330811
 21
110.5104141733
  0
LINE
  5
378
100
AcDbEntity
  8
RACCORDO
100
AcDbLine
 62
250
  6
CONTINUOUS
 10
179.2225809465
 20
111.0054784586
 11
179.2267713685
 21
111.0009216227
  0
LINE
  5
379
100
AcDbEntity
  8
ASSI
100
AcDbLine
 62
250
  6
CONTINUOUS
 10
179.2225809465
 20
111.0054784586
 11
179.2267713685
 21
111.0009216227
  0
LWPOLYLINE
  5
37A
100
AcDbEntity
  8
RACCORDO
100
AcDbPolyline
 62
250
  6
CONTINUOUS
 90
25
 70
0
 10
179.2225808676
 20
110.2694567529
 10
179.2178233847
 20
110.2849991481
 10
179.2122307668
 20
110.3002618819
 10
179.205819302
 20
110.3152000966
 10
179.1986076765
 20
110.3297698967
 10
179.1906169503
 20
110.3439284133
 10
179.1818705072
 20
110.3576339361
 10
179.172393673
 20
110.3708464769
 10
179.1622143995
 20
110.3835267863
 10
179.1513634092
 20
110.3956365587
 10
179.1398730895
 20
110.407139856
 10
179.1277768559
 20
110.4180034202
 10
179.1151098937
 20
110.4281957147
 10
179.101909441
 20
110.4376867874
 10
179.0882142429
 20
110.4464487923
 10
179.0740639808
 20
110.4544562897
 10
179.0594995723
 20
110.4616859543
 10
179.0445643255
 20
110.4681161233
 10
179.0293033704
 20
110.4737273854
 10
179.0137623776
 20
110.4785031538
 10
178.9979862599
 20
110.482429829
 10
178.9820202724
 20
110.4854961851
 10
178.9659109227
 20
110.4876932027
 10
178.9497058825
 20
110.4890142921
 10
178.9334527446
 20
110.4894555168
  0
LWPOLYLINE
  5
37B
100
AcDbEntity
  8
ASSI
100
AcDbPolyline
 62
250
  6
CONTINUOUS
 90
25
 70
0
 10
179.2225808676
 20
110.2694567529
 10
179.2178233847
 20
110.2849991481
 10
179.2122307668
 20
110.3002618819
 10
179.205819302
 20
110.3152000966
 10
179.1986076765
 20
110.3297698967
 10
179.1906169503
 20
110.3439284133
 10
179.1818705072
 20
110.3576339361
 10
179.172393673
 20
110.3708464769
 10
179.1622143995
 20
110.3835267863
 10
179.1513634092
 20
110.3956365587
 10
179.1398730895
 20
110.407139856
 10
179.1277768559
 20
110.4180034202
 10
179.1151098937
 20
110.4281957147
 10
179.101909441
 20
110.4376867874
 10
179.0882142429
 20
110.4464487923
 10
179.0740639808
 20
110.4544562897
 10
179.0594995723
 20
110.4616859543
 10
179.0445643255
 20
110.4681161233
 10
179.0293033704
 20
110.4737273854
 10
179.0137623776
 20
110.4785031538
 10
178.9979862599
 20
110.482429829
 10
178.9820202724
 20
110.4854961851
 10
178.9659109227
 20
110.4876932027
 10
178.9497058825
 20
110.4890142921
 10
178.9334527446
 20
110.4894555168
  0
LINE
  5
37C
100
AcDbEntity
  8
RACCORDO
100
AcDbLine
 62
250
  6
CONTINUOUS
 10
182.1722785786
 20
110.9856110521
 11
182.1722785786
 21
110.78547941
  0
LINE
  5
37D
100
AcDbEntity
  8
ASSI
100
AcDbLine
 62
250
  6
CONTINUOUS
 10
182.1722785786
 20
110.9856110521
 11
182.1722785786
 21
110.78547941
  0
LINE
  5
37E
100
AcDbEntity
  8
RACCORDO
100
AcDbLine
 62
250
  6
CONTINUOUS
 10
182.1722785786
 20
110.2893238748
 11
182.1722785786
 21
110.4894555168
  0
LINE
  5
37F
100
AcDbEntity
  8
ASSI
100
AcDbLine
 62
250
  6
CONTINUOUS
 10
182.1722785786
 20
110.2893238748
 11
182.1722785786
 21
110.4894555168
  0
LWPOLYLINE
  5
380
100
AcDbEntity
  8
RACCORDO
100
AcDbPolyline
 62
250
  6
CONTINUOUS
 90
64
 70
0
 10
182.0759019455
 20
110.2159606998
 10
182.0575753775
 20
110.1544164208
 10
182.0367022194
 20
110.0936352389
 10
182.0132824711
 20
110.0336171547
 10
181.98727324
 20
109.9742158519
 10
181.9587174187
 20
109.9155776479
 10
181.9277436858
 20
109.8581414931
 10
181.8943206185
 20
109.8019200231
 10
181.8584796397
 20
109.7469006026
 10
181.8204436965
 20
109.6934842752
 10
181.7801910518
 20
109.6416957353
 10
181.7377434428
 20
109.5915102879
 10
181.6933890283
 20
109.5432548926
 10
181.6471426739
 20
109.4969739052
 10
181.5989895139
 20
109.4526229683
 10
181.549173111
 20
109.4103959719
 10
181.4977011282
 20
109.3703071959
 10
181.4445659024
 20
109.3323423583
 10
181.3899880071
 20
109.296652505
 10
181.3339461475
 20
109.2632335111
 10
181.2764616184
 20
109.2320894994
 10
181.2178188774
 20
109.2033838866
 10
181.1580003017
 20
109.1771258065
 10
181.0970235141
 20
109.1533061234
 10
181.0352258401
 20
109.1320608493
 10
180.9726090711
 20
109.1134082048
 10
180.9091714157
 20
109.0973299676
 10
180.8452448249
 20
109.0839074864
 10
180.780831241
 20
109.0731552641
 10
180.7159287217
 20
109.0650587965
 10
180.6508633913
 20
109.0596559219
 10
180.5856353793
 20
109.0569592706
 10
180.5202445562
 20
109.0569562118
 10
180.4550166575
 20
109.0596466917
 10
180.3899516662
 20
109.0650433072
 10
180.3250495994
 20
109.0731334618
 10
180.2606362438
 20
109.0838793118
 10
180.1967097598
 20
109.0972952557
 10
180.1332719871
 20
109.1133668961
 10
180.0706542314
 20
109.1320131953
 10
180.008854429
 20
109.1532524082
 10
179.9478746438
 20
109.1770662817
 10
179.8880523724
 20
109.2033190157
 10
179.8294047875
 20
109.2320201243
 10
179.7719147166
 20
109.2631600956
 10
179.7158681382
 20
109.2965745911
 10
179.6612867477
 20
109.3322594908
 10
179.6081488497
 20
109.3702189168
 10
179.5566753369
 20
109.410300893
 10
179.5068594332
 20
109.4525187553
 10
179.4587079147
 20
109.49685917
 10
179.4124620026
 20
109.5431301563
 10
179.3681065585
 20
109.5913755537
 10
179.3256567208
 20
109.6415515244
 10
179.2853991258
 20
109.6933345718
 10
179.2473545212
 20
109.7467502389
 10
179.2115021594
 20
109.8017729835
 10
179.178066434
 20
109.8580026801
 10
179.1470784712
 20
109.9154528384
 10
179.1185071449
 20
109.9741099485
 10
179.0924834708
 20
110.0335333557
 10
179.0690511208
 20
110.0935761746
 10
179.0481664231
 20
110.1543852895
 10
179.0298293777
 20
110.2159606998
  0
LWPOLYLINE
  5
381
100
AcDbEntity
  8
ASSI
100
AcDbPolyline
 62
250
  6
CONTINUOUS
 90
64
 70
0
 10
182.0759019455
 20
110.2159606998
 10
182.0575753775
 20
110.1544164208
 10
182.0367022194
 20
110.0936352389
 10
182.0132824711
 20
110.0336171547
 10
181.98727324
 20
109.9742158519
 10
181.9587174187
 20
109.9155776479
 10
181.9277436858
 20
109.8581414931
 10
181.8943206185
 20
109.8019200231
 10
181.8584796397
 20
109.7469006026
 10
181.8204436965
 20
109.6934842752
 10
181.7801910518
 20
109.6416957353
 10
181.7377434428
 20
109.5915102879
 10
181.6933890283
 20
109.5432548926
 10
181.6471426739
 20
109.4969739052
 10
181.5989895139
 20
109.4526229683
 10
181.549173111
 20
109.4103959719
 10
181.4977011282
 20
109.3703071959
 10
181.4445659024
 20
109.3323423583
 10
181.3899880071
 20
109.296652505
 10
181.3339461475
 20
109.2632335111
 10
181.2764616184
 20
109.2320894994
 10
181.2178188774
 20
109.2033838866
 10
181.1580003017
 20
109.1771258065
 10
181.0970235141
 20
109.1533061234
 10
181.0352258401
 20
109.1320608493
 10
180.9726090711
 20
109.1134082048
 10
180.9091714157
 20
109.0973299676
 10
180.8452448249
 20
109.0839074864
 10
180.780831241
 20
109.0731552641
 10
180.7159287217
 20
109.0650587965
 10
180.6508633913
 20
109.0596559219
 10
180.5856353793
 20
109.0569592706
 10
180.5202445562
 20
109.0569562118
 10
180.4550166575
 20
109.0596466917
 10
180.3899516662
 20
109.0650433072
 10
180.3250495994
 20
109.0731334618
 10
180.2606362438
 20
109.0838793118
 10
180.1967097598
 20
109.0972952557
 10
180.1332719871
 20
109.1133668961
 10
180.0706542314
 20
109.1320131953
 10
180.008854429
 20
109.1532524082
 10
179.9478746438
 20
109.1770662817
 10
179.8880523724
 20
109.2033190157
 10
179.8294047875
 20
109.2320201243
 10
179.7719147166
 20
109.2631600956
 10
179.7158681382
 20
109.2965745911
 10
179.6612867477
 20
109.3322594908
 10
179.6081488497
 20
109.3702189168
 10
179.5566753369
 20
109.410300893
 10
179.5068594332
 20
109.4525187553
 10
179.4587079147
 20
109.49685917
 10
179.4124620026
 20
109.5431301563
 10
179.3681065585
 20
109.5913755537
 10
179.3256567208
 20
109.6415515244
 10
179.2853991258
 20
109.6933345718
 10
179.2473545212
 20
109.7467502389
 10
179.2115021594
 20
109.8017729835
 10
179.178066434
 20
109.8580026801
 10
179.1470784712
 20
109.9154528384
 10
179.1185071449
 20
109.9741099485
 10
179.0924834708
 20
110.0335333557
 10
179.0690511208
 20
110.0935761746
 10
179.0481664231
 20
110.1543852895
 10
179.0298293777
 20
110.2159606998
  0
LWPOLYLINE
  5
382
100
AcDbEntity
  8
RACCORDO
100
AcDbPolyline
 62
250
  6
CONTINUOUS
 90
64
 70
0
 10
181.8831503766
 20
110.2694564682
 10
181.8671505757
 20
110.2158712962
 10
181.8489135583
 20
110.1627606993
 10
181.828442784
 20
110.1102217739
 10
181.8057316012
 20
110.0583214221
 10
181.7808039396
 20
110.0071906798
 10
181.7537270859
 20
109.9570183419
 10
181.7245324917
 20
109.9078964785
 10
181.6932570478
 20
109.8599186387
 10
181.6600049177
 20
109.813261784
 10
181.6248354734
 20
109.7680132432
 10
181.5878033015
 20
109.7242470496
 10
181.5490298214
 20
109.6821026495
 10
181.5086136668
 20
109.6416721906
 10
181.4666059146
 20
109.6029923632
 10
181.4230666921
 20
109.5661095862
 10
181.3780834879
 20
109.5310901903
 10
181.3317271292
 20
109.4979817961
 10
181.2840299817
 20
109.466805583
 10
181.2350568069
 20
109.4376076541
 10
181.1849047428
 20
109.4104496033
 10
181.1336535953
 20
109.3853773528
 10
181.0813802754
 20
109.3624322694
 10
181.0281822112
 20
109.3416607934
 10
180.9741736597
 20
109.3231087637
 10
180.9194534288
 20
109.3068092532
 10
180.8641092078
 20
109.2927875282
 10
180.8082417018
 20
109.2810682774
 10
180.7519504964
 20
109.2716709567
 10
180.6953282785
 20
109.2646096199
 10
180.6384664796
 20
109.2598948355
 10
180.5814629841
 20
109.2575341915
 10
180.5244145202
 20
109.2575311699
 10
180.4674110143
 20
109.2598857607
 10
180.4105492727
 20
109.2645944541
 10
180.3539270947
 20
109.2716496447
 10
180.2976356668
 20
109.2810407897
 10
180.2417677765
 20
109.2927538224
 10
180.1864229025
 20
109.3067693141
 10
180.1317012141
 20
109.3230627597
 10
180.0776902252
 20
109.3416090418
 10
180.024488974
 20
109.3623751081
 10
179.9722118139
 20
109.385315167
 10
179.9209557675
 20
109.4103830695
 10
179.8707982479
 20
109.437537316
 10
179.8218204312
 20
109.4667312135
 10
179.7741196322
 20
109.4979029028
 10
179.7277603057
 20
109.5310063131
 10
179.6827753044
 20
109.5660197051
 10
179.6392361465
 20
109.6028945633
 10
179.5972292744
 20
109.6415650769
 10
179.5568128411
 20
109.6819865726
 10
179.5180381012
 20
109.7241223174
 10
179.4810036176
 20
109.7678803949
 10
179.4458289952
 20
109.8131239996
 10
179.4125686407
 20
109.8597802603
 10
179.3812830001
 20
109.9077613281
 10
179.3520766508
 20
109.956890566
 10
179.3249867304
 20
110.0070750744
 10
179.3000454442
 20
110.0582225246
 10
179.277321124
 20
110.1101429501
 10
179.256838207
 20
110.1627048936
 10
179.2385901872
 20
110.2158418709
 10
179.2225808678
 20
110.269456753
  0
LWPOLYLINE
  5
383
100
AcDbEntity
  8
ASSI
100
AcDbPolyline
 62
250
  6
CONTINUOUS
 90
64
 70
0
 10
181.8831503766
 20
110.2694564682
 10
181.8671505757
 20
110.2158712962
 10
181.8489135583
 20
110.1627606993
 10
181.828442784
 20
110.1102217739
 10
181.8057316012
 20
110.0583214221
 10
181.7808039396
 20
110.0071906798
 10
181.7537270859
 20
109.9570183419
 10
181.7245324917
 20
109.9078964785
 10
181.6932570478
 20
109.8599186387
 10
181.6600049177
 20
109.813261784
 10
181.6248354734
 20
109.7680132432
 10
181.5878033015
 20
109.7242470496
 10
181.5490298214
 20
109.6821026495
 10
181.5086136668
 20
109.6416721906
 10
181.4666059146
 20
109.6029923632
 10
181.4230666921
 20
109.5661095862
 10
181.3780834879
 20
109.5310901903
 10
181.3317271292
 20
109.4979817961
 10
181.2840299817
 20
109.466805583
 10
181.2350568069
 20
109.4376076541
 10
181.1849047428
 20
109.4104496033
 10
181.1336535953
 20
109.3853773528
 10
181.0813802754
 20
109.3624322694
 10
181.0281822112
 20
109.3416607934
 10
180.9741736597
 20
109.3231087637
 10
180.9194534288
 20
109.3068092532
 10
180.8641092078
 20
109.2927875282
 10
180.8082417018
 20
109.2810682774
 10
180.7519504964
 20
109.2716709567
 10
180.6953282785
 20
109.2646096199
 10
180.6384664796
 20
109.2598948355
 10
180.5814629841
 20
109.2575341915
 10
180.5244145202
 20
109.2575311699
 10
180.4674110143
 20
109.2598857607
 10
180.4105492727
 20
109.2645944541
 10
180.3539270947
 20
109.2716496447
 10
180.2976356668
 20
109.2810407897
 10
180.2417677765
 20
109.2927538224
 10
180.1864229025
 20
109.3067693141
 10
180.1317012141
 20
109.3230627597
 10
180.0776902252
 20
109.3416090418
 10
180.024488974
 20
109.3623751081
 10
179.9722118139
 20
109.385315167
 10
179.9209557675
 20
109.4103830695
 10
179.8707982479
 20
109.437537316
 10
179.8218204312
 20
109.4667312135
 10
179.7741196322
 20
109.4979029028
 10
179.7277603057
 20
109.5310063131
 10
179.6827753044
 20
109.5660197051
 10
179.6392361465
 20
109.6028945633
 10
179.5972292744
 20
109.6415650769
 10
179.5568128411
 20
109.6819865726
 10
179.5180381012
 20
109.7241223174
 10
179.4810036176
 20
109.7678803949
 10
179.4458289952
 20
109.8131239996
 10
179.4125686407
 20
109.8597802603
 10
179.3812830001
 20
109.9077613281
 10
179.3520766508
 20
109.956890566
 10
179.3249867304
 20
110.0070750744
 10
179.3000454442
 20
110.0582225246
 10
179.277321124
 20
110.1101429501
 10
179.256838207
 20
110.1627048936
 10
179.2385901872
 20
110.2158418709
 10
179.2225808678
 20
110.269456753
  0
LWPOLYLINE
  5
384
100
AcDbEntity
  8
0
100
AcDbPolyline
 62
7
  6
CONTINUOUS
 90
25
 70
0
 10
181.8789599547
 20
110.2740133042
 10
181.8836789389
 20
110.2895762283
 10
181.8892139309
 20
110.3048048486
 10
181.8955649309
 20
110.3196991651
 10
181.902765301
 20
110.3343199399
 10
181.9107816791
 20
110.3486064109
 10
181.9195139782
 20
110.3623762915
 10
181.9289441711
 20
110.3755893482
 10
181.9390902851
 20
110.3882858146
 10
181.9499063157
 20
110.4004041048
 10
181.961420235
 20
110.4119669533
 10
181.9736040708
 20
110.4229516256
 10
181.9863279019
 20
110.4332283332
 10
181.99960158
 20
110.442784122
 10
182.0134152535
 20
110.4516319461
 10
182.0276094455
 20
110.4596808782
 10
182.042154084
 20
110.4669098372
 10
182.0570792411
 20
110.4733399043
 10
182.0723156562
 20
110.4789433953
 10
182.0879088886
 20
110.4837275659
 10
182.103813379
 20
110.4876851604
 10
182.1198231893
 20
110.4907667274
 10
182.1358696736
 20
110.4929557829
 10
182.1520214777
 20
110.4942688109
 10
182.1682786018
 20
110.4947058113
  0
LWPOLYLINE
  5
385
100
AcDbEntity
  8
ASSI
100
AcDbPolyline
 62
7
  6
CONTINUOUS
 90
25
 70
0
 10
181.8789599547
 20
110.2740133042
 10
181.8836789389
 20
110.2895762283
 10
181.8892139309
 20
110.3048048486
 10
181.8955649309
 20
110.3196991651
 10
181.902765301
 20
110.3343199399
 10
181.9107816791
 20
110.3486064109
 10
181.9195139782
 20
110.3623762915
 10
181.9289441711
 20
110.3755893482
 10
181.9390902851
 20
110.3882858146
 10
181.9499063157
 20
110.4004041048
 10
181.961420235
 20
110.4119669533
 10
181.9736040708
 20
110.4229516256
 10
181.9863279019
 20
110.4332283332
 10
181.99960158
 20
110.442784122
 10
182.0134152535
 20
110.4516319461
 10
182.0276094455
 20
110.4596808782
 10
182.042154084
 20
110.4669098372
 10
182.0570792411
 20
110.4733399043
 10
182.0723156562
 20
110.4789433953
 10
182.0879088886
 20
110.4837275659
 10
182.103813379
 20
110.4876851604
 10
182.1198231893
 20
110.4907667274
 10
182.1358696736
 20
110.4929557829
 10
182.1520214777
 20
110.4942688109
 10
182.1682786018
 20
110.4947058113
  0
LINE
  5
386
100
AcDbEntity
  8
RACCORDO
100
AcDbLine
 62
250
  6
CONTINUOUS
 10
181.8789599547
 20
111.0009216227
 11
181.8831504554
 21
111.0054781738
  0
LINE
  5
387
100
AcDbEntity
  8
ASSI
100
AcDbLine
 62
250
  6
CONTINUOUS
 10
181.8789599547
 20
111.0009216227
 11
181.8831504554
 21
111.0054781738
  0
LINE
  5
388
100
AcDbEntity
  8
DRAFT
100
AcDbLine
 62
7
  6
CONTINUOUS
 10
182.8545982421
 20
110.5104141733
 11
182.8492073916
 21
110.5077961129
  0
LINE
  5
389
100
AcDbEntity
  8
ASSI
100
AcDbLine
 62
7
  6
CONTINUOUS
 10
182.8545982421
 20
110.5104141733
 11
182.8492073916
 21
110.5077961129
  0
LINE
  5
38A
100
AcDbEntity
  8
DRAFT
100
AcDbLine
 62
7
  6
CONTINUOUS
 10
178.6298515029
 20
110.7671388139
 11
178.6833084652
 21
110.7802291156
  0
LINE
  5
38B
100
AcDbEntity
  8
ASSI
100
AcDbLine
 62
7
  6
CONTINUOUS
 10
178.6298515029
 20
110.7671388139
 11
178.6833084652
 21
110.7802291156
  0
LWPOLYLINE
  5
38C
100
AcDbEntity
  8
RACCORDO
100
AcDbPolyline
 62
250
  6
CONTINUOUS
 90
5
 70
0
 10
169.4937819409
 20
110.9828993495
 10
169.494902978
 20
110.9830425
 10
169.4973612142
 20
110.9831844787
 10
169.5011498008
 20
110.9833252376
 10
169.5062580661
 20
110.9834650432
  0
LWPOLYLINE
  5
38D
100
AcDbEntity
  8
ASSI
100
AcDbPolyline
 62
250
  6
CONTINUOUS
 90
5
 70
0
 10
169.4937819409
 20
110.9828993495
 10
169.494902978
 20
110.9830425
 10
169.4973612142
 20
110.9831844787
 10
169.5011498008
 20
110.9833252376
 10
169.5062580661
 20
110.9834650432
  0
LWPOLYLINE
  5
38E
100
AcDbEntity
  8
RACCORDO
100
AcDbPolyline
 62
250
  6
CONTINUOUS
 90
25
 70
0
 10
178.9334527446
 20
110.9856110521
 10
178.9388935245
 20
110.9857611816
 10
178.944287498
 20
110.9862006745
 10
178.9496346651
 20
110.9869295308
 10
178.9549505162
 20
110.9879515439
 10
178.9602195608
 20
110.9892629204
 10
178.9653953284
 20
110.9908522801
 10
178.9704769979
 20
110.9927220757
 10
178.9754653903
 20
110.9948698546
 10
178.9803164978
 20
110.9972768786
 10
178.9850289912
 20
110.9999453874
 10
178.9896041996
 20
111.0028731413
 10
178.9940021034
 20
111.0060346832
 10
178.9982213115
 20
111.0094322171
 10
179.0022632149
 20
111.0130635391
 10
179.0060919665
 20
111.0168965798
 10
179.0097056274
 20
111.0209332189
 10
179.0131061366
 20
111.0251715769
 10
179.0162634637
 20
111.0295739452
 10
179.0191754196
 20
111.0341419299
 10
179.0218441934
 20
111.038873925
 10
179.0242463224
 20
111.0437274048
 10
179.0263739856
 20
111.0486881942
 10
179.0282350041
 20
111.0537704683
 10
179.0298293777
 20
111.0589742271
  0
LWPOLYLINE
  5
38F
100
AcDbEntity
  8
ASSI
100
AcDbPolyline
 62
250
  6
CONTINUOUS
 90
25
 70
0
 10
178.9334527446
 20
110.9856110521
 10
178.9388935245
 20
110.9857611816
 10
178.944287498
 20
110.9862006745
 10
178.9496346651
 20
110.9869295308
 10
178.9549505162
 20
110.9879515439
 10
178.9602195608
 20
110.9892629204
 10
178.9653953284
 20
110.9908522801
 10
178.9704769979
 20
110.9927220757
 10
178.9754653903
 20
110.9948698546
 10
178.9803164978
 20
110.9972768786
 10
178.9850289912
 20
110.9999453874
 10
178.9896041996
 20
111.0028731413
 10
178.9940021034
 20
111.0060346832
 10
178.9982213115
 20
111.0094322171
 10
179.0022632149
 20
111.0130635391
 10
179.0060919665
 20
111.0168965798
 10
179.0097056274
 20
111.0209332189
 10
179.0131061366
 20
111.0251715769
 10
179.0162634637
 20
111.0295739452
 10
179.0191754196
 20
111.0341419299
 10
179.0218441934
 20
111.038873925
 10
179.0242463224
 20
111.0437274048
 10
179.0263739856
 20
111.0486881942
 10
179.0282350041
 20
111.0537704683
 10
179.0298293777
 20
111.0589742271
  0
LINE
  5
390
100
AcDbEntity
  8
RACCORDO
100
AcDbLine
 62
250
  6
CONTINUOUS
 10
169.7097027332
 20
110.7837048463
 11
169.7212264031
 21
110.7839566685
  0
LINE
  5
391
100
AcDbEntity
  8
ASSI
100
AcDbLine
 62
250
  6
CONTINUOUS
 10
169.7097027332
 20
110.7837048463
 11
169.7212264031
 21
110.7839566685
  0
LINE
  5
392
100
AcDbEntity
  8
RACCORDO
100
AcDbLine
 62
250
  6
CONTINUOUS
 10
169.5062580661
 20
110.9834650432
 11
169.5203759112
 21
110.9837397178
  0
LINE
  5
393
100
AcDbEntity
  8
ASSI
100
AcDbLine
 62
250
  6
CONTINUOUS
 10
169.5062580661
 20
110.9834650432
 11
169.5203759112
 21
110.9837397178
  0
LINE
  5
394
100
AcDbEntity
  8
RACCORDO
100
AcDbLine
 62
250
  6
CONTINUOUS
 10
169.7212264031
 20
110.7839566685
 11
169.7439290819
 21
110.7843114232
  0
LINE
  5
395
100
AcDbEntity
  8
ASSI
100
AcDbLine
 62
250
  6
CONTINUOUS
 10
169.7212264031
 20
110.7839566685
 11
169.7439290819
 21
110.7843114232
  0
LINE
  5
396
100
AcDbEntity
  8
RACCORDO
100
AcDbLine
 62
250
  6
CONTINUOUS
 10
169.5203759112
 20
110.9837397178
 11
169.5510052966
 21
110.9841330258
  0
LINE
  5
397
100
AcDbEntity
  8
ASSI
100
AcDbLine
 62
250
  6
CONTINUOUS
 10
169.5203759112
 20
110.9837397178
 11
169.5510052966
 21
110.9841330258
  0
LWPOLYLINE
  5
398
100
AcDbEntity
  8
RACCORDO
100
AcDbPolyline
 62
250
  6
CONTINUOUS
 90
3
 70
0
 10
169.7439290819
 20
110.7843114232
 10
169.7947832981
 20
110.7848210703
 10
169.8066967523
 20
110.7849084602
  0
LWPOLYLINE
  5
399
100
AcDbEntity
  8
ASSI
100
AcDbPolyline
 62
250
  6
CONTINUOUS
 90
3
 70
0
 10
169.7439290819
 20
110.7843114232
 10
169.7947832981
 20
110.7848210703
 10
169.8066967523
 20
110.7849084602
  0
LINE
  5
39A
100
AcDbEntity
  8
RACCORDO
100
AcDbLine
 62
250
  6
CONTINUOUS
 10
169.5510052966
 20
110.9841330258
 11
169.6432525454
 21
110.9848185066
  0
LINE
  5
39B
100
AcDbEntity
  8
ASSI
100
AcDbLine
 62
250
  6
CONTINUOUS
 10
169.5510052966
 20
110.9841330258
 11
169.6432525454
 21
110.9848185066
  0
LINE
  5
39C
100
AcDbEntity
  8
RACCORDO
100
AcDbLine
 62
250
  6
CONTINUOUS
 10
169.6432525454
 20
110.9848185066
 11
169.8408763942
 21
110.9854783115
  0
LINE
  5
39D
100
AcDbEntity
  8
ASSI
100
AcDbLine
 62
250
  6
CONTINUOUS
 10
169.6432525454
 20
110.9848185066
 11
169.8408763942
 21
110.9854783115
  0
LINE
  5
39E
100
AcDbEntity
  8
RACCORDO
100
AcDbLine
 62
250
  6
CONTINUOUS
 10
169.8408763942
 20
110.9854783115
 11
178.9334527446
 21
110.9856110521
  0
LINE
  5
39F
100
AcDbEntity
  8
ASSI
100
AcDbLine
 62
250
  6
CONTINUOUS
 10
169.8408763942
 20
110.9854783115
 11
178.9334527446
 21
110.9856110521
  0
LINE
  5
3A0
100
AcDbEntity
  8
RACCORDO
100
AcDbLine
 62
250
  6
CONTINUOUS
 10
182.1722785786
 20
110.9856110521
 11
191.3366749
 21
110.9853158956
  0
LINE
  5
3A1
100
AcDbEntity
  8
ASSI
100
AcDbLine
 62
250
  6
CONTINUOUS
 10
182.1722785786
 20
110.9856110521
 11
191.3366749
 21
110.9853158956
  0
LINE
  5
3A2
100
AcDbEntity
  8
RACCORDO
100
AcDbLine
 62
250
  6
CONTINUOUS
 10
191.3366749
 20
110.9853158956
 11
191.5134365588
 21
110.9844955185
  0
LINE
  5
3A3
100
AcDbEntity
  8
ASSI
100
AcDbLine
 62
250
  6
CONTINUOUS
 10
191.3366749
 20
110.9853158956
 11
191.5134365588
 21
110.9844955185
  0
LINE
  5
3A4
100
AcDbEntity
  8
RACCORDO
100
AcDbLine
 62
250
  6
CONTINUOUS
 10
191.2990345703
 20
110.7849084602
 11
191.3528770532
 21
110.7844222313
  0
LINE
  5
3A5
100
AcDbEntity
  8
ASSI
100
AcDbLine
 62
250
  6
CONTINUOUS
 10
191.2990345703
 20
110.7849084602
 11
191.3528770532
 21
110.7844222313
  0
LINE
  5
3A6
100
AcDbEntity
  8
RACCORDO
100
AcDbLine
 62
250
  6
CONTINUOUS
 10
191.5134365588
 20
110.9844955185
 11
191.5661625989
 21
110.9840049763
  0
LINE
  5
3A7
100
AcDbEntity
  8
ASSI
100
AcDbLine
 62
250
  6
CONTINUOUS
 10
191.5134365588
 20
110.9844955185
 11
191.5661625989
 21
110.9840049763
  0
LINE
  5
3A8
100
AcDbEntity
  8
RACCORDO
100
AcDbLine
 62
250
  6
CONTINUOUS
 10
191.5661625989
 20
110.9840049763
 11
191.5853554116
 21
110.9837397178
  0
LINE
  5
3A9
100
AcDbEntity
  8
ASSI
100
AcDbLine
 62
250
  6
CONTINUOUS
 10
191.5661625989
 20
110.9840049763
 11
191.5853554116
 21
110.9837397178
  0
LINE
  5
3AA
100
AcDbEntity
  8
RACCORDO
100
AcDbLine
 62
250
  6
CONTINUOUS
 10
191.3528770532
 20
110.7844222313
 11
191.3776520133
 21
110.7840781978
  0
LINE
  5
3AB
100
AcDbEntity
  8
ASSI
100
AcDbLine
 62
250
  6
CONTINUOUS
 10
191.3528770532
 20
110.7844222313
 11
191.3776520133
 21
110.7840781978
  0
LWPOLYLINE
  5
3AC
100
AcDbEntity
  8
RACCORDO
100
AcDbPolyline
 62
250
  6
CONTINUOUS
 90
9
 70
0
 10
191.3776520133
 20
110.7840781978
 10
191.3906468946
 20
110.7838318816
 10
191.3960285897
 20
110.7837048463
 10
191.4006437272
 20
110.7835755425
 10
191.404498585
 20
110.7834439904
 10
191.407562648
 20
110.7833112588
 10
191.4098257446
 20
110.783177704
 10
191.4112980464
 20
110.7830429698
 10
191.4119795534
 20
110.7829070561
  0
LWPOLYLINE
  5
3AD
100
AcDbEntity
  8
ASSI
100
AcDbPolyline
 62
250
  6
CONTINUOUS
 90
9
 70
0
 10
191.3776520133
 20
110.7840781978
 10
191.3906468946
 20
110.7838318816
 10
191.3960285897
 20
110.7837048463
 10
191.4006437272
 20
110.7835755425
 10
191.404498585
 20
110.7834439904
 10
191.407562648
 20
110.7833112588
 10
191.4098257446
 20
110.783177704
 10
191.4112980464
 20
110.7830429698
 10
191.4119795534
 20
110.7829070561
  0
LWPOLYLINE
  5
3AE
100
AcDbEntity
  8
RACCORDO
100
AcDbPolyline
 62
250
  6
CONTINUOUS
 90
6
 70
0
 10
191.5853554116
 20
110.9837397178
 10
191.5994732567
 20
110.9834650432
 10
191.6045815221
 20
110.9833252376
 10
191.6083701088
 20
110.9831844788
 10
191.6108283451
 20
110.9830425
 10
191.6119493822
 20
110.9828993495
  0
LWPOLYLINE
  5
3AF
100
AcDbEntity
  8
ASSI
100
AcDbPolyline
 62
250
  6
CONTINUOUS
 90
6
 70
0
 10
191.5853554116
 20
110.9837397178
 10
191.5994732567
 20
110.9834650432
 10
191.6045815221
 20
110.9833252376
 10
191.6083701088
 20
110.9831844788
 10
191.6108283451
 20
110.9830425
 10
191.6119493822
 20
110.9828993495
  0
LWPOLYLINE
  5
3B0
100
AcDbEntity
  8
0
100
AcDbPolyline
 62
7
  6
CONTINUOUS
 90
23
 70
0
 10
182.1358696736
 20
110.781979144
 10
182.1198231893
 20
110.7841681995
 10
182.103813379
 20
110.7872497664
 10
182.0879088886
 20
110.7912073609
 10
182.0723156562
 20
110.7959915316
 10
182.0570792411
 20
110.8015950225
 10
182.042154084
 20
110.8080250896
 10
182.0276094455
 20
110.8152540487
 10
182.0134152535
 20
110.8233029808
 10
181.99960158
 20
110.8321508048
 10
181.9863279019
 20
110.8417065937
 10
181.9736040708
 20
110.8519833013
 10
181.961420235
 20
110.8629679736
 10
181.9499063157
 20
110.8745308221
 10
181.9390902851
 20
110.8866491123
 10
181.9289441711
 20
110.8993455786
 10
181.9195139782
 20
110.9125586353
 10
181.9107816791
 20
110.926328516
 10
181.902765301
 20
110.9406149869
 10
181.8955649309
 20
110.9552357618
 10
181.8892139309
 20
110.9701300782
 10
181.8836789389
 20
110.9853586986
 10
181.8789599547
 20
111.0009216227
  0
LWPOLYLINE
  5
3B1
100
AcDbEntity
  8
ASSI
100
AcDbPolyline
 62
7
  6
CONTINUOUS
 90
23
 70
0
 10
182.1358696736
 20
110.781979144
 10
182.1198231893
 20
110.7841681995
 10
182.103813379
 20
110.7872497664
 10
182.0879088886
 20
110.7912073609
 10
182.0723156562
 20
110.7959915316
 10
182.0570792411
 20
110.8015950225
 10
182.042154084
 20
110.8080250896
 10
182.0276094455
 20
110.8152540487
 10
182.0134152535
 20
110.8233029808
 10
181.99960158
 20
110.8321508048
 10
181.9863279019
 20
110.8417065937
 10
181.9736040708
 20
110.8519833013
 10
181.961420235
 20
110.8629679736
 10
181.9499063157
 20
110.8745308221
 10
181.9390902851
 20
110.8866491123
 10
181.9289441711
 20
110.8993455786
 10
181.9195139782
 20
110.9125586353
 10
181.9107816791
 20
110.926328516
 10
181.902765301
 20
110.9406149869
 10
181.8955649309
 20
110.9552357618
 10
181.8892139309
 20
110.9701300782
 10
181.8836789389
 20
110.9853586986
 10
181.8789599547
 20
111.0009216227
  0
LINE
  5
3B2
100
AcDbEntity
  8
DRAFT
100
AcDbLine
 62
7
  6
CONTINUOUS
 10
182.422422858
 20
110.7802291156
 11
182.4758798203
 21
110.7671388139
  0
LINE
  5
3B3
100
AcDbEntity
  8
ASSI
100
AcDbLine
 62
7
  6
CONTINUOUS
 10
182.422422858
 20
110.7802291156
 11
182.4758798203
 21
110.7671388139
  0
LINE
  5
3B4
100
AcDbEntity
  8
DRAFT
100
AcDbLine
 62
7
  6
CONTINUOUS
 10
182.8492073916
 20
110.7671388139
 11
182.8545982421
 21
110.7645207536
  0
LINE
  5
3B5
100
AcDbEntity
  8
ASSI
100
AcDbLine
 62
7
  6
CONTINUOUS
 10
182.8492073916
 20
110.7671388139
 11
182.8545982421
 21
110.7645207536
  0
LINE
  5
3B6
100
AcDbEntity
  8
RACCORDO
100
AcDbLine
 62
250
  6
CONTINUOUS
 10
181.8831503766
 20
110.2694564682
 11
181.8789599547
 21
110.2740133042
  0
LINE
  5
3B7
100
AcDbEntity
  8
ASSI
100
AcDbLine
 62
250
  6
CONTINUOUS
 10
181.8831503766
 20
110.2694564682
 11
181.8789599547
 21
110.2740133042
  0
LWPOLYLINE
  5
3B8
100
AcDbEntity
  8
RACCORDO
100
AcDbPolyline
 62
250
  6
CONTINUOUS
 90
25
 70
0
 10
182.0759019455
 20
111.0589742271
 10
182.0774963191
 20
111.0537704683
 10
182.0793573375
 20
111.0486881942
 10
182.0814850008
 20
111.0437274048
 10
182.0838871298
 20
111.038873925
 10
182.0865559036
 20
111.0341419299
 10
182.0894678595
 20
111.0295739453
 10
182.0926251866
 20
111.0251715769
 10
182.0960256957
 20
111.020933219
 10
182.0996393566
 20
111.0168965798
 10
182.1034681083
 20
111.0130635391
 10
182.1075100116
 20
111.0094322171
 10
182.1117292198
 20
111.0060346832
 10
182.1161271235
 20
111.0028731413
 10
182.120702332
 20
110.9999453874
 10
182.1254148253
 20
110.9972768786
 10
182.1302659328
 20
110.9948698546
 10
182.1352543252
 20
110.9927220757
 10
182.1403359947
 20
110.9908522801
 10
182.1455117623
 20
110.9892629204
 10
182.150780807
 20
110.9879515439
 10
182.156096658
 20
110.9869295308
 10
182.1614438252
 20
110.9862006745
 10
182.1668377987
 20
110.9857611816
 10
182.1722785786
 20
110.9856110521
  0
LWPOLYLINE
  5
3B9
100
AcDbEntity
  8
ASSI
100
AcDbPolyline
 62
250
  6
CONTINUOUS
 90
25
 70
0
 10
182.0759019455
 20
111.0589742271
 10
182.0774963191
 20
111.0537704683
 10
182.0793573375
 20
111.0486881942
 10
182.0814850008
 20
111.0437274048
 10
182.0838871298
 20
111.038873925
 10
182.0865559036
 20
111.0341419299
 10
182.0894678595
 20
111.0295739453
 10
182.0926251866
 20
111.0251715769
 10
182.0960256957
 20
111.020933219
 10
182.0996393566
 20
111.0168965798
 10
182.1034681083
 20
111.0130635391
 10
182.1075100116
 20
111.0094322171
 10
182.1117292198
 20
111.0060346832
 10
182.1161271235
 20
111.0028731413
 10
182.120702332
 20
110.9999453874
 10
182.1254148253
 20
110.9972768786
 10
182.1302659328
 20
110.9948698546
 10
182.1352543252
 20
110.9927220757
 10
182.1403359947
 20
110.9908522801
 10
182.1455117623
 20
110.9892629204
 10
182.150780807
 20
110.9879515439
 10
182.156096658
 20
110.9869295308
 10
182.1614438252
 20
110.9862006745
 10
182.1668377987
 20
110.9857611816
 10
182.1722785786
 20
110.9856110521
  0
LWPOLYLINE
  5
3BA
100
AcDbEntity
  8
RACCORDO
100
AcDbPolyline
 62
250
  6
CONTINUOUS
 90
25
 70
0
 10
181.8831504555
 20
111.005478174
 10
181.8879079385
 20
110.9899357788
 10
181.8935005564
 20
110.974673045
 10
181.8999120212
 20
110.9597348303
 10
181.9071236467
 20
110.9451650301
 10
181.9151143729
 20
110.9310065136
 10
181.923860816
 20
110.9173009908
 10
181.9333376501
 20
110.9040884499
 10
181.9435169237
 20
110.8914081405
 10
181.954367914
 20
110.8792983682
 10
181.9658582337
 20
110.8677950709
 10
181.9779544672
 20
110.8569315066
 10
181.9906214295
 20
110.8467392122
 10
182.0038218821
 20
110.8372481395
 10
182.0175170802
 20
110.8284861346
 10
182.0316673424
 20
110.8204786372
 10
182.0462317508
 20
110.8132489726
 10
182.0611669976
 20
110.8068188035
 10
182.0764279528
 20
110.8012075414
 10
182.0919689456
 20
110.7964317731
 10
182.1077450632
 20
110.7925050979
 10
182.1237110507
 20
110.7894387417
 10
182.1398204004
 20
110.7872417241
 10
182.1560254407
 20
110.7859206348
 10
182.1722785786
 20
110.78547941
  0
LWPOLYLINE
  5
3BB
100
AcDbEntity
  8
ASSI
100
AcDbPolyline
 62
250
  6
CONTINUOUS
 90
25
 70
0
 10
181.8831504555
 20
111.005478174
 10
181.8879079385
 20
110.9899357788
 10
181.8935005564
 20
110.974673045
 10
181.8999120212
 20
110.9597348303
 10
181.9071236467
 20
110.9451650301
 10
181.9151143729
 20
110.9310065136
 10
181.923860816
 20
110.9173009908
 10
181.9333376501
 20
110.9040884499
 10
181.9435169237
 20
110.8914081405
 10
181.954367914
 20
110.8792983682
 10
181.9658582337
 20
110.8677950709
 10
181.9779544672
 20
110.8569315066
 10
181.9906214295
 20
110.8467392122
 10
182.0038218821
 20
110.8372481395
 10
182.0175170802
 20
110.8284861346
 10
182.0316673424
 20
110.8204786372
 10
182.0462317508
 20
110.8132489726
 10
182.0611669976
 20
110.8068188035
 10
182.0764279528
 20
110.8012075414
 10
182.0919689456
 20
110.7964317731
 10
182.1077450632
 20
110.7925050979
 10
182.1237110507
 20
110.7894387417
 10
182.1398204004
 20
110.7872417241
 10
182.1560254407
 20
110.7859206348
 10
182.1722785786
 20
110.78547941
  0
LINE
  5
3BC
100
AcDbEntity
  8
RACCORDO
100
AcDbLine
 62
250
  6
CONTINUOUS
 10
191.189411601
 20
132.7967801692
 11
191.1359262377
 21
132.6361935931
  0
LINE
  5
3BD
100
AcDbEntity
  8
ASSI
100
AcDbLine
 62
250
  6
CONTINUOUS
 10
191.189411601
 20
132.7967801692
 11
191.1359262377
 21
132.6361935931
  0
LWPOLYLINE
  5
3BE
100
AcDbEntity
  8
RACCORDO
100
AcDbPolyline
 62
250
  6
CONTINUOUS
 90
7
 70
0
 10
169.6937517698
 20
110.7829070561
 10
169.6944332768
 20
110.7830429698
 10
169.6959055785
 20
110.783177704
 10
169.698168675
 20
110.7833112588
 10
169.701232738
 20
110.7834439904
 10
169.7050875957
 20
110.7835755425
 10
169.7097027332
 20
110.7837048463
  0
LWPOLYLINE
  5
3BF
100
AcDbEntity
  8
ASSI
100
AcDbPolyline
 62
250
  6
CONTINUOUS
 90
7
 70
0
 10
169.6937517698
 20
110.7829070561
 10
169.6944332768
 20
110.7830429698
 10
169.6959055785
 20
110.783177704
 10
169.698168675
 20
110.7833112588
 10
169.701232738
 20
110.7834439904
 10
169.7050875957
 20
110.7835755425
 10
169.7097027332
 20
110.7837048463
  0
LINE
  5
3C0
100
AcDbEntity
  8
RACCORDO
100
AcDbLine
 62
250
  6
CONTINUOUS
 10
191.1359262377
 20
88.6387413338
 11
191.189411601
 21
88.4781547577
  0
LINE
  5
3C1
100
AcDbEntity
  8
ASSI
100
AcDbLine
 62
250
  6
CONTINUOUS
 10
191.1359262377
 20
88.6387413338
 11
191.189411601
 21
88.4781547577
  0
LINE
  5
3C2
100
AcDbEntity
  8
RACCORDO
100
AcDbLine
 62
250
  6
CONTINUOUS
 10
191.6897914243
 20
132.2988344414
 11
191.635849783
 21
132.136877918
  0
LINE
  5
3C3
100
AcDbEntity
  8
ASSI
100
AcDbLine
 62
250
  6
CONTINUOUS
 10
191.6897914243
 20
132.2988344414
 11
191.635849783
 21
132.136877918
  0
LINE
  5
3C4
100
AcDbEntity
  8
DRAFT
100
AcDbLine
 62
7
  6
CONTINUOUS
 10
190.3987549603
 20
110.5104141733
 11
190.4528656616
 21
110.5374674634
  0
LINE
  5
3C5
100
AcDbEntity
  8
ASSI
100
AcDbLine
 62
7
  6
CONTINUOUS
 10
190.3987549603
 20
110.5104141733
 11
190.4528656616
 21
110.5374674634
  0
LINE
  5
3C6
100
AcDbEntity
  8
RACCORDO
100
AcDbLine
 62
250
  6
CONTINUOUS
 10
191.5028656604
 20
110.5374674634
 11
191.4119795534
 21
110.4920278708
  0
LINE
  5
3C7
100
AcDbEntity
  8
ASSI
100
AcDbLine
 62
250
  6
CONTINUOUS
 10
191.5028656604
 20
110.5374674634
 11
191.4119795534
 21
110.4920278708
  0
LINE
  5
3C8
100
AcDbEntity
  8
DRAFT
100
AcDbLine
 62
7
  6
CONTINUOUS
 10
190.3987549603
 20
110.7645207536
 11
190.4528656616
 21
110.7374674634
  0
LINE
  5
3C9
100
AcDbEntity
  8
ASSI
100
AcDbLine
 62
7
  6
CONTINUOUS
 10
190.3987549603
 20
110.7645207536
 11
190.4528656616
 21
110.7374674634
  0
LINE
  5
3CA
100
AcDbEntity
  8
RACCORDO
100
AcDbLine
 62
250
  6
CONTINUOUS
 10
191.4119795534
 20
110.7829070561
 11
191.5028656604
 21
110.7374674634
  0
LINE
  5
3CB
100
AcDbEntity
  8
ASSI
100
AcDbLine
 62
250
  6
CONTINUOUS
 10
191.4119795534
 20
110.7829070561
 11
191.5028656604
 21
110.7374674634
  0
LINE
  5
3CC
100
AcDbEntity
  8
RACCORDO
100
AcDbLine
 62
250
  6
CONTINUOUS
 10
191.635849783
 20
89.1380570088
 11
191.6897914243
 21
88.9761004855
  0
LINE
  5
3CD
100
AcDbEntity
  8
ASSI
100
AcDbLine
 62
250
  6
CONTINUOUS
 10
191.635849783
 20
89.1380570088
 11
191.6897914243
 21
88.9761004855
  0
LWPOLYLINE
  5
3CE
100
AcDbEntity
  8
RACCORDO
100
AcDbPolyline
 62
250
  6
CONTINUOUS
 90
11
 70
0
 10
191.635849783
 20
132.136877918
 10
191.6351336728
 20
132.1338743281
 10
191.6344226248
 20
132.129214331
 10
191.6337166392
 20
132.1228979268
 10
191.6330145296
 20
132.11490896
 10
191.6323174823
 20
132.1052635861
 10
191.6316290563
 20
132.0940102716
 10
191.6309493031
 20
132.081140731
 10
191.6302781712
 20
132.0666632499
 10
191.6296190653
 20
132.0506511507
 10
191.6283370732
 20
132.0140079399
  0
LWPOLYLINE
  5
3CF
100
AcDbEntity
  8
ASSI
100
AcDbPolyline
 62
250
  6
CONTINUOUS
 90
11
 70
0
 10
191.635849783
 20
132.136877918
 10
191.6351336728
 20
132.1338743281
 10
191.6344226248
 20
132.129214331
 10
191.6337166392
 20
132.1228979268
 10
191.6330145296
 20
132.11490896
 10
191.6323174823
 20
132.1052635861
 10
191.6316290563
 20
132.0940102716
 10
191.6309493031
 20
132.081140731
 10
191.6302781712
 20
132.0666632499
 10
191.6296190653
 20
132.0506511507
 10
191.6283370732
 20
132.0140079399
  0
LINE
  5
3D0
100
AcDbEntity
  8
RACCORDO
100
AcDbLine
 62
250
  6
CONTINUOUS
 10
191.7028656616
 20
110.3374903087
 11
191.6119493825
 21
110.2920356312
  0
LINE
  5
3D1
100
AcDbEntity
  8
ASSI
100
AcDbLine
 62
250
  6
CONTINUOUS
 10
191.7028656616
 20
110.3374903087
 11
191.6119493825
 21
110.2920356312
  0
LWPOLYLINE
  5
3D2
100
AcDbEntity
  8
0
100
AcDbPolyline
 62
7
  6
CONTINUOUS
 90
3
 70
0
 43
0.3500000006
 10
198.6915316772
 20
111.7803247375
 10
198.9058161621
 20
111.7088935547
 10
199.1915408936
 20
111.5660402527
  0
LINE
  5
3D3
100
AcDbEntity
  8
RACCORDO
100
AcDbLine
 62
250
  6
CONTINUOUS
 10
191.6119493825
 20
110.9828992957
 11
191.7028656616
 21
110.9374446181
  0
LINE
  5
3D4
100
AcDbEntity
  8
ASSI
100
AcDbLine
 62
250
  6
CONTINUOUS
 10
191.6119493825
 20
110.9828992957
 11
191.7028656616
 21
110.9374446181
  0
LWPOLYLINE
  5
3D5
100
AcDbEntity
  8
RACCORDO
100
AcDbPolyline
 62
250
  6
CONTINUOUS
 90
8
 70
0
 10
191.1359261358
 20
132.636193593
 10
191.1352097806
 20
132.6317125026
 10
191.1344985598
 20
132.6247167094
 10
191.1337924736
 20
132.6152180003
 10
191.133090363
 20
132.603232472
 10
191.1323933869
 20
132.5887802531
 10
191.1317050219
 20
132.5718852919
 10
191.1303541631
 20
132.5308835459
  0
LWPOLYLINE
  5
3D6
100
AcDbEntity
  8
ASSI
100
AcDbPolyline
 62
250
  6
CONTINUOUS
 90
8
 70
0
 10
191.1359261358
 20
132.636193593
 10
191.1352097806
 20
132.6317125026
 10
191.1344985598
 20
132.6247167094
 10
191.1337924736
 20
132.6152180003
 10
191.133090363
 20
132.603232472
 10
191.1323933869
 20
132.5887802531
 10
191.1317050219
 20
132.5718852919
 10
191.1303541631
 20
132.5308835459
  0
LWPOLYLINE
  5
3D7
100
AcDbEntity
  8
0
100
AcDbPolyline
 62
7
  6
CONTINUOUS
 90
10
 70
0
 43
0.3500000006
 10
198.4772471924
 20
111.7088935547
 10
198.6201095581
 20
111.7803247375
 10
198.6915316772
 20
111.7803247375
 10
198.834394043
 20
111.6374714355
 10
198.834394043
 20
111.5660402527
 10
198.7629719238
 20
111.4946090698
 10
198.6915316772
 20
111.4946090698
 10
198.548687439
 20
111.5660402527
 10
198.4772471924
 20
111.6374714355
 10
198.4772471924
 20
111.7088935547
  0
LWPOLYLINE
  5
3D8
100
AcDbEntity
  8
RACCORDO
100
AcDbPolyline
 62
250
  6
CONTINUOUS
 90
9
 70
0
 10
191.6302781712
 20
89.2082716774
 10
191.6309493031
 20
89.1937941961
 10
191.6316290562
 20
89.1809246555
 10
191.6323174822
 20
89.169671341
 10
191.6330145296
 20
89.1600259671
 10
191.6337166392
 20
89.1520370002
 10
191.6344226248
 20
89.145720596
 10
191.6351336728
 20
89.1410605989
 10
191.635849783
 20
89.1380570088
  0
LWPOLYLINE
  5
3D9
100
AcDbEntity
  8
ASSI
100
AcDbPolyline
 62
250
  6
CONTINUOUS
 90
9
 70
0
 10
191.6302781712
 20
89.2082716774
 10
191.6309493031
 20
89.1937941961
 10
191.6316290562
 20
89.1809246555
 10
191.6323174822
 20
89.169671341
 10
191.6330145296
 20
89.1600259671
 10
191.6337166392
 20
89.1520370002
 10
191.6344226248
 20
89.145720596
 10
191.6351336728
 20
89.1410605989
 10
191.635849783
 20
89.1380570088
  0
LWPOLYLINE
  5
3DA
100
AcDbEntity
  8
RACCORDO
100
AcDbPolyline
 62
250
  6
CONTINUOUS
 90
7
 70
0
 10
191.1317050219
 20
88.7030496354
 10
191.1323933869
 20
88.6861546741
 10
191.133090363
 20
88.6717024552
 10
191.1337924736
 20
88.6597169268
 10
191.1344985598
 20
88.6502182176
 10
191.1352097805
 20
88.6432224244
 10
191.1359261358
 20
88.6387413339
  0
LWPOLYLINE
  5
3DB
100
AcDbEntity
  8
ASSI
100
AcDbPolyline
 62
250
  6
CONTINUOUS
 90
7
 70
0
 10
191.1317050219
 20
88.7030496354
 10
191.1323933869
 20
88.6861546741
 10
191.133090363
 20
88.6717024552
 10
191.1337924736
 20
88.6597169268
 10
191.1344985598
 20
88.6502182176
 10
191.1352097805
 20
88.6432224244
 10
191.1359261358
 20
88.6387413339
  0
LINE
  5
3DC
100
AcDbEntity
  8
RACCORDO
100
AcDbLine
 62
250
  6
CONTINUOUS
 10
191.1303541631
 20
88.7440513815
 11
191.1317050219
 21
88.7030496354
  0
LINE
  5
3DD
100
AcDbEntity
  8
ASSI
100
AcDbLine
 62
250
  6
CONTINUOUS
 10
191.1303541631
 20
88.7440513815
 11
191.1317050219
 21
88.7030496354
  0
LINE
  5
3DE
100
AcDbEntity
  8
RACCORDO
100
AcDbLine
 62
250
  6
CONTINUOUS
 10
191.1290480862
 20
88.7944290539
 11
191.1303541631
 21
88.7440513815
  0
LINE
  5
3DF
100
AcDbEntity
  8
ASSI
100
AcDbLine
 62
250
  6
CONTINUOUS
 10
191.1290480862
 20
88.7944290539
 11
191.1303541631
 21
88.7440513815
  0
LINE
  5
3E0
100
AcDbEntity
  8
RACCORDO
100
AcDbLine
 62
250
  6
CONTINUOUS
 10
191.1277933953
 20
88.8538422262
 11
191.1290480862
 21
88.7944290539
  0
LINE
  5
3E1
100
AcDbEntity
  8
ASSI
100
AcDbLine
 62
250
  6
CONTINUOUS
 10
191.1277933953
 20
88.8538422262
 11
191.1290480862
 21
88.7944290539
  0
LINE
  5
3E2
100
AcDbEntity
  8
RACCORDO
100
AcDbLine
 62
250
  6
CONTINUOUS
 10
191.1290480862
 20
132.4805058736
 11
191.1277933953
 21
132.4210927013
  0
LINE
  5
3E3
100
AcDbEntity
  8
ASSI
100
AcDbLine
 62
250
  6
CONTINUOUS
 10
191.1290480862
 20
132.4805058736
 11
191.1277933953
 21
132.4210927013
  0
LINE
  5
3E4
100
AcDbEntity
  8
RACCORDO
100
AcDbLine
 62
250
  6
CONTINUOUS
 10
191.1303541631
 20
132.5308835459
 11
191.1290480862
 21
132.4805058736
  0
LINE
  5
3E5
100
AcDbEntity
  8
ASSI
100
AcDbLine
 62
250
  6
CONTINUOUS
 10
191.1303541631
 20
132.5308835459
 11
191.1290480862
 21
132.4805058736
  0
LWPOLYLINE
  5
3E6
100
AcDbEntity
  8
RACCORDO
100
AcDbPolyline
 62
250
  6
CONTINUOUS
 90
22
 70
0
 10
191.6119490924
 20
110.2920354862
 10
191.611387768
 20
110.3069795131
 10
191.6097114847
 20
110.3218399815
 10
191.6069296156
 20
110.3365338016
 10
191.6030577153
 20
110.3509788154
 10
191.5981174333
 20
110.3650942559
 10
191.5921363929
 20
110.3788011983
 10
191.5851480366
 20
110.3920230028
 10
191.5771914391
 20
110.4046857421
 10
191.568311089
 20
110.4167186144
 10
191.55855664
 20
110.4280543403
 10
191.5479826327
 20
110.4386295385
 10
191.5366481908
 20
110.4483850798
 10
191.5246166891
 20
110.4572664183
 10
191.5119554002
 20
110.4652238963
 10
191.498735118
 20
110.4722130215
 10
191.4850297616
 20
110.4781947162
 10
191.4709159622
 20
110.4831355356
 10
191.456472635
 20
110.4870078549
 10
191.4417805371
 20
110.4897900236
 10
191.4269218167
 20
110.4914664864
 10
191.4119795534
 20
110.4920278708
  0
LWPOLYLINE
  5
3E7
100
AcDbEntity
  8
ASSI
100
AcDbPolyline
 62
250
  6
CONTINUOUS
 90
22
 70
0
 10
191.6119490924
 20
110.2920354862
 10
191.611387768
 20
110.3069795131
 10
191.6097114847
 20
110.3218399815
 10
191.6069296156
 20
110.3365338016
 10
191.6030577153
 20
110.3509788154
 10
191.5981174333
 20
110.3650942559
 10
191.5921363929
 20
110.3788011983
 10
191.5851480366
 20
110.3920230028
 10
191.5771914391
 20
110.4046857421
 10
191.568311089
 20
110.4167186144
 10
191.55855664
 20
110.4280543403
 10
191.5479826327
 20
110.4386295385
 10
191.5366481908
 20
110.4483850798
 10
191.5246166891
 20
110.4572664183
 10
191.5119554002
 20
110.4652238963
 10
191.498735118
 20
110.4722130215
 10
191.4850297616
 20
110.4781947162
 10
191.4709159622
 20
110.4831355356
 10
191.456472635
 20
110.4870078549
 10
191.4417805371
 20
110.4897900236
 10
191.4269218167
 20
110.4914664864
 10
191.4119795534
 20
110.4920278708
  0
LINE
  5
3E8
100
AcDbEntity
  8
RACCORDO
100
AcDbLine
 62
250
  6
CONTINUOUS
 10
191.6289720563
 20
89.241838073
 11
191.6302781712
 21
89.2082716774
  0
LINE
  5
3E9
100
AcDbEntity
  8
ASSI
100
AcDbLine
 62
250
  6
CONTINUOUS
 10
191.6289720563
 20
89.241838073
 11
191.6302781712
 21
89.2082716774
  0
LINE
  5
3EA
100
AcDbEntity
  8
RACCORDO
100
AcDbLine
 62
250
  6
CONTINUOUS
 10
191.6277173071
 20
89.2814544593
 11
191.6289720563
 21
89.241838073
  0
LINE
  5
3EB
100
AcDbEntity
  8
ASSI
100
AcDbLine
 62
250
  6
CONTINUOUS
 10
191.6277173071
 20
89.2814544593
 11
191.6289720563
 21
89.241838073
  0
LWPOLYLINE
  5
3EC
100
AcDbEntity
  8
RACCORDO
100
AcDbPolyline
 62
250
  6
CONTINUOUS
 90
28
 70
0
 10
191.635849783
 20
132.136877918
 10
191.6349784396
 20
132.1658936297
 10
191.6324204242
 20
132.1948112763
 10
191.6281843821
 20
132.2235331236
 10
191.62228463
 20
132.2519620987
 10
191.6147411073
 20
132.2800021189
 10
191.6055793091
 20
132.307558416
 10
191.5948302
 20
132.3345378566
 10
191.582530109
 20
132.3608492567
 10
191.5687206072
 20
132.3864036905
 10
191.5534483673
 20
132.4111147903
 10
191.5367650054
 20
132.4348990386
 10
191.518726907
 20
132.4576760505
 10
191.4993950364
 20
132.4793688453
 10
191.4788347303
 20
132.4999041067
 10
191.4571154774
 20
132.5192124305
 10
191.4343106833
 20
132.5372285592
 10
191.4104974224
 20
132.5538916028
 10
191.3857561778
 20
132.5691452441
 10
191.3601705685
 20
132.5829379295
 10
191.3338270676
 20
132.5952230432
 10
191.3068147097
 20
132.6059590642
 10
191.2792247898
 20
132.6151097076
 10
191.2511505549
 20
132.6226440463
 10
191.2226868892
 20
132.628536616
 10
191.1939299929
 20
132.6327675012
 10
191.164977057
 20
132.6353224027
 10
191.1359259354
 20
132.6361926854
  0
LWPOLYLINE
  5
3ED
100
AcDbEntity
  8
ASSI
100
AcDbPolyline
 62
250
  6
CONTINUOUS
 90
28
 70
0
 10
191.635849783
 20
132.136877918
 10
191.6349784396
 20
132.1658936297
 10
191.6324204242
 20
132.1948112763
 10
191.6281843821
 20
132.2235331236
 10
191.62228463
 20
132.2519620987
 10
191.6147411073
 20
132.2800021189
 10
191.6055793091
 20
132.307558416
 10
191.5948302
 20
132.3345378566
 10
191.582530109
 20
132.3608492567
 10
191.5687206072
 20
132.3864036905
 10
191.5534483673
 20
132.4111147903
 10
191.5367650054
 20
132.4348990386
 10
191.518726907
 20
132.4576760505
 10
191.4993950364
 20
132.4793688453
 10
191.4788347303
 20
132.4999041067
 10
191.4571154774
 20
132.5192124305
 10
191.4343106833
 20
132.5372285592
 10
191.4104974224
 20
132.5538916028
 10
191.3857561778
 20
132.5691452441
 10
191.3601705685
 20
132.5829379295
 10
191.3338270676
 20
132.5952230432
 10
191.3068147097
 20
132.6059590642
 10
191.2792247898
 20
132.6151097076
 10
191.2511505549
 20
132.6226440463
 10
191.2226868892
 20
132.628536616
 10
191.1939299929
 20
132.6327675012
 10
191.164977057
 20
132.6353224027
 10
191.1359259354
 20
132.6361926854
  0
LINE
  5
3EE
100
AcDbEntity
  8
RACCORDO
100
AcDbLine
 62
250
  6
CONTINUOUS
 10
191.6265235774
 20
89.3268395085
 11
191.6277173071
 21
89.2814544593
  0
LINE
  5
3EF
100
AcDbEntity
  8
ASSI
100
AcDbLine
 62
250
  6
CONTINUOUS
 10
191.6265235774
 20
89.3268395085
 11
191.6277173071
 21
89.2814544593
  0
LINE
  5
3F0
100
AcDbEntity
  8
RACCORDO
100
AcDbLine
 62
250
  6
CONTINUOUS
 10
191.6248650714
 20
89.4050136955
 11
191.6265235774
 21
89.3268395085
  0
LINE
  5
3F1
100
AcDbEntity
  8
ASSI
100
AcDbLine
 62
250
  6
CONTINUOUS
 10
191.6248650714
 20
89.4050136955
 11
191.6265235774
 21
89.3268395085
  0
LINE
  5
3F2
100
AcDbEntity
  8
RACCORDO
100
AcDbLine
 62
250
  6
CONTINUOUS
 10
191.1254758715
 20
88.9981212104
 11
191.1277933953
 21
88.8538422262
  0
LINE
  5
3F3
100
AcDbEntity
  8
ASSI
100
AcDbLine
 62
250
  6
CONTINUOUS
 10
191.1254758715
 20
88.9981212104
 11
191.1277933953
 21
88.8538422262
  0
LINE
  5
3F4
100
AcDbEntity
  8
RACCORDO
100
AcDbLine
 62
250
  6
CONTINUOUS
 10
191.6229380822
 20
89.526226184
 11
191.6248650714
 21
89.4050136955
  0
LINE
  5
3F5
100
AcDbEntity
  8
ASSI
100
AcDbLine
 62
250
  6
CONTINUOUS
 10
191.6229380822
 20
89.526226184
 11
191.6248650714
 21
89.4050136955
  0
LINE
  5
3F6
100
AcDbEntity
  8
RACCORDO
100
AcDbLine
 62
250
  6
CONTINUOUS
 10
191.1230143322
 20
89.2209842104
 11
191.1254758715
 21
88.9981212104
  0
LINE
  5
3F7
100
AcDbEntity
  8
ASSI
100
AcDbLine
 62
250
  6
CONTINUOUS
 10
191.1230143322
 20
89.2209842104
 11
191.1254758715
 21
88.9981212104
  0
LINE
  5
3F8
100
AcDbEntity
  8
RACCORDO
100
AcDbLine
 62
250
  6
CONTINUOUS
 10
191.6210568974
 20
89.7004344395
 11
191.6229380822
 21
89.526226184
  0
LINE
  5
3F9
100
AcDbEntity
  8
ASSI
100
AcDbLine
 62
250
  6
CONTINUOUS
 10
191.6210568974
 20
89.7004344395
 11
191.6229380822
 21
89.526226184
  0
LINE
  5
3FA
100
AcDbEntity
  8
RACCORDO
100
AcDbLine
 62
250
  6
CONTINUOUS
 10
191.1203169125
 20
89.6529497835
 11
191.1230143322
 21
89.2209842104
  0
LINE
  5
3FB
100
AcDbEntity
  8
ASSI
100
AcDbLine
 62
250
  6
CONTINUOUS
 10
191.1203169125
 20
89.6529497835
 11
191.1230143322
 21
89.2209842104
  0
LINE
  5
3FC
100
AcDbEntity
  8
RACCORDO
100
AcDbLine
 62
250
  6
CONTINUOUS
 10
191.6196745506
 20
89.9329182291
 11
191.6210568974
 21
89.7004344395
  0
LINE
  5
3FD
100
AcDbEntity
  8
ASSI
100
AcDbLine
 62
250
  6
CONTINUOUS
 10
191.6196745506
 20
89.9329182291
 11
191.6210568974
 21
89.7004344395
  0
LINE
  5
3FE
100
AcDbEntity
  8
RACCORDO
100
AcDbLine
 62
7
  6
CONTINUOUS
 10
191.7028656616
 20
123.7374674634
 11
191.6897914243
 21
132.2988344414
  0
LINE
  5
3FF
100
AcDbEntity
  8
ASSI
100
AcDbLine
 62
7
  6
CONTINUOUS
 10
191.7028656616
 20
123.7374674634
 11
191.6897914243
 21
132.2988344414
  0
LINE
  5
400
100
AcDbEntity
  8
RACCORDO
100
AcDbLine
 62
250
  6
CONTINUOUS
 10
191.1193991403
 20
90.0750196331
 11
191.1203169125
 21
89.6529497835
  0
LINE
  5
401
100
AcDbEntity
  8
ASSI
100
AcDbLine
 62
250
  6
CONTINUOUS
 10
191.1193991403
 20
90.0750196331
 11
191.1203169125
 21
89.6529497835
  0
LINE
  5
402
100
AcDbEntity
  8
RACCORDO
100
AcDbLine
 62
250
  6
CONTINUOUS
 10
191.1171802395
 20
93.4427746382
 11
191.1193991519
 21
90.075019633
  0
LINE
  5
403
100
AcDbEntity
  8
ASSI
100
AcDbLine
 62
250
  6
CONTINUOUS
 10
191.1171802395
 20
93.4427746382
 11
191.1193991519
 21
90.075019633
  0
LWPOLYLINE
  5
404
100
AcDbEntity
  8
RACCORDO
100
AcDbPolyline
 62
250
  6
CONTINUOUS
 90
3
 70
0
 10
191.6171038526
 20
93.4603854159
 10
191.6181639245
 20
91.7779049877
 10
191.6196745506
 20
89.9329182291
  0
LWPOLYLINE
  5
405
100
AcDbEntity
  8
ASSI
100
AcDbPolyline
 62
250
  6
CONTINUOUS
 90
3
 70
0
 10
191.6171038526
 20
93.4603854159
 10
191.6181639245
 20
91.7779049877
 10
191.6196745506
 20
89.9329182291
  0
LINE
  5
406
100
AcDbEntity
  8
RACCORDO
100
AcDbLine
 62
250
  6
CONTINUOUS
 10
191.1139303093
 20
100.1800337513
 11
191.1171802395
 21
93.4427746382
  0
LINE
  5
407
100
AcDbEntity
  8
ASSI
100
AcDbLine
 62
250
  6
CONTINUOUS
 10
191.1139303093
 20
100.1800337513
 11
191.1171802395
 21
93.4427746382
  0
LINE
  5
408
100
AcDbEntity
  8
RACCORDO
100
AcDbLine
 62
250
  6
CONTINUOUS
 10
191.6138537236
 20
100.1916776046
 11
191.6171038526
 21
93.4603854159
  0
LINE
  5
409
100
AcDbEntity
  8
ASSI
100
AcDbLine
 62
250
  6
CONTINUOUS
 10
191.6138537236
 20
100.1916776046
 11
191.6171038526
 21
93.4603854159
  0
LINE
  5
40A
100
AcDbEntity
  8
RACCORDO
100
AcDbLine
 62
250
  6
CONTINUOUS
 10
191.1122606016
 20
106.9191874219
 11
191.1139303093
 21
100.1800337513
  0
LINE
  5
40B
100
AcDbEntity
  8
ASSI
100
AcDbLine
 62
250
  6
CONTINUOUS
 10
191.1122606016
 20
106.9191874219
 11
191.1139303093
 21
100.1800337513
  0
LINE
  5
40C
100
AcDbEntity
  8
RACCORDO
100
AcDbLine
 62
250
  6
CONTINUOUS
 10
191.6121879176
 20
106.9248559455
 11
191.6138537236
 21
100.1916776046
  0
LINE
  5
40D
100
AcDbEntity
  8
ASSI
100
AcDbLine
 62
250
  6
CONTINUOUS
 10
191.6121879176
 20
106.9248559455
 11
191.6138537236
 21
100.1916776046
  0
LINE
  5
40E
100
AcDbEntity
  8
RACCORDO
100
AcDbLine
 62
250
  6
CONTINUOUS
 10
191.1122606016
 20
106.9191874219
 11
191.1120252735
 21
110.4894555168
  0
LINE
  5
40F
100
AcDbEntity
  8
ASSI
100
AcDbLine
 62
250
  6
CONTINUOUS
 10
191.1122606016
 20
106.9191874219
 11
191.1120252735
 21
110.4894555168
  0
LINE
  5
410
100
AcDbEntity
  8
RACCORDO
100
AcDbLine
 62
250
  6
CONTINUOUS
 10
191.6119493825
 20
110.2920356312
 11
191.6121879176
 21
106.9248559455
  0
LINE
  5
411
100
AcDbEntity
  8
ASSI
100
AcDbLine
 62
250
  6
CONTINUOUS
 10
191.6119493825
 20
110.2920356312
 11
191.6121879176
 21
106.9248559455
  0
LINE
  5
412
100
AcDbEntity
  8
RACCORDO
100
AcDbLine
 62
7
  6
CONTINUOUS
 10
191.7028656616
 20
110.3374903087
 11
191.7028656616
 21
97.5374674634
  0
LINE
  5
413
100
AcDbEntity
  8
ASSI
100
AcDbLine
 62
7
  6
CONTINUOUS
 10
191.7028656616
 20
110.3374903087
 11
191.7028656616
 21
97.5374674634
  0
LINE
  5
414
100
AcDbEntity
  8
RACCORDO
100
AcDbLine
 62
7
  6
CONTINUOUS
 10
191.7028656616
 20
110.9374446181
 11
191.7028656616
 21
123.7374674634
  0
LINE
  5
415
100
AcDbEntity
  8
ASSI
100
AcDbLine
 62
7
  6
CONTINUOUS
 10
191.7028656616
 20
110.9374446181
 11
191.7028656616
 21
123.7374674634
  0
LINE
  5
416
100
AcDbEntity
  8
RACCORDO
100
AcDbLine
 62
250
  6
CONTINUOUS
 10
191.1122606016
 20
114.355747505
 11
191.1120252735
 21
110.78547941
  0
LINE
  5
417
100
AcDbEntity
  8
ASSI
100
AcDbLine
 62
250
  6
CONTINUOUS
 10
191.1122606016
 20
114.355747505
 11
191.1120252735
 21
110.78547941
  0
LINE
  5
418
100
AcDbEntity
  8
RACCORDO
100
AcDbLine
 62
250
  6
CONTINUOUS
 10
191.6121879176
 20
114.3500789814
 11
191.6119493825
 21
110.9828992957
  0
LINE
  5
419
100
AcDbEntity
  8
ASSI
100
AcDbLine
 62
250
  6
CONTINUOUS
 10
191.6121879176
 20
114.3500789814
 11
191.6119493825
 21
110.9828992957
  0
LINE
  5
41A
100
AcDbEntity
  8
RACCORDO
100
AcDbLine
 62
250
  6
CONTINUOUS
 10
191.1133659089
 20
119.4102744919
 11
191.1122606016
 21
114.355747505
  0
LINE
  5
41B
100
AcDbEntity
  8
ASSI
100
AcDbLine
 62
250
  6
CONTINUOUS
 10
191.1133659089
 20
119.4102744919
 11
191.1122606016
 21
114.355747505
  0
LINE
  5
41C
100
AcDbEntity
  8
RACCORDO
100
AcDbLine
 62
250
  6
CONTINUOUS
 10
191.6132887117
 20
119.4001233764
 11
191.6121879176
 21
114.3500789814
  0
LINE
  5
41D
100
AcDbEntity
  8
ASSI
100
AcDbLine
 62
250
  6
CONTINUOUS
 10
191.6132887117
 20
119.4001233764
 11
191.6121879176
 21
114.3500789814
  0
LINE
  5
41E
100
AcDbEntity
  8
RACCORDO
100
AcDbLine
 62
250
  6
CONTINUOUS
 10
191.1171802395
 20
127.8321602888
 11
191.1133659089
 21
119.4102744919
  0
LINE
  5
41F
100
AcDbEntity
  8
ASSI
100
AcDbLine
 62
250
  6
CONTINUOUS
 10
191.1171802395
 20
127.8321602888
 11
191.1133659089
 21
119.4102744919
  0
LINE
  5
420
100
AcDbEntity
  8
RACCORDO
100
AcDbLine
 62
250
  6
CONTINUOUS
 10
191.6171038526
 20
127.8145495109
 11
191.6132887117
 21
119.4001233764
  0
LINE
  5
421
100
AcDbEntity
  8
ASSI
100
AcDbLine
 62
250
  6
CONTINUOUS
 10
191.6171038526
 20
127.8145495109
 11
191.6132887117
 21
119.4001233764
  0
LINE
  5
422
100
AcDbEntity
  8
RACCORDO
100
AcDbLine
 62
7
  6
CONTINUOUS
 10
191.7028656616
 20
97.5374674634
 11
191.6897914243
 21
88.9761004855
  0
LINE
  5
423
100
AcDbEntity
  8
ASSI
100
AcDbLine
 62
7
  6
CONTINUOUS
 10
191.7028656616
 20
97.5374674634
 11
191.6897914243
 21
88.9761004855
  0
LINE
  5
424
100
AcDbEntity
  8
RACCORDO
100
AcDbLine
 62
250
  6
CONTINUOUS
 10
191.1208340792
 20
131.7367603903
 11
191.1171802395
 21
127.8321602888
  0
LINE
  5
425
100
AcDbEntity
  8
ASSI
100
AcDbLine
 62
250
  6
CONTINUOUS
 10
191.1208340792
 20
131.7367603903
 11
191.1171802395
 21
127.8321602888
  0
LINE
  5
426
100
AcDbEntity
  8
RACCORDO
100
AcDbLine
 62
250
  6
CONTINUOUS
 10
191.6200237023
 20
131.4216149807
 11
191.6171038526
 21
127.8145495109
  0
LINE
  5
427
100
AcDbEntity
  8
ASSI
100
AcDbLine
 62
250
  6
CONTINUOUS
 10
191.6200237023
 20
131.4216149807
 11
191.6171038526
 21
127.8145495109
  0
LINE
  5
428
100
AcDbEntity
  8
RACCORDO
100
AcDbLine
 62
250
  6
CONTINUOUS
 10
191.1234629361
 20
132.1019212817
 11
191.1208340792
 21
131.7367603903
  0
LINE
  5
429
100
AcDbEntity
  8
ASSI
100
AcDbLine
 62
250
  6
CONTINUOUS
 10
191.1234629361
 20
132.1019212817
 11
191.1208340792
 21
131.7367603903
  0
LINE
  5
42A
100
AcDbEntity
  8
RACCORDO
100
AcDbLine
 62
250
  6
CONTINUOUS
 10
191.6217341876
 20
131.6468230175
 11
191.6200237023
 21
131.4216149807
  0
LINE
  5
42B
100
AcDbEntity
  8
ASSI
100
AcDbLine
 62
250
  6
CONTINUOUS
 10
191.6217341876
 20
131.6468230175
 11
191.6200237023
 21
131.4216149807
  0
LINE
  5
42C
100
AcDbEntity
  8
RACCORDO
100
AcDbLine
 62
250
  6
CONTINUOUS
 10
191.1260286568
 20
132.3159201795
 11
191.1234629361
 21
132.1019212817
  0
LINE
  5
42D
100
AcDbEntity
  8
ASSI
100
AcDbLine
 62
250
  6
CONTINUOUS
 10
191.1260286568
 20
132.3159201795
 11
191.1234629361
 21
132.1019212817
  0
LINE
  5
42E
100
AcDbEntity
  8
RACCORDO
100
AcDbLine
 62
250
  6
CONTINUOUS
 10
191.6233866962
 20
131.7806700665
 11
191.6217341876
 21
131.6468230175
  0
LINE
  5
42F
100
AcDbEntity
  8
ASSI
100
AcDbLine
 62
250
  6
CONTINUOUS
 10
191.6233866962
 20
131.7806700665
 11
191.6217341876
 21
131.6468230175
  0
LINE
  5
430
100
AcDbEntity
  8
RACCORDO
100
AcDbLine
 62
250
  6
CONTINUOUS
 10
191.1277933953
 20
132.4210927013
 11
191.1260286568
 21
132.3159201795
  0
LINE
  5
431
100
AcDbEntity
  8
ASSI
100
AcDbLine
 62
250
  6
CONTINUOUS
 10
191.1277933953
 20
132.4210927013
 11
191.1260286568
 21
132.3159201795
  0
LINE
  5
432
100
AcDbEntity
  8
RACCORDO
100
AcDbLine
 62
250
  6
CONTINUOUS
 10
191.6253996962
 20
131.8973024237
 11
191.6233866962
 21
131.7806700665
  0
LINE
  5
433
100
AcDbEntity
  8
ASSI
100
AcDbLine
 62
250
  6
CONTINUOUS
 10
191.6253996962
 20
131.8973024237
 11
191.6233866962
 21
131.7806700665
  0
LINE
  5
434
100
AcDbEntity
  8
RACCORDO
100
AcDbLine
 62
250
  6
CONTINUOUS
 10
191.6271128338
 20
131.9715072222
 11
191.6253996962
 21
131.8973024237
  0
LINE
  5
435
100
AcDbEntity
  8
ASSI
100
AcDbLine
 62
250
  6
CONTINUOUS
 10
191.6271128338
 20
131.9715072222
 11
191.6253996962
 21
131.8973024237
  0
LWPOLYLINE
  5
436
100
AcDbEntity
  8
RACCORDO
100
AcDbPolyline
 62
250
  6
CONTINUOUS
 90
28
 70
0
 10
191.635849783
 20
89.1380570088
 10
191.6349784391
 20
89.1090412879
 10
191.6324204221
 20
89.0801236328
 10
191.6281843777
 20
89.0514017781
 10
191.6222846224
 20
89.0229727965
 10
191.6147410961
 20
88.9949327708
 10
191.605579294
 20
88.9673764693
 10
191.5948301806
 20
88.9403970255
 10
191.5825300853
 20
88.9140856232
 10
191.5687205794
 20
88.8885311882
 10
191.5534483355
 20
88.8638200884
 10
191.53676497
 20
88.8400358409
 10
191.5187268686
 20
88.8172588306
 10
191.4993949955
 20
88.7955660382
 10
191.4788346875
 20
88.7750307798
 10
191.4571154336
 20
88.7557224596
 10
191.4343106392
 20
88.7377063348
 10
191.4104973789
 20
88.7210432955
 10
191.3857561356
 20
88.7057896584
 10
191.3601705286
 20
88.6919969773
 10
191.3338270307
 20
88.6797118678
 10
191.3068146765
 20
88.6689758505
 10
191.279224761
 20
88.6598252106
 10
191.2511505312
 20
88.652290875
 10
191.222686871
 20
88.6463983077
 10
191.1939299804
 20
88.6421674242
 10
191.1649770507
 20
88.6396125238
 10
191.1359259354
 20
88.6387422415
  0
LWPOLYLINE
  5
437
100
AcDbEntity
  8
ASSI
100
AcDbPolyline
 62
250
  6
CONTINUOUS
 90
28
 70
0
 10
191.635849783
 20
89.1380570088
 10
191.6349784391
 20
89.1090412879
 10
191.6324204221
 20
89.0801236328
 10
191.6281843777
 20
89.0514017781
 10
191.6222846224
 20
89.0229727965
 10
191.6147410961
 20
88.9949327708
 10
191.605579294
 20
88.9673764693
 10
191.5948301806
 20
88.9403970255
 10
191.5825300853
 20
88.9140856232
 10
191.5687205794
 20
88.8885311882
 10
191.5534483355
 20
88.8638200884
 10
191.53676497
 20
88.8400358409
 10
191.5187268686
 20
88.8172588306
 10
191.4993949955
 20
88.7955660382
 10
191.4788346875
 20
88.7750307798
 10
191.4571154336
 20
88.7557224596
 10
191.4343106392
 20
88.7377063348
 10
191.4104973789
 20
88.7210432955
 10
191.3857561356
 20
88.7057896584
 10
191.3601705286
 20
88.6919969773
 10
191.3338270307
 20
88.6797118678
 10
191.3068146765
 20
88.6689758505
 10
191.279224761
 20
88.6598252106
 10
191.2511505312
 20
88.652290875
 10
191.222686871
 20
88.6463983077
 10
191.1939299804
 20
88.6421674242
 10
191.1649770507
 20
88.6396125238
 10
191.1359259354
 20
88.6387422415
  0
LINE
  5
438
100
AcDbEntity
  8
RACCORDO
100
AcDbLine
 62
250
  6
CONTINUOUS
 10
191.6283370732
 20
132.0140079399
 11
191.6271128338
 21
131.9715072222
  0
LINE
  5
439
100
AcDbEntity
  8
ASSI
100
AcDbLine
 62
250
  6
CONTINUOUS
 10
191.6283370732
 20
132.0140079399
 11
191.6271128338
 21
131.9715072222
  0
LWPOLYLINE
  5
43A
100
AcDbEntity
  8
RACCORDO
100
AcDbPolyline
 62
250
  6
CONTINUOUS
 90
22
 70
0
 10
191.6119490924
 20
110.9828994407
 10
191.6113877697
 20
110.9679554373
 10
191.6097114915
 20
110.9530949906
 10
191.6069296304
 20
110.9384011901
 10
191.6030577407
 20
110.9239561937
 10
191.5981174714
 20
110.909840768
 10
191.5921364451
 20
110.8961338368
 10
191.5851481036
 20
110.88291204
 10
191.577191521
 20
110.870249305
 10
191.5683111852
 20
110.8582164331
 10
191.5585567489
 20
110.846880704
 10
191.5479827524
 20
110.8363054994
 10
191.5366483182
 20
110.8265499487
 10
191.5246168209
 20
110.8176685984
 10
191.5119555323
 20
110.8097111068
 10
191.4987352459
 20
110.802721967
 10
191.4850298805
 20
110.7967402573
 10
191.4709160672
 20
110.7917994236
 10
191.4564727208
 20
110.7879270916
 10
191.4417805989
 20
110.7851449126
 10
191.4269218498
 20
110.7834684429
 10
191.4119795534
 20
110.7829070561
  0
LWPOLYLINE
  5
43B
100
AcDbEntity
  8
ASSI
100
AcDbPolyline
 62
250
  6
CONTINUOUS
 90
22
 70
0
 10
191.6119490924
 20
110.9828994407
 10
191.6113877697
 20
110.9679554373
 10
191.6097114915
 20
110.9530949906
 10
191.6069296304
 20
110.9384011901
 10
191.6030577407
 20
110.9239561937
 10
191.5981174714
 20
110.909840768
 10
191.5921364451
 20
110.8961338368
 10
191.5851481036
 20
110.88291204
 10
191.577191521
 20
110.870249305
 10
191.5683111852
 20
110.8582164331
 10
191.5585567489
 20
110.846880704
 10
191.5479827524
 20
110.8363054994
 10
191.5366483182
 20
110.8265499487
 10
191.5246168209
 20
110.8176685984
 10
191.5119555323
 20
110.8097111068
 10
191.4987352459
 20
110.802721967
 10
191.4850298805
 20
110.7967402573
 10
191.4709160672
 20
110.7917994236
 10
191.4564727208
 20
110.7879270916
 10
191.4417805989
 20
110.7851449126
 10
191.4269218498
 20
110.7834684429
 10
191.4119795534
 20
110.7829070561
  0
LINE
  5
43C
100
AcDbEntity
  8
SIMBOLI
100
AcDbLine
 62
250
  6
CONTINUOUS
 10
180.5528656616
 20
95.1374674634
 11
185.0528656616
 21
99.6374674634
  0
LINE
  5
43D
100
AcDbEntity
  8
SIMBOLI
100
AcDbLine
 62
250
  6
CONTINUOUS
 10
176.0528656616
 20
121.6374674634
 11
185.0528656616
 21
121.6374674634
  0
LINE
  5
43E
100
AcDbEntity
  8
SIMBOLI
100
AcDbLine
 62
250
  6
CONTINUOUS
 10
185.0528656616
 20
121.6374674634
 11
180.5528656616
 21
126.1374674634
  0
LWPOLYLINE
  5
43F
100
AcDbEntity
  8
0
100
AcDbPolyline
 62
7
  6
CONTINUOUS
 90
10
 70
0
 43
0.3500000006
 10
181.6242918091
 20
142.0568589478
 10
181.6957139282
 20
141.9140147095
 10
181.6957139282
 20
141.8425744629
 10
181.5528696899
 20
141.6997302246
 10
181.4814294434
 20
141.6997302246
 10
181.4100073242
 20
141.7711523438
 10
181.4100073242
 20
141.8425744629
 10
181.4814294434
 20
141.9854368286
 10
181.5528696899
 20
142.0568589478
 10
181.6242918091
 20
142.0568589478
  0
LWPOLYLINE
  5
440
100
AcDbEntity
  8
0
100
AcDbPolyline
 62
7
  6
CONTINUOUS
 90
5
 70
0
 43
0.3500000006
 10
197.2629624023
 20
113.6374629822
 10
197.0486779175
 20
113.9946098328
 10
196.4058244629
 20
113.9946098328
 10
195.9772554932
 20
113.6374629822
 10
195.9772554932
 20
112.7803250427
  0
LWPOLYLINE
  5
441
100
AcDbEntity
  8
0
100
AcDbPolyline
 62
7
  6
CONTINUOUS
 90
3
 70
0
 43
0.3500000006
 10
198.3344029541
 20
110.2088930969
 10
198.3344029541
 20
108.7088926392
 10
195.9772554932
 20
109.3517551575
  0
LWPOLYLINE
  5
442
100
AcDbEntity
  8
0
100
AcDbPolyline
 62
7
  6
CONTINUOUS
 90
3
 70
0
 43
0.3500000006
 10
198.3344029541
 20
107.8517546997
 10
198.3344029541
 20
106.3517542419
 10
195.9772554932
 20
106.9946076965
  0
LWPOLYLINE
  5
443
100
AcDbEntity
  8
0
100
AcDbPolyline
 62
7
  6
CONTINUOUS
 90
6
 70
0
 43
0.3500000006
 10
198.9772564087
 20
112.7803250427
 10
198.9772564087
 20
113.8517565308
 10
198.7629719238
 20
114.0660410156
 10
197.6915313721
 20
114.0660410156
 10
197.2629624023
 20
113.6374629822
 10
197.2629624023
 20
113.2088940125
  0
LINE
  5
444
100
AcDbEntity
  8
RACCORDO
100
AcDbLine
 62
7
  6
CONTINUOUS
 10
188.3612906546
 20
132.7967801692
 11
188.0106006885
 21
132.7649470112
  0
LINE
  5
445
100
AcDbEntity
  8
ASSI
100
AcDbLine
 62
7
  6
CONTINUOUS
 10
188.3612906546
 20
132.7967801692
 11
188.0106006885
 21
132.7649470112
  0
LINE
  5
446
100
AcDbEntity
  8
RACCORDO
100
AcDbLine
 62
250
  6
CONTINUOUS
 10
169.646277235
 20
131.1942039593
 11
169.6906099341
 21
131.1957416601
  0
LINE
  5
447
100
AcDbEntity
  8
ASSI
100
AcDbLine
 62
250
  6
CONTINUOUS
 10
169.646277235
 20
131.1942039593
 11
169.6906099341
 21
131.1957416601
  0
LINE
  5
448
100
AcDbEntity
  8
RACCORDO
100
AcDbLine
 62
250
  6
CONTINUOUS
 10
169.6906099341
 20
131.1957416601
 11
169.7388535614
 21
131.1970628892
  0
LINE
  5
449
100
AcDbEntity
  8
ASSI
100
AcDbLine
 62
250
  6
CONTINUOUS
 10
169.6906099341
 20
131.1957416601
 11
169.7388535614
 21
131.1970628892
  0
LINE
  5
44A
100
AcDbEntity
  8
RACCORDO
100
AcDbLine
 62
250
  6
CONTINUOUS
 10
169.7388535614
 20
131.1970628892
 11
169.7903700946
 21
131.1981501735
  0
LINE
  5
44B
100
AcDbEntity
  8
ASSI
100
AcDbLine
 62
250
  6
CONTINUOUS
 10
169.7388535614
 20
131.1970628892
 11
169.7903700946
 21
131.1981501735
  0
LINE
  5
44C
100
AcDbEntity
  8
RACCORDO
100
AcDbLine
 62
250
  6
CONTINUOUS
 10
169.7903700946
 20
131.1981501735
 11
169.8444782273
 21
131.1989891335
  0
LINE
  5
44D
100
AcDbEntity
  8
ASSI
100
AcDbLine
 62
250
  6
CONTINUOUS
 10
169.7903700946
 20
131.1981501735
 11
169.8444782273
 21
131.1989891335
  0
LINE
  5
44E
100
AcDbEntity
  8
RACCORDO
100
AcDbLine
 62
250
  6
CONTINUOUS
 10
169.8444782273
 20
131.1989891335
 11
169.900462379
 21
131.1995686741
  0
LINE
  5
44F
100
AcDbEntity
  8
ASSI
100
AcDbLine
 62
250
  6
CONTINUOUS
 10
169.8444782273
 20
131.1989891335
 11
169.900462379
 21
131.1995686741
  0
LINE
  5
450
100
AcDbEntity
  8
RACCORDO
100
AcDbLine
 62
250
  6
CONTINUOUS
 10
169.900462379
 20
131.1995686741
 11
169.957582159
 21
131.1998811307
  0
LINE
  5
451
100
AcDbEntity
  8
ASSI
100
AcDbLine
 62
250
  6
CONTINUOUS
 10
169.900462379
 20
131.1995686741
 11
169.957582159
 21
131.1998811307
  0
LINE
  5
452
100
AcDbEntity
  8
RACCORDO
100
AcDbLine
 62
250
  6
CONTINUOUS
 10
169.957582159
 20
131.1998811307
 11
191.1193991403
 21
131.1999152943
  0
LINE
  5
453
100
AcDbEntity
  8
ASSI
100
AcDbLine
 62
250
  6
CONTINUOUS
 10
169.957582159
 20
131.1998811307
 11
191.1193991403
 21
131.1999152943
  0
LINE
  5
454
100
AcDbEntity
  8
RACCORDO
100
AcDbLine
 62
250
  6
CONTINUOUS
 10
191.1768040546
 20
131.1997586462
 11
191.1193991648
 21
131.1999357882
  0
LINE
  5
455
100
AcDbEntity
  8
ASSI
100
AcDbLine
 62
250
  6
CONTINUOUS
 10
191.1768040546
 20
131.1997586462
 11
191.1193991648
 21
131.1999357882
  0
LINE
  5
456
100
AcDbEntity
  8
RACCORDO
100
AcDbLine
 62
250
  6
CONTINUOUS
 10
191.2334497638
 20
131.1993119078
 11
191.1768040546
 21
131.1997586462
  0
LINE
  5
457
100
AcDbEntity
  8
ASSI
100
AcDbLine
 62
250
  6
CONTINUOUS
 10
191.2334497638
 20
131.1993119078
 11
191.1768040546
 21
131.1997586462
  0
LINE
  5
458
100
AcDbEntity
  8
RACCORDO
100
AcDbLine
 62
250
  6
CONTINUOUS
 10
191.2885871517
 20
131.1986014812
 11
191.2334497638
 21
131.1993119078
  0
LINE
  5
459
100
AcDbEntity
  8
ASSI
100
AcDbLine
 62
250
  6
CONTINUOUS
 10
191.2885871517
 20
131.1986014812
 11
191.2334497638
 21
131.1993119078
  0
LINE
  5
45A
100
AcDbEntity
  8
RACCORDO
100
AcDbLine
 62
250
  6
CONTINUOUS
 10
191.3414870256
 20
131.1976367619
 11
191.2885871517
 21
131.1986014812
  0
LINE
  5
45B
100
AcDbEntity
  8
ASSI
100
AcDbLine
 62
250
  6
CONTINUOUS
 10
191.3414870256
 20
131.1976367619
 11
191.2885871517
 21
131.1986014812
  0
LINE
  5
45C
100
AcDbEntity
  8
RACCORDO
100
AcDbLine
 62
250
  6
CONTINUOUS
 10
191.3914497836
 20
131.1964305082
 11
191.3414870256
 21
131.1976367619
  0
LINE
  5
45D
100
AcDbEntity
  8
ASSI
100
AcDbLine
 62
250
  6
CONTINUOUS
 10
191.3914497836
 20
131.1964305082
 11
191.3414870256
 21
131.1976367619
  0
LINE
  5
45E
100
AcDbEntity
  8
RACCORDO
100
AcDbLine
 62
7
  6
CONTINUOUS
 10
172.7444406686
 20
132.7967801692
 11
173.0951306347
 21
132.7649470112
  0
LINE
  5
45F
100
AcDbEntity
  8
ASSI
100
AcDbLine
 62
7
  6
CONTINUOUS
 10
172.7444406686
 20
132.7967801692
 11
173.0951306347
 21
132.7649470112
  0
LWPOLYLINE
  5
460
100
AcDbEntity
  8
RACCORDO
100
AcDbPolyline
 62
250
  6
CONTINUOUS
 90
15
 70
0
 10
191.6193230123
 20
90.0955616069
 10
191.6179945395
 20
90.094379085
 10
191.6150162201
 20
90.0932004761
 10
191.6103979094
 20
90.0920296802
 10
191.6041548892
 20
90.0908705714
 10
191.5963078178
 20
90.0897269853
 10
191.586882661
 20
90.088602706
 10
191.5759106064
 20
90.0875014536
 10
191.5634279606
 20
90.0864268722
 10
191.5494760284
 20
90.0853825176
 10
191.5341009767
 20
90.0843718455
 10
191.5173536813
 20
90.0833982003
 10
191.4992895588
 20
90.0824648038
 10
191.4799683832
 20
90.0815747444
 10
191.4594540881
 20
90.0807309675
  0
LWPOLYLINE
  5
461
100
AcDbEntity
  8
ASSI
100
AcDbPolyline
 62
250
  6
CONTINUOUS
 90
15
 70
0
 10
191.6193230123
 20
90.0955616069
 10
191.6179945395
 20
90.094379085
 10
191.6150162201
 20
90.0932004761
 10
191.6103979094
 20
90.0920296802
 10
191.6041548892
 20
90.0908705714
 10
191.5963078178
 20
90.0897269853
 10
191.586882661
 20
90.088602706
 10
191.5759106064
 20
90.0875014536
 10
191.5634279606
 20
90.0864268722
 10
191.5494760284
 20
90.0853825176
 10
191.5341009767
 20
90.0843718455
 10
191.5173536813
 20
90.0833982003
 10
191.4992895588
 20
90.0824648038
 10
191.4799683832
 20
90.0815747444
 10
191.4594540881
 20
90.0807309675
  0
LINE
  5
462
100
AcDbEntity
  8
RACCORDO
100
AcDbLine
 62
7
  6
CONTINUOUS
 10
177.1612906546
 20
132.7967801692
 11
176.8106006885
 21
132.7649470112
  0
LINE
  5
463
100
AcDbEntity
  8
ASSI
100
AcDbLine
 62
7
  6
CONTINUOUS
 10
177.1612906546
 20
132.7967801692
 11
176.8106006885
 21
132.7649470112
  0
LINE
  5
464
100
AcDbEntity
  8
RACCORDO
100
AcDbLine
 62
250
  6
CONTINUOUS
 10
169.9698050855
 20
132.6361935931
 11
191.1359262377
 21
132.6361935931
  0
LINE
  5
465
100
AcDbEntity
  8
ASSI
100
AcDbLine
 62
250
  6
CONTINUOUS
 10
169.9698050855
 20
132.6361935931
 11
191.1359262377
 21
132.6361935931
  0
LINE
  5
466
100
AcDbEntity
  8
RACCORDO
100
AcDbLine
 62
7
  6
CONTINUOUS
 10
187.8373956077
 20
132.7597062332
 11
184.4683357154
 21
132.7597062332
  0
LINE
  5
467
100
AcDbEntity
  8
ASSI
100
AcDbLine
 62
7
  6
CONTINUOUS
 10
187.8373956077
 20
132.7597062332
 11
184.4683357154
 21
132.7597062332
  0
LINE
  5
468
100
AcDbEntity
  8
RACCORDO
100
AcDbLine
 62
7
  6
CONTINUOUS
 10
176.6373956077
 20
132.7597062332
 11
173.2683357154
 21
132.7597062332
  0
LINE
  5
469
100
AcDbEntity
  8
ASSI
100
AcDbLine
 62
7
  6
CONTINUOUS
 10
176.6373956077
 20
132.7597062332
 11
173.2683357154
 21
132.7597062332
  0
LINE
  5
46A
100
AcDbEntity
  8
RACCORDO
100
AcDbLine
 62
7
  6
CONTINUOUS
 10
191.189411601
 20
132.7967801692
 11
188.3612906546
 21
132.7967801692
  0
LINE
  5
46B
100
AcDbEntity
  8
ASSI
100
AcDbLine
 62
7
  6
CONTINUOUS
 10
191.189411601
 20
132.7967801692
 11
188.3612906546
 21
132.7967801692
  0
LINE
  5
46C
100
AcDbEntity
  8
DRAFT
100
AcDbLine
 62
7
  6
CONTINUOUS
 10
183.9444406686
 20
132.7967801692
 11
177.1612906546
 21
132.7967801692
  0
LINE
  5
46D
100
AcDbEntity
  8
ASSI
100
AcDbLine
 62
7
  6
CONTINUOUS
 10
183.9444406686
 20
132.7967801692
 11
177.1612906546
 21
132.7967801692
  0
LINE
  5
46E
100
AcDbEntity
  8
RACCORDO
100
AcDbLine
 62
7
  6
CONTINUOUS
 10
172.7444406686
 20
132.7967801692
 11
169.9163197222
 21
132.7967801692
  0
LINE
  5
46F
100
AcDbEntity
  8
ASSI
100
AcDbLine
 62
7
  6
CONTINUOUS
 10
172.7444406686
 20
132.7967801692
 11
169.9163197222
 21
132.7967801692
  0
LWPOLYLINE
  5
470
100
AcDbEntity
  8
0
100
AcDbPolyline
 62
7
  6
CONTINUOUS
 90
7
 70
0
 43
0.3500000006
 10
180.124300415
 20
141.5568678589
 10
178.6242908936
 20
141.5568678589
 10
180.124300415
 20
143.699730835
 10
180.124300415
 20
144.1282998047
 10
179.6957314453
 20
144.5568687744
 10
179.0528598633
 20
144.5568687744
 10
178.6242908936
 20
143.9140153198
  0
LWPOLYLINE
  5
471
100
AcDbEntity
  8
0
100
AcDbPolyline
 62
7
  6
CONTINUOUS
 90
7
 70
0
 43
0.3500000006
 10
177.7671529541
 20
141.5568678589
 10
176.2671434326
 20
141.5568678589
 10
177.7671529541
 20
143.699730835
 10
177.7671529541
 20
144.1282998047
 10
177.3385839844
 20
144.5568687744
 10
176.6957305298
 20
144.5568687744
 10
176.2671434326
 20
143.9140153198
  0
LWPOLYLINE
  5
472
100
AcDbEntity
  8
0
100
AcDbPolyline
 62
7
  6
CONTINUOUS
 90
6
 70
0
 43
0.3500000006
 10
182.6957142334
 20
141.5568678589
 10
183.7671547852
 20
141.5568678589
 10
183.98143927
 20
141.7711523438
 10
183.98143927
 20
142.8425747681
 10
183.5528703003
 20
143.2711437378
 10
183.1243013306
 20
143.2711437378
  0
LINE
  5
473
100
AcDbEntity
  8
RACCORDO
100
AcDbLine
 62
7
  6
CONTINUOUS
 10
183.9444406686
 20
132.7967801692
 11
184.2951306347
 21
132.7649470112
  0
LINE
  5
474
100
AcDbEntity
  8
ASSI
100
AcDbLine
 62
7
  6
CONTINUOUS
 10
183.9444406686
 20
132.7967801692
 11
184.2951306347
 21
132.7649470112
  0
LWPOLYLINE
  5
475
100
AcDbEntity
  8
RACCORDO
100
AcDbPolyline
 62
250
  6
CONTINUOUS
 90
17
 70
0
 10
191.6193230123
 20
131.1793733199
 10
191.617994558
 20
131.1805558424
 10
191.6150162556
 20
131.181734452
 10
191.6103979603
 20
131.1829052486
 10
191.6041549541
 20
131.1840643581
 10
191.5963078949
 20
131.1852079449
 10
191.5868827487
 20
131.186332225
 10
191.5759107032
 20
131.1874334782
 10
191.5634280648
 20
131.1885080604
 10
191.5494761384
 20
131.1895524158
 10
191.5341010908
 20
131.1905630886
 10
191.517353798
 20
131.1915367346
 10
191.4992896766
 20
131.192470132
 10
191.4799685006
 20
131.1933601921
 10
191.4594542037
 20
131.1942039698
 10
191.4378146674
 20
131.194998673
 10
191.3914497836
 20
131.1964305082
  0
LWPOLYLINE
  5
476
100
AcDbEntity
  8
ASSI
100
AcDbPolyline
 62
250
  6
CONTINUOUS
 90
17
 70
0
 10
191.6193230123
 20
131.1793733199
 10
191.617994558
 20
131.1805558424
 10
191.6150162556
 20
131.181734452
 10
191.6103979603
 20
131.1829052486
 10
191.6041549541
 20
131.1840643581
 10
191.5963078949
 20
131.1852079449
 10
191.5868827487
 20
131.186332225
 10
191.5759107032
 20
131.1874334782
 10
191.5634280648
 20
131.1885080604
 10
191.5494761384
 20
131.1895524158
 10
191.5341010908
 20
131.1905630886
 10
191.517353798
 20
131.1915367346
 10
191.4992896766
 20
131.192470132
 10
191.4799685006
 20
131.1933601921
 10
191.4594542037
 20
131.1942039698
 10
191.4378146674
 20
131.194998673
 10
191.3914497836
 20
131.1964305082
  0
LINE
  5
477
100
AcDbEntity
  8
RACCORDO
100
AcDbLine
 62
7
  6
CONTINUOUS
 10
124.557711196
 20
88.6387413338
 11
127.6218856048
 21
88.4781547577
  0
LINE
  5
478
100
AcDbEntity
  8
ASSI
100
AcDbLine
 62
7
  6
CONTINUOUS
 10
124.557711196
 20
88.6387413338
 11
127.6218856048
 21
88.4781547577
  0
LINE
  5
479
100
AcDbEntity
  8
RACCORDO
100
AcDbLine
 62
250
  6
CONTINUOUS
 10
124.5751356519
 20
89.1380570088
 11
127.665450211
 21
88.9761004855
  0
LINE
  5
47A
100
AcDbEntity
  8
ASSI
100
AcDbLine
 62
250
  6
CONTINUOUS
 10
124.5751356519
 20
89.1380570088
 11
127.665450211
 21
88.9761004855
  0
LINE
  5
47B
100
AcDbEntity
  8
RACCORDO
100
AcDbLine
 62
250
  6
CONTINUOUS
 10
123.1382928988
 20
90.0750537962
 11
123.1374672008
 21
90.0749991554
  0
LINE
  5
47C
100
AcDbEntity
  8
ASSI
100
AcDbLine
 62
250
  6
CONTINUOUS
 10
123.1382928988
 20
90.0750537962
 11
123.1374672008
 21
90.0749991554
  0
LINE
  5
47D
100
AcDbEntity
  8
RACCORDO
100
AcDbLine
 62
250
  6
CONTINUOUS
 10
123.1448871887
 20
90.0753662528
 11
123.1382928988
 21
90.0750537962
  0
LINE
  5
47E
100
AcDbEntity
  8
ASSI
100
AcDbLine
 62
250
  6
CONTINUOUS
 10
123.1448871887
 20
90.0753662528
 11
123.1382928988
 21
90.0750537962
  0
LINE
  5
47F
100
AcDbEntity
  8
RACCORDO
100
AcDbLine
 62
250
  6
CONTINUOUS
 10
123.6283175962
 20
90.0955616069
 11
123.1448871887
 21
90.0753662528
  0
LINE
  5
480
100
AcDbEntity
  8
ASSI
100
AcDbLine
 62
250
  6
CONTINUOUS
 10
123.6283175962
 20
90.0955616069
 11
123.1448871887
 21
90.0753662528
  0
LINE
  5
481
100
AcDbEntity
  8
RACCORDO
100
AcDbLine
 62
250
  6
CONTINUOUS
 10
128.0144727659
 20
92.7039758622
 11
127.991597045
 21
92.7039758564
  0
LINE
  5
482
100
AcDbEntity
  8
ASSI
100
AcDbLine
 62
250
  6
CONTINUOUS
 10
128.0144727659
 20
92.7039758622
 11
127.991597045
 21
92.7039758564
  0
LWPOLYLINE
  5
483
100
AcDbEntity
  8
RACCORDO
100
AcDbPolyline
 62
250
  6
CONTINUOUS
 90
37
 70
0
 10
123.6283175962
 20
90.0955616069
 10
123.6308596097
 20
90.0545127129
 10
123.6350609845
 20
90.0137339325
 10
123.6409217206
 20
89.9732252657
 10
123.6484572098
 20
89.9329182291
 10
123.6576520603
 20
89.8928813061
 10
123.6684600967
 20
89.8533199469
 10
123.6808895989
 20
89.8142373617
 10
123.6949322869
 20
89.7756303404
 10
123.7105171458
 20
89.7376947026
 10
123.727651802
 20
89.7004344395
 10
123.7463286291
 20
89.66384556
 10
123.7664537329
 20
89.62811191
 10
123.7880343631
 20
89.5932377362
 10
123.81106327
 20
89.559218792
 10
123.8354248099
 20
89.526226184
 10
123.8611258881
 20
89.4942648609
 10
123.8881595994
 20
89.4633298742
 10
123.9163895839
 20
89.4335774845
 10
123.9458219469
 20
89.4050136955
 10
123.9764505831
 20
89.3776325037
 10
124.0081208164
 20
89.3515721591
 10
124.0408376928
 20
89.3268395085
 10
124.0745961664
 20
89.3034277052
 10
124.1092264226
 20
89.2814544593
 10
124.1447327968
 20
89.2609269874
 10
124.1811109536
 20
89.241838073
 10
124.2181780723
 20
89.2242837766
 10
124.2559382282
 20
89.2082716774
 10
124.2943873459
 20
89.1937941961
 10
124.3333303794
 20
89.1809246555
 10
124.3727702787
 20
89.169671341
 10
124.4127040936
 20
89.1600259671
 10
124.4529279281
 20
89.1520370002
 10
124.4933738166
 20
89.145720596
 10
124.5341097245
 20
89.1410605989
 10
124.5751356519
 20
89.1380570088
  0
LWPOLYLINE
  5
484
100
AcDbEntity
  8
ASSI
100
AcDbPolyline
 62
250
  6
CONTINUOUS
 90
37
 70
0
 10
123.6283175962
 20
90.0955616069
 10
123.6308596097
 20
90.0545127129
 10
123.6350609845
 20
90.0137339325
 10
123.6409217206
 20
89.9732252657
 10
123.6484572098
 20
89.9329182291
 10
123.6576520603
 20
89.8928813061
 10
123.6684600967
 20
89.8533199469
 10
123.6808895989
 20
89.8142373617
 10
123.6949322869
 20
89.7756303404
 10
123.7105171458
 20
89.7376947026
 10
123.727651802
 20
89.7004344395
 10
123.7463286291
 20
89.66384556
 10
123.7664537329
 20
89.62811191
 10
123.7880343631
 20
89.5932377362
 10
123.81106327
 20
89.559218792
 10
123.8354248099
 20
89.526226184
 10
123.8611258881
 20
89.4942648609
 10
123.8881595994
 20
89.4633298742
 10
123.9163895839
 20
89.4335774845
 10
123.9458219469
 20
89.4050136955
 10
123.9764505831
 20
89.3776325037
 10
124.0081208164
 20
89.3515721591
 10
124.0408376928
 20
89.3268395085
 10
124.0745961664
 20
89.3034277052
 10
124.1092264226
 20
89.2814544593
 10
124.1447327968
 20
89.2609269874
 10
124.1811109536
 20
89.241838073
 10
124.2181780723
 20
89.2242837766
 10
124.2559382282
 20
89.2082716774
 10
124.2943873459
 20
89.1937941961
 10
124.3333303794
 20
89.1809246555
 10
124.3727702787
 20
89.169671341
 10
124.4127040936
 20
89.1600259671
 10
124.4529279281
 20
89.1520370002
 10
124.4933738166
 20
89.145720596
 10
124.5341097245
 20
89.1410605989
 10
124.5751356519
 20
89.1380570088
  0
LWPOLYLINE
  5
485
100
AcDbEntity
  8
RACCORDO
100
AcDbPolyline
 62
250
  6
CONTINUOUS
 90
8
 70
0
 10
123.2061000102
 20
110.8097111068
 10
123.2062697778
 20
110.802721967
 10
123.2064568043
 20
110.7967402573
 10
123.2066600438
 20
110.7917994236
 10
123.20687836
 20
110.7879270916
 10
123.2071105322
 20
110.7851449126
 10
123.2073552624
 20
110.7834684429
 10
123.207611182
 20
110.7829070561
  0
LWPOLYLINE
  5
486
100
AcDbEntity
  8
ASSI
100
AcDbPolyline
 62
250
  6
CONTINUOUS
 90
8
 70
0
 10
123.2061000102
 20
110.8097111068
 10
123.2062697778
 20
110.802721967
 10
123.2064568043
 20
110.7967402573
 10
123.2066600438
 20
110.7917994236
 10
123.20687836
 20
110.7879270916
 10
123.2071105322
 20
110.7851449126
 10
123.2073552624
 20
110.7834684429
 10
123.207611182
 20
110.7829070561
  0
LINE
  5
487
100
AcDbEntity
  8
RACCORDO
100
AcDbLine
 62
250
  6
CONTINUOUS
 10
123.2058159463
 20
110.8265499487
 11
123.2061000102
 21
110.8097111068
  0
LINE
  5
488
100
AcDbEntity
  8
ASSI
100
AcDbLine
 62
250
  6
CONTINUOUS
 10
123.2058159463
 20
110.8265499487
 11
123.2061000102
 21
110.8097111068
  0
LINE
  5
489
100
AcDbEntity
  8
RACCORDO
100
AcDbLine
 62
250
  6
CONTINUOUS
 10
123.2056109571
 20
110.846880704
 11
123.2058159463
 21
110.8265499487
  0
LINE
  5
48A
100
AcDbEntity
  8
ASSI
100
AcDbLine
 62
250
  6
CONTINUOUS
 10
123.2056109571
 20
110.846880704
 11
123.2058159463
 21
110.8265499487
  0
LINE
  5
48B
100
AcDbEntity
  8
RACCORDO
100
AcDbLine
 62
250
  6
CONTINUOUS
 10
123.2058660078
 20
110.2920354862
 11
123.2055068161
 21
110.3509788154
  0
LINE
  5
48C
100
AcDbEntity
  8
ASSI
100
AcDbLine
 62
250
  6
CONTINUOUS
 10
123.2058660078
 20
110.2920354862
 11
123.2055068161
 21
110.3509788154
  0
LWPOLYLINE
  5
48D
100
AcDbEntity
  8
RACCORDO
100
AcDbPolyline
 62
250
  6
CONTINUOUS
 90
13
 70
0
 10
123.2058826264
 20
110.2920356312
 10
123.2098778497
 20
108.6083965787
 10
123.2195482923
 20
106.9248559455
 10
123.2348939543
 20
105.2414137314
 10
123.2559157387
 20
103.5580634314
 10
123.2826127424
 20
101.8748115505
 10
123.3149822566
 20
100.1916776046
 10
123.3530233429
 20
98.5086617279
 10
123.3967369397
 20
96.825763786
 10
123.4461231528
 20
95.1430028918
 10
123.5011820176
 20
93.4603854159
 10
123.5619134987
 20
91.7779049877
 10
123.6283175962
 20
90.0955616069
  0
LWPOLYLINE
  5
48E
100
AcDbEntity
  8
ASSI
100
AcDbPolyline
 62
250
  6
CONTINUOUS
 90
13
 70
0
 10
123.2058826264
 20
110.2920356312
 10
123.2098778497
 20
108.6083965787
 10
123.2195482923
 20
106.9248559455
 10
123.2348939543
 20
105.2414137314
 10
123.2559157387
 20
103.5580634314
 10
123.2826127424
 20
101.8748115505
 10
123.3149822566
 20
100.1916776046
 10
123.3530233429
 20
98.5086617279
 10
123.3967369397
 20
96.825763786
 10
123.4461231528
 20
95.1430028918
 10
123.5011820176
 20
93.4603854159
 10
123.5619134987
 20
91.7779049877
 10
123.6283175962
 20
90.0955616069
  0
LINE
  5
48F
100
AcDbEntity
  8
RACCORDO
100
AcDbLine
 62
250
  6
CONTINUOUS
 10
123.205461244
 20
110.88291204
 11
123.2056109571
 21
110.846880704
  0
LINE
  5
490
100
AcDbEntity
  8
ASSI
100
AcDbLine
 62
250
  6
CONTINUOUS
 10
123.205461244
 20
110.88291204
 11
123.2056109571
 21
110.846880704
  0
LINE
  5
491
100
AcDbEntity
  8
RACCORDO
100
AcDbLine
 62
250
  6
CONTINUOUS
 10
123.2055068161
 20
110.3509788154
 11
123.2054612431
 21
110.3920230028
  0
LINE
  5
492
100
AcDbEntity
  8
ASSI
100
AcDbLine
 62
250
  6
CONTINUOUS
 10
123.2055068161
 20
110.3509788154
 11
123.2054612431
 21
110.3920230028
  0
LINE
  5
493
100
AcDbEntity
  8
RACCORDO
100
AcDbLine
 62
250
  6
CONTINUOUS
 10
123.205506817
 20
110.9239561937
 11
123.205461244
 21
110.88291204
  0
LINE
  5
494
100
AcDbEntity
  8
ASSI
100
AcDbLine
 62
250
  6
CONTINUOUS
 10
123.205506817
 20
110.9239561937
 11
123.205461244
 21
110.88291204
  0
LINE
  5
495
100
AcDbEntity
  8
RACCORDO
100
AcDbLine
 62
250
  6
CONTINUOUS
 10
123.2054612431
 20
110.3920230028
 11
123.2056109568
 21
110.4280543403
  0
LINE
  5
496
100
AcDbEntity
  8
ASSI
100
AcDbLine
 62
250
  6
CONTINUOUS
 10
123.2054612431
 20
110.3920230028
 11
123.2056109568
 21
110.4280543403
  0
LINE
  5
497
100
AcDbEntity
  8
RACCORDO
100
AcDbLine
 62
250
  6
CONTINUOUS
 10
123.2058660078
 20
110.9828994407
 11
123.205506817
 21
110.9239561937
  0
LINE
  5
498
100
AcDbEntity
  8
ASSI
100
AcDbLine
 62
250
  6
CONTINUOUS
 10
123.2058660078
 20
110.9828994407
 11
123.205506817
 21
110.9239561937
  0
LINE
  5
499
100
AcDbEntity
  8
RACCORDO
100
AcDbLine
 62
250
  6
CONTINUOUS
 10
123.2056109568
 20
110.4280543403
 11
123.2058159466
 21
110.4483850798
  0
LINE
  5
49A
100
AcDbEntity
  8
ASSI
100
AcDbLine
 62
250
  6
CONTINUOUS
 10
123.2056109568
 20
110.4280543403
 11
123.2058159466
 21
110.4483850798
  0
LWPOLYLINE
  5
49B
100
AcDbEntity
  8
RACCORDO
100
AcDbPolyline
 62
250
  6
CONTINUOUS
 90
9
 70
0
 10
123.2058159466
 20
110.4483850798
 10
123.2061000108
 20
110.4652238963
 10
123.2062697786
 20
110.4722130215
 10
123.2064568051
 20
110.4781947162
 10
123.2066600447
 20
110.4831355356
 10
123.2068783608
 20
110.4870078549
 10
123.2071105329
 20
110.4897900236
 10
123.2073552627
 20
110.4914664864
 10
123.207611182
 20
110.4920278708
  0
LWPOLYLINE
  5
49C
100
AcDbEntity
  8
ASSI
100
AcDbPolyline
 62
250
  6
CONTINUOUS
 90
9
 70
0
 10
123.2058159466
 20
110.4483850798
 10
123.2061000108
 20
110.4652238963
 10
123.2062697786
 20
110.4722130215
 10
123.2064568051
 20
110.4781947162
 10
123.2066600447
 20
110.4831355356
 10
123.2068783608
 20
110.4870078549
 10
123.2071105329
 20
110.4897900236
 10
123.2073552627
 20
110.4914664864
 10
123.207611182
 20
110.4920278708
  0
LWPOLYLINE
  5
49D
100
AcDbEntity
  8
RACCORDO
100
AcDbPolyline
 62
250
  6
CONTINUOUS
 90
13
 70
0
 10
123.6283175962
 20
131.1793733199
 10
123.5619134987
 20
129.4970299392
 10
123.5011820176
 20
127.8145495109
 10
123.4461231528
 20
126.1319320351
 10
123.3967369397
 20
124.4491711408
 10
123.3530233429
 20
122.766273199
 10
123.3149822566
 20
121.0832573223
 10
123.2826127424
 20
119.4001233764
 10
123.2559157387
 20
117.7168714955
 10
123.2348939543
 20
116.0335211954
 10
123.2195482923
 20
114.3500789814
 10
123.2098778497
 20
112.6665383481
 10
123.2058826264
 20
110.9828992957
  0
LWPOLYLINE
  5
49E
100
AcDbEntity
  8
ASSI
100
AcDbPolyline
 62
250
  6
CONTINUOUS
 90
13
 70
0
 10
123.6283175962
 20
131.1793733199
 10
123.5619134987
 20
129.4970299392
 10
123.5011820176
 20
127.8145495109
 10
123.4461231528
 20
126.1319320351
 10
123.3967369397
 20
124.4491711408
 10
123.3530233429
 20
122.766273199
 10
123.3149822566
 20
121.0832573223
 10
123.2826127424
 20
119.4001233764
 10
123.2559157387
 20
117.7168714955
 10
123.2348939543
 20
116.0335211954
 10
123.2195482923
 20
114.3500789814
 10
123.2098778497
 20
112.6665383481
 10
123.2058826264
 20
110.9828992957
  0
LINE
  5
49F
100
AcDbEntity
  8
RACCORDO
100
AcDbLine
 62
250
  6
CONTINUOUS
 10
124.5751356519
 20
132.136877918
 11
124.5680032833
 21
132.2800021189
  0
LINE
  5
4A0
100
AcDbEntity
  8
ASSI
100
AcDbLine
 62
250
  6
CONTINUOUS
 10
124.5751356519
 20
132.136877918
 11
124.5680032833
 21
132.2800021189
  0
LINE
  5
4A1
100
AcDbEntity
  8
RACCORDO
100
AcDbLine
 62
250
  6
CONTINUOUS
 10
124.5680032833
 20
132.2800021189
 11
124.5632303038
 21
132.3864036905
  0
LINE
  5
4A2
100
AcDbEntity
  8
ASSI
100
AcDbLine
 62
250
  6
CONTINUOUS
 10
124.5680032833
 20
132.2800021189
 11
124.5632303038
 21
132.3864036905
  0
LINE
  5
4A3
100
AcDbEntity
  8
RACCORDO
100
AcDbLine
 62
250
  6
CONTINUOUS
 10
124.5632303038
 20
132.3864036905
 11
124.5603677209
 21
132.4576760505
  0
LINE
  5
4A4
100
AcDbEntity
  8
ASSI
100
AcDbLine
 62
250
  6
CONTINUOUS
 10
124.5632303038
 20
132.3864036905
 11
124.5603677209
 21
132.4576760505
  0
LINE
  5
4A5
100
AcDbEntity
  8
RACCORDO
100
AcDbLine
 62
250
  6
CONTINUOUS
 10
124.5603677209
 20
132.4576760505
 11
124.5582181674
 21
132.5192124305
  0
LINE
  5
4A6
100
AcDbEntity
  8
ASSI
100
AcDbLine
 62
250
  6
CONTINUOUS
 10
124.5603677209
 20
132.4576760505
 11
124.5582181674
 21
132.5192124305
  0
LINE
  5
4A7
100
AcDbEntity
  8
RACCORDO
100
AcDbLine
 62
250
  6
CONTINUOUS
 10
124.5582181674
 20
132.5192124305
 11
124.5572144302
 21
132.5538916028
  0
LINE
  5
4A8
100
AcDbEntity
  8
ASSI
100
AcDbLine
 62
250
  6
CONTINUOUS
 10
124.5582181674
 20
132.5192124305
 11
124.5572144302
 21
132.5538916028
  0
LWPOLYLINE
  5
4A9
100
AcDbEntity
  8
RACCORDO
100
AcDbPolyline
 62
250
  6
CONTINUOUS
 90
10
 70
0
 10
124.5572144302
 20
132.5538916028
 10
124.5565706353
 20
132.5829379295
 10
124.5563866273
 20
132.5952230432
 10
124.5562954788
 20
132.6059590642
 10
124.5562974978
 20
132.6151097076
 10
124.5563926775
 20
132.6226440463
 10
124.5565806962
 20
132.628536616
 10
124.5568609185
 20
132.6327675012
 10
124.5572323972
 20
132.6353224027
 10
124.557693877
 20
132.6361926854
  0
LWPOLYLINE
  5
4AA
100
AcDbEntity
  8
ASSI
100
AcDbPolyline
 62
250
  6
CONTINUOUS
 90
10
 70
0
 10
124.5572144302
 20
132.5538916028
 10
124.5565706353
 20
132.5829379295
 10
124.5563866273
 20
132.5952230432
 10
124.5562954788
 20
132.6059590642
 10
124.5562974978
 20
132.6151097076
 10
124.5563926775
 20
132.6226440463
 10
124.5565806962
 20
132.628536616
 10
124.5568609185
 20
132.6327675012
 10
124.5572323972
 20
132.6353224027
 10
124.557693877
 20
132.6361926854
  0
LWPOLYLINE
  5
4AB
100
AcDbEntity
  8
RACCORDO
100
AcDbPolyline
 62
250
  6
CONTINUOUS
 90
9
 70
0
 10
124.5565706355
 20
88.6919969773
 10
124.5563866276
 20
88.6797118678
 10
124.5562954792
 20
88.6689758505
 10
124.5562974983
 20
88.6598252106
 10
124.556392678
 20
88.652290875
 10
124.5565806966
 20
88.6463983077
 10
124.5568609188
 20
88.6421674242
 10
124.5572323974
 20
88.6396125238
 10
124.557693877
 20
88.6387422415
  0
LWPOLYLINE
  5
4AC
100
AcDbEntity
  8
ASSI
100
AcDbPolyline
 62
250
  6
CONTINUOUS
 90
9
 70
0
 10
124.5565706355
 20
88.6919969773
 10
124.5563866276
 20
88.6797118678
 10
124.5562954792
 20
88.6689758505
 10
124.5562974983
 20
88.6598252106
 10
124.556392678
 20
88.652290875
 10
124.5565806966
 20
88.6463983077
 10
124.5568609188
 20
88.6421674242
 10
124.5572323974
 20
88.6396125238
 10
124.557693877
 20
88.6387422415
  0
LINE
  5
4AD
100
AcDbEntity
  8
RACCORDO
100
AcDbLine
 62
250
  6
CONTINUOUS
 10
124.5572144301
 20
88.7210432955
 11
124.5565706355
 21
88.6919969773
  0
LINE
  5
4AE
100
AcDbEntity
  8
ASSI
100
AcDbLine
 62
250
  6
CONTINUOUS
 10
124.5572144301
 20
88.7210432955
 11
124.5565706355
 21
88.6919969773
  0
LINE
  5
4AF
100
AcDbEntity
  8
RACCORDO
100
AcDbLine
 62
250
  6
CONTINUOUS
 10
124.5582181669
 20
88.7557224596
 11
124.5572144301
 21
88.7210432955
  0
LINE
  5
4B0
100
AcDbEntity
  8
ASSI
100
AcDbLine
 62
250
  6
CONTINUOUS
 10
124.5582181669
 20
88.7557224596
 11
124.5572144301
 21
88.7210432955
  0
LINE
  5
4B1
100
AcDbEntity
  8
RACCORDO
100
AcDbLine
 62
250
  6
CONTINUOUS
 10
124.5603677198
 20
88.8172588306
 11
124.5582181669
 21
88.7557224596
  0
LINE
  5
4B2
100
AcDbEntity
  8
ASSI
100
AcDbLine
 62
250
  6
CONTINUOUS
 10
124.5603677198
 20
88.8172588306
 11
124.5582181669
 21
88.7557224596
  0
LINE
  5
4B3
100
AcDbEntity
  8
RACCORDO
100
AcDbLine
 62
250
  6
CONTINUOUS
 10
124.5632303023
 20
88.8885311882
 11
124.5603677198
 21
88.8172588306
  0
LINE
  5
4B4
100
AcDbEntity
  8
ASSI
100
AcDbLine
 62
250
  6
CONTINUOUS
 10
124.5632303023
 20
88.8885311882
 11
124.5603677198
 21
88.8172588306
  0
LINE
  5
4B5
100
AcDbEntity
  8
RACCORDO
100
AcDbLine
 62
250
  6
CONTINUOUS
 10
124.5680032819
 20
88.9949327708
 11
124.5632303023
 21
88.8885311882
  0
LINE
  5
4B6
100
AcDbEntity
  8
ASSI
100
AcDbLine
 62
250
  6
CONTINUOUS
 10
124.5680032819
 20
88.9949327708
 11
124.5632303023
 21
88.8885311882
  0
LINE
  5
4B7
100
AcDbEntity
  8
RACCORDO
100
AcDbLine
 62
250
  6
CONTINUOUS
 10
124.5751356519
 20
89.1380570088
 11
124.5680032819
 21
88.9949327708
  0
LINE
  5
4B8
100
AcDbEntity
  8
ASSI
100
AcDbLine
 62
250
  6
CONTINUOUS
 10
124.5751356519
 20
89.1380570088
 11
124.5680032819
 21
88.9949327708
  0
LINE
  5
4B9
100
AcDbEntity
  8
RACCORDO
100
AcDbLine
 62
250
  6
CONTINUOUS
 10
128.4144727659
 20
110.3374903087
 11
123.2058826264
 21
110.2920356312
  0
LINE
  5
4BA
100
AcDbEntity
  8
ASSI
100
AcDbLine
 62
250
  6
CONTINUOUS
 10
128.4144727659
 20
110.3374903087
 11
123.2058826264
 21
110.2920356312
  0
LINE
  5
4BB
100
AcDbEntity
  8
RACCORDO
100
AcDbLine
 62
7
  6
CONTINUOUS
 10
128.4144727659
 20
110.5374674634
 11
122.9128486155
 21
110.4894555168
  0
LINE
  5
4BC
100
AcDbEntity
  8
ASSI
100
AcDbLine
 62
7
  6
CONTINUOUS
 10
128.4144727659
 20
110.5374674634
 11
122.9128486155
 21
110.4894555168
  0
LINE
  5
4BD
100
AcDbEntity
  8
RACCORDO
100
AcDbLine
 62
250
  6
CONTINUOUS
 10
123.2058826265
 20
110.2920355773
 11
122.7145939726
 21
110.2893238668
  0
LINE
  5
4BE
100
AcDbEntity
  8
ASSI
100
AcDbLine
 62
250
  6
CONTINUOUS
 10
123.2058826265
 20
110.2920355773
 11
122.7145939726
 21
110.2893238668
  0
LINE
  5
4BF
100
AcDbEntity
  8
RACCORDO
100
AcDbLine
 62
7
  6
CONTINUOUS
 10
122.9128486143
 20
110.78547941
 11
128.4144727659
 21
110.7374674634
  0
LINE
  5
4C0
100
AcDbEntity
  8
ASSI
100
AcDbLine
 62
7
  6
CONTINUOUS
 10
122.9128486155
 20
110.78547941
 11
128.4144727659
 21
110.7374674634
  0
LINE
  5
4C1
100
AcDbEntity
  8
RACCORDO
100
AcDbLine
 62
250
  6
CONTINUOUS
 10
122.7145939726
 20
110.9856110601
 11
123.2058826265
 21
110.9828993495
  0
LINE
  5
4C2
100
AcDbEntity
  8
ASSI
100
AcDbLine
 62
250
  6
CONTINUOUS
 10
122.7145939726
 20
110.9856110601
 11
123.2058826265
 21
110.9828993495
  0
LINE
  5
4C3
100
AcDbEntity
  8
RACCORDO
100
AcDbLine
 62
250
  6
CONTINUOUS
 10
123.2058826264
 20
110.9828992957
 11
128.4144727659
 21
110.9374446181
  0
LINE
  5
4C4
100
AcDbEntity
  8
ASSI
100
AcDbLine
 62
250
  6
CONTINUOUS
 10
123.2058826264
 20
110.9828992957
 11
128.4144727659
 21
110.9374446181
  0
LINE
  5
4C5
100
AcDbEntity
  8
RACCORDO
100
AcDbLine
 62
7
  6
CONTINUOUS
 10
128.0144727659
 20
128.5709590646
 11
128.0144727659
 21
128.3094883845
  0
LINE
  5
4C6
100
AcDbEntity
  8
ASSI
100
AcDbLine
 62
7
  6
CONTINUOUS
 10
128.0144727659
 20
128.5709590646
 11
128.0144727659
 21
128.3094883845
  0
LINE
  5
4C7
100
AcDbEntity
  8
RACCORDO
100
AcDbLine
 62
7
  6
CONTINUOUS
 10
128.0144727659
 20
92.9654465423
 11
128.0144727659
 21
92.7039758622
  0
LINE
  5
4C8
100
AcDbEntity
  8
ASSI
100
AcDbLine
 62
7
  6
CONTINUOUS
 10
128.0144727659
 20
92.9654465423
 11
128.0144727659
 21
92.7039758622
  0
LINE
  5
4C9
100
AcDbEntity
  8
RACCORDO
100
AcDbLine
 62
7
  6
CONTINUOUS
 10
128.4144727659
 20
110.5374674634
 11
128.4144727659
 21
97.5374674634
  0
LINE
  5
4CA
100
AcDbEntity
  8
ASSI
100
AcDbLine
 62
7
  6
CONTINUOUS
 10
128.4144727659
 20
110.5374674634
 11
128.4144727659
 21
97.5374674634
  0
LINE
  5
4CB
100
AcDbEntity
  8
RACCORDO
100
AcDbLine
 62
7
  6
CONTINUOUS
 10
128.4144727659
 20
110.7374674634
 11
128.4144727659
 21
123.7374674634
  0
LINE
  5
4CC
100
AcDbEntity
  8
ASSI
100
AcDbLine
 62
7
  6
CONTINUOUS
 10
128.4144727659
 20
110.7374674634
 11
128.4144727659
 21
123.7374674634
  0
LWPOLYLINE
  5
4CD
100
AcDbEntity
  8
0
100
AcDbPolyline
 62
7
  6
CONTINUOUS
 90
3
 70
0
 43
0.3500000006
 10
138.2945767822
 20
141.8324956055
 10
138.2231546631
 20
141.6182111206
 10
138.0802922974
 20
141.3324863892
  0
LINE
  5
4CE
100
AcDbEntity
  8
RACCORDO
100
AcDbLine
 62
7
  6
CONTINUOUS
 10
128.4144727659
 20
123.7374674634
 11
127.6218856048
 21
132.7967801692
  0
LINE
  5
4CF
100
AcDbEntity
  8
ASSI
100
AcDbLine
 62
7
  6
CONTINUOUS
 10
128.4144727659
 20
123.7374674634
 11
127.6218856048
 21
132.7967801692
  0
LINE
  5
4D0
100
AcDbEntity
  8
RACCORDO
100
AcDbLine
 62
7
  6
CONTINUOUS
 10
128.4144727659
 20
97.5374674634
 11
127.6218856048
 21
88.4781547577
  0
LINE
  5
4D1
100
AcDbEntity
  8
ASSI
100
AcDbLine
 62
7
  6
CONTINUOUS
 10
128.4144727659
 20
97.5374674634
 11
127.6218856048
 21
88.4781547577
  0
LWPOLYLINE
  5
4D2
100
AcDbEntity
  8
0
100
AcDbPolyline
 62
7
  6
CONTINUOUS
 90
4
 70
0
 43
0.3500000006
 10
139.2945770874
 20
143.903918335
 10
139.2945770874
 20
144.5467717896
 10
140.7945775452
 20
144.5467717896
 10
139.9374396057
 20
141.5467890015
  0
LINE
  5
4D3
100
AcDbEntity
  8
RACCORDO
100
AcDbLine
 62
250
  6
CONTINUOUS
 10
128.0144727659
 20
128.5709590646
 11
127.9915970455
 21
128.5709590646
  0
LINE
  5
4D4
100
AcDbEntity
  8
ASSI
100
AcDbLine
 62
250
  6
CONTINUOUS
 10
128.0144727659
 20
128.5709590646
 11
127.9915970455
 21
128.5709590646
  0
LWPOLYLINE
  5
4D5
100
AcDbEntity
  8
RACCORDO
100
AcDbPolyline
 62
250
  6
CONTINUOUS
 90
37
 70
0
 10
124.5751356519
 20
132.136877918
 10
124.5341097249
 20
132.1338743281
 10
124.4933738173
 20
132.129214331
 10
124.452927929
 20
132.1228979268
 10
124.4127040946
 20
132.11490896
 10
124.3727702796
 20
132.1052635861
 10
124.3333303803
 20
132.0940102716
 10
124.2943873468
 20
132.081140731
 10
124.255938229
 20
132.0666632499
 10
124.2181780731
 20
132.0506511507
 10
124.1811109544
 20
132.0330968543
 10
124.1447327975
 20
132.0140079399
 10
124.1092264233
 20
131.993480468
 10
124.0745961671
 20
131.9715072222
 10
124.0408376935
 20
131.9480954189
 10
124.008120817
 20
131.9233627683
 10
123.9764505837
 20
131.8973024237
 10
123.9458219475
 20
131.8699212319
 10
123.9163895844
 20
131.841357443
 10
123.8881596
 20
131.8116050533
 10
123.8611258887
 20
131.7806700665
 10
123.8354248104
 20
131.7487087435
 10
123.8110632704
 20
131.7157161355
 10
123.7880343635
 20
131.6816971913
 10
123.7664537333
 20
131.6468230175
 10
123.7463286295
 20
131.6110893676
 10
123.7276518024
 20
131.5745004881
 10
123.7105171461
 20
131.537240225
 10
123.6949322872
 20
131.4993045872
 10
123.6808895991
 20
131.4606975659
 10
123.6684600969
 20
131.4216149807
 10
123.6576520605
 20
131.3820536215
 10
123.6484572099
 20
131.3420166985
 10
123.6409217207
 20
131.3017096618
 10
123.6350609845
 20
131.2612009949
 10
123.6308596097
 20
131.2204222142
 10
123.6283175962
 20
131.1793733199
  0
LWPOLYLINE
  5
4D6
100
AcDbEntity
  8
ASSI
100
AcDbPolyline
 62
250
  6
CONTINUOUS
 90
37
 70
0
 10
124.5751356519
 20
132.136877918
 10
124.5341097249
 20
132.1338743281
 10
124.4933738173
 20
132.129214331
 10
124.452927929
 20
132.1228979268
 10
124.4127040946
 20
132.11490896
 10
124.3727702796
 20
132.1052635861
 10
124.3333303803
 20
132.0940102716
 10
124.2943873468
 20
132.081140731
 10
124.255938229
 20
132.0666632499
 10
124.2181780731
 20
132.0506511507
 10
124.1811109544
 20
132.0330968543
 10
124.1447327975
 20
132.0140079399
 10
124.1092264233
 20
131.993480468
 10
124.0745961671
 20
131.9715072222
 10
124.0408376935
 20
131.9480954189
 10
124.008120817
 20
131.9233627683
 10
123.9764505837
 20
131.8973024237
 10
123.9458219475
 20
131.8699212319
 10
123.9163895844
 20
131.841357443
 10
123.8881596
 20
131.8116050533
 10
123.8611258887
 20
131.7806700665
 10
123.8354248104
 20
131.7487087435
 10
123.8110632704
 20
131.7157161355
 10
123.7880343635
 20
131.6816971913
 10
123.7664537333
 20
131.6468230175
 10
123.7463286295
 20
131.6110893676
 10
123.7276518024
 20
131.5745004881
 10
123.7105171461
 20
131.537240225
 10
123.6949322872
 20
131.4993045872
 10
123.6808895991
 20
131.4606975659
 10
123.6684600969
 20
131.4216149807
 10
123.6576520605
 20
131.3820536215
 10
123.6484572099
 20
131.3420166985
 10
123.6409217207
 20
131.3017096618
 10
123.6350609845
 20
131.2612009949
 10
123.6308596097
 20
131.2204222142
 10
123.6283175962
 20
131.1793733199
  0
LINE
  5
4D7
100
AcDbEntity
  8
RACCORDO
100
AcDbLine
 62
250
  6
CONTINUOUS
 10
127.665450211
 20
132.2988344414
 11
124.5751356519
 21
132.136877918
  0
LINE
  5
4D8
100
AcDbEntity
  8
ASSI
100
AcDbLine
 62
250
  6
CONTINUOUS
 10
127.665450211
 20
132.2988344414
 11
124.5751356519
 21
132.136877918
  0
LINE
  5
4D9
100
AcDbEntity
  8
RACCORDO
100
AcDbLine
 62
7
  6
CONTINUOUS
 10
127.6218856048
 20
132.7967801692
 11
124.5577111967
 21
132.6361935931
  0
LINE
  5
4DA
100
AcDbEntity
  8
ASSI
100
AcDbLine
 62
7
  6
CONTINUOUS
 10
127.6218856048
 20
132.7967801692
 11
124.5577111967
 21
132.6361935931
  0
LWPOLYLINE
  5
4DB
100
AcDbEntity
  8
0
100
AcDbPolyline
 62
7
  6
CONTINUOUS
 90
8
 70
0
 43
0.3500000006
 10
135.4374382324
 20
141.5467890015
 10
136.2945852356
 20
141.5467890015
 10
136.7231542053
 20
141.9753579712
 10
136.7231542053
 20
142.8324959106
 10
136.2945852356
 20
143.2610648804
 10
135.4374382324
 20
143.2610648804
 10
135.4374382324
 20
144.5467717896
 10
136.7231542053
 20
144.5467717896
  0
LWPOLYLINE
  5
4DC
100
AcDbEntity
  8
RACCORDO
100
AcDbPolyline
 62
250
  6
CONTINUOUS
 90
4
 70
0
 10
123.6283175962
 20
131.1793733199
 10
123.1407685563
 20
131.1997586462
 10
123.138292493
 20
131.1998811473
 10
123.1374667936
 20
131.1999357882
  0
LWPOLYLINE
  5
4DD
100
AcDbEntity
  8
ASSI
100
AcDbPolyline
 62
250
  6
CONTINUOUS
 90
4
 70
0
 10
123.6283175962
 20
131.1793733199
 10
123.1407685563
 20
131.1997586462
 10
123.138292493
 20
131.1998811473
 10
123.1374667936
 20
131.1999357882
  0
LWPOLYLINE
  5
4DE
100
AcDbEntity
  8
0
100
AcDbPolyline
 62
7
  6
CONTINUOUS
 90
10
 70
0
 43
0.3500000006
 10
138.2231546631
 20
142.0467800903
 10
138.2945767822
 20
141.9039177246
 10
138.2945767822
 20
141.8324956055
 10
138.1517234802
 20
141.6896332397
 10
138.0802922974
 20
141.6896332397
 10
138.0088701782
 20
141.7610734863
 10
138.0088701782
 20
141.8324956055
 10
138.0802922974
 20
141.9753579712
 10
138.1517234802
 20
142.0467800903
 10
138.2231546631
 20
142.0467800903
  0
ARC
  5
4DF
100
AcDbEntity
  8
0
100
AcDbCircle
 62
7
  6
CONTINUOUS
 10
180.5528656616
 20
110.6374674634
 40
1.375
100
AcDbArc
 50
15.3271627815
 51
164.6728372185
  0
ARC
  5
4E0
100
AcDbEntity
  8
0
100
AcDbCircle
 62
7
  6
CONTINUOUS
 10
180.5528656616
 20
110.6374674634
 40
1.375
100
AcDbArc
 50
195.3271627815
 51
344.6728372185
  0
ARC
  5
4E1
100
AcDbEntity
  8
ASSI
100
AcDbCircle
 62
7
  6
CONTINUOUS
 10
180.5528656616
 20
110.6374674634
 40
1.375
100
AcDbArc
 50
15.3271627815
 51
164.6728372185
  0
ARC
  5
4E2
100
AcDbEntity
  8
ASSI
100
AcDbCircle
 62
7
  6
CONTINUOUS
 10
180.5528656616
 20
110.6374674634
 40
1.375
100
AcDbArc
 50
195.3271627815
 51
344.6728372185
  0
ARC
  5
4E3
100
AcDbEntity
  8
RACCORDO
100
AcDbCircle
 62
7
  6
CONTINUOUS
 10
124.6361978113
 20
90.1366865436
 40
1.5
100
AcDbArc
 50
182.3561664986
 51
267.000662446
  0
ARC
  5
4E4
100
AcDbEntity
  8
ASSI
100
AcDbCircle
 62
7
  6
CONTINUOUS
 10
124.6361978113
 20
90.1366865436
 40
1.5
100
AcDbArc
 50
182.3561664986
 51
267.000662446
  0
ARC
  5
4E5
100
AcDbEntity
  8
RACCORDO
100
AcDbCircle
 62
7
  6
CONTINUOUS
 10
127.7144727659
 20
92.7039758622
 40
0.3
100
AcDbArc
 50
335.0
 51
360.0
  0
ARC
  5
4E6
100
AcDbEntity
  8
ASSI
100
AcDbCircle
 62
7
  6
CONTINUOUS
 10
127.7144727659
 20
92.7039758622
 40
0.3
100
AcDbArc
 50
335.0
 51
360.0
  0
ARC
  5
4E7
100
AcDbEntity
  8
RACCORDO
100
AcDbCircle
 62
7
  6
CONTINUOUS
 10
122.9145944332
 20
110.2894631367
 40
0.2
100
AcDbArc
 50
90.5001462858
 51
180.0398957513
  0
ARC
  5
4E8
100
AcDbEntity
  8
ASSI
100
AcDbCircle
 62
7
  6
CONTINUOUS
 10
122.9145944332
 20
110.2894631367
 40
0.2
100
AcDbArc
 50
90.5001462858
 51
180.0398957513
  0
ARC
  5
4E9
100
AcDbEntity
  8
RACCORDO
100
AcDbCircle
 62
7
  6
CONTINUOUS
 10
124.6361978113
 20
131.1382483833
 40
1.5
100
AcDbArc
 50
92.999337554
 51
177.6438335014
  0
ARC
  5
4EA
100
AcDbEntity
  8
ASSI
100
AcDbCircle
 62
7
  6
CONTINUOUS
 10
124.6361978113
 20
131.1382483833
 40
1.5
100
AcDbArc
 50
92.999337554
 51
177.6438335014
  0
ARC
  5
4EB
100
AcDbEntity
  8
RACCORDO
100
AcDbCircle
 62
7
  6
CONTINUOUS
 10
127.7144727659
 20
128.5709590646
 40
0.3
100
AcDbArc
 50
0.0
 51
25.0
  0
ARC
  5
4EC
100
AcDbEntity
  8
ASSI
100
AcDbCircle
 62
7
  6
CONTINUOUS
 10
127.7144727659
 20
128.5709590646
 40
0.3
100
AcDbArc
 50
0.0
 51
25.0
  0
ARC
  5
4ED
100
AcDbEntity
  8
RACCORDO
100
AcDbCircle
 62
7
  6
CONTINUOUS
 10
122.9145944332
 20
110.9854717902
 40
0.2
100
AcDbArc
 50
179.9601042487
 51
269.4998537142
  0
ARC
  5
4EE
100
AcDbEntity
  8
ASSI
100
AcDbCircle
 62
7
  6
CONTINUOUS
 10
122.9145944332
 20
110.9854717902
 40
0.2
100
AcDbArc
 50
179.9601042487
 51
269.4998537142
  0
ARC
  5
4EF
100
AcDbEntity
  8
RACCORDO
100
AcDbCircle
 62
7
  6
CONTINUOUS
 10
622.7144727659
 20
110.6374674634
 40
500.0
100
AcDbArc
 50
177.6430523596
 51
179.9601056801
  0
ARC
  5
4F0
100
AcDbEntity
  8
RACCORDO
100
AcDbCircle
 62
7
  6
CONTINUOUS
 10
622.7144727659
 20
110.6374674634
 40
500.0
100
AcDbArc
 50
180.0398943199
 51
182.3569476404
  0
ARC
  5
4F1
100
AcDbEntity
  8
ASSI
100
AcDbCircle
 62
7
  6
CONTINUOUS
 10
622.7144727659
 20
110.6374674634
 40
500.0
100
AcDbArc
 50
177.6430523596
 51
179.9601056801
  0
ARC
  5
4F2
100
AcDbEntity
  8
ASSI
100
AcDbCircle
 62
7
  6
CONTINUOUS
 10
622.7144727659
 20
110.6374674634
 40
500.0
100
AcDbArc
 50
180.0398943199
 51
182.3569476404
  0
ELLIPSE
  5
4F3
100
AcDbEntity
  8
RACCORDO
100
AcDbEllipse
 62
7
  6
CONTINUOUS
 10
187.8373956077
 20
132.7701877891
 30
0.0
 11
0.2
 21
0.0
 31
0.0
 40
0.0524077793
 41
-1.5707963268
 42
-0.5235987756
  0
ELLIPSE
  5
4F4
100
AcDbEntity
  8
RACCORDO
100
AcDbEllipse
 62
7
  6
CONTINUOUS
 10
184.4683357154
 20
132.7701877891
 30
0.0
 11
0.2
 21
0.0
 31
0.0
 40
0.0524077793
 41
-2.617993878
 42
-1.5707963268
  0
ELLIPSE
  5
4F5
100
AcDbEntity
  8
RACCORDO
100
AcDbEllipse
 62
7
  6
CONTINUOUS
 10
176.6373956077
 20
132.7701877891
 30
0.0
 11
0.2
 21
0.0
 31
0.0
 40
0.0524077793
 41
-1.5707963268
 42
-0.5235987756
  0
ELLIPSE
  5
4F6
100
AcDbEntity
  8
RACCORDO
100
AcDbEllipse
 62
7
  6
CONTINUOUS
 10
173.2683357154
 20
132.7701877891
 30
0.0
 11
0.2
 21
0.0
 31
0.0
 40
0.0524077793
 41
-2.617993878
 42
-1.5707963268
  0
ELLIPSE
  5
4F7
100
AcDbEntity
  8
RACCORDO
100
AcDbEllipse
 62
7
  6
CONTINUOUS
 10
169.6028961272
 20
110.9374750791
 30
0.0
 11
0.1789222233
 21
0.0894542984
 31
0.0
 40
0.9998096356
 41
2.6780516535
 42
4.2486956813
  0
ELLIPSE
  5
4F8
100
AcDbEntity
  8
RACCORDO
100
AcDbEllipse
 62
7
  6
CONTINUOUS
 10
191.502835196
 20
110.9374750791
 30
0.0
 11
0.1789222233
 21
-0.0894542984
 31
0.0
 40
0.9998096356
 41
-1.1071030277
 42
0.4635410001
  0
ELLIPSE
  5
4F9
100
AcDbEntity
  8
RACCORDO
100
AcDbEllipse
 62
7
  6
CONTINUOUS
 10
169.9160153677
 20
132.2983792077
 30
0.0
 11
0.498078285
 21
0.0448076117
 31
0.0
 40
0.9965957691
 41
1.4807720384
 42
3.0506549766
  0
ELLIPSE
  5
4FA
100
AcDbEntity
  8
RACCORDO
100
AcDbEllipse
 62
7
  6
CONTINUOUS
 10
191.1897159554
 20
132.2983792077
 30
0.0
 11
0.498078285
 21
-0.0448076117
 31
0.0
 40
0.9965957691
 41
0.090937677
 42
1.6608206152
  0
ELLIPSE
  5
4FB
100
AcDbEntity
  8
RACCORDO
100
AcDbEllipse
 62
7
  6
CONTINUOUS
 10
173.2683357154
 20
88.5047471378
 30
0.0
 11
0.2
 21
0.0
 31
0.0
 40
0.0524077793
 41
1.5707963268
 42
2.617993878
  0
ELLIPSE
  5
4FC
100
AcDbEntity
  8
RACCORDO
100
AcDbEllipse
 62
7
  6
CONTINUOUS
 10
176.6373956077
 20
88.5047471378
 30
0.0
 11
0.2
 21
0.0
 31
0.0
 40
0.0524077793
 41
0.5235987756
 42
1.5707963268
  0
ELLIPSE
  5
4FD
100
AcDbEntity
  8
RACCORDO
100
AcDbEllipse
 62
7
  6
CONTINUOUS
 10
184.4683357154
 20
88.5047471378
 30
0.0
 11
0.2
 21
0.0
 31
0.0
 40
0.0524077793
 41
1.5707963268
 42
2.617993878
  0
ELLIPSE
  5
4FE
100
AcDbEntity
  8
RACCORDO
100
AcDbEllipse
 62
7
  6
CONTINUOUS
 10
187.8373956077
 20
88.5047471378
 30
0.0
 11
0.2
 21
-0.0
 31
0.0
 40
0.0524077793
 41
0.5235987756
 42
1.5707963268
  0
ELLIPSE
  5
4FF
100
AcDbEntity
  8
RACCORDO
100
AcDbEllipse
 62
7
  6
CONTINUOUS
 10
191.502835196
 20
110.3374598478
 30
0.0
 11
0.1789222233
 21
0.0894542984
 31
0.0
 40
0.9998096356
 41
-0.4635410001
 42
1.1071030277
  0
ELLIPSE
  5
500
100
AcDbEntity
  8
RACCORDO
100
AcDbEllipse
 62
7
  6
CONTINUOUS
 10
169.6028961272
 20
110.3374598478
 30
0.0
 11
0.1789222233
 21
-0.0894542984
 31
0.0
 40
0.9998096356
 41
2.0344896259
 42
3.6051336537
  0
ELLIPSE
  5
501
100
AcDbEntity
  8
RACCORDO
100
AcDbEllipse
 62
7
  6
CONTINUOUS
 10
191.1897159554
 20
88.9765557192
 30
0.0
 11
0.498078285
 21
0.0448076117
 31
0.0
 40
0.9965957691
 41
-1.6608206152
 42
-0.090937677
  0
ELLIPSE
  5
502
100
AcDbEntity
  8
RACCORDO
100
AcDbEllipse
 62
7
  6
CONTINUOUS
 10
169.9160153677
 20
88.9765557192
 30
0.0
 11
0.498078285
 21
-0.0448076117
 31
0.0
 40
0.9965957691
 41
-3.0506549766
 42
-1.4807720384
  0
ELLIPSE
  5
503
100
AcDbEntity
  8
ASSI
100
AcDbEllipse
 62
7
  6
CONTINUOUS
 10
187.8373956077
 20
132.7701877891
 30
0.0
 11
0.2
 21
0.0
 31
0.0
 40
0.0524077793
 41
-1.5707963268
 42
-0.5235987756
  0
ELLIPSE
  5
504
100
AcDbEntity
  8
ASSI
100
AcDbEllipse
 62
7
  6
CONTINUOUS
 10
184.4683357154
 20
132.7701877891
 30
0.0
 11
0.2
 21
0.0
 31
0.0
 40
0.0524077793
 41
-2.617993878
 42
-1.5707963268
  0
ELLIPSE
  5
505
100
AcDbEntity
  8
ASSI
100
AcDbEllipse
 62
7
  6
CONTINUOUS
 10
176.6373956077
 20
132.7701877891
 30
0.0
 11
0.2
 21
0.0
 31
0.0
 40
0.0524077793
 41
-1.5707963268
 42
-0.5235987756
  0
ELLIPSE
  5
506
100
AcDbEntity
  8
ASSI
100
AcDbEllipse
 62
7
  6
CONTINUOUS
 10
173.2683357154
 20
132.7701877891
 30
0.0
 11
0.2
 21
0.0
 31
0.0
 40
0.0524077793
 41
-2.617993878
 42
-1.5707963268
  0
ELLIPSE
  5
507
100
AcDbEntity
  8
ASSI
100
AcDbEllipse
 62
7
  6
CONTINUOUS
 10
169.6028961272
 20
110.9374750791
 30
0.0
 11
0.1789222233
 21
0.0894542984
 31
0.0
 40
0.9998096356
 41
2.6780516535
 42
4.2486956813
  0
ELLIPSE
  5
508
100
AcDbEntity
  8
ASSI
100
AcDbEllipse
 62
7
  6
CONTINUOUS
 10
191.502835196
 20
110.9374750791
 30
0.0
 11
0.1789222233
 21
-0.0894542984
 31
0.0
 40
0.9998096356
 41
-1.1071030277
 42
0.4635410001
  0
ELLIPSE
  5
509
100
AcDbEntity
  8
ASSI
100
AcDbEllipse
 62
7
  6
CONTINUOUS
 10
169.9160153677
 20
132.2983792077
 30
0.0
 11
0.498078285
 21
0.0448076117
 31
0.0
 40
0.9965957691
 41
1.4807720384
 42
3.0506549766
  0
ELLIPSE
  5
50A
100
AcDbEntity
  8
ASSI
100
AcDbEllipse
 62
7
  6
CONTINUOUS
 10
191.1897159554
 20
132.2983792077
 30
0.0
 11
0.498078285
 21
-0.0448076117
 31
0.0
 40
0.9965957691
 41
0.090937677
 42
1.6608206152
  0
ELLIPSE
  5
50B
100
AcDbEntity
  8
ASSI
100
AcDbEllipse
 62
7
  6
CONTINUOUS
 10
173.2683357154
 20
88.5047471378
 30
0.0
 11
0.2
 21
0.0
 31
0.0
 40
0.0524077793
 41
1.5707963268
 42
2.617993878
  0
ELLIPSE
  5
50C
100
AcDbEntity
  8
ASSI
100
AcDbEllipse
 62
7
  6
CONTINUOUS
 10
176.6373956077
 20
88.5047471378
 30
0.0
 11
0.2
 21
0.0
 31
0.0
 40
0.0524077793
 41
0.5235987756
 42
1.5707963268
  0
ELLIPSE
  5
50D
100
AcDbEntity
  8
ASSI
100
AcDbEllipse
 62
7
  6
CONTINUOUS
 10
184.4683357154
 20
88.5047471378
 30
0.0
 11
0.2
 21
0.0
 31
0.0
 40
0.0524077793
 41
1.5707963268
 42
2.617993878
  0
ELLIPSE
  5
50E
100
AcDbEntity
  8
ASSI
100
AcDbEllipse
 62
7
  6
CONTINUOUS
 10
187.8373956077
 20
88.5047471378
 30
0.0
 11
0.2
 21
-0.0
 31
0.0
 40
0.0524077793
 41
0.5235987756
 42
1.5707963268
  0
ELLIPSE
  5
50F
100
AcDbEntity
  8
ASSI
100
AcDbEllipse
 62
7
  6
CONTINUOUS
 10
191.502835196
 20
110.3374598478
 30
0.0
 11
0.1789222233
 21
0.0894542984
 31
0.0
 40
0.9998096356
 41
-0.4635410001
 42
1.1071030277
  0
ELLIPSE
  5
510
100
AcDbEntity
  8
ASSI
100
AcDbEllipse
 62
7
  6
CONTINUOUS
 10
169.6028961272
 20
110.3374598478
 30
0.0
 11
0.1789222233
 21
-0.0894542984
 31
0.0
 40
0.9998096356
 41
2.0344896259
 42
3.6051336537
  0
ELLIPSE
  5
511
100
AcDbEntity
  8
ASSI
100
AcDbEllipse
 62
7
  6
CONTINUOUS
 10
191.1897159554
 20
88.9765557192
 30
0.0
 11
0.498078285
 21
0.0448076117
 31
0.0
 40
0.9965957691
 41
-1.6608206152
 42
-0.090937677
  0
ELLIPSE
  5
512
100
AcDbEntity
  8
ASSI
100
AcDbEllipse
 62
7
  6
CONTINUOUS
 10
169.9160153677
 20
88.9765557192
 30
0.0
 11
0.498078285
 21
-0.0448076117
 31
0.0
 40
0.9965957691
 41
-3.0506549766
 42
-1.4807720384
  0
ELLIPSE
  5
513
100
AcDbEntity
  8
SIMBOLI
100
AcDbEllipse
 62
250
  6
CONTINUOUS
 10
622.7144727659
 20
110.6374674634
 30
0.0
 11
500.0
 21
-0.0
 31
0.0
 40
1.0
 41
9.3937729935
 42
9.4027761857
  0
ENDSEC
  0
SECTION
  2
OBJECTS
  0
DICTIONARY
  5
C
100
AcDbDictionary
280
0
281
1
  3
ACAD_GROUP
350
D
  3
ACAD_MLINESTYLE
350
17
  3
ACAD_LAYOUT
350
1A
  3
ACAD_PLOTSETTINGS
350
19
  3
ACAD_PLOTSTYLENAME
350
E
  0
DICTIONARY
  5
D
102
{ACAD_REACTORS
330
C
102
}
100
AcDbDictionary
280
0
281
1
  0
ACDBDICTIONARYWDFLT
  5
E
102
{ACAD_REACTORS
330
C
102
}
100
AcDbDictionary
281
1
  3
Normal
350
F
100
AcDbDictionaryWithDefault
340
F
  0
DICTIONARY
  5
17
102
{ACAD_REACTORS
330
C
102
}
100
AcDbDictionary
280
0
281
1
  3
Standard
350
18
  0
DICTIONARY
  5
19
102
{ACAD_REACTORS
330
C
102
}
100
AcDbDictionary
281
1
  0
DICTIONARY
  5
1A
102
{ACAD_REACTORS
330
C
102
}
100
AcDbDictionary
281
1
  3
Model
350
514
  3
Layout1
350
515
  0
ACDBPLACEHOLDER
  5
F
102
{ACAD_REACTORS
330
E
102
}
  0
MLINESTYLE
  5
18
102
{ACAD_REACTORS
330
17
102
}
100
AcDbMlineStyle
  2
STANDARD
 70
0
  3

 62
256
 51
90.0
 52
90.0
 71
2
 49
0.5
 62
256
  6
BYLAYER
 49
-0.5
 62
256
  6
BYLAYER
  0
LAYOUT
  5
514
102
{ACAD_REACTORS
330
1A
102
}
100
AcDbPlotSettings
  1

  2
none_device
  4
ISO_A4_(297.00_x_210.00_MM)
  6

 40
0.0
 41
0.0
 42
0.0
 43
0.0
 44
297.0
 45
210.0
 46
0.0
 47
0.0
 48
0.0
 49
0.0
140
0.0
141
0.0
142
1.0
143
1.0
 70
1024
 72
1
 73
0
 74
0
  7

 75
0
147
1.0
148
0.0
149
0.0
100
AcDbLayout
  1
Model
 70
0
 71
0
 10
0.0
 20
0.0
 11
297.0
 21
210.0
 12
0.0
 22
0.0
 32
0.0
 14
0.0
 24
0.0
 34
0.0
 15
0.0
 25
0.0
 35
0.0
146
0.0
 13
0.0
 23
0.0
 33
0.0
 16
1.0
 26
0.0
 36
0.0
 17
0.0
 27
1.0
 37
0.0
 76
0
330
214
345
0
346
0
  0
LAYOUT
  5
515
102
{ACAD_REACTORS
330
1A
102
}
100
AcDbPlotSettings
  1

  2
none_device
  4
ISO_A4_(297.00_x_210.00_MM)
  6

 40
0.0
 41
0.0
 42
0.0
 43
0.0
 44
297.0
 45
210.0
 46
0.0
 47
0.0
 48
0.0
 49
0.0
140
0.0
141
0.0
142
1.0
143
1.0
 70
0
 72
1
 73
0
 74
0
  7

 75
0
147
1.0
148
0.0
149
0.0
100
AcDbLayout
  1
Layout1
 70
0
 71
1
 10
0.0
 20
0.0
 11
297.0
 21
210.0
 12
0.0
 22
0.0
 32
0.0
 14
0.0
 24
0.0
 34
0.0
 15
0.0
 25
0.0
 35
0.0
146
0.0
 13
0.0
 23
0.0
 33
0.0
 16
1.0
 26
0.0
 36
0.0
 17
0.0
 27
1.0
 37
0.0
 76
0
330
215
345
0
346
0
  0
ENDSEC
  0
EOF
