  0
SECTION
  2
HEADER
  9
$ACADVER
  1
AC1024
  9
$DWGCODEPAGE
  3
ANSI_1252
  9
$EXTMAX
 10
297.0
 20
210.0
 30
0.0
  9
$EXTMIN
 10
0.0
 20
0.0
 30
0.0
  9
$LIMMIN
 10
0.0
 20
0.0
  9
$LIMMAX
 10
297.0
 20
210.0
  9
$VIEWCTR
 10
148.5
 20
105.0
  9
$VIEWSIZE
 40
210.0
  9
$CLAYER
  8
0
  9
$LTSCALE
 40
16.335
  9
$CELTYPE
  6
BYLAYER
  9
$DIMSCALE
 40
1.0
  9
$DIMASZ
 40
3.0
  9
$DIMEXO
 40
0.5
  9
$DIMDLI
 40
11.286
  9
$DIMEXE
 40
1.5
  9
$DIMCEN
 40
2.673
  9
$DIMLFAC
 40
1.0
  9
$DIMBLK
  1
_FILLED
  9
$DIMALT
 70
0
  9
$DIMALTF
 40
0.0393700787
  9
$DIMTXT
 40
3.0
  9
$DIMTOL
 70
1
  9
$DIMLIM
 70
0
  9
$DIMTFAC
 40
1.0
  9
$DIMTP
 40
0.01
  9
$DIMTM
 40
0.01
  9
$DIMGAP
 40
0.625
  9
$DIMDSEP
 70
44
  9
$AUNITS
 70
0
  9
$PDMODE
 70
3
  9
$PDSIZE
 40
3.0
  9
$HANDSEED
  5
3B2
  9
$TILEMODE
 70
1
  9
$MEASUREMENT
 70
1
  9
$INSUNITS
 70
4
  0
ENDSEC
  0
SECTION
  2
CLASSES
  0
CLASS
  1
ACDBDICTIONARYWDFLT
  2
AcDbDictionaryWithDefault
  3
AutoCAD 2000
 90
0
 91
1
280
0
281
0
  0
CLASS
  1
ACDBPLACEHOLDER
  2
AcDbPlaceHolder
  3
AutoCAD 2000
 90
0
 91
1
280
0
281
0
  0
CLASS
  1
LAYOUT
  2
AcDbLayout
  3
AutoCAD 2000
 90
0
 91
0
280
0
281
0
  0
ENDSEC
  0
SECTION
  2
TABLES
  0
TABLE
  2
VPORT
  5
8
100
AcDbSymbolTable
 70
2
  0
VPORT
  5
1F4
100
AcDbSymbolTableRecord
100
AcDbViewportTableRecord
  2
*ACTIVE
 70
0
 10
0.0
 20
0.0
 11
1.0
 21
1.0
 12
148.5
 22
105.0
 13
0.0
 23
0.0
 14
1.0
 24
1.0
 15
0.0
 25
0.0
 16
0.0
 26
0.0
 36
1.0
 17
0.0
 27
0.0
 37
0.0
 40
210.0
 41
1.4142857143
 42
50.0
 43
0.0
 44
0.0
 50
0.0
 51
0.0
 71
0
 72
100
 73
1
 74
1
 75
0
 76
0
 77
0
 78
0
  0
ENDTAB
  0
TABLE
  2
LTYPE
  5
5
100
AcDbSymbolTable
 70
6
  0
LTYPE
  5
14
100
AcDbSymbolTableRecord
100
AcDbLinetypeTableRecord
  2
BYBLOCK
 70
0
  3

 72
65
 73
0
 40
0.0
  0
LTYPE
  5
15
100
AcDbSymbolTableRecord
100
AcDbLinetypeTableRecord
  2
BYLAYER
 70
0
  3

 72
65
 73
0
 40
0.0
  0
LTYPE
  5
16
100
AcDbSymbolTableRecord
100
AcDbLinetypeTableRecord
  2
CONTINUOUS
 70
64
  3
Solid line
 72
65
 73
0
 40
0.0
  0
LTYPE
  5
1F5
100
AcDbSymbolTableRecord
100
AcDbLinetypeTableRecord
  2
CENTER
 70
64
  3
____ _ ____ _ ____ _ ____ _ ____ _ ____ _ ____
 72
65
 73
4
 40
0.6
 49
0.375
 74
0
 49
-0.075
 74
0
 49
0.075
 74
0
 49
-0.075
 74
0
  0
LTYPE
  5
1F6
100
AcDbSymbolTableRecord
100
AcDbLinetypeTableRecord
  2
HIDDEN
 70
64
  3
- - - - - - - - - - - - - - - - - - - -
 72
65
 73
2
 40
0.2
 49
0.1
 74
0
 49
-0.1
 74
0
  0
LTYPE
  5
1F7
100
AcDbSymbolTableRecord
100
AcDbLinetypeTableRecord
  2
PHANTOM
 70
64
  3
_____ _ _ _____ _ _ _____ _ _ _____
 72
65
 73
6
 40
0.8
 49
0.45
 74
0
 49
-0.05
 74
0
 49
0.1
 74
0
 49
-0.05
 74
0
 49
0.1
 74
0
 49
-0.05
 74
0
  0
LTYPE
  5
1F8
100
AcDbSymbolTableRecord
100
AcDbLinetypeTableRecord
  2
DOT
 70
64
  3
. . . . . . . . . . . . . . . . . . . .
 72
65
 73
2
 40
0.2
 49
0.1
 74
0
 49
-0.1
 74
0
  0
LTYPE
  5
1F9
100
AcDbSymbolTableRecord
100
AcDbLinetypeTableRecord
  2
DASHED
 70
64
  3
- - - - - - - - - - - - - - - - - - - -
 72
65
 73
2
 40
0.2
 49
0.1
 74
0
 49
-0.1
 74
0
  0
ENDTAB
  0
TABLE
  2
LAYER
  5
2
100
AcDbSymbolTable
 70
36
  0
LAYER
  5
10
100
AcDbSymbolTableRecord
100
AcDbLayerTableRecord
  2
0
 70
0
 62
7
  6
CONTINUOUS
370
-3
390
F
  0
LAYER
  5
1FA
100
AcDbSymbolTableRecord
100
AcDbLayerTableRecord
  2
DEFAULT_1
 70
0
 62
7
  6
CENTER
370
-3
390
F
  0
LAYER
  5
1FB
100
AcDbSymbolTableRecord
100
AcDbLayerTableRecord
  2
DEFAULT_2
 70
0
 62
7
  6
HIDDEN
370
-3
390
F
  0
LAYER
  5
1FC
100
AcDbSymbolTableRecord
100
AcDbLayerTableRecord
  2
DEFAULT_3
 70
0
 62
7
  6
PHANTOM
370
-3
390
F
  0
LAYER
  5
1FD
100
AcDbSymbolTableRecord
100
AcDbLayerTableRecord
  2
ASSI
 70
0
 62
7
  6
CONTINUOUS
370
-3
390
F
  0
LAYER
  5
1FE
100
AcDbSymbolTableRecord
100
AcDbLayerTableRecord
  2
COORDINATE
 70
0
 62
7
  6
CONTINUOUS
370
-3
390
F
  0
LAYER
  5
1FF
100
AcDbSymbolTableRecord
100
AcDbLayerTableRecord
  2
COORD_ORIGINE
 70
0
 62
7
  6
CONTINUOUS
370
-3
390
F
  0
LAYER
  5
200
100
AcDbSymbolTableRecord
100
AcDbLayerTableRecord
  2
COSMETICI
 70
0
 62
7
  6
CONTINUOUS
370
-3
390
F
  0
LAYER
  5
201
100
AcDbSymbolTableRecord
100
AcDbLayerTableRecord
  2
CURVE
 70
0
 62
7
  6
CONTINUOUS
370
-3
390
F
  0
LAYER
  5
202
100
AcDbSymbolTableRecord
100
AcDbLayerTableRecord
  2
DRAFT
 70
0
 62
7
  6
CONTINUOUS
370
-3
390
F
  0
LAYER
  5
203
100
AcDbSymbolTableRecord
100
AcDbLayerTableRecord
  2
IGES
 70
0
 62
7
  6
CONTINUOUS
370
-3
390
F
  0
LAYER
  5
204
100
AcDbSymbolTableRecord
100
AcDbLayerTableRecord
  2
NOTE
 70
0
 62
7
  6
CONTINUOUS
370
-3
390
F
  0
LAYER
  5
205
100
AcDbSymbolTableRecord
100
AcDbLayerTableRecord
  2
PIANI
 70
0
 62
7
  6
CONTINUOUS
370
-3
390
F
  0
LAYER
  5
206
100
AcDbSymbolTableRecord
100
AcDbLayerTableRecord
  2
PIANI_ORIGINE
 70
0
 62
7
  6
CONTINUOUS
370
-3
390
F
  0
LAYER
  5
207
100
AcDbSymbolTableRecord
100
AcDbLayerTableRecord
  2
PIANI_RIFERIMENTO
 70
0
 62
7
  6
CONTINUOUS
370
-3
390
F
  0
LAYER
  5
208
100
AcDbSymbolTableRecord
100
AcDbLayerTableRecord
  2
PUNTI
 70
0
 62
7
  6
CONTINUOUS
370
-3
390
F
  0
LAYER
  5
209
100
AcDbSymbolTableRecord
100
AcDbLayerTableRecord
  2
RACCORDO
 70
0
 62
7
  6
CONTINUOUS
370
-3
390
F
  0
LAYER
  5
20A
100
AcDbSymbolTableRecord
100
AcDbLayerTableRecord
  2
SIMBOLI
 70
0
 62
7
  6
CONTINUOUS
370
-3
390
F
  0
LAYER
  5
20B
100
AcDbSymbolTableRecord
100
AcDbLayerTableRecord
  2
SMUSSO
 70
0
 62
7
  6
CONTINUOUS
370
-3
390
F
  0
LAYER
  5
20C
100
AcDbSymbolTableRecord
100
AcDbLayerTableRecord
  2
SNAPLINE
 70
0
 62
7
  6
CONTINUOUS
370
-3
390
F
  0
LAYER
  5
20D
100
AcDbSymbolTableRecord
100
AcDbLayerTableRecord
  2
SUPERFICI
 70
0
 62
7
  6
CONTINUOUS
370
-3
390
F
  0
LAYER
  5
20E
100
AcDbSymbolTableRecord
100
AcDbLayerTableRecord
  2
TRASH
 70
0
 62
7
  6
CONTINUOUS
370
-3
390
F
  0
LAYER
  5
20F
100
AcDbSymbolTableRecord
100
AcDbLayerTableRecord
  2
XSEC_DATUMS
 70
0
 62
7
  6
CONTINUOUS
370
-3
390
F
  0
ENDTAB
  0
TABLE
  2
STYLE
  5
3
100
AcDbSymbolTable
 70
1
  0
STYLE
  5
11
100
AcDbSymbolTableRecord
100
AcDbTextStyleTableRecord
  2
STANDARD
 70
0
 40
0.0
 41
0.8
 50
0.0
 71
0
 42
0.2
  3
txt
  4

  0
STYLE
  5
210
100
AcDbSymbolTableRecord
100
AcDbTextStyleTableRecord
  2
TEXTSTYLE_1
 70
0
 40
0.0
 41
0.8
 50
0.0
 71
0
 42
0.2
  3
gdt
  4

  0
ENDTAB
  0
TABLE
  2
VIEW
  5
6
100
AcDbSymbolTable
 70
0
  0
ENDTAB
  0
TABLE
  2
UCS
  5
7
100
AcDbSymbolTable
 70
0
  0
ENDTAB
  0
TABLE
  2
APPID
  5
9
100
AcDbSymbolTable
 70
1
  0
APPID
  5
211
100
AcDbSymbolTableRecord
100
AcDbRegAppTableRecord
  2
ACAD
 70
0
  0
ENDTAB
  0
TABLE
  2
BLOCK_RECORD
  5
1
100
AcDbSymbolTable
 70
0
  0
BLOCK_RECORD
  5
212
100
AcDbSymbolTableRecord
100
AcDbBlockTableRecord
  2
*Model_Space
  0
BLOCK_RECORD
  5
213
100
AcDbSymbolTableRecord
100
AcDbBlockTableRecord
  2
*Paper_Space
  0
BLOCK_RECORD
  5
214
100
AcDbSymbolTableRecord
100
AcDbBlockTableRecord
  2
_FILLED
  0
BLOCK_RECORD
  5
215
100
AcDbSymbolTableRecord
100
AcDbBlockTableRecord
  2
*D0
  0
BLOCK_RECORD
  5
216
100
AcDbSymbolTableRecord
100
AcDbBlockTableRecord
  2
*D1
  0
BLOCK_RECORD
  5
217
100
AcDbSymbolTableRecord
100
AcDbBlockTableRecord
  2
*D2
  0
ENDTAB
  0
TABLE
  2
DIMSTYLE
  5
A
100
AcDbSymbolTable
 70
1
100
AcDbDimStyleTable
 71
0
  0
DIMSTYLE
105
218
100
AcDbSymbolTableRecord
100
AcDbDimStyleTableRecord
  2
STANDARD
 70
0
  3

  4

 40
1.0
 41
3.0
 42
0.5
 43
0.38
 44
1.5
 45
0.0
 46
0.0
 47
0.01
 48
0.01
140
3.0
141
0.09
142
0.0
143
25.4
144
1.0
145
0.0
146
1.0
147
0.625
 71
1
 72
0
 73
0
 74
0
 75
0
 76
0
 77
1
 78
8
 79
2
170
0
171
1
172
0
173
0
174
0
175
0
176
0
177
0
178
0
270
2
179
2
271
2
272
2
273
2
274
2
275
0
280
0
281
0
282
0
283
1
284
8
285
0
286
0
287
3
288
0
340
11
278
44
341
214
342
214
343
214
344
214
  0
DIMSTYLE
105
219
100
AcDbSymbolTableRecord
100
AcDbDimStyleTableRecord
  2
DIMSTYLE_1
 70
0
  3

  4

 40
1.0
 41
3.0
 42
0.5
 43
0.38
 44
1.5
 45
0.0
 46
0.0
 47
0.0
 48
0.0
140
3.0
141
0.09
142
0.0
143
25.4
144
1.0
145
0.0
146
1.0
147
0.75
 71
0
 72
0
 73
0
 74
0
 75
0
 76
0
 77
1
 78
8
 79
2
170
0
171
1
172
0
173
0
174
0
175
0
176
0
177
0
178
0
270
2
179
2
271
2
272
2
273
2
274
2
275
0
280
0
281
0
282
0
283
1
284
8
285
0
286
0
287
3
288
0
340
11
278
44
341
214
342
214
343
214
344
214
  0
DIMSTYLE
105
21A
100
AcDbSymbolTableRecord
100
AcDbDimStyleTableRecord
  2
DIMSTYLE_2
 70
0
  3

  4

 40
1.0
 41
3.0
 42
0.5
 43
0.38
 44
1.5
 45
0.0
 46
0.0
 47
0.0
 48
0.0
140
3.0
141
0.09
142
0.0
143
25.4
144
1.0
145
0.0
146
1.0
147
0.75
 71
0
 72
0
 73
0
 74
0
 75
0
 76
0
 77
1
 78
8
 79
2
170
0
171
1
172
0
173
0
174
0
175
0
176
0
177
0
178
0
270
2
179
2
271
1
272
1
273
2
274
2
275
0
280
0
281
0
282
0
283
1
284
8
285
0
286
0
287
3
288
0
340
11
278
44
341
214
342
214
343
214
344
214
  0
ENDTAB
  0
ENDSEC
  0
SECTION
  2
BLOCKS
  0
BLOCK
  5
20
100
AcDbEntity
  8
0
100
AcDbBlockBegin
  2
*Model_Space
 70
0
 10
0.0
 20
0.0
 30
0.0
  3
*Model_Space
  1

  0
ENDBLK
  5
21
100
AcDbEntity
  8
0
100
AcDbBlockEnd
  0
BLOCK
  5
1C
100
AcDbEntity
  8
0
100
AcDbBlockBegin
  2
*Paper_Space
 70
0
 10
0.0
 20
0.0
 30
0.0
  3
*Paper_Space
  1

  0
ENDBLK
  5
1D
100
AcDbEntity
  8
0
100
AcDbBlockEnd
  0
BLOCK
  5
21B
100
AcDbEntity
  8
0
100
AcDbBlockBegin
  2
_FILLED
 70
64
 10
0.0
 20
0.0
  3
_FILLED
  1

  0
SOLID
  5
21C
100
AcDbEntity
  8
0
  6
BYBLOCK
 62
0
100
AcDbTrace
 10
0.0
 20
0.0
 11
-1.0
 21
0.3166666667
 12
-1.0
 22
-0.3166666667
 13
-1.0
 23
-0.3166666667
  0
ENDBLK
  5
21D
100
AcDbEntity
  8
0
  6
BYBLOCK
 62
0
100
AcDbBlockEnd
  0
BLOCK
  5
21E
100
AcDbEntity
  8
0
100
AcDbBlockBegin
 62
7
  6
CONTINUOUS
  2
*D0
 70
65
 10
0.0
 20
0.0
  3
*D0
  1

  0
LINE
  5
21F
100
AcDbEntity
  8
0
100
AcDbLine
 62
7
  6
CONTINUOUS
 10
153.4941633092
 20
129.6614313882
 11
153.4941633092
 21
147.755283149
  0
LINE
  5
220
100
AcDbEntity
  8
0
100
AcDbLine
 62
7
  6
CONTINUOUS
 10
175.7941633092
 20
129.6614313882
 11
175.7941633092
 21
147.755283149
  0
LINE
  5
221
100
AcDbEntity
  8
0
100
AcDbLine
 62
7
  6
CONTINUOUS
 10
153.4941633092
 20
146.255283149
 11
164.6441633092
 21
146.255283149
  0
LINE
  5
222
100
AcDbEntity
  8
0
100
AcDbLine
 62
7
  6
CONTINUOUS
 10
175.7941633092
 20
146.255283149
 11
164.6441633092
 21
146.255283149
  0
INSERT
  5
223
100
AcDbEntity
  8
0
100
AcDbBlockReference
 62
7
  6
CONTINUOUS
  2
_FILLED
 10
153.4941633092
 20
146.255283149
 41
3.0
 42
3.0
 43
3.0
 50
180.0
  0
INSERT
  5
224
100
AcDbEntity
  8
0
100
AcDbBlockReference
 62
7
  6
CONTINUOUS
  2
_FILLED
 10
175.7941633092
 20
146.255283149
 41
3.0
 42
3.0
 43
3.0
  0
ENDBLK
  5
225
100
AcDbEntity
  8
0
  6
BYBLOCK
 62
0
100
AcDbBlockEnd
  0
BLOCK
  5
226
100
AcDbEntity
  8
0
100
AcDbBlockBegin
 62
7
  6
CONTINUOUS
  2
*D1
 70
65
 10
0.0
 20
0.0
  3
*D1
  1

  0
LINE
  5
227
100
AcDbEntity
  8
0
100
AcDbLine
 62
7
  6
CONTINUOUS
 10
175.7807092486
 20
138.2207440939
 11
185.3505682671
 21
138.2207440939
  0
LINE
  5
228
100
AcDbEntity
  8
0
100
AcDbLine
 62
7
  6
CONTINUOUS
 10
175.7807092486
 20
93.9021186824
 11
185.3505682671
 21
93.9021186824
  0
LINE
  5
229
100
AcDbEntity
  8
0
100
AcDbLine
 62
7
  6
CONTINUOUS
 10
183.8505682671
 20
138.2207440939
 11
183.8505682671
 21
116.0614313882
  0
LINE
  5
22A
100
AcDbEntity
  8
0
100
AcDbLine
 62
7
  6
CONTINUOUS
 10
183.8505682671
 20
93.9021186824
 11
183.8505682671
 21
116.0614313882
  0
INSERT
  5
22B
100
AcDbEntity
  8
0
100
AcDbBlockReference
 62
7
  6
CONTINUOUS
  2
_FILLED
 10
183.8505682671
 20
138.2207440939
 41
3.0
 42
3.0
 43
3.0
 50
90.0
  0
INSERT
  5
22C
100
AcDbEntity
  8
0
100
AcDbBlockReference
 62
7
  6
CONTINUOUS
  2
_FILLED
 10
183.8505682671
 20
93.9021186824
 41
3.0
 42
3.0
 43
3.0
 50
270.0
  0
ENDBLK
  5
22D
100
AcDbEntity
  8
0
  6
BYBLOCK
 62
0
100
AcDbBlockEnd
  0
BLOCK
  5
22E
100
AcDbEntity
  8
0
100
AcDbBlockBegin
 62
7
  6
CONTINUOUS
  2
*D2
 70
65
 10
0.0
 20
0.0
  3
*D2
  1

  0
LINE
  5
22F
100
AcDbEntity
  8
0
100
AcDbLine
 62
7
  6
CONTINUOUS
 10
122.0514340362
 20
129.6614313882
 11
122.0514340362
 21
147.7207440939
  0
LINE
  5
230
100
AcDbEntity
  8
0
100
AcDbLine
 62
7
  6
CONTINUOUS
 10
116.3515552429
 20
116.9095749848
 11
116.3515552429
 21
147.7207440939
  0
LINE
  5
231
100
AcDbEntity
  8
0
100
AcDbLine
 62
7
  6
CONTINUOUS
 10
122.0514340362
 20
146.2207440939
 11
136.5410282137
 21
146.2207440939
  0
LINE
  5
232
100
AcDbEntity
  8
0
100
AcDbLine
 62
7
  6
CONTINUOUS
 10
136.5410282137
 20
146.2207440939
 11
119.2014946396
 21
146.2207440939
  0
LINE
  5
233
100
AcDbEntity
  8
0
100
AcDbLine
 62
7
  6
CONTINUOUS
 10
116.3515552429
 20
146.2207440939
 11
112.3515552429
 21
146.2207440939
  0
LINE
  5
234
100
AcDbEntity
  8
0
100
AcDbLine
 62
7
  6
CONTINUOUS
 10
112.3515552429
 20
146.2207440939
 11
119.2014946396
 21
146.2207440939
  0
INSERT
  5
235
100
AcDbEntity
  8
0
100
AcDbBlockReference
 62
7
  6
CONTINUOUS
  2
_FILLED
 10
122.0514340362
 20
146.2207440939
 41
3.0
 42
3.0
 43
3.0
 50
180.0
  0
INSERT
  5
236
100
AcDbEntity
  8
0
100
AcDbBlockReference
 62
7
  6
CONTINUOUS
  2
_FILLED
 10
116.3515552429
 20
146.2207440939
 41
3.0
 42
3.0
 43
3.0
  0
ENDBLK
  5
237
100
AcDbEntity
  8
0
  6
BYBLOCK
 62
0
100
AcDbBlockEnd
  0
ENDSEC
  0
SECTION
  2
ENTITIES
  0
DIMENSION
  5
238
100
AcDbEntity
  8
0
100
AcDbDimension
 62
7
  6
CONTINUOUS
  2
*D0
 10
175.7941633092
 20
146.255283149
 11
160.3584490235
 21
146.255283149
 70
160
 71
2
 72
2
 41
0.9
 42
22.3
  3
DIMSTYLE_1
100
AcDbAlignedDimension
 13
153.4941633092
 23
129.1614313882
 14
175.7941633092
 24
129.1614313882
100
AcDbRotatedDimension
  0
DIMENSION
  5
239
100
AcDbEntity
  8
0
100
AcDbDimension
 62
7
  6
CONTINUOUS
  2
*D1
 10
183.8505682671
 20
93.9021186824
 11
183.8505682671
 21
111.7757171024
 70
160
 71
2
 72
2
 41
0.9
 42
44.3186254114
  3
DIMSTYLE_2
100
AcDbAlignedDimension
 13
175.2807092486
 23
138.2207440939
 14
175.2807092486
 24
93.9021186824
 50
270.0
100
AcDbRotatedDimension
  0
DIMENSION
  5
23A
100
AcDbEntity
  8
0
100
AcDbDimension
 62
7
  6
CONTINUOUS
  2
*D2
 10
116.3515552429
 20
146.2207440939
 11
130.3267424994
 21
146.2207440939
 70
160
 71
1
 72
2
 41
0.9
 42
5.6998787933
  3
DIMSTYLE_1
100
AcDbAlignedDimension
 13
122.0514340362
 23
129.1614313882
 14
116.3515552429
 24
116.4095749848
 50
180.0
100
AcDbRotatedDimension
  0
LWPOLYLINE
  5
23B
100
AcDbEntity
  8
0
100
AcDbPolyline
 62
7
  6
CONTINUOUS
 90
5
 70
0
 43
0.3500000006
 10
167.6441552124
 20
148.7195637817
 10
168.001302063
 20
148.9338482666
 10
168.001302063
 20
149.5767198486
 10
167.6441552124
 20
150.0052888184
 10
166.7870172729
 20
150.0052888184
  0
LWPOLYLINE
  5
23C
100
AcDbEntity
  8
RACCORDO
100
AcDbPolyline
 62
250
  6
CONTINUOUS
 90
15
 70
0
 10
153.5777059585
 20
136.6033372446
 10
153.5790344313
 20
136.6045197666
 10
153.5820127507
 20
136.6056983755
 10
153.5866310614
 20
136.6068691714
 10
153.5928740815
 20
136.6080282802
 10
153.600721153
 20
136.6091718663
 10
153.6101463098
 20
136.6102961456
 10
153.6211183644
 20
136.611397398
 10
153.6336010102
 20
136.6124719794
 10
153.6475529424
 20
136.613516334
 10
153.6629279941
 20
136.6145270061
 10
153.6796752895
 20
136.6155006513
 10
153.697739412
 20
136.6164340478
 10
153.7170605876
 20
136.6173241072
 10
153.7375748827
 20
136.6181678841
  0
LINE
  5
23D
100
AcDbEntity
  8
RACCORDO
100
AcDbLine
 62
7
  6
CONTINUOUS
 10
168.0357383162
 20
93.9021186824
 11
168.3864282823
 21
93.9339518404
  0
LINE
  5
23E
100
AcDbEntity
  8
RACCORDO
100
AcDbLine
 62
7
  6
CONTINUOUS
 10
156.8357383162
 20
93.9021186824
 11
157.1864282823
 21
93.9339518404
  0
LINE
  5
23F
100
AcDbEntity
  8
RACCORDO
100
AcDbLine
 62
7
  6
CONTINUOUS
 10
154.0076173698
 20
93.9021186824
 11
156.8357383162
 21
93.9021186824
  0
LINE
  5
240
100
AcDbEntity
  8
DRAFT
100
AcDbLine
 62
7
  6
CONTINUOUS
 10
161.2525883022
 20
93.9021186824
 11
168.0357383162
 21
93.9021186824
  0
LINE
  5
241
100
AcDbEntity
  8
RACCORDO
100
AcDbLine
 62
7
  6
CONTINUOUS
 10
172.4525883022
 20
93.9021186824
 11
175.2807092486
 21
93.9021186824
  0
LINE
  5
242
100
AcDbEntity
  8
RACCORDO
100
AcDbLine
 62
7
  6
CONTINUOUS
 10
157.359633363
 20
93.9391926184
 11
160.7286932554
 21
93.9391926184
  0
LINE
  5
243
100
AcDbEntity
  8
RACCORDO
100
AcDbLine
 62
7
  6
CONTINUOUS
 10
168.559633363
 20
93.9391926184
 11
171.9286932554
 21
93.9391926184
  0
LINE
  5
244
100
AcDbEntity
  8
RACCORDO
100
AcDbLine
 62
250
  6
CONTINUOUS
 10
175.2272238853
 20
94.0627052585
 11
154.0611027331
 21
94.0627052585
  0
LINE
  5
245
100
AcDbEntity
  8
RACCORDO
100
AcDbLine
 62
7
  6
CONTINUOUS
 10
161.2525883022
 20
93.9021186824
 11
160.9018983361
 21
93.9339518404
  0
LINE
  5
246
100
AcDbEntity
  8
RACCORDO
100
AcDbLine
 62
7
  6
CONTINUOUS
 10
172.4525883022
 20
93.9021186824
 11
172.1018983361
 21
93.9339518404
  0
LWPOLYLINE
  5
247
100
AcDbEntity
  8
RACCORDO
100
AcDbPolyline
 62
250
  6
CONTINUOUS
 90
17
 70
0
 10
153.5777059585
 20
95.5195255317
 10
153.5790344128
 20
95.5183430092
 10
153.5820127152
 20
95.5171643996
 10
153.5866310105
 20
95.515993603
 10
153.5928740167
 20
95.5148344935
 10
153.6007210759
 20
95.5136909067
 10
153.6101462221
 20
95.5125666265
 10
153.6211182676
 20
95.5114653734
 10
153.633600906
 20
95.5103907912
 10
153.6475528324
 20
95.5093464358
 10
153.66292788
 20
95.5083357629
 10
153.6796751728
 20
95.5073621169
 10
153.6977392942
 20
95.5064287196
 10
153.7170604702
 20
95.5055386595
 10
153.7375747671
 20
95.5046948818
 10
153.7592143034
 20
95.5039001786
 10
153.8055791872
 20
95.5024683433
  0
LINE
  5
248
100
AcDbEntity
  8
RACCORDO
100
AcDbLine
 62
250
  6
CONTINUOUS
 10
175.5507517358
 20
95.5046948922
 11
175.5064190367
 21
95.5031571915
  0
LINE
  5
249
100
AcDbEntity
  8
RACCORDO
100
AcDbLine
 62
250
  6
CONTINUOUS
 10
175.5064190367
 20
95.5031571915
 11
175.4581754094
 21
95.5018359624
  0
LINE
  5
24A
100
AcDbEntity
  8
RACCORDO
100
AcDbLine
 62
250
  6
CONTINUOUS
 10
175.4581754094
 20
95.5018359624
 11
175.4066588762
 21
95.5007486781
  0
LINE
  5
24B
100
AcDbEntity
  8
RACCORDO
100
AcDbLine
 62
250
  6
CONTINUOUS
 10
175.4066588762
 20
95.5007486781
 11
175.3525507435
 21
95.4999097181
  0
LINE
  5
24C
100
AcDbEntity
  8
RACCORDO
100
AcDbLine
 62
250
  6
CONTINUOUS
 10
175.3525507435
 20
95.4999097181
 11
175.2965665918
 21
95.4993301775
  0
LINE
  5
24D
100
AcDbEntity
  8
RACCORDO
100
AcDbLine
 62
250
  6
CONTINUOUS
 10
175.2965665918
 20
95.4993301775
 11
175.2394468118
 21
95.4990177209
  0
LINE
  5
24E
100
AcDbEntity
  8
RACCORDO
100
AcDbLine
 62
250
  6
CONTINUOUS
 10
175.2394468118
 20
95.4990177209
 11
154.0776298305
 21
95.4989835573
  0
LINE
  5
24F
100
AcDbEntity
  8
RACCORDO
100
AcDbLine
 62
250
  6
CONTINUOUS
 10
154.0202249162
 20
95.4991402054
 11
154.077629806
 21
95.4989630634
  0
LINE
  5
250
100
AcDbEntity
  8
RACCORDO
100
AcDbLine
 62
250
  6
CONTINUOUS
 10
153.963579207
 20
95.4995869438
 11
154.0202249162
 21
95.4991402054
  0
LINE
  5
251
100
AcDbEntity
  8
RACCORDO
100
AcDbLine
 62
250
  6
CONTINUOUS
 10
153.9084418191
 20
95.5002973704
 11
153.963579207
 21
95.4995869438
  0
LINE
  5
252
100
AcDbEntity
  8
RACCORDO
100
AcDbLine
 62
250
  6
CONTINUOUS
 10
153.8555419452
 20
95.5012620897
 11
153.9084418191
 21
95.5002973704
  0
LINE
  5
253
100
AcDbEntity
  8
RACCORDO
100
AcDbLine
 62
250
  6
CONTINUOUS
 10
153.8055791872
 20
95.5024683433
 11
153.8555419452
 21
95.5012620897
  0
LWPOLYLINE
  5
254
100
AcDbEntity
  8
RACCORDO
100
AcDbPolyline
 62
250
  6
CONTINUOUS
 90
28
 70
0
 10
153.5611791878
 20
94.5620209336
 10
153.5620505312
 20
94.5330052219
 10
153.5646085466
 20
94.5040875753
 10
153.5688445887
 20
94.475365728
 10
153.5747443408
 20
94.4469367529
 10
153.5822878635
 20
94.4188967327
 10
153.5914496617
 20
94.3913404356
 10
153.6021987708
 20
94.364360995
 10
153.6144988618
 20
94.3380495949
 10
153.6283083636
 20
94.3124951611
 10
153.6435806035
 20
94.2877840613
 10
153.6602639654
 20
94.263999813
 10
153.6783020638
 20
94.2412228011
 10
153.6976339344
 20
94.2195300063
 10
153.7181942405
 20
94.1989947449
 10
153.7399134934
 20
94.1796864211
 10
153.7627182875
 20
94.1616702924
 10
153.7865315484
 20
94.1450072488
 10
153.811272793
 20
94.1297536075
 10
153.8368584023
 20
94.1159609221
 10
153.8632019032
 20
94.1036758084
 10
153.8902142611
 20
94.0929397874
 10
153.917804181
 20
94.083789144
 10
153.9458784159
 20
94.0762548053
 10
153.9743420816
 20
94.0703622356
 10
154.0030989779
 20
94.0661313504
 10
154.0320519138
 20
94.0635764489
 10
154.0611030354
 20
94.0627061662
  0
LWPOLYLINE
  5
255
100
AcDbEntity
  8
RACCORDO
100
AcDbPolyline
 62
250
  6
CONTINUOUS
 90
28
 70
0
 10
153.5611791878
 20
137.5608418428
 10
153.5620505317
 20
137.5898575637
 10
153.5646085487
 20
137.6187752188
 10
153.5688445931
 20
137.6474970735
 10
153.5747443484
 20
137.6759260551
 10
153.5822878747
 20
137.7039660808
 10
153.5914496768
 20
137.7315223823
 10
153.6021987902
 20
137.7585018261
 10
153.6144988855
 20
137.7848132284
 10
153.6283083914
 20
137.8103676634
 10
153.6435806353
 20
137.8350787632
 10
153.6602640008
 20
137.8588630107
 10
153.6783021022
 20
137.881640021
 10
153.6976339753
 20
137.9033328134
 10
153.7181942833
 20
137.9238680717
 10
153.7399135372
 20
137.943176392
 10
153.7627183316
 20
137.9611925168
 10
153.7865315919
 20
137.9778555561
 10
153.8112728352
 20
137.9931091932
 10
153.8368584422
 20
138.0069018743
 10
153.8632019401
 20
138.0191869838
 10
153.8902142943
 20
138.0299230011
 10
153.9178042098
 20
138.039073641
 10
153.9458784396
 20
138.0466079766
 10
153.9743420998
 20
138.0525005439
 10
154.0030989904
 20
138.0567314274
 10
154.0320519201
 20
138.0592863278
 10
154.0611030354
 20
138.0601566101
  0
LWPOLYLINE
  5
256
100
AcDbEntity
  8
RACCORDO
100
AcDbPolyline
 62
250
  6
CONTINUOUS
 90
9
 70
0
 10
153.5667507996
 20
137.4906271742
 10
153.5660796677
 20
137.5051046555
 10
153.5653999145
 20
137.5179741961
 10
153.5647114885
 20
137.5292275106
 10
153.5640144412
 20
137.5388728845
 10
153.5633123316
 20
137.5468618514
 10
153.562606346
 20
137.5531782556
 10
153.561895298
 20
137.5578382527
 10
153.5611791878
 20
137.5608418428
  0
LWPOLYLINE
  5
257
100
AcDbEntity
  8
RACCORDO
100
AcDbPolyline
 62
250
  6
CONTINUOUS
 90
22
 70
0
 10
153.5850798784
 20
116.4068633654
 10
153.5856412028
 20
116.3919193385
 10
153.5873174861
 20
116.3770588701
 10
153.5900993552
 20
116.36236505
 10
153.5939712555
 20
116.3479200362
 10
153.5989115375
 20
116.3338045957
 10
153.6048925779
 20
116.3200976533
 10
153.6118809342
 20
116.3068758488
 10
153.6198375317
 20
116.2942131095
 10
153.6287178818
 20
116.2821802372
 10
153.6384723308
 20
116.2708445113
 10
153.6490463381
 20
116.2602693131
 10
153.66038078
 20
116.2505137718
 10
153.6724122817
 20
116.2416324333
 10
153.6850735706
 20
116.2336749553
 10
153.6982938528
 20
116.2266858301
 10
153.7119992092
 20
116.2207041354
 10
153.7261130085
 20
116.215763316
 10
153.7405563358
 20
116.2118909967
 10
153.7552484337
 20
116.209108828
 10
153.7701071541
 20
116.2074323652
 10
153.7850494174
 20
116.2068709808
  0
LINE
  5
258
100
AcDbEntity
  8
RACCORDO
100
AcDbLine
 62
250
  6
CONTINUOUS
 10
153.5680569145
 20
137.4570607786
 11
153.5667507996
 21
137.4906271742
  0
LINE
  5
259
100
AcDbEntity
  8
RACCORDO
100
AcDbLine
 62
250
  6
CONTINUOUS
 10
154.0666748077
 20
137.9548474701
 11
154.0653239489
 21
137.9958492162
  0
LINE
  5
25A
100
AcDbEntity
  8
RACCORDO
100
AcDbLine
 62
250
  6
CONTINUOUS
 10
153.5693116637
 20
137.4174443923
 11
153.5680569145
 21
137.4570607786
  0
LINE
  5
25B
100
AcDbEntity
  8
RACCORDO
100
AcDbLine
 62
250
  6
CONTINUOUS
 10
153.5705053934
 20
137.3720593431
 11
153.5693116637
 21
137.4174443923
  0
LINE
  5
25C
100
AcDbEntity
  8
RACCORDO
100
AcDbLine
 62
250
  6
CONTINUOUS
 10
154.0679808846
 20
137.9044697977
 11
154.0666748077
 21
137.9548474701
  0
LINE
  5
25D
100
AcDbEntity
  8
RACCORDO
100
AcDbLine
 62
250
  6
CONTINUOUS
 10
153.5721638994
 20
137.2938851561
 11
153.5705053934
 21
137.3720593431
  0
LINE
  5
25E
100
AcDbEntity
  8
RACCORDO
100
AcDbLine
 62
250
  6
CONTINUOUS
 10
154.0698400251
 20
137.8120840402
 11
154.0679808846
 21
137.9044697977
  0
LINE
  5
25F
100
AcDbEntity
  8
RACCORDO
100
AcDbLine
 62
250
  6
CONTINUOUS
 10
153.5740908886
 20
137.1726726676
 11
153.5721638994
 21
137.2938851561
  0
LINE
  5
260
100
AcDbEntity
  8
RACCORDO
100
AcDbLine
 62
250
  6
CONTINUOUS
 10
154.0720877044
 20
137.6597536359
 11
154.0698400251
 21
137.8120840402
  0
LINE
  5
261
100
AcDbEntity
  8
RACCORDO
100
AcDbLine
 62
250
  6
CONTINUOUS
 10
153.5759720734
 20
136.9984644121
 11
153.5740908886
 21
137.1726726676
  0
LINE
  5
262
100
AcDbEntity
  8
RACCORDO
100
AcDbLine
 62
250
  6
CONTINUOUS
 10
154.07484183
 20
137.3774340118
 11
154.0720877044
 21
137.6597536359
  0
LINE
  5
263
100
AcDbEntity
  8
RACCORDO
100
AcDbLine
 62
250
  6
CONTINUOUS
 10
153.5773544202
 20
136.7659806225
 11
153.5759720734
 21
136.9984644121
  0
LINE
  5
264
100
AcDbEntity
  8
RACCORDO
100
AcDbLine
 62
250
  6
CONTINUOUS
 10
154.077117686
 20
136.9279219445
 11
154.07484183
 21
137.3774340118
  0
LINE
  5
265
100
AcDbEntity
  8
RACCORDO
100
AcDbLine
 62
7
  6
CONTINUOUS
 10
153.4941633092
 20
102.9614313882
 11
153.5072375465
 21
94.4000644102
  0
LINE
  5
266
100
AcDbEntity
  8
RACCORDO
100
AcDbLine
 62
250
  6
CONTINUOUS
 10
153.5788650463
 20
134.9209938639
 11
153.5773544202
 21
136.7659806225
  0
LINE
  5
267
100
AcDbEntity
  8
RACCORDO
100
AcDbLine
 62
250
  6
CONTINUOUS
 10
154.0798487313
 20
133.2561242134
 11
154.077117686
 21
136.9279219445
  0
LINE
  5
268
100
AcDbEntity
  8
RACCORDO
100
AcDbLine
 62
250
  6
CONTINUOUS
 10
153.5825112375
 20
128.1902371237
 11
153.5788650463
 21
134.9209938639
  0
LINE
  5
269
100
AcDbEntity
  8
RACCORDO
100
AcDbLine
 62
250
  6
CONTINUOUS
 10
154.0824346655
 20
128.2033747154
 11
154.0798487313
 21
133.2561242134
  0
LINE
  5
26A
100
AcDbEntity
  8
RACCORDO
100
AcDbLine
 62
250
  6
CONTINUOUS
 10
153.5842062571
 20
123.1408354202
 11
153.5825112375
 21
128.1902371237
  0
LINE
  5
26B
100
AcDbEntity
  8
RACCORDO
100
AcDbLine
 62
250
  6
CONTINUOUS
 10
154.0841284714
 20
123.1495128218
 11
154.0824346655
 21
128.2033747154
  0
LINE
  5
26C
100
AcDbEntity
  8
RACCORDO
100
AcDbLine
 62
7
  6
CONTINUOUS
 10
153.4941633092
 20
115.7614542334
 11
153.4941633092
 21
102.9614313882
  0
LINE
  5
26D
100
AcDbEntity
  8
RACCORDO
100
AcDbLine
 62
7
  6
CONTINUOUS
 10
153.4941633092
 20
116.3614085429
 11
153.4941633092
 21
129.1614313882
  0
LINE
  5
26E
100
AcDbEntity
  8
RACCORDO
100
AcDbLine
 62
250
  6
CONTINUOUS
 10
153.5850795883
 20
116.4068632204
 11
153.5842062571
 21
123.1408354202
  0
LINE
  5
26F
100
AcDbEntity
  8
RACCORDO
100
AcDbLine
 62
250
  6
CONTINUOUS
 10
154.0850036973
 20
116.2094433348
 11
154.0841284714
 21
123.1495128218
  0
LINE
  5
270
100
AcDbEntity
  8
RACCORDO
100
AcDbLine
 62
250
  6
CONTINUOUS
 10
153.5842062571
 20
108.9820273561
 11
153.5850795883
 21
115.7159995559
  0
LINE
  5
271
100
AcDbEntity
  8
RACCORDO
100
AcDbLine
 62
250
  6
CONTINUOUS
 10
154.0844967055
 20
110.6581943267
 11
154.0850036973
 21
115.9134194416
  0
LINE
  5
272
100
AcDbEntity
  8
RACCORDO
100
AcDbLine
 62
250
  6
CONTINUOUS
 10
154.0824346655
 20
103.9194880609
 11
154.0844967055
 21
110.6581943267
  0
LINE
  5
273
100
AcDbEntity
  8
RACCORDO
100
AcDbLine
 62
250
  6
CONTINUOUS
 10
153.5817482138
 20
102.2497277108
 11
153.5842062571
 21
108.9820273561
  0
LWPOLYLINE
  5
274
100
AcDbEntity
  8
RACCORDO
100
AcDbPolyline
 62
250
  6
CONTINUOUS
 90
3
 70
0
 10
153.5788650463
 20
97.2018689124
 10
153.5799251182
 20
98.8843493407
 10
153.5817482138
 20
102.2497277108
  0
LWPOLYLINE
  5
275
100
AcDbEntity
  8
RACCORDO
100
AcDbPolyline
 62
250
  6
CONTINUOUS
 90
3
 70
0
 10
154.0787887707
 20
97.1827722314
 10
154.0798487313
 20
98.8667385628
 10
154.0824346655
 20
103.9194880609
  0
LINE
  5
276
100
AcDbEntity
  8
RACCORDO
100
AcDbLine
 62
7
  6
CONTINUOUS
 10
153.4941633092
 20
129.1614313882
 11
153.5072375465
 21
137.7227983661
  0
LINE
  5
277
100
AcDbEntity
  8
RACCORDO
100
AcDbLine
 62
250
  6
CONTINUOUS
 10
153.5770052685
 20
95.2772838709
 11
153.5788650463
 21
97.2018689124
  0
LINE
  5
278
100
AcDbEntity
  8
RACCORDO
100
AcDbLine
 62
250
  6
CONTINUOUS
 10
154.0761948916
 20
94.9621384613
 11
154.0787887707
 21
97.1827722314
  0
LINE
  5
279
100
AcDbEntity
  8
RACCORDO
100
AcDbLine
 62
250
  6
CONTINUOUS
 10
154.0735660347
 20
94.5969775699
 11
154.0761948916
 21
94.9621384613
  0
LINE
  5
27A
100
AcDbEntity
  8
RACCORDO
100
AcDbLine
 62
250
  6
CONTINUOUS
 10
153.5752947832
 20
95.0520758341
 11
153.5770052685
 21
95.2772838709
  0
LINE
  5
27B
100
AcDbEntity
  8
RACCORDO
100
AcDbLine
 62
250
  6
CONTINUOUS
 10
153.5736422746
 20
94.9182287851
 11
153.5752947832
 21
95.0520758341
  0
LINE
  5
27C
100
AcDbEntity
  8
RACCORDO
100
AcDbLine
 62
250
  6
CONTINUOUS
 10
154.071000314
 20
94.3829786721
 11
154.0735660347
 21
94.5969775699
  0
LINE
  5
27D
100
AcDbEntity
  8
RACCORDO
100
AcDbLine
 62
250
  6
CONTINUOUS
 10
154.0692355755
 20
94.2778061503
 11
154.071000314
 21
94.3829786721
  0
LINE
  5
27E
100
AcDbEntity
  8
RACCORDO
100
AcDbLine
 62
250
  6
CONTINUOUS
 10
153.5716292746
 20
94.8015964279
 11
153.5736422746
 21
94.9182287851
  0
LINE
  5
27F
100
AcDbEntity
  8
RACCORDO
100
AcDbLine
 62
250
  6
CONTINUOUS
 10
154.0679808846
 20
94.218392978
 11
154.0692355755
 21
94.2778061503
  0
LINE
  5
280
100
AcDbEntity
  8
RACCORDO
100
AcDbLine
 62
250
  6
CONTINUOUS
 10
153.569916137
 20
94.7273916294
 11
153.5716292746
 21
94.8015964279
  0
LINE
  5
281
100
AcDbEntity
  8
RACCORDO
100
AcDbLine
 62
250
  6
CONTINUOUS
 10
154.0666748077
 20
94.1680153057
 11
154.0679808846
 21
94.218392978
  0
LINE
  5
282
100
AcDbEntity
  8
RACCORDO
100
AcDbLine
 62
250
  6
CONTINUOUS
 10
153.5686918976
 20
94.6848909117
 11
153.569916137
 21
94.7273916294
  0
LWPOLYLINE
  5
283
100
AcDbEntity
  8
RACCORDO
100
AcDbPolyline
 62
250
  6
CONTINUOUS
 90
22
 70
0
 10
153.5850798784
 20
115.7159994109
 10
153.5856412011
 20
115.7309434143
 10
153.5873174793
 20
115.745803861
 10
153.5900993404
 20
115.7604976615
 10
153.5939712301
 20
115.7749426579
 10
153.5989114994
 20
115.7890580836
 10
153.6048925257
 20
115.8027650148
 10
153.6118808672
 20
115.8159868116
 10
153.6198374498
 20
115.8286495466
 10
153.6287177856
 20
115.8406824185
 10
153.6384722219
 20
115.8520181476
 10
153.6490462184
 20
115.8625933522
 10
153.6603806526
 20
115.8723489029
 10
153.6724121499
 20
115.8812302532
 10
153.6850734385
 20
115.8891877448
 10
153.6982937249
 20
115.8961768846
 10
153.7119990903
 20
115.9021585942
 10
153.7261129036
 20
115.907099428
 10
153.74055625
 20
115.91097176
 10
153.7552483719
 20
115.9137539389
 10
153.770107121
 20
115.9154304087
 10
153.7850494174
 20
115.9159917955
  0
LWPOLYLINE
  5
284
100
AcDbEntity
  8
RACCORDO
100
AcDbPolyline
 62
250
  6
CONTINUOUS
 90
7
 70
0
 10
154.0653239489
 20
137.9958492162
 10
154.0646355839
 20
138.0127441775
 10
154.0639386078
 20
138.0271963964
 10
154.0632364972
 20
138.0391819248
 10
154.062530411
 20
138.048680634
 10
154.0618191902
 20
138.0556764272
 10
154.061102835
 20
138.0601575177
  0
LWPOLYLINE
  5
285
100
AcDbEntity
  8
0
100
AcDbPolyline
 62
7
  6
CONTINUOUS
 90
3
 70
0
 43
0.3500000006
 10
165.7870169678
 20
147.2909945068
 10
165.7155948486
 20
147.076710022
 10
165.5727324829
 20
146.791003418
  0
LWPOLYLINE
  5
286
100
AcDbEntity
  8
RACCORDO
100
AcDbPolyline
 62
250
  6
CONTINUOUS
 90
8
 70
0
 10
154.061102835
 20
94.0627052586
 10
154.0618191902
 20
94.067186349
 10
154.062530411
 20
94.0741821422
 10
154.0632364972
 20
94.0836808513
 10
154.0639386078
 20
94.0956663796
 10
154.0646355839
 20
94.1101185985
 10
154.0653239489
 20
94.1270135597
 10
154.0666748077
 20
94.1680153057
  0
LWPOLYLINE
  5
287
100
AcDbEntity
  8
RACCORDO
100
AcDbPolyline
 62
250
  6
CONTINUOUS
 90
11
 70
0
 10
153.5611791878
 20
94.5620209336
 10
153.561895298
 20
94.5650245235
 10
153.5626063459
 20
94.5696845206
 10
153.5633123316
 20
94.5760009248
 10
153.5640144412
 20
94.5839898916
 10
153.5647114885
 20
94.5936352655
 10
153.5653999145
 20
94.60488858
 10
153.5660796677
 20
94.6177581205
 10
153.5667507996
 20
94.6322356017
 10
153.5674099055
 20
94.6482477009
 10
153.5686918976
 20
94.6848909117
  0
LINE
  5
288
100
AcDbEntity
  8
RACCORDO
100
AcDbLine
 62
250
  6
CONTINUOUS
 10
153.4941633092
 20
116.3614085429
 11
153.5850795883
 21
116.4068632204
  0
LINE
  5
289
100
AcDbEntity
  8
RACCORDO
100
AcDbLine
 62
250
  6
CONTINUOUS
 10
153.6941633104
 20
116.1614313882
 11
153.7850494174
 21
116.2068709808
  0
LINE
  5
28A
100
AcDbEntity
  8
RACCORDO
100
AcDbLine
 62
250
  6
CONTINUOUS
 10
153.5850795883
 20
115.7159995559
 11
153.4941633092
 21
115.7614542334
  0
LINE
  5
28B
100
AcDbEntity
  8
RACCORDO
100
AcDbLine
 62
250
  6
CONTINUOUS
 10
153.7850494174
 20
115.9159917955
 11
153.6941633104
 21
115.9614313882
  0
LINE
  5
28C
100
AcDbEntity
  8
RACCORDO
100
AcDbLine
 62
250
  6
CONTINUOUS
 10
153.5072375465
 20
94.4000644102
 11
153.5611791878
 21
94.5620209336
  0
LINE
  5
28D
100
AcDbEntity
  8
RACCORDO
100
AcDbLine
 62
250
  6
CONTINUOUS
 10
154.0076173698
 20
93.9021186824
 11
154.0611027331
 21
94.0627052585
  0
LINE
  5
28E
100
AcDbEntity
  8
DRAFT
100
AcDbLine
 62
7
  6
CONTINUOUS
 10
154.7982740105
 20
116.1884846783
 11
154.7441633092
 21
116.1614313882
  0
LWPOLYLINE
  5
28F
100
AcDbEntity
  8
0
100
AcDbPolyline
 62
7
  6
CONTINUOUS
 90
2
 70
0
 43
0.3500000006
 10
183.1005725098
 20
112.7757206726
 10
181.6005629883
 20
112.7757206726
  0
LINE
  5
290
100
AcDbEntity
  8
DRAFT
100
AcDbLine
 62
7
  6
CONTINUOUS
 10
154.7982740105
 20
115.934378098
 11
154.7441633092
 21
115.9614313882
  0
LINE
  5
291
100
AcDbEntity
  8
RACCORDO
100
AcDbLine
 62
250
  6
CONTINUOUS
 10
153.5611791878
 20
137.5608418428
 11
153.5072375465
 21
137.7227983661
  0
LINE
  5
292
100
AcDbEntity
  8
RACCORDO
100
AcDbLine
 62
250
  6
CONTINUOUS
 10
154.0611027331
 20
138.0601575178
 11
154.0076173698
 21
138.2207440939
  0
LINE
  5
293
100
AcDbEntity
  8
RACCORDO
100
AcDbLine
 62
250
  6
CONTINUOUS
 10
163.0247503922
 20
116.4095749768
 11
163.0247503922
 21
116.2094433348
  0
LINE
  5
294
100
AcDbEntity
  8
RACCORDO
100
AcDbLine
 62
250
  6
CONTINUOUS
 10
163.0247503922
 20
115.7132877995
 11
163.0247503922
 21
115.9134194416
  0
LWPOLYLINE
  5
295
100
AcDbEntity
  8
RACCORDO
100
AcDbPolyline
 62
250
  6
CONTINUOUS
 90
64
 70
0
 10
163.1211270253
 20
116.4829381518
 10
163.1394535933
 20
116.5444824308
 10
163.1603267514
 20
116.6052636127
 10
163.1837464997
 20
116.6652816969
 10
163.2097557308
 20
116.7246829997
 10
163.2383115521
 20
116.7833212037
 10
163.269285285
 20
116.8407573585
 10
163.3027083523
 20
116.8969788285
 10
163.3385493311
 20
116.951998249
 10
163.3765852743
 20
117.0054145764
 10
163.416837919
 20
117.0572031163
 10
163.459285528
 20
117.1073885637
 10
163.5036399425
 20
117.155643959
 10
163.5498862969
 20
117.2019249464
 10
163.5980394569
 20
117.2462758833
 10
163.6478558598
 20
117.2885028797
 10
163.6993278426
 20
117.3285916557
 10
163.7524630684
 20
117.3665564933
 10
163.8070409637
 20
117.4022463466
 10
163.8630828233
 20
117.4356653404
 10
163.9205673524
 20
117.4668093522
 10
163.9792100934
 20
117.495514965
 10
164.0390286691
 20
117.5217730451
 10
164.1000054567
 20
117.5455927282
 10
164.1618031307
 20
117.5668380023
 10
164.2244198997
 20
117.5854906468
 10
164.2878575551
 20
117.601568884
 10
164.3517841459
 20
117.6149913652
 10
164.4161977298
 20
117.6257435875
 10
164.4811002491
 20
117.633840055
 10
164.5461655795
 20
117.6392429297
 10
164.6113935915
 20
117.641939581
 10
164.6767844146
 20
117.6419426398
 10
164.7420123133
 20
117.6392521599
 10
164.8070773046
 20
117.6338555444
 10
164.8719793714
 20
117.6257653898
 10
164.936392727
 20
117.6150195398
 10
165.000319211
 20
117.6016035959
 10
165.0637569837
 20
117.5855319555
 10
165.1263747394
 20
117.5668856563
 10
165.1881745417
 20
117.5456464434
 10
165.249154327
 20
117.5218325699
 10
165.3089765984
 20
117.4955798359
 10
165.3676241832
 20
117.4668787273
 10
165.4251142542
 20
117.435738756
 10
165.4811608326
 20
117.4023242605
 10
165.5357422231
 20
117.3666393608
 10
165.5888801211
 20
117.3286799348
 10
165.6403536338
 20
117.2885979586
 10
165.6901695376
 20
117.2463800962
 10
165.7383210561
 20
117.2020396816
 10
165.7845669682
 20
117.1557686953
 10
165.8289224123
 20
117.1075232979
 10
165.87137225
 20
117.0573473272
 10
165.9116298449
 20
117.0055642798
 10
165.9496744496
 20
116.9521486126
 10
165.9855268114
 20
116.8971258681
 10
166.0189625367
 20
116.8408961715
 10
166.0499504996
 20
116.7834460132
 10
166.0785218259
 20
116.7247889031
 10
166.1045455
 20
116.6653654959
 10
166.12797785
 20
116.605322677
 10
166.1488625477
 20
116.5445135621
 10
166.1671995931
 20
116.4829381518
  0
LWPOLYLINE
  5
296
100
AcDbEntity
  8
RACCORDO
100
AcDbPolyline
 62
250
  6
CONTINUOUS
 90
7
 70
0
 10
175.503277201
 20
115.9159917955
 10
175.502595694
 20
115.9158558818
 10
175.5011233923
 20
115.9157211476
 10
175.4988602958
 20
115.9155875928
 10
175.4957962328
 20
115.9154548612
 10
175.4919413751
 20
115.9153233091
 10
175.4873262376
 20
115.9151940053
  0
LWPOLYLINE
  5
297
100
AcDbEntity
  8
RACCORDO
100
AcDbPolyline
 62
250
  6
CONTINUOUS
 90
5
 70
0
 10
175.7032470299
 20
115.7159995021
 10
175.7021259928
 20
115.7158563516
 10
175.6996677566
 20
115.7157143729
 10
175.69587917
 20
115.715573614
 10
175.6907709047
 20
115.7154338084
  0
LWPOLYLINE
  5
298
100
AcDbEntity
  8
RACCORDO
100
AcDbPolyline
 62
250
  6
CONTINUOUS
 90
25
 70
0
 10
163.1211270253
 20
115.6399246245
 10
163.1195326517
 20
115.6451283833
 10
163.1176716333
 20
115.6502106574
 10
163.11554397
 20
115.6551714468
 10
163.113141841
 20
115.6600249266
 10
163.1104730672
 20
115.6647569217
 10
163.1075611113
 20
115.6693249063
 10
163.1044037842
 20
115.6737272747
 10
163.1010032751
 20
115.6779656326
 10
163.0973896142
 20
115.6820022718
 10
163.0935608625
 20
115.6858353125
 10
163.0895189591
 20
115.6894666345
 10
163.085299751
 20
115.6928641684
 10
163.0809018473
 20
115.6960257103
 10
163.0763266388
 20
115.6989534642
 10
163.0716141455
 20
115.701621973
 10
163.066763038
 20
115.704028997
 10
163.0617746456
 20
115.7061767759
 10
163.0566929761
 20
115.7080465715
 10
163.0515172085
 20
115.7096359312
 10
163.0462481638
 20
115.7109473077
 10
163.0409323128
 20
115.7119693208
 10
163.0355851456
 20
115.7126981771
 10
163.0301911721
 20
115.71313767
 10
163.0247503922
 20
115.7132877995
  0
LWPOLYLINE
  5
299
100
AcDbEntity
  8
RACCORDO
100
AcDbPolyline
 62
250
  6
CONTINUOUS
 90
64
 70
0
 10
163.3138785942
 20
116.4294423834
 10
163.3298783951
 20
116.4830275554
 10
163.3481154125
 20
116.5361381523
 10
163.3685861868
 20
116.5886770777
 10
163.3912973696
 20
116.6405774295
 10
163.4162250312
 20
116.6917081718
 10
163.4433018849
 20
116.7418805096
 10
163.4724964791
 20
116.7910023731
 10
163.503771923
 20
116.8389802129
 10
163.5370240531
 20
116.8856370676
 10
163.5721934974
 20
116.9308856084
 10
163.6092256693
 20
116.974651802
 10
163.6479991494
 20
117.016796202
 10
163.688415304
 20
117.057226661
 10
163.7304230562
 20
117.0959064884
 10
163.7739622787
 20
117.1327892654
 10
163.8189454829
 20
117.1678086613
 10
163.8653018416
 20
117.2009170555
 10
163.9129989891
 20
117.2320932686
 10
163.9619721639
 20
117.2612911975
 10
164.012124228
 20
117.2884492483
 10
164.0633753755
 20
117.3135214988
 10
164.1156486954
 20
117.3364665822
 10
164.1688467596
 20
117.3572380582
 10
164.2228553111
 20
117.3757900879
 10
164.277575542
 20
117.3920895984
 10
164.332919763
 20
117.4061113234
 10
164.388787269
 20
117.4178305742
 10
164.4450784744
 20
117.4272278949
 10
164.5017006923
 20
117.4342892317
 10
164.5585624912
 20
117.4390040161
 10
164.6155659867
 20
117.4413646601
 10
164.6726144505
 20
117.4413676817
 10
164.7296179565
 20
117.4390130909
 10
164.7864796981
 20
117.4343043975
 10
164.843101876
 20
117.4272492069
 10
164.899393304
 20
117.4178580619
 10
164.9552611943
 20
117.4061450292
 10
165.0106060683
 20
117.3921295375
 10
165.0653277567
 20
117.3758360919
 10
165.1193387456
 20
117.3572898098
 10
165.1725399968
 20
117.3365237435
 10
165.2248171569
 20
117.3135836846
 10
165.2760732033
 20
117.2885157821
 10
165.3262307229
 20
117.2613615356
 10
165.3752085396
 20
117.2321676381
 10
165.4229093386
 20
117.2009959488
 10
165.4692686651
 20
117.1678925385
 10
165.5142536664
 20
117.1328791465
 10
165.5577928243
 20
117.0960042883
 10
165.5997996964
 20
117.0573337747
 10
165.6402161297
 20
117.016912279
 10
165.6789908696
 20
116.9747765342
 10
165.7160253532
 20
116.9310184567
 10
165.7511999756
 20
116.885774852
 10
165.7844603301
 20
116.8391185913
 10
165.8157459707
 20
116.7911375235
 10
165.84495232
 20
116.7420082856
 10
165.8720422404
 20
116.6918237772
 10
165.8969835266
 20
116.640676327
 10
165.9197078468
 20
116.5887559015
 10
165.9401907638
 20
116.536193958
 10
165.9584387836
 20
116.4830569807
 10
165.974448103
 20
116.4294420986
  0
LWPOLYLINE
  5
29A
100
AcDbEntity
  8
0
100
AcDbPolyline
 62
7
  6
CONTINUOUS
 90
25
 70
0
 10
163.3180690161
 20
116.4248855474
 10
163.3133500319
 20
116.4093226233
 10
163.3078150399
 20
116.394094003
 10
163.3014640399
 20
116.3791996865
 10
163.2942636698
 20
116.3645789117
 10
163.2862472917
 20
116.3502924407
 10
163.2775149926
 20
116.3365225601
 10
163.2680847997
 20
116.3233095034
 10
163.2579386857
 20
116.310613037
 10
163.2471226551
 20
116.2984947468
 10
163.2356087358
 20
116.2869318983
 10
163.2234249
 20
116.275947226
 10
163.2107010689
 20
116.2656705184
 10
163.1974273908
 20
116.2561147296
 10
163.1836137173
 20
116.2472669055
 10
163.1694195253
 20
116.2392179734
 10
163.1548748868
 20
116.2319890143
 10
163.1399497297
 20
116.2255589473
 10
163.1247133146
 20
116.2199554563
 10
163.1091200822
 20
116.2151712857
 10
163.0932155918
 20
116.2112136912
 10
163.0772057815
 20
116.2081321242
 10
163.0611592972
 20
116.2059430687
 10
163.0450074931
 20
116.2046300407
 10
163.028750369
 20
116.2041930403
  0
LINE
  5
29B
100
AcDbEntity
  8
RACCORDO
100
AcDbLine
 62
250
  6
CONTINUOUS
 10
163.028750369
 20
115.918669736
 11
163.0247503922
 21
115.9134194416
  0
LINE
  5
29C
100
AcDbEntity
  8
RACCORDO
100
AcDbLine
 62
250
  6
CONTINUOUS
 10
163.3180690161
 20
115.6979772289
 11
163.3138785154
 21
115.6934206778
  0
LINE
  5
29D
100
AcDbEntity
  8
DRAFT
100
AcDbLine
 62
7
  6
CONTINUOUS
 10
162.3424307287
 20
116.1884846783
 11
162.3478215792
 21
116.1911027386
  0
LINE
  5
29E
100
AcDbEntity
  8
RACCORDO
100
AcDbLine
 62
250
  6
CONTINUOUS
 10
163.3132236212
 20
115.693222979
 11
163.3138785822
 21
115.6934167017
  0
LINE
  5
29F
100
AcDbEntity
  8
RACCORDO
100
AcDbLine
 62
250
  6
CONTINUOUS
 10
165.9751029972
 20
116.4296397973
 11
165.9744480362
 21
116.4294460746
  0
LINE
  5
2A0
100
AcDbEntity
  8
RACCORDO
100
AcDbLine
 62
250
  6
CONTINUOUS
 10
165.9834001815
 20
116.4319720645
 11
165.9751029972
 21
116.4296397973
  0
LINE
  5
2A1
100
AcDbEntity
  8
RACCORDO
100
AcDbLine
 62
250
  6
CONTINUOUS
 10
163.3049264369
 20
115.6908907118
 11
163.3132236212
 21
115.693222979
  0
LINE
  5
2A2
100
AcDbEntity
  8
RACCORDO
100
AcDbLine
 62
250
  6
CONTINUOUS
 10
163.1211270253
 20
115.6399246245
 11
163.3049264369
 21
115.6908907118
  0
LINE
  5
2A3
100
AcDbEntity
  8
RACCORDO
100
AcDbLine
 62
250
  6
CONTINUOUS
 10
166.1671995931
 20
116.4829381518
 11
165.9834001815
 21
116.4319720645
  0
LINE
  5
2A4
100
AcDbEntity
  8
DRAFT
100
AcDbLine
 62
7
  6
CONTINUOUS
 10
166.5671774679
 20
115.9317600377
 11
166.5137205056
 21
115.918669736
  0
LWPOLYLINE
  5
2A5
100
AcDbEntity
  8
RACCORDO
100
AcDbPolyline
 62
250
  6
CONTINUOUS
 90
25
 70
0
 10
166.2635762262
 20
115.7132877995
 10
166.2581354463
 20
115.71313767
 10
166.2527414728
 20
115.7126981771
 10
166.2473943057
 20
115.7119693208
 10
166.2420784546
 20
115.7109473077
 10
166.2368094099
 20
115.7096359312
 10
166.2316336424
 20
115.7080465715
 10
166.2265519729
 20
115.7061767759
 10
166.2215635805
 20
115.704028997
 10
166.216712473
 20
115.701621973
 10
166.2119999796
 20
115.6989534642
 10
166.2074247712
 20
115.6960257103
 10
166.2030268674
 20
115.6928641684
 10
166.1988076593
 20
115.6894666345
 10
166.1947657559
 20
115.6858353125
 10
166.1909370043
 20
115.6820022718
 10
166.1873233433
 20
115.6779656327
 10
166.1839228342
 20
115.6737272747
 10
166.1807655071
 20
115.6693249064
 10
166.1778535512
 20
115.6647569217
 10
166.1751847774
 20
115.6600249266
 10
166.1727826484
 20
115.6551714468
 10
166.1706549851
 20
115.6502106574
 10
166.1687939667
 20
115.6451283833
 10
166.1671995931
 20
115.6399246245
  0
LWPOLYLINE
  5
2A6
100
AcDbEntity
  8
RACCORDO
100
AcDbPolyline
 62
250
  6
CONTINUOUS
 90
25
 70
0
 10
166.2635762262
 20
115.9134194416
 10
166.2473230884
 20
115.9129782168
 10
166.2311180482
 20
115.9116571275
 10
166.2150086985
 20
115.9094601099
 10
166.199042711
 20
115.9063937537
 10
166.1832665933
 20
115.9024670785
 10
166.1677256004
 20
115.8976913102
 10
166.1524646453
 20
115.8920800481
 10
166.1375293985
 20
115.885649879
 10
166.12296499
 20
115.8784202144
 10
166.1088147279
 20
115.870412717
 10
166.0951195298
 20
115.8616507122
 10
166.0819190772
 20
115.8521596395
 10
166.0692521149
 20
115.841967345
 10
166.0571558814
 20
115.8311037808
 10
166.0456655616
 20
115.8196004835
 10
166.0348145713
 20
115.8074907111
 10
166.0246352978
 20
115.7948104017
 10
166.0151584636
 20
115.7815978609
 10
166.0064120262
 20
115.7678923475
 10
165.9984213046
 20
115.7537338409
 10
165.9912096689
 20
115.7391640215
 10
165.9847981798
 20
115.7242257457
 10
165.9792055339
 20
115.7089629173
 10
165.9744480244
 20
115.6934203929
  0
LWPOLYLINE
  5
2A7
100
AcDbEntity
  8
RACCORDO
100
AcDbPolyline
 62
250
  6
CONTINUOUS
 90
25
 70
0
 10
163.0247503922
 20
116.2094433348
 10
163.04100353
 20
116.2098845595
 10
163.0572085702
 20
116.2112056489
 10
163.0733179199
 20
116.2134026664
 10
163.0892839075
 20
116.2164690226
 10
163.1050600252
 20
116.2203956978
 10
163.120601018
 20
116.2251714662
 10
163.1358619732
 20
116.2307827283
 10
163.1507972199
 20
116.2372128973
 10
163.1653616284
 20
116.2444425619
 10
163.1795118905
 20
116.2524500593
 10
163.1932070886
 20
116.2612120642
 10
163.2064075413
 20
116.2707031369
 10
163.2190745035
 20
116.2808954313
 10
163.231170737
 20
116.2917589956
 10
163.2426610568
 20
116.3032622928
 10
163.2535120471
 20
116.3153720652
 10
163.2636913206
 20
116.3280523746
 10
163.2731681548
 20
116.3412649155
 10
163.2819145922
 20
116.3549704289
 10
163.2899053138
 20
116.3691289354
 10
163.2971169496
 20
116.3836987548
 10
163.3035284386
 20
116.3986370306
 10
163.3091210846
 20
116.4138998591
 10
163.313878594
 20
116.4294423835
  0
LINE
  5
2A8
100
AcDbEntity
  8
RACCORDO
100
AcDbLine
 62
250
  6
CONTINUOUS
 10
175.4873262376
 20
115.9151940053
 11
175.4758025677
 21
115.9149421831
  0
LINE
  5
2A9
100
AcDbEntity
  8
RACCORDO
100
AcDbLine
 62
250
  6
CONTINUOUS
 10
175.6907709047
 20
115.7154338084
 11
175.6766530596
 21
115.7151591338
  0
LINE
  5
2AA
100
AcDbEntity
  8
RACCORDO
100
AcDbLine
 62
250
  6
CONTINUOUS
 10
175.4758025677
 20
115.9149421831
 11
175.4530998889
 21
115.9145874284
  0
LINE
  5
2AB
100
AcDbEntity
  8
RACCORDO
100
AcDbLine
 62
250
  6
CONTINUOUS
 10
175.6766530596
 20
115.7151591338
 11
175.6460236742
 21
115.7147658258
  0
LINE
  5
2AC
100
AcDbEntity
  8
RACCORDO
100
AcDbLine
 62
250
  6
CONTINUOUS
 10
175.4530998889
 20
115.9145874284
 11
175.4022456727
 21
115.9140777813
  0
LINE
  5
2AD
100
AcDbEntity
  8
RACCORDO
100
AcDbLine
 62
250
  6
CONTINUOUS
 10
175.6460236742
 20
115.7147658258
 11
175.5537764254
 21
115.714080345
  0
LINE
  5
2AE
100
AcDbEntity
  8
RACCORDO
100
AcDbLine
 62
250
  6
CONTINUOUS
 10
175.4022456727
 20
115.9140777813
 11
175.2950058827
 21
115.9135446987
  0
LINE
  5
2AF
100
AcDbEntity
  8
RACCORDO
100
AcDbLine
 62
250
  6
CONTINUOUS
 10
153.8979943999
 20
116.208872385
 11
154.0082158365
 21
116.2093560904
  0
LINE
  5
2B0
100
AcDbEntity
  8
RACCORDO
100
AcDbLine
 62
250
  6
CONTINUOUS
 10
175.5537764254
 20
115.714080345
 11
175.3561525766
 21
115.7134205401
  0
LWPOLYLINE
  5
2B1
100
AcDbEntity
  8
0
100
AcDbPolyline
 62
7
  6
CONTINUOUS
 90
2
 70
0
 43
0.3500000006
 10
183.1005725098
 20
115.1328590698
 10
181.6005629883
 20
115.1328590698
  0
LINE
  5
2B2
100
AcDbEntity
  8
RACCORDO
100
AcDbLine
 62
250
  6
CONTINUOUS
 10
175.3561525766
 20
115.7134205401
 11
166.2635762262
 21
115.7132877995
  0
LINE
  5
2B3
100
AcDbEntity
  8
RACCORDO
100
AcDbLine
 62
250
  6
CONTINUOUS
 10
175.2950058827
 20
115.9135446987
 11
166.2635762262
 21
115.9134194416
  0
LINE
  5
2B4
100
AcDbEntity
  8
0
100
AcDbLine
 62
7
  6
CONTINUOUS
 10
166.5137205056
 20
115.918669736
 11
166.2595762494
 21
115.918669736
  0
LINE
  5
2B5
100
AcDbEntity
  8
0
100
AcDbLine
 62
7
  6
CONTINUOUS
 10
163.028750369
 20
115.918669736
 11
162.7746061128
 21
115.918669736
  0
LINE
  5
2B6
100
AcDbEntity
  8
DRAFT
100
AcDbLine
 62
7
  6
CONTINUOUS
 10
166.9405050392
 20
115.9317600377
 11
166.5671774679
 21
115.9317600377
  0
LINE
  5
2B7
100
AcDbEntity
  8
DRAFT
100
AcDbLine
 62
7
  6
CONTINUOUS
 10
162.7211491505
 20
115.9317600377
 11
162.3478215792
 21
115.9317600377
  0
LINE
  5
2B8
100
AcDbEntity
  8
DRAFT
100
AcDbLine
 62
7
  6
CONTINUOUS
 10
154.7982740105
 20
115.934378098
 11
162.3424307287
 21
115.934378098
  0
LINE
  5
2B9
100
AcDbEntity
  8
DRAFT
100
AcDbLine
 62
7
  6
CONTINUOUS
 10
166.9458958897
 20
115.934378098
 11
174.4900526079
 21
115.934378098
  0
LINE
  5
2BA
100
AcDbEntity
  8
RACCORDO
100
AcDbLine
 62
7
  6
CONTINUOUS
 10
153.6941633104
 20
115.9614313882
 11
154.7441633092
 21
115.9614313882
  0
LINE
  5
2BB
100
AcDbEntity
  8
RACCORDO
100
AcDbLine
 62
7
  6
CONTINUOUS
 10
174.5441633092
 20
115.9614313882
 11
175.5941633081
 21
115.9614313882
  0
LINE
  5
2BC
100
AcDbEntity
  8
RACCORDO
100
AcDbLine
 62
7
  6
CONTINUOUS
 10
175.5941633081
 20
116.1614313882
 11
174.5441633092
 21
116.1614313882
  0
LINE
  5
2BD
100
AcDbEntity
  8
RACCORDO
100
AcDbLine
 62
7
  6
CONTINUOUS
 10
154.7441633092
 20
116.1614313882
 11
153.6941633104
 21
116.1614313882
  0
LINE
  5
2BE
100
AcDbEntity
  8
DRAFT
100
AcDbLine
 62
7
  6
CONTINUOUS
 10
174.4900526079
 20
116.1884846783
 11
166.9458958897
 21
116.1884846783
  0
LINE
  5
2BF
100
AcDbEntity
  8
DRAFT
100
AcDbLine
 62
7
  6
CONTINUOUS
 10
162.3424307287
 20
116.1884846783
 11
154.7982740105
 21
116.1884846783
  0
LINE
  5
2C0
100
AcDbEntity
  8
DRAFT
100
AcDbLine
 62
7
  6
CONTINUOUS
 10
162.3478215792
 20
116.1911027386
 11
162.7211491505
 21
116.1911027386
  0
LINE
  5
2C1
100
AcDbEntity
  8
DRAFT
100
AcDbLine
 62
7
  6
CONTINUOUS
 10
166.5671774679
 20
116.1911027386
 11
166.9405050392
 21
116.1911027386
  0
LINE
  5
2C2
100
AcDbEntity
  8
0
100
AcDbLine
 62
7
  6
CONTINUOUS
 10
162.7746061128
 20
116.2041930403
 11
163.028750369
 21
116.2041930403
  0
LINE
  5
2C3
100
AcDbEntity
  8
0
100
AcDbLine
 62
7
  6
CONTINUOUS
 10
166.2595762494
 20
116.2041930403
 11
166.5137205056
 21
116.2041930403
  0
LINE
  5
2C4
100
AcDbEntity
  8
RACCORDO
100
AcDbLine
 62
250
  6
CONTINUOUS
 10
154.0082158365
 20
116.2093560904
 11
163.0247503922
 21
116.2094433348
  0
LINE
  5
2C5
100
AcDbEntity
  8
RACCORDO
100
AcDbLine
 62
250
  6
CONTINUOUS
 10
163.0247503922
 20
115.7132877995
 11
153.8603540708
 21
115.713582956
  0
LINE
  5
2C6
100
AcDbEntity
  8
RACCORDO
100
AcDbLine
 62
250
  6
CONTINUOUS
 10
163.0247503922
 20
115.9134194416
 11
153.9502242793
 21
115.9136985288
  0
LINE
  5
2C7
100
AcDbEntity
  8
RACCORDO
100
AcDbLine
 62
250
  6
CONTINUOUS
 10
166.2635762262
 20
116.2094433348
 11
175.3381023391
 21
116.2091642476
  0
LINE
  5
2C8
100
AcDbEntity
  8
RACCORDO
100
AcDbLine
 62
250
  6
CONTINUOUS
 10
175.3381023391
 20
116.2091642476
 11
175.3903322179
 21
116.208872385
  0
LINE
  5
2C9
100
AcDbEntity
  8
RACCORDO
100
AcDbLine
 62
250
  6
CONTINUOUS
 10
153.8603540708
 20
115.713582956
 11
153.683592412
 21
115.7144033331
  0
LINE
  5
2CA
100
AcDbEntity
  8
RACCORDO
100
AcDbLine
 62
250
  6
CONTINUOUS
 10
153.9502242793
 20
115.9136985288
 11
153.8639473554
 21
115.9142675957
  0
LINE
  5
2CB
100
AcDbEntity
  8
RACCORDO
100
AcDbLine
 62
250
  6
CONTINUOUS
 10
153.683592412
 20
115.7144033331
 11
153.6308663719
 21
115.7148938753
  0
LINE
  5
2CC
100
AcDbEntity
  8
RACCORDO
100
AcDbLine
 62
250
  6
CONTINUOUS
 10
153.8639473554
 20
115.9142675957
 11
153.8269463779
 21
115.9147024123
  0
LINE
  5
2CD
100
AcDbEntity
  8
RACCORDO
100
AcDbLine
 62
250
  6
CONTINUOUS
 10
153.6308663719
 20
115.7148938753
 11
153.6116735592
 21
115.7151591338
  0
LINE
  5
2CE
100
AcDbEntity
  8
RACCORDO
100
AcDbLine
 62
250
  6
CONTINUOUS
 10
153.8269463779
 20
115.9147024123
 11
153.8125240511
 21
115.9149421831
  0
LWPOLYLINE
  5
2CF
100
AcDbEntity
  8
RACCORDO
100
AcDbPolyline
 62
250
  6
CONTINUOUS
 90
6
 70
0
 10
153.6116735592
 20
115.7151591338
 10
153.5975557141
 20
115.7154338083
 10
153.5924474487
 20
115.715573614
 10
153.588658862
 20
115.7157143728
 10
153.5862006257
 20
115.7158563516
 10
153.5850795886
 20
115.7159995021
  0
LWPOLYLINE
  5
2D0
100
AcDbEntity
  8
RACCORDO
100
AcDbPolyline
 62
250
  6
CONTINUOUS
 90
8
 70
0
 10
153.8125240511
 20
115.9149421831
 10
153.8010003811
 20
115.9151940053
 10
153.7963852436
 20
115.9153233091
 10
153.7925303858
 20
115.9154548612
 10
153.7894663228
 20
115.9155875928
 10
153.7872032262
 20
115.9157211476
 10
153.7857309244
 20
115.9158558818
 10
153.7850494174
 20
115.9159917955
  0
LWPOLYLINE
  5
2D1
100
AcDbEntity
  8
0
100
AcDbPolyline
 62
7
  6
CONTINUOUS
 90
25
 70
0
 10
163.028750369
 20
115.918669736
 10
163.0450074931
 20
115.9182327356
 10
163.0611592972
 20
115.9169197076
 10
163.0772057815
 20
115.9147306521
 10
163.0932155918
 20
115.9116490852
 10
163.1091200822
 20
115.9076914907
 10
163.1247133146
 20
115.90290732
 10
163.1399497297
 20
115.8973038291
 10
163.1548748868
 20
115.890873762
 10
163.1694195253
 20
115.8836448029
 10
163.1836137173
 20
115.8755958708
 10
163.1974273908
 20
115.8667480468
 10
163.2107010689
 20
115.8571922579
 10
163.2234249
 20
115.8469155503
 10
163.2356087358
 20
115.835930878
 10
163.2471226551
 20
115.8243680295
 10
163.2579386857
 20
115.8122497393
 10
163.2680847997
 20
115.799553273
 10
163.2775149926
 20
115.7863402163
 10
163.2862472917
 20
115.7725703356
 10
163.2942636698
 20
115.7582838646
 10
163.3014640399
 20
115.7436630898
 10
163.3078150399
 20
115.7287687734
 10
163.3133500319
 20
115.713540153
 10
163.3180690161
 20
115.6979772289
  0
LWPOLYLINE
  5
2D2
100
AcDbEntity
  8
0
100
AcDbPolyline
 62
7
  6
CONTINUOUS
 90
25
 70
0
 10
166.2595762494
 20
116.2041930403
 10
166.2433191253
 20
116.2046300407
 10
166.2271673212
 20
116.2059430687
 10
166.2111208369
 20
116.2081321242
 10
166.1951110266
 20
116.2112136912
 10
166.1792065362
 20
116.2151712857
 10
166.1636133038
 20
116.2199554563
 10
166.1483768887
 20
116.2255589473
 10
166.1334517316
 20
116.2319890143
 10
166.1189070931
 20
116.2392179734
 10
166.1047129011
 20
116.2472669055
 10
166.0908992277
 20
116.2561147296
 10
166.0776255495
 20
116.2656705184
 10
166.0649017184
 20
116.275947226
 10
166.0527178826
 20
116.2869318983
 10
166.0412039633
 20
116.2984947468
 10
166.0303879327
 20
116.310613037
 10
166.0202418187
 20
116.3233095034
 10
166.0108116258
 20
116.3365225601
 10
166.0020793267
 20
116.3502924407
 10
165.9940629487
 20
116.3645789117
 10
165.9868625785
 20
116.3791996865
 10
165.9805115786
 20
116.394094003
 10
165.9749765865
 20
116.4093226233
 10
165.9702576023
 20
116.4248855474
  0
LINE
  5
2D3
100
AcDbEntity
  8
DRAFT
100
AcDbLine
 62
7
  6
CONTINUOUS
 10
162.7746061128
 20
115.918669736
 11
162.7211491505
 21
115.9317600377
  0
LWPOLYLINE
  5
2D4
100
AcDbEntity
  8
RACCORDO
100
AcDbPolyline
 62
250
  6
CONTINUOUS
 90
4
 70
0
 10
163.1211270253
 20
116.4829381517
 10
163.3115073023
 20
116.4301270687
 10
163.3132249673
 20
116.429639425
 10
163.3138799343
 20
116.4294457005
  0
LWPOLYLINE
  5
2D5
100
AcDbEntity
  8
RACCORDO
100
AcDbPolyline
 62
250
  6
CONTINUOUS
 90
4
 70
0
 10
166.1671995931
 20
115.6399246246
 10
165.9768193161
 20
115.6927357076
 10
165.9751016511
 20
115.6932233513
 10
165.9744466841
 20
115.6934170758
  0
LINE
  5
2D6
100
AcDbEntity
  8
DRAFT
100
AcDbLine
 62
7
  6
CONTINUOUS
 10
162.3478215792
 20
115.9317600377
 11
162.3424307287
 21
115.934378098
  0
LINE
  5
2D7
100
AcDbEntity
  8
RACCORDO
100
AcDbLine
 62
250
  6
CONTINUOUS
 10
163.3138785942
 20
116.4294423834
 11
163.3180690161
 21
116.4248855474
  0
LINE
  5
2D8
100
AcDbEntity
  8
RACCORDO
100
AcDbLine
 62
250
  6
CONTINUOUS
 10
163.0247503922
 20
116.2094433348
 11
163.028750369
 21
116.2041930403
  0
LWPOLYLINE
  5
2D9
100
AcDbEntity
  8
RACCORDO
100
AcDbPolyline
 62
250
  6
CONTINUOUS
 90
25
 70
0
 10
163.3138785152
 20
115.6934206776
 10
163.3091210323
 20
115.7089630728
 10
163.3035284144
 20
115.7242258066
 10
163.2971169496
 20
115.7391640213
 10
163.2899053241
 20
115.7537338215
 10
163.2819145979
 20
115.767892338
 10
163.2731681548
 20
115.7815978608
 10
163.2636913206
 20
115.7948104017
 10
163.2535120471
 20
115.807490711
 10
163.2426610568
 20
115.8196004834
 10
163.2311707371
 20
115.8311037807
 10
163.2190745036
 20
115.8419673449
 10
163.2064075413
 20
115.8521596394
 10
163.1932070886
 20
115.8616507121
 10
163.1795118906
 20
115.870412717
 10
163.1653616284
 20
115.8784202144
 10
163.15079722
 20
115.885649879
 10
163.1358619732
 20
115.8920800481
 10
163.120601018
 20
115.8976913102
 10
163.1050600252
 20
115.9024670785
 10
163.0892839076
 20
115.9063937537
 10
163.0733179201
 20
115.9094601099
 10
163.0572085704
 20
115.9116571275
 10
163.0410035301
 20
115.9129782168
 10
163.0247503922
 20
115.9134194416
  0
LINE
  5
2DA
100
AcDbEntity
  8
RACCORDO
100
AcDbLine
 62
250
  6
CONTINUOUS
 10
166.2635762262
 20
116.4095749768
 11
166.2635762262
 21
116.2094433348
  0
LINE
  5
2DB
100
AcDbEntity
  8
RACCORDO
100
AcDbLine
 62
250
  6
CONTINUOUS
 10
166.2635762262
 20
115.7132877995
 11
166.2635762263
 21
115.9134194416
  0
LWPOLYLINE
  5
2DC
100
AcDbEntity
  8
RACCORDO
100
AcDbPolyline
 62
250
  6
CONTINUOUS
 90
64
 70
0
 10
166.1671995931
 20
115.6399246245
 10
166.1488730251
 20
115.5783803455
 10
166.127999867
 20
115.5175991636
 10
166.1045801188
 20
115.4575810794
 10
166.0785708876
 20
115.3981797766
 10
166.0500150663
 20
115.3395415726
 10
166.0190413335
 20
115.2821054179
 10
165.9856182662
 20
115.2258839478
 10
165.9497772873
 20
115.1708645273
 10
165.9117413441
 20
115.1174482
 10
165.8714886994
 20
115.06565966
 10
165.8290410904
 20
115.0154742126
 10
165.7846866759
 20
114.9672188173
 10
165.7384403215
 20
114.9209378299
 10
165.6902871616
 20
114.8765868931
 10
165.6404707587
 20
114.8343598966
 10
165.5889987758
 20
114.7942711206
 10
165.53586355
 20
114.756306283
 10
165.4812856547
 20
114.7206164297
 10
165.4252437951
 20
114.6871974359
 10
165.367759266
 20
114.6560534241
 10
165.309116525
 20
114.6273478113
 10
165.2492979493
 20
114.6010897313
 10
165.1883211617
 20
114.5772700481
 10
165.1265234877
 20
114.556024774
 10
165.0639067187
 20
114.5373721295
 10
165.0004690633
 20
114.5212938923
 10
164.9365424725
 20
114.5078714111
 10
164.8721288886
 20
114.4971191888
 10
164.8072263694
 20
114.4890227213
 10
164.7421610389
 20
114.4836198466
 10
164.676933027
 20
114.4809231953
 10
164.6115422038
 20
114.4809201365
 10
164.5463143052
 20
114.4836106164
 10
164.4812493139
 20
114.4890072319
 10
164.416347247
 20
114.4970973865
 10
164.3519338915
 20
114.5078432365
 10
164.2880074075
 20
114.5212591804
 10
164.2245696347
 20
114.5373308208
 10
164.161951879
 20
114.55597712
 10
164.1001520767
 20
114.5772163329
 10
164.0391722914
 20
114.6010302064
 10
163.97935002
 20
114.6272829405
 10
163.9207024352
 20
114.6559840491
 10
163.8632123643
 20
114.6871240204
 10
163.8071657859
 20
114.7205385158
 10
163.7525843953
 20
114.7562234155
 10
163.6994464973
 20
114.7941828415
 10
163.6479729846
 20
114.8342648177
 10
163.5981570808
 20
114.8764826801
 10
163.5500055623
 20
114.9208230947
 10
163.5037596502
 20
114.967094081
 10
163.4594042061
 20
115.0153394784
 10
163.4169543684
 20
115.0655154492
 10
163.3766967735
 20
115.1172984965
 10
163.3386521689
 20
115.1707141637
 10
163.302799807
 20
115.2257369082
 10
163.2693640817
 20
115.2819666048
 10
163.2383761188
 20
115.3394167631
 10
163.2098047925
 20
115.3980738732
 10
163.1837811184
 20
115.4574972804
 10
163.1603487685
 20
115.5175400993
 10
163.1394640708
 20
115.5783492142
 10
163.1211270253
 20
115.6399246245
  0
LWPOLYLINE
  5
2DD
100
AcDbEntity
  8
RACCORDO
100
AcDbPolyline
 62
250
  6
CONTINUOUS
 90
64
 70
0
 10
165.9744480243
 20
115.693420393
 10
165.9584482233
 20
115.6398352209
 10
165.9402112059
 20
115.586724624
 10
165.9197404316
 20
115.5341856986
 10
165.8970292489
 20
115.4822853468
 10
165.8721015872
 20
115.4311546045
 10
165.8450247335
 20
115.3809822667
 10
165.8158301393
 20
115.3318604032
 10
165.7845546955
 20
115.2838825635
 10
165.7513025653
 20
115.2372257088
 10
165.716133121
 20
115.1919771679
 10
165.6791009491
 20
115.1482109743
 10
165.640327469
 20
115.1060665743
 10
165.5999113144
 20
115.0656361153
 10
165.5579035622
 20
115.026956288
 10
165.5143643397
 20
114.9900735109
 10
165.4693811356
 20
114.9550541151
 10
165.4230247768
 20
114.9219457208
 10
165.3753276293
 20
114.8907695077
 10
165.3263544545
 20
114.8615715789
 10
165.2762023904
 20
114.834413528
 10
165.2249512429
 20
114.8093412775
 10
165.172677923
 20
114.7863961941
 10
165.1194798588
 20
114.7656247181
 10
165.0654713073
 20
114.7470726884
 10
165.0107510764
 20
114.7307731779
 10
164.9554068555
 20
114.7167514529
 10
164.8995393494
 20
114.7050322021
 10
164.843248144
 20
114.6956348814
 10
164.7866259262
 20
114.6885735447
 10
164.7297641272
 20
114.6838587603
 10
164.6727606318
 20
114.6814981162
 10
164.6157121679
 20
114.6814950947
 10
164.558708662
 20
114.6838496854
 10
164.5018469204
 20
114.6885583788
 10
164.4452247424
 20
114.6956135694
 10
164.3889333144
 20
114.7050047144
 10
164.3330654242
 20
114.7167177471
 10
164.2777205501
 20
114.7307332389
 10
164.2229988617
 20
114.7470266845
 10
164.1689878729
 20
114.7655729665
 10
164.1157866217
 20
114.7863390329
 10
164.0635094616
 20
114.8092790917
 10
164.0122534151
 20
114.8343469942
 10
163.9620958955
 20
114.8615012408
 10
163.9131180789
 20
114.8906951382
 10
163.8654172798
 20
114.9218668275
 10
163.8190579533
 20
114.9549702378
 10
163.774072952
 20
114.9899836298
 10
163.7305337941
 20
115.026858488
 10
163.688526922
 20
115.0655290016
 10
163.6481104887
 20
115.1059504973
 10
163.6093357489
 20
115.1480862421
 10
163.5723012652
 20
115.1918443196
 10
163.5371266428
 20
115.2370879243
 10
163.5038662883
 20
115.283744185
 10
163.4725806477
 20
115.3317252528
 10
163.4433742984
 20
115.3808544908
 10
163.416284378
 20
115.4310389991
 10
163.3913430918
 20
115.4821864493
 10
163.3686187717
 20
115.5341068748
 10
163.3481358546
 20
115.5866688183
 10
163.3298878349
 20
115.6398057956
 10
163.3138785154
 20
115.6934206778
  0
LWPOLYLINE
  5
2DE
100
AcDbEntity
  8
0
100
AcDbPolyline
 62
7
  6
CONTINUOUS
 90
25
 70
0
 10
165.9702576023
 20
115.6979772289
 10
165.9749765865
 20
115.713540153
 10
165.9805115786
 20
115.7287687734
 10
165.9868625785
 20
115.7436630898
 10
165.9940629487
 20
115.7582838646
 10
166.0020793267
 20
115.7725703356
 10
166.0108116258
 20
115.7863402163
 10
166.0202418187
 20
115.799553273
 10
166.0303879327
 20
115.8122497393
 10
166.0412039633
 20
115.8243680295
 10
166.0527178826
 20
115.835930878
 10
166.0649017184
 20
115.8469155503
 10
166.0776255495
 20
115.8571922579
 10
166.0908992277
 20
115.8667480468
 10
166.1047129011
 20
115.8755958708
 10
166.1189070931
 20
115.8836448029
 10
166.1334517316
 20
115.890873762
 10
166.1483768887
 20
115.8973038291
 10
166.1636133038
 20
115.90290732
 10
166.1792065362
 20
115.9076914907
 10
166.1951110266
 20
115.9116490852
 10
166.2111208369
 20
115.9147306521
 10
166.2271673212
 20
115.9169197076
 10
166.2433191253
 20
115.9182327356
 10
166.2595762494
 20
115.918669736
  0
LINE
  5
2DF
100
AcDbEntity
  8
RACCORDO
100
AcDbLine
 62
250
  6
CONTINUOUS
 10
166.2595762494
 20
116.2041930403
 11
166.2635762262
 21
116.2094433348
  0
LINE
  5
2E0
100
AcDbEntity
  8
RACCORDO
100
AcDbLine
 62
250
  6
CONTINUOUS
 10
165.9702576023
 20
116.4248855474
 11
165.974448103
 21
116.4294420986
  0
LINE
  5
2E1
100
AcDbEntity
  8
DRAFT
100
AcDbLine
 62
7
  6
CONTINUOUS
 10
166.9458958897
 20
115.934378098
 11
166.9405050392
 21
115.9317600377
  0
LINE
  5
2E2
100
AcDbEntity
  8
DRAFT
100
AcDbLine
 62
7
  6
CONTINUOUS
 10
162.7211491505
 20
116.1911027386
 11
162.7746061128
 21
116.2041930403
  0
LWPOLYLINE
  5
2E3
100
AcDbEntity
  8
RACCORDO
100
AcDbPolyline
 62
250
  6
CONTINUOUS
 90
5
 70
0
 10
153.5850795886
 20
116.4068632742
 10
153.5862006257
 20
116.4070064247
 10
153.5886588618
 20
116.4071484035
 10
153.5924474484
 20
116.4072891623
 10
153.5975557138
 20
116.407428968
  0
LWPOLYLINE
  5
2E4
100
AcDbEntity
  8
RACCORDO
100
AcDbPolyline
 62
250
  6
CONTINUOUS
 90
25
 70
0
 10
163.0247503922
 20
116.4095749768
 10
163.0301911721
 20
116.4097251063
 10
163.0355851456
 20
116.4101645993
 10
163.0409323128
 20
116.4108934556
 10
163.0462481638
 20
116.4119154686
 10
163.0515172085
 20
116.4132268451
 10
163.0566929761
 20
116.4148162048
 10
163.0617746455
 20
116.4166860004
 10
163.0667630379
 20
116.4188337793
 10
163.0716141455
 20
116.4212408033
 10
163.0763266388
 20
116.4239093121
 10
163.0809018473
 20
116.426837066
 10
163.085299751
 20
116.4299986079
 10
163.0895189591
 20
116.4333961419
 10
163.0935608625
 20
116.4370274638
 10
163.0973896141
 20
116.4408605045
 10
163.1010032751
 20
116.4448971437
 10
163.1044037842
 20
116.4491355016
 10
163.1075611113
 20
116.45353787
 10
163.1104730672
 20
116.4581058546
 10
163.113141841
 20
116.4628378497
 10
163.11554397
 20
116.4676913295
 10
163.1176716333
 20
116.4726521189
 10
163.1195326517
 20
116.477734393
 10
163.1211270253
 20
116.4829381518
  0
LINE
  5
2E5
100
AcDbEntity
  8
RACCORDO
100
AcDbLine
 62
250
  6
CONTINUOUS
 10
153.8010003809
 20
116.207668771
 11
153.8125240507
 21
116.2079205932
  0
LINE
  5
2E6
100
AcDbEntity
  8
RACCORDO
100
AcDbLine
 62
250
  6
CONTINUOUS
 10
153.5975557138
 20
116.407428968
 11
153.6116735588
 21
116.4077036425
  0
LINE
  5
2E7
100
AcDbEntity
  8
RACCORDO
100
AcDbLine
 62
250
  6
CONTINUOUS
 10
153.8125240507
 20
116.2079205932
 11
153.8352267295
 21
116.2082753479
  0
LINE
  5
2E8
100
AcDbEntity
  8
RACCORDO
100
AcDbLine
 62
250
  6
CONTINUOUS
 10
153.6116735588
 20
116.4077036425
 11
153.6423029442
 21
116.4080969505
  0
LWPOLYLINE
  5
2E9
100
AcDbEntity
  8
RACCORDO
100
AcDbPolyline
 62
250
  6
CONTINUOUS
 90
3
 70
0
 10
153.8352267295
 20
116.2082753479
 10
153.8860809457
 20
116.208784995
 10
153.8979943999
 20
116.208872385
  0
LINE
  5
2EA
100
AcDbEntity
  8
RACCORDO
100
AcDbLine
 62
250
  6
CONTINUOUS
 10
153.6423029442
 20
116.4080969505
 11
153.734550193
 21
116.4087824313
  0
LINE
  5
2EB
100
AcDbEntity
  8
RACCORDO
100
AcDbLine
 62
250
  6
CONTINUOUS
 10
153.734550193
 20
116.4087824313
 11
153.9321740418
 21
116.4094422362
  0
LINE
  5
2EC
100
AcDbEntity
  8
RACCORDO
100
AcDbLine
 62
250
  6
CONTINUOUS
 10
153.9321740418
 20
116.4094422362
 11
163.0247503922
 21
116.4095749768
  0
LINE
  5
2ED
100
AcDbEntity
  8
RACCORDO
100
AcDbLine
 62
250
  6
CONTINUOUS
 10
166.2635762262
 20
116.4095749768
 11
175.4279725476
 21
116.4092798203
  0
LINE
  5
2EE
100
AcDbEntity
  8
RACCORDO
100
AcDbLine
 62
250
  6
CONTINUOUS
 10
175.4279725476
 20
116.4092798203
 11
175.6047342064
 21
116.4084594432
  0
LINE
  5
2EF
100
AcDbEntity
  8
RACCORDO
100
AcDbLine
 62
250
  6
CONTINUOUS
 10
175.3903322179
 20
116.208872385
 11
175.4441747009
 21
116.208386156
  0
LINE
  5
2F0
100
AcDbEntity
  8
RACCORDO
100
AcDbLine
 62
250
  6
CONTINUOUS
 10
175.6047342064
 20
116.4084594432
 11
175.6574602465
 21
116.4079689011
  0
LINE
  5
2F1
100
AcDbEntity
  8
RACCORDO
100
AcDbLine
 62
250
  6
CONTINUOUS
 10
175.6574602465
 20
116.4079689011
 11
175.6766530592
 21
116.4077036425
  0
LINE
  5
2F2
100
AcDbEntity
  8
RACCORDO
100
AcDbLine
 62
250
  6
CONTINUOUS
 10
175.4441747009
 20
116.208386156
 11
175.468949661
 21
116.2080421226
  0
LWPOLYLINE
  5
2F3
100
AcDbEntity
  8
RACCORDO
100
AcDbPolyline
 62
250
  6
CONTINUOUS
 90
9
 70
0
 10
175.468949661
 20
116.2080421226
 10
175.4819445422
 20
116.2077958063
 10
175.4873262373
 20
116.207668771
 10
175.4919413749
 20
116.2075394673
 10
175.4957962326
 20
116.2074079151
 10
175.4988602956
 20
116.2072751835
 10
175.5011233922
 20
116.2071416287
 10
175.502595694
 20
116.2070068945
 10
175.503277201
 20
116.2068709808
  0
LWPOLYLINE
  5
2F4
100
AcDbEntity
  8
RACCORDO
100
AcDbPolyline
 62
250
  6
CONTINUOUS
 90
6
 70
0
 10
175.6766530592
 20
116.4077036425
 10
175.6907709043
 20
116.407428968
 10
175.6958791697
 20
116.4072891624
 10
175.6996677565
 20
116.4071484035
 10
175.7021259927
 20
116.4070064247
 10
175.7032470299
 20
116.4068632743
  0
LINE
  5
2F5
100
AcDbEntity
  8
DRAFT
100
AcDbLine
 62
7
  6
CONTINUOUS
 10
166.5137205056
 20
116.2041930403
 11
166.5671774679
 21
116.1911027386
  0
LINE
  5
2F6
100
AcDbEntity
  8
DRAFT
100
AcDbLine
 62
7
  6
CONTINUOUS
 10
166.9405050392
 20
116.1911027386
 11
166.9458958897
 21
116.1884846783
  0
LINE
  5
2F7
100
AcDbEntity
  8
RACCORDO
100
AcDbLine
 62
250
  6
CONTINUOUS
 10
165.9744480243
 20
115.693420393
 11
165.9702576023
 21
115.6979772289
  0
LINE
  5
2F8
100
AcDbEntity
  8
RACCORDO
100
AcDbLine
 62
250
  6
CONTINUOUS
 10
166.2635762262
 20
115.9134194416
 11
166.2595762494
 21
115.918669736
  0
LWPOLYLINE
  5
2F9
100
AcDbEntity
  8
RACCORDO
100
AcDbPolyline
 62
250
  6
CONTINUOUS
 90
25
 70
0
 10
166.1671995931
 20
116.4829381518
 10
166.1687939667
 20
116.477734393
 10
166.1706549851
 20
116.4726521189
 10
166.1727826484
 20
116.4676913295
 10
166.1751847774
 20
116.4628378497
 10
166.1778535512
 20
116.4581058546
 10
166.1807655071
 20
116.45353787
 10
166.1839228342
 20
116.4491355016
 10
166.1873233433
 20
116.4448971437
 10
166.1909370043
 20
116.4408605045
 10
166.1947657559
 20
116.4370274638
 10
166.1988076593
 20
116.4333961419
 10
166.2030268674
 20
116.4299986079
 10
166.2074247711
 20
116.426837066
 10
166.2119999796
 20
116.4239093121
 10
166.2167124729
 20
116.4212408033
 10
166.2215635805
 20
116.4188337793
 10
166.2265519729
 20
116.4166860004
 10
166.2316336424
 20
116.4148162048
 10
166.2368094099
 20
116.4132268451
 10
166.2420784546
 20
116.4119154686
 10
166.2473943057
 20
116.4108934556
 10
166.2527414728
 20
116.4101645993
 10
166.2581354463
 20
116.4097251063
 10
166.2635762262
 20
116.4095749768
  0
LWPOLYLINE
  5
2FA
100
AcDbEntity
  8
RACCORDO
100
AcDbPolyline
 62
250
  6
CONTINUOUS
 90
25
 70
0
 10
165.9744481032
 20
116.4294420987
 10
165.9792055861
 20
116.4138997035
 10
165.984798204
 20
116.3986369697
 10
165.9912096688
 20
116.383698755
 10
165.9984212943
 20
116.3691289549
 10
166.0064120205
 20
116.3549704383
 10
166.0151584636
 20
116.3412649155
 10
166.0246352978
 20
116.3280523747
 10
166.0348145713
 20
116.3153720653
 10
166.0456655616
 20
116.3032622929
 10
166.0571558813
 20
116.2917589956
 10
166.0692521149
 20
116.2808954314
 10
166.0819190771
 20
116.2707031369
 10
166.0951195298
 20
116.2612120642
 10
166.1088147279
 20
116.2524500593
 10
166.12296499
 20
116.2444425619
 10
166.1375293985
 20
116.2372128973
 10
166.1524646453
 20
116.2307827283
 10
166.1677256004
 20
116.2251714662
 10
166.1832665932
 20
116.2203956978
 10
166.1990427109
 20
116.2164690226
 10
166.2150086984
 20
116.2134026665
 10
166.2311180481
 20
116.2112056489
 10
166.2473230883
 20
116.2098845595
 10
166.2635762262
 20
116.2094433348
  0
LINE
  5
2FB
100
AcDbEntity
  8
RACCORDO
100
AcDbLine
 62
250
  6
CONTINUOUS
 10
175.2807092486
 20
138.2207440939
 11
175.2272238853
 21
138.0601575178
  0
LWPOLYLINE
  5
2FC
100
AcDbEntity
  8
RACCORDO
100
AcDbPolyline
 62
250
  6
CONTINUOUS
 90
7
 70
0
 10
153.7850494174
 20
116.2068709808
 10
153.7857309244
 20
116.2070068945
 10
153.7872032261
 20
116.2071416287
 10
153.7894663227
 20
116.2072751835
 10
153.7925303856
 20
116.2074079151
 10
153.7963852433
 20
116.2075394673
 10
153.8010003809
 20
116.207668771
  0
LINE
  5
2FD
100
AcDbEntity
  8
RACCORDO
100
AcDbLine
 62
250
  6
CONTINUOUS
 10
175.2272238853
 20
94.0627052585
 11
175.2807092486
 21
93.9021186824
  0
LINE
  5
2FE
100
AcDbEntity
  8
RACCORDO
100
AcDbLine
 62
250
  6
CONTINUOUS
 10
175.7810890719
 20
137.7227983661
 11
175.7271474306
 21
137.5608418428
  0
LINE
  5
2FF
100
AcDbEntity
  8
DRAFT
100
AcDbLine
 62
7
  6
CONTINUOUS
 10
174.4900526079
 20
115.934378098
 11
174.5441633092
 21
115.9614313882
  0
LINE
  5
300
100
AcDbEntity
  8
RACCORDO
100
AcDbLine
 62
250
  6
CONTINUOUS
 10
175.5941633081
 20
115.9614313882
 11
175.503277201
 21
115.9159917955
  0
LINE
  5
301
100
AcDbEntity
  8
DRAFT
100
AcDbLine
 62
7
  6
CONTINUOUS
 10
174.4900526079
 20
116.1884846783
 11
174.5441633092
 21
116.1614313882
  0
LINE
  5
302
100
AcDbEntity
  8
RACCORDO
100
AcDbLine
 62
250
  6
CONTINUOUS
 10
175.503277201
 20
116.2068709808
 11
175.5941633081
 21
116.1614313882
  0
LINE
  5
303
100
AcDbEntity
  8
RACCORDO
100
AcDbLine
 62
250
  6
CONTINUOUS
 10
175.7271474306
 20
94.5620209336
 11
175.7810890719
 21
94.4000644102
  0
LWPOLYLINE
  5
304
100
AcDbEntity
  8
RACCORDO
100
AcDbPolyline
 62
250
  6
CONTINUOUS
 90
11
 70
0
 10
175.7271474306
 20
137.5608418428
 10
175.7264313204
 20
137.5578382528
 10
175.7257202725
 20
137.5531782557
 10
175.7250142869
 20
137.5468618515
 10
175.7243121772
 20
137.5388728847
 10
175.7236151299
 20
137.5292275109
 10
175.7229267039
 20
137.5179741963
 10
175.7222469507
 20
137.5051046558
 10
175.7215758189
 20
137.4906271746
 10
175.7209167129
 20
137.4746150754
 10
175.7196347208
 20
137.4379718646
  0
LINE
  5
305
100
AcDbEntity
  8
RACCORDO
100
AcDbLine
 62
250
  6
CONTINUOUS
 10
175.7941633092
 20
115.7614542334
 11
175.7032470301
 21
115.7159995559
  0
LWPOLYLINE
  5
306
100
AcDbEntity
  8
0
100
AcDbPolyline
 62
7
  6
CONTINUOUS
 90
3
 70
0
 43
0.3500000006
 10
182.8148477783
 20
117.204290863
 10
183.0291322632
 20
117.1328596802
 10
183.3148569946
 20
116.9900063782
  0
LINE
  5
307
100
AcDbEntity
  8
RACCORDO
100
AcDbLine
 62
250
  6
CONTINUOUS
 10
175.7032470301
 20
116.4068632204
 11
175.7941633092
 21
116.3614085429
  0
LWPOLYLINE
  5
308
100
AcDbEntity
  8
RACCORDO
100
AcDbPolyline
 62
250
  6
CONTINUOUS
 90
8
 70
0
 10
175.2272237834
 20
138.0601575177
 10
175.2265074282
 20
138.0556764273
 10
175.2257962075
 20
138.0486806342
 10
175.2250901212
 20
138.039181925
 10
175.2243880106
 20
138.0271963968
 10
175.2236910345
 20
138.0127441778
 10
175.2230026695
 20
137.9958492166
 10
175.2216518107
 20
137.9548474706
  0
LWPOLYLINE
  5
309
100
AcDbEntity
  8
0
100
AcDbPolyline
 62
7
  6
CONTINUOUS
 90
10
 70
0
 43
0.3500000006
 10
182.6005632935
 20
117.1328596802
 10
182.7434256592
 20
117.204290863
 10
182.8148477783
 20
117.204290863
 10
182.957710144
 20
117.0614284973
 10
182.957710144
 20
116.9900063782
 10
182.8862880249
 20
116.9185751953
 10
182.8148477783
 20
116.9185751953
 10
182.67200354
 20
116.9900063782
 10
182.6005632935
 20
117.0614284973
 10
182.6005632935
 20
117.1328596802
  0
LWPOLYLINE
  5
30A
100
AcDbEntity
  8
RACCORDO
100
AcDbPolyline
 62
250
  6
CONTINUOUS
 90
9
 70
0
 10
175.7215758188
 20
94.6322356021
 10
175.7222469507
 20
94.6177581208
 10
175.7229267039
 20
94.6048885803
 10
175.7236151299
 20
94.5936352657
 10
175.7243121772
 20
94.5839898918
 10
175.7250142869
 20
94.576000925
 10
175.7257202725
 20
94.5696845207
 10
175.7264313204
 20
94.5650245236
 10
175.7271474306
 20
94.5620209336
  0
LWPOLYLINE
  5
30B
100
AcDbEntity
  8
RACCORDO
100
AcDbPolyline
 62
250
  6
CONTINUOUS
 90
7
 70
0
 10
175.2230026695
 20
94.1270135601
 10
175.2236910345
 20
94.1101185989
 10
175.2243880106
 20
94.0956663799
 10
175.2250901212
 20
94.0836808515
 10
175.2257962074
 20
94.0741821423
 10
175.2265074282
 20
94.0671863491
 10
175.2272237834
 20
94.0627052586
  0
LINE
  5
30C
100
AcDbEntity
  8
RACCORDO
100
AcDbLine
 62
250
  6
CONTINUOUS
 10
175.2216518107
 20
94.1680153062
 11
175.2230026695
 21
94.1270135601
  0
LINE
  5
30D
100
AcDbEntity
  8
RACCORDO
100
AcDbLine
 62
250
  6
CONTINUOUS
 10
175.2203457338
 20
94.2183929786
 11
175.2216518107
 21
94.1680153062
  0
LINE
  5
30E
100
AcDbEntity
  8
RACCORDO
100
AcDbLine
 62
250
  6
CONTINUOUS
 10
175.219091043
 20
94.2778061509
 11
175.2203457338
 21
94.2183929786
  0
LINE
  5
30F
100
AcDbEntity
  8
RACCORDO
100
AcDbLine
 62
250
  6
CONTINUOUS
 10
175.2203457339
 20
137.9044697983
 11
175.219091043
 21
137.8450566261
  0
LINE
  5
310
100
AcDbEntity
  8
RACCORDO
100
AcDbLine
 62
250
  6
CONTINUOUS
 10
175.2216518107
 20
137.9548474706
 11
175.2203457339
 21
137.9044697983
  0
LWPOLYLINE
  5
311
100
AcDbEntity
  8
RACCORDO
100
AcDbPolyline
 62
250
  6
CONTINUOUS
 90
22
 70
0
 10
175.7032467401
 20
115.7159994109
 10
175.7026854156
 20
115.7309434378
 10
175.7010091323
 20
115.7458039063
 10
175.6982272632
 20
115.7604977263
 10
175.694355363
 20
115.7749427401
 10
175.6894150809
 20
115.7890581806
 10
175.6834340405
 20
115.802765123
 10
175.6764456842
 20
115.8159869275
 10
175.6684890867
 20
115.8286496668
 10
175.6596087367
 20
115.8406825391
 10
175.6498542876
 20
115.852018265
 10
175.6392802804
 20
115.8625934632
 10
175.6279458384
 20
115.8723490045
 10
175.6159143368
 20
115.881230343
 10
175.6032530478
 20
115.889187821
 10
175.5900327656
 20
115.8961769462
 10
175.5763274092
 20
115.9021586409
 10
175.5622136099
 20
115.9070994603
 10
175.5477702826
 20
115.9109717796
 10
175.5330781847
 20
115.9137539483
 10
175.5182194643
 20
115.9154304111
 10
175.503277201
 20
115.9159917955
  0
LINE
  5
312
100
AcDbEntity
  8
RACCORDO
100
AcDbLine
 62
250
  6
CONTINUOUS
 10
175.7202697039
 20
94.6658019977
 11
175.7215758188
 21
94.6322356021
  0
LINE
  5
313
100
AcDbEntity
  8
RACCORDO
100
AcDbLine
 62
250
  6
CONTINUOUS
 10
175.7190149548
 20
94.705418384
 11
175.7202697039
 21
94.6658019977
  0
LWPOLYLINE
  5
314
100
AcDbEntity
  8
RACCORDO
100
AcDbPolyline
 62
250
  6
CONTINUOUS
 90
28
 70
0
 10
175.7271474306
 20
137.5608418428
 10
175.7262760872
 20
137.5898575544
 10
175.7237180719
 20
137.6187752011
 10
175.7194820298
 20
137.6474970483
 10
175.7135822776
 20
137.6759260234
 10
175.7060387549
 20
137.7039660436
 10
175.6968769568
 20
137.7315223407
 10
175.6861278476
 20
137.7585017813
 10
175.6738277566
 20
137.7848131814
 10
175.6600182549
 20
137.8103676152
 10
175.6447460149
 20
137.835078715
 10
175.628062653
 20
137.8588629633
 10
175.6100245547
 20
137.8816399752
 10
175.590692684
 20
137.90333277
 10
175.5701323779
 20
137.9238680314
 10
175.548413125
 20
137.9431763552
 10
175.5256083309
 20
137.9611924839
 10
175.50179507
 20
137.9778555275
 10
175.4770538254
 20
137.9931091688
 10
175.4514682161
 20
138.0069018542
 10
175.4251247152
 20
138.0191869679
 10
175.3981123573
 20
138.029922989
 10
175.3705224374
 20
138.0390736323
 10
175.3424482025
 20
138.046607971
 10
175.3139845368
 20
138.0525005407
 10
175.2852276405
 20
138.056731426
 10
175.2562747047
 20
138.0592863274
 10
175.227223583
 20
138.0601566101
  0
LINE
  5
315
100
AcDbEntity
  8
RACCORDO
100
AcDbLine
 62
250
  6
CONTINUOUS
 10
175.717821225
 20
94.7508034332
 11
175.7190149548
 21
94.705418384
  0
LINE
  5
316
100
AcDbEntity
  8
RACCORDO
100
AcDbLine
 62
250
  6
CONTINUOUS
 10
175.716162719
 20
94.8289776202
 11
175.717821225
 21
94.7508034332
  0
LINE
  5
317
100
AcDbEntity
  8
RACCORDO
100
AcDbLine
 62
250
  6
CONTINUOUS
 10
175.2167735191
 20
94.4220851351
 11
175.219091043
 21
94.2778061509
  0
LINE
  5
318
100
AcDbEntity
  8
RACCORDO
100
AcDbLine
 62
250
  6
CONTINUOUS
 10
175.7142357298
 20
94.9501901087
 11
175.716162719
 21
94.8289776202
  0
LINE
  5
319
100
AcDbEntity
  8
RACCORDO
100
AcDbLine
 62
250
  6
CONTINUOUS
 10
175.2143119798
 20
94.6449481351
 11
175.2167735191
 21
94.4220851351
  0
LINE
  5
31A
100
AcDbEntity
  8
RACCORDO
100
AcDbLine
 62
250
  6
CONTINUOUS
 10
175.712354545
 20
95.1243983642
 11
175.7142357298
 21
94.9501901087
  0
LINE
  5
31B
100
AcDbEntity
  8
RACCORDO
100
AcDbLine
 62
250
  6
CONTINUOUS
 10
175.2116145601
 20
95.0769137082
 11
175.2143119798
 21
94.6449481351
  0
LINE
  5
31C
100
AcDbEntity
  8
RACCORDO
100
AcDbLine
 62
250
  6
CONTINUOUS
 10
175.7109721982
 20
95.3568821538
 11
175.712354545
 21
95.1243983642
  0
LINE
  5
31D
100
AcDbEntity
  8
RACCORDO
100
AcDbLine
 62
7
  6
CONTINUOUS
 10
175.7941633092
 20
129.1614313882
 11
175.7810890719
 21
137.7227983661
  0
LINE
  5
31E
100
AcDbEntity
  8
RACCORDO
100
AcDbLine
 62
250
  6
CONTINUOUS
 10
175.2106967879
 20
95.4989835578
 11
175.2116145601
 21
95.0769137082
  0
LINE
  5
31F
100
AcDbEntity
  8
RACCORDO
100
AcDbLine
 62
250
  6
CONTINUOUS
 10
175.2084778871
 20
98.8667385629
 11
175.2106967995
 21
95.4989835578
  0
LWPOLYLINE
  5
320
100
AcDbEntity
  8
RACCORDO
100
AcDbPolyline
 62
250
  6
CONTINUOUS
 90
3
 70
0
 10
175.7084015002
 20
98.8843493407
 10
175.7094615721
 20
97.2018689124
 10
175.7109721982
 20
95.3568821538
  0
LINE
  5
321
100
AcDbEntity
  8
RACCORDO
100
AcDbLine
 62
250
  6
CONTINUOUS
 10
175.2052279569
 20
105.603997676
 11
175.2084778871
 21
98.8667385629
  0
LINE
  5
322
100
AcDbEntity
  8
RACCORDO
100
AcDbLine
 62
250
  6
CONTINUOUS
 10
175.7051513713
 20
105.6156415293
 11
175.7084015002
 21
98.8843493407
  0
LINE
  5
323
100
AcDbEntity
  8
RACCORDO
100
AcDbLine
 62
250
  6
CONTINUOUS
 10
175.2035582493
 20
112.3431513466
 11
175.2052279569
 21
105.603997676
  0
LINE
  5
324
100
AcDbEntity
  8
RACCORDO
100
AcDbLine
 62
250
  6
CONTINUOUS
 10
175.7034855652
 20
112.3488198702
 11
175.7051513713
 21
105.6156415293
  0
LINE
  5
325
100
AcDbEntity
  8
RACCORDO
100
AcDbLine
 62
250
  6
CONTINUOUS
 10
175.2035582493
 20
112.3431513466
 11
175.2033229211
 21
115.9134194416
  0
LINE
  5
326
100
AcDbEntity
  8
RACCORDO
100
AcDbLine
 62
250
  6
CONTINUOUS
 10
175.7032470301
 20
115.7159995559
 11
175.7034855652
 21
112.3488198702
  0
LINE
  5
327
100
AcDbEntity
  8
RACCORDO
100
AcDbLine
 62
7
  6
CONTINUOUS
 10
175.7941633092
 20
115.7614542334
 11
175.7941633092
 21
102.9614313882
  0
LINE
  5
328
100
AcDbEntity
  8
RACCORDO
100
AcDbLine
 62
7
  6
CONTINUOUS
 10
175.7941633092
 20
116.3614085429
 11
175.7941633092
 21
129.1614313882
  0
LINE
  5
329
100
AcDbEntity
  8
RACCORDO
100
AcDbLine
 62
250
  6
CONTINUOUS
 10
175.2035582492
 20
119.7797114297
 11
175.2033229211
 21
116.2094433348
  0
LINE
  5
32A
100
AcDbEntity
  8
RACCORDO
100
AcDbLine
 62
250
  6
CONTINUOUS
 10
175.7034855652
 20
119.7740429061
 11
175.7032470301
 21
116.4068632204
  0
LINE
  5
32B
100
AcDbEntity
  8
RACCORDO
100
AcDbLine
 62
250
  6
CONTINUOUS
 10
175.2046635566
 20
124.8342384166
 11
175.2035582492
 21
119.7797114297
  0
LINE
  5
32C
100
AcDbEntity
  8
RACCORDO
100
AcDbLine
 62
250
  6
CONTINUOUS
 10
175.7045863593
 20
124.8240873011
 11
175.7034855652
 21
119.7740429061
  0
LINE
  5
32D
100
AcDbEntity
  8
RACCORDO
100
AcDbLine
 62
250
  6
CONTINUOUS
 10
175.2084778871
 20
133.2561242136
 11
175.2046635566
 21
124.8342384166
  0
LINE
  5
32E
100
AcDbEntity
  8
RACCORDO
100
AcDbLine
 62
250
  6
CONTINUOUS
 10
175.7084015002
 20
133.2385134357
 11
175.7045863593
 21
124.8240873011
  0
LINE
  5
32F
100
AcDbEntity
  8
RACCORDO
100
AcDbLine
 62
7
  6
CONTINUOUS
 10
175.7941633092
 20
102.9614313882
 11
175.7810890719
 21
94.4000644102
  0
LINE
  5
330
100
AcDbEntity
  8
RACCORDO
100
AcDbLine
 62
250
  6
CONTINUOUS
 10
175.2121317269
 20
137.160724315
 11
175.2084778871
 21
133.2561242136
  0
LINE
  5
331
100
AcDbEntity
  8
RACCORDO
100
AcDbLine
 62
250
  6
CONTINUOUS
 10
175.7113213499
 20
136.8455789054
 11
175.7084015002
 21
133.2385134357
  0
LINE
  5
332
100
AcDbEntity
  8
RACCORDO
100
AcDbLine
 62
250
  6
CONTINUOUS
 10
175.2147605837
 20
137.5258852064
 11
175.2121317269
 21
137.160724315
  0
LINE
  5
333
100
AcDbEntity
  8
RACCORDO
100
AcDbLine
 62
250
  6
CONTINUOUS
 10
175.7130318352
 20
137.0707869422
 11
175.7113213499
 21
136.8455789054
  0
LINE
  5
334
100
AcDbEntity
  8
RACCORDO
100
AcDbLine
 62
250
  6
CONTINUOUS
 10
175.2173263044
 20
137.7398841042
 11
175.2147605837
 21
137.5258852064
  0
LINE
  5
335
100
AcDbEntity
  8
RACCORDO
100
AcDbLine
 62
250
  6
CONTINUOUS
 10
175.7146843438
 20
137.2046339913
 11
175.7130318352
 21
137.0707869422
  0
LINE
  5
336
100
AcDbEntity
  8
RACCORDO
100
AcDbLine
 62
250
  6
CONTINUOUS
 10
175.219091043
 20
137.8450566261
 11
175.2173263044
 21
137.7398841042
  0
LINE
  5
337
100
AcDbEntity
  8
RACCORDO
100
AcDbLine
 62
250
  6
CONTINUOUS
 10
175.7166973439
 20
137.3212663484
 11
175.7146843438
 21
137.2046339913
  0
LINE
  5
338
100
AcDbEntity
  8
RACCORDO
100
AcDbLine
 62
250
  6
CONTINUOUS
 10
175.7184104814
 20
137.3954711469
 11
175.7166973439
 21
137.3212663484
  0
LWPOLYLINE
  5
339
100
AcDbEntity
  8
RACCORDO
100
AcDbPolyline
 62
250
  6
CONTINUOUS
 90
28
 70
0
 10
175.7271474306
 20
94.5620209336
 10
175.7262760867
 20
94.5330052126
 10
175.7237180698
 20
94.5040875575
 10
175.7194820253
 20
94.4753657028
 10
175.7135822701
 20
94.4469367212
 10
175.7060387437
 20
94.4188966955
 10
175.6968769416
 20
94.391340394
 10
175.6861278282
 20
94.3643609502
 10
175.673827733
 20
94.3380495479
 10
175.660018227
 20
94.312495113
 10
175.6447459831
 20
94.2877840131
 10
175.6280626177
 20
94.2639997656
 10
175.6100245162
 20
94.2412227553
 10
175.5906926431
 20
94.2195299629
 10
175.5701323352
 20
94.1989947046
 10
175.5484130812
 20
94.1796863843
 10
175.5256082868
 20
94.1616702595
 10
175.5017950265
 20
94.1450072202
 10
175.4770537833
 20
94.1297535832
 10
175.4514681762
 20
94.115960902
 10
175.4251246784
 20
94.1036757925
 10
175.3981123242
 20
94.0929397753
 10
175.3705224086
 20
94.0837891354
 10
175.3424481788
 20
94.0762547997
 10
175.3139845186
 20
94.0703622324
 10
175.2852276281
 20
94.0661313489
 10
175.2562746983
 20
94.0635764485
 10
175.227223583
 20
94.0627061662
  0
LINE
  5
33A
100
AcDbEntity
  8
RACCORDO
100
AcDbLine
 62
250
  6
CONTINUOUS
 10
175.7196347208
 20
137.4379718646
 11
175.7184104814
 21
137.3954711469
  0
LWPOLYLINE
  5
33B
100
AcDbEntity
  8
RACCORDO
100
AcDbPolyline
 62
250
  6
CONTINUOUS
 90
22
 70
0
 10
175.7032467401
 20
116.4068633654
 10
175.7026854173
 20
116.391919362
 10
175.7010091391
 20
116.3770589153
 10
175.698227278
 20
116.3623651148
 10
175.6943553883
 20
116.3479201184
 10
175.689415119
 20
116.3338046927
 10
175.6834340927
 20
116.3200977615
 10
175.6764457512
 20
116.3068759647
 10
175.6684891687
 20
116.2942132297
 10
175.6596088328
 20
116.2821803578
 10
175.6498543966
 20
116.2708446287
 10
175.6392804
 20
116.2602694241
 10
175.6279459658
 20
116.2505138735
 10
175.6159144685
 20
116.2416325231
 10
175.6032531799
 20
116.2336750315
 10
175.5900328935
 20
116.2266858917
 10
175.5763275281
 20
116.2207041821
 10
175.5622137148
 20
116.2157633483
 10
175.5477703685
 20
116.2118910163
 10
175.5330782465
 20
116.2091088374
 10
175.5182194974
 20
116.2074323676
 10
175.503277201
 20
116.2068709808
  0
LWPOLYLINE
  5
33C
100
AcDbEntity
  8
0
100
AcDbPolyline
 62
7
  6
CONTINUOUS
 90
10
 70
0
 43
0.3500000006
 10
165.7155948486
 20
147.5052789917
 10
165.7870169678
 20
147.3624347534
 10
165.7870169678
 20
147.2909945068
 10
165.6441546021
 20
147.1481321411
 10
165.5727324829
 20
147.1481321411
 10
165.5013103638
 20
147.2195723877
 10
165.5013103638
 20
147.2909945068
 10
165.5727324829
 20
147.4338568726
 10
165.6441546021
 20
147.5052789917
 10
165.7155948486
 20
147.5052789917
  0
LWPOLYLINE
  5
33D
100
AcDbEntity
  8
0
100
AcDbPolyline
 62
7
  6
CONTINUOUS
 90
5
 70
0
 43
0.3500000006
 10
181.3862785034
 20
119.0614291077
 10
181.1719940186
 20
119.4185759583
 10
180.529140564
 20
119.4185759583
 10
180.1005715942
 20
119.0614291077
 10
180.1005715942
 20
118.2042911682
  0
LWPOLYLINE
  5
33E
100
AcDbEntity
  8
0
100
AcDbPolyline
 62
7
  6
CONTINUOUS
 90
3
 70
0
 43
0.3500000006
 10
182.4577190552
 20
115.6328592224
 10
182.4577190552
 20
114.1328587646
 10
180.1005715942
 20
114.775721283
  0
LWPOLYLINE
  5
33F
100
AcDbEntity
  8
0
100
AcDbPolyline
 62
7
  6
CONTINUOUS
 90
3
 70
0
 43
0.3500000006
 10
182.4577190552
 20
113.2757208252
 10
182.4577190552
 20
111.7757203674
 10
180.1005715942
 20
112.418573822
  0
LWPOLYLINE
  5
340
100
AcDbEntity
  8
0
100
AcDbPolyline
 62
7
  6
CONTINUOUS
 90
6
 70
0
 43
0.3500000006
 10
183.1005725098
 20
118.2042911682
 10
183.1005725098
 20
119.2757135925
 10
182.8862880249
 20
119.4900071411
 10
181.8148474731
 20
119.4900071411
 10
181.3862785034
 20
119.0614291077
 10
181.3862785034
 20
118.6328601379
  0
LINE
  5
341
100
AcDbEntity
  8
RACCORDO
100
AcDbLine
 62
7
  6
CONTINUOUS
 10
172.4525883022
 20
138.2207440939
 11
172.1018983361
 21
138.1889109359
  0
LINE
  5
342
100
AcDbEntity
  8
RACCORDO
100
AcDbLine
 62
250
  6
CONTINUOUS
 10
153.7375748827
 20
136.6181678841
 11
153.7819075817
 21
136.6197055848
  0
LINE
  5
343
100
AcDbEntity
  8
RACCORDO
100
AcDbLine
 62
250
  6
CONTINUOUS
 10
153.7819075817
 20
136.6197055848
 11
153.830151209
 21
136.6210268139
  0
LINE
  5
344
100
AcDbEntity
  8
RACCORDO
100
AcDbLine
 62
250
  6
CONTINUOUS
 10
153.830151209
 20
136.6210268139
 11
153.8816677422
 21
136.6221140982
  0
LINE
  5
345
100
AcDbEntity
  8
RACCORDO
100
AcDbLine
 62
250
  6
CONTINUOUS
 10
153.8816677422
 20
136.6221140982
 11
153.9357758749
 21
136.6229530582
  0
LINE
  5
346
100
AcDbEntity
  8
RACCORDO
100
AcDbLine
 62
250
  6
CONTINUOUS
 10
153.9357758749
 20
136.6229530582
 11
153.9917600266
 21
136.6235325988
  0
LINE
  5
347
100
AcDbEntity
  8
RACCORDO
100
AcDbLine
 62
250
  6
CONTINUOUS
 10
153.9917600266
 20
136.6235325988
 11
154.0488798066
 21
136.6238450554
  0
LINE
  5
348
100
AcDbEntity
  8
RACCORDO
100
AcDbLine
 62
250
  6
CONTINUOUS
 10
154.0488798066
 20
136.6238450554
 11
175.2106967879
 21
136.623879219
  0
LINE
  5
349
100
AcDbEntity
  8
RACCORDO
100
AcDbLine
 62
250
  6
CONTINUOUS
 10
175.2681017022
 20
136.6237225709
 11
175.2106968124
 21
136.623899713
  0
LINE
  5
34A
100
AcDbEntity
  8
RACCORDO
100
AcDbLine
 62
250
  6
CONTINUOUS
 10
175.3247474114
 20
136.6232758325
 11
175.2681017022
 21
136.6237225709
  0
LINE
  5
34B
100
AcDbEntity
  8
RACCORDO
100
AcDbLine
 62
250
  6
CONTINUOUS
 10
175.3798847994
 20
136.622565406
 11
175.3247474114
 21
136.6232758325
  0
LINE
  5
34C
100
AcDbEntity
  8
RACCORDO
100
AcDbLine
 62
250
  6
CONTINUOUS
 10
175.4327846732
 20
136.6216006866
 11
175.3798847994
 21
136.622565406
  0
LINE
  5
34D
100
AcDbEntity
  8
RACCORDO
100
AcDbLine
 62
250
  6
CONTINUOUS
 10
175.4827474313
 20
136.620394433
 11
175.4327846732
 21
136.6216006866
  0
LINE
  5
34E
100
AcDbEntity
  8
RACCORDO
100
AcDbLine
 62
7
  6
CONTINUOUS
 10
156.8357383162
 20
138.2207440939
 11
157.1864282823
 21
138.1889109359
  0
LWPOLYLINE
  5
34F
100
AcDbEntity
  8
RACCORDO
100
AcDbPolyline
 62
250
  6
CONTINUOUS
 90
15
 70
0
 10
175.71062066
 20
95.5195255317
 10
175.7092921871
 20
95.5183430097
 10
175.7063138677
 20
95.5171644008
 10
175.701695557
 20
95.5159936049
 10
175.6954525369
 20
95.5148344962
 10
175.6876054655
 20
95.51369091
 10
175.6781803086
 20
95.5125666307
 10
175.6672082541
 20
95.5114653783
 10
175.6547256082
 20
95.5103907969
 10
175.6407736761
 20
95.5093464423
 10
175.6253986243
 20
95.5083357703
 10
175.6086513289
 20
95.5073621251
 10
175.5905872064
 20
95.5064287285
 10
175.5712660309
 20
95.5055386692
 10
175.5507517358
 20
95.5046948922
  0
LINE
  5
350
100
AcDbEntity
  8
RACCORDO
100
AcDbLine
 62
7
  6
CONTINUOUS
 10
161.2525883022
 20
138.2207440939
 11
160.9018983361
 21
138.1889109359
  0
LINE
  5
351
100
AcDbEntity
  8
RACCORDO
100
AcDbLine
 62
250
  6
CONTINUOUS
 10
154.0611027331
 20
138.0601575178
 11
175.2272238853
 21
138.0601575178
  0
LINE
  5
352
100
AcDbEntity
  8
RACCORDO
100
AcDbLine
 62
7
  6
CONTINUOUS
 10
171.9286932554
 20
138.183670158
 11
168.559633363
 21
138.183670158
  0
LINE
  5
353
100
AcDbEntity
  8
RACCORDO
100
AcDbLine
 62
7
  6
CONTINUOUS
 10
160.7286932554
 20
138.183670158
 11
157.359633363
 21
138.183670158
  0
LINE
  5
354
100
AcDbEntity
  8
RACCORDO
100
AcDbLine
 62
7
  6
CONTINUOUS
 10
175.2807092486
 20
138.2207440939
 11
172.4525883022
 21
138.2207440939
  0
LINE
  5
355
100
AcDbEntity
  8
DRAFT
100
AcDbLine
 62
7
  6
CONTINUOUS
 10
168.0357383162
 20
138.2207440939
 11
161.2525883022
 21
138.2207440939
  0
LINE
  5
356
100
AcDbEntity
  8
RACCORDO
100
AcDbLine
 62
7
  6
CONTINUOUS
 10
156.8357383162
 20
138.2207440939
 11
154.0076173698
 21
138.2207440939
  0
LWPOLYLINE
  5
357
100
AcDbEntity
  8
0
100
AcDbPolyline
 62
7
  6
CONTINUOUS
 90
7
 70
0
 43
0.3500000006
 10
164.2155853271
 20
147.0052879028
 10
162.7155939331
 20
147.0052879028
 10
164.2155853271
 20
149.1481327515
 10
164.2155853271
 20
149.5767198486
 10
163.7870163574
 20
150.0052888184
 10
163.1441629028
 20
150.0052888184
 10
162.7155939331
 20
149.3624172363
  0
LWPOLYLINE
  5
358
100
AcDbEntity
  8
0
100
AcDbPolyline
 62
7
  6
CONTINUOUS
 90
7
 70
0
 43
0.3500000006
 10
161.8584559937
 20
147.0052879028
 10
160.3584464722
 20
147.0052879028
 10
161.8584559937
 20
149.1481327515
 10
161.8584559937
 20
149.5767198486
 10
161.4298688965
 20
150.0052888184
 10
160.7870154419
 20
150.0052888184
 10
160.3584464722
 20
149.3624172363
  0
LWPOLYLINE
  5
359
100
AcDbEntity
  8
0
100
AcDbPolyline
 62
7
  6
CONTINUOUS
 90
6
 70
0
 43
0.3500000006
 10
166.7870172729
 20
147.0052879028
 10
167.8584578247
 20
147.0052879028
 10
168.0727423096
 20
147.2195723877
 10
168.0727423096
 20
148.290994812
 10
167.6441552124
 20
148.7195637817
 10
167.2155862427
 20
148.7195637817
  0
LINE
  5
35A
100
AcDbEntity
  8
RACCORDO
100
AcDbLine
 62
7
  6
CONTINUOUS
 10
168.0357383162
 20
138.2207440939
 11
168.3864282823
 21
138.1889109359
  0
LWPOLYLINE
  5
35B
100
AcDbEntity
  8
RACCORDO
100
AcDbPolyline
 62
250
  6
CONTINUOUS
 90
17
 70
0
 10
175.71062066
 20
136.6033372446
 10
175.7092922056
 20
136.6045197672
 10
175.7063139032
 20
136.6056983767
 10
175.7016956079
 20
136.6068691733
 10
175.6954526017
 20
136.6080282828
 10
175.6876055425
 20
136.6091718696
 10
175.6781803964
 20
136.6102961498
 10
175.6672083508
 20
136.6113974029
 10
175.6547257124
 20
136.6124719851
 10
175.640773786
 20
136.6135163405
 10
175.6253987384
 20
136.6145270134
 10
175.6086514456
 20
136.6155006594
 10
175.5905873242
 20
136.6164340567
 10
175.5712661483
 20
136.6173241168
 10
175.5507518513
 20
136.6181678945
 10
175.5291123151
 20
136.6189625977
 10
175.4827474313
 20
136.620394433
  0
LINE
  5
35C
100
AcDbEntity
  8
RACCORDO
100
AcDbLine
 62
7
  6
CONTINUOUS
 10
118.1946724664
 20
94.0627052585
 11
121.2588468752
 21
93.9021186824
  0
LINE
  5
35D
100
AcDbEntity
  8
RACCORDO
100
AcDbLine
 62
250
  6
CONTINUOUS
 10
118.2120969223
 20
94.5620209336
 11
121.3024114814
 21
94.4000644102
  0
LINE
  5
35E
100
AcDbEntity
  8
RACCORDO
100
AcDbLine
 62
250
  6
CONTINUOUS
 10
116.7752541692
 20
95.4990177209
 11
116.7744284711
 21
95.4989630801
  0
LINE
  5
35F
100
AcDbEntity
  8
RACCORDO
100
AcDbLine
 62
250
  6
CONTINUOUS
 10
116.7818484591
 20
95.4993301775
 11
116.7752541692
 21
95.4990177209
  0
LINE
  5
360
100
AcDbEntity
  8
RACCORDO
100
AcDbLine
 62
250
  6
CONTINUOUS
 10
117.2652788666
 20
95.5195255317
 11
116.7818484591
 21
95.4993301775
  0
LINE
  5
361
100
AcDbEntity
  8
RACCORDO
100
AcDbLine
 62
250
  6
CONTINUOUS
 10
121.6514340362
 20
98.127939787
 11
121.6285583154
 21
98.1279397811
  0
LWPOLYLINE
  5
362
100
AcDbEntity
  8
RACCORDO
100
AcDbPolyline
 62
250
  6
CONTINUOUS
 90
5
 70
0
 10
121.6233263724
 20
134.1217084679
 10
121.6229605068
 20
134.1212769897
 10
121.6216645749
 20
134.1204128871
 10
121.6194439054
 20
134.1191197131
 10
121.6177725595
 20
134.1182047488
  0
LWPOLYLINE
  5
363
100
AcDbEntity
  8
RACCORDO
100
AcDbPolyline
 62
250
  6
CONTINUOUS
 90
5
 70
0
 10
121.6233263724
 20
98.0011543084
 10
121.6229605094
 20
98.0015857831
 10
121.6216645866
 20
98.0024498793
 10
121.6194439323
 20
98.0037430442
 10
121.6177725592
 20
98.0046580233
  0
LWPOLYLINE
  5
364
100
AcDbEntity
  8
RACCORDO
100
AcDbPolyline
 62
250
  6
CONTINUOUS
 90
37
 70
0
 10
117.2652788666
 20
95.5195255317
 10
117.26782088
 20
95.4784766377
 10
117.2720222548
 20
95.4376978573
 10
117.2778829909
 20
95.3971891904
 10
117.2854184802
 20
95.3568821538
 10
117.2946133307
 20
95.3168452308
 10
117.3054213671
 20
95.2772838716
 10
117.3178508692
 20
95.2382012864
 10
117.3318935573
 20
95.1995942651
 10
117.3474784162
 20
95.1616586273
 10
117.3646130724
 20
95.1243983642
 10
117.3832898995
 20
95.0878094847
 10
117.4034150033
 20
95.0520758348
 10
117.4249956335
 20
95.0172016609
 10
117.4480245404
 20
94.9831827167
 10
117.4723860803
 20
94.9501901087
 10
117.4980871585
 20
94.9182287857
 10
117.5251208698
 20
94.8872937989
 10
117.5533508543
 20
94.8575414092
 10
117.5827832173
 20
94.8289776202
 10
117.6134118535
 20
94.8015964284
 10
117.6450820867
 20
94.7755360839
 10
117.6777989632
 20
94.7508034332
 10
117.7115574368
 20
94.7273916299
 10
117.746187693
 20
94.705418384
 10
117.7816940672
 20
94.6848909121
 10
117.818072224
 20
94.6658019977
 10
117.8551393427
 20
94.6482477013
 10
117.8928994985
 20
94.6322356021
 10
117.9313486163
 20
94.6177581208
 10
117.9702916498
 20
94.6048885803
 10
118.009731549
 20
94.5936352657
 10
118.049665364
 20
94.5839898918
 10
118.0898891985
 20
94.576000925
 10
118.130335087
 20
94.5696845207
 10
118.1710709949
 20
94.5650245236
 10
118.2120969223
 20
94.5620209336
  0
LWPOLYLINE
  5
365
100
AcDbEntity
  8
RACCORDO
100
AcDbPolyline
 62
250
  6
CONTINUOUS
 90
8
 70
0
 10
116.8430612806
 20
116.2336750315
 10
116.8432310482
 20
116.2266858917
 10
116.8434180747
 20
116.2207041821
 10
116.8436213142
 20
116.2157633483
 10
116.8438396304
 20
116.2118910163
 10
116.8440718026
 20
116.2091088374
 10
116.8443165327
 20
116.2074323676
 10
116.8445724523
 20
116.2068709808
  0
LINE
  5
366
100
AcDbEntity
  8
RACCORDO
100
AcDbLine
 62
250
  6
CONTINUOUS
 10
116.8427772167
 20
116.2505138735
 11
116.8430612806
 21
116.2336750315
  0
LINE
  5
367
100
AcDbEntity
  8
RACCORDO
100
AcDbLine
 62
250
  6
CONTINUOUS
 10
116.8425722275
 20
116.2708446287
 11
116.8427772167
 21
116.2505138735
  0
LINE
  5
368
100
AcDbEntity
  8
RACCORDO
100
AcDbLine
 62
250
  6
CONTINUOUS
 10
116.8428272782
 20
115.7159994109
 11
116.8424680865
 21
115.7749427401
  0
LWPOLYLINE
  5
369
100
AcDbEntity
  8
RACCORDO
100
AcDbPolyline
 62
250
  6
CONTINUOUS
 90
13
 70
0
 10
116.8428438968
 20
115.7159995559
 10
116.8468391201
 20
114.0323605035
 10
116.8565095627
 20
112.3488198702
 10
116.8718552247
 20
110.6653776561
 10
116.8928770091
 20
108.9820273561
 10
116.9195740128
 20
107.2987754752
 10
116.951943527
 20
105.6156415293
 10
116.9899846133
 20
103.9326256526
 10
117.0336982101
 20
102.2497277108
 10
117.0830844232
 20
100.5669668165
 10
117.138143288
 20
98.8843493407
 10
117.1988747691
 20
97.2018689124
 10
117.2652788666
 20
95.5195255317
  0
LINE
  5
36A
100
AcDbEntity
  8
RACCORDO
100
AcDbLine
 62
250
  6
CONTINUOUS
 10
116.8424225143
 20
116.3068759647
 11
116.8425722275
 21
116.2708446287
  0
LINE
  5
36B
100
AcDbEntity
  8
RACCORDO
100
AcDbLine
 62
250
  6
CONTINUOUS
 10
116.8424680865
 20
115.7749427401
 11
116.8424225135
 21
115.8159869275
  0
LINE
  5
36C
100
AcDbEntity
  8
RACCORDO
100
AcDbLine
 62
250
  6
CONTINUOUS
 10
116.8424680874
 20
116.3479201184
 11
116.8424225143
 21
116.3068759647
  0
LINE
  5
36D
100
AcDbEntity
  8
RACCORDO
100
AcDbLine
 62
250
  6
CONTINUOUS
 10
116.8424225135
 20
115.8159869275
 11
116.8425722272
 21
115.852018265
  0
LINE
  5
36E
100
AcDbEntity
  8
RACCORDO
100
AcDbLine
 62
250
  6
CONTINUOUS
 10
116.8428272782
 20
116.4068633654
 11
116.8424680874
 21
116.3479201184
  0
LINE
  5
36F
100
AcDbEntity
  8
RACCORDO
100
AcDbLine
 62
250
  6
CONTINUOUS
 10
116.8425722272
 20
115.852018265
 11
116.842777217
 21
115.8723490045
  0
LWPOLYLINE
  5
370
100
AcDbEntity
  8
RACCORDO
100
AcDbPolyline
 62
250
  6
CONTINUOUS
 90
9
 70
0
 10
116.842777217
 20
115.8723490045
 10
116.8430612812
 20
115.889187821
 10
116.843231049
 20
115.8961769462
 10
116.8434180755
 20
115.9021586409
 10
116.8436213151
 20
115.9070994603
 10
116.8438396312
 20
115.9109717796
 10
116.8440718033
 20
115.9137539483
 10
116.8443165331
 20
115.9154304111
 10
116.8445724523
 20
115.9159917955
  0
LWPOLYLINE
  5
371
100
AcDbEntity
  8
RACCORDO
100
AcDbPolyline
 62
250
  6
CONTINUOUS
 90
13
 70
0
 10
117.2652788666
 20
136.6033372446
 10
117.1988747691
 20
134.9209938639
 10
117.138143288
 20
133.2385134357
 10
117.0830844232
 20
131.5558959598
 10
117.0336982101
 20
129.8731350656
 10
116.9899846133
 20
128.1902371237
 10
116.951943527
 20
126.507221247
 10
116.9195740128
 20
124.8240873011
 10
116.8928770091
 20
123.1408354202
 10
116.8718552247
 20
121.4574851202
 10
116.8565095627
 20
119.7740429061
 10
116.8468391201
 20
118.0905022729
 10
116.8428438968
 20
116.4068632204
  0
LINE
  5
372
100
AcDbEntity
  8
RACCORDO
100
AcDbLine
 62
250
  6
CONTINUOUS
 10
118.2120969223
 20
137.5608418428
 11
118.2049645536
 21
137.7039660436
  0
LINE
  5
373
100
AcDbEntity
  8
RACCORDO
100
AcDbLine
 62
250
  6
CONTINUOUS
 10
118.2049645536
 20
137.7039660436
 11
118.2001915742
 21
137.8103676152
  0
LINE
  5
374
100
AcDbEntity
  8
RACCORDO
100
AcDbLine
 62
250
  6
CONTINUOUS
 10
118.2001915742
 20
137.8103676152
 11
118.1973289913
 21
137.8816399752
  0
LINE
  5
375
100
AcDbEntity
  8
RACCORDO
100
AcDbLine
 62
250
  6
CONTINUOUS
 10
118.1973289913
 20
137.8816399752
 11
118.1951794377
 21
137.9431763552
  0
LINE
  5
376
100
AcDbEntity
  8
RACCORDO
100
AcDbLine
 62
250
  6
CONTINUOUS
 10
118.1951794377
 20
137.9431763552
 11
118.1941757006
 21
137.9778555275
  0
LWPOLYLINE
  5
377
100
AcDbEntity
  8
RACCORDO
100
AcDbPolyline
 62
250
  6
CONTINUOUS
 90
10
 70
0
 10
118.1941757006
 20
137.9778555275
 10
118.1935319056
 20
138.0069018542
 10
118.1933478977
 20
138.0191869679
 10
118.1932567492
 20
138.029922989
 10
118.1932587682
 20
138.0390736323
 10
118.1933539479
 20
138.046607971
 10
118.1935419666
 20
138.0525005407
 10
118.1938221889
 20
138.056731426
 10
118.1941936676
 20
138.0592863274
 10
118.1946551474
 20
138.0601566101
  0
LWPOLYLINE
  5
378
100
AcDbEntity
  8
RACCORDO
100
AcDbPolyline
 62
250
  6
CONTINUOUS
 90
9
 70
0
 10
118.1935319059
 20
94.115960902
 10
118.193347898
 20
94.1036757925
 10
118.1932567496
 20
94.0929397753
 10
118.1932587687
 20
94.0837891354
 10
118.1933539484
 20
94.0762547997
 10
118.193541967
 20
94.0703622324
 10
118.1938221892
 20
94.0661313489
 10
118.1941936678
 20
94.0635764485
 10
118.1946551474
 20
94.0627061662
  0
LINE
  5
379
100
AcDbEntity
  8
RACCORDO
100
AcDbLine
 62
250
  6
CONTINUOUS
 10
118.1941757005
 20
94.1450072202
 11
118.1935319059
 21
94.115960902
  0
LINE
  5
37A
100
AcDbEntity
  8
RACCORDO
100
AcDbLine
 62
250
  6
CONTINUOUS
 10
118.1951794373
 20
94.1796863843
 11
118.1941757005
 21
94.1450072202
  0
LINE
  5
37B
100
AcDbEntity
  8
RACCORDO
100
AcDbLine
 62
250
  6
CONTINUOUS
 10
118.1973289902
 20
94.2412227553
 11
118.1951794373
 21
94.1796863843
  0
LINE
  5
37C
100
AcDbEntity
  8
RACCORDO
100
AcDbLine
 62
250
  6
CONTINUOUS
 10
118.2001915727
 20
94.312495113
 11
118.1973289902
 21
94.2412227553
  0
LINE
  5
37D
100
AcDbEntity
  8
RACCORDO
100
AcDbLine
 62
250
  6
CONTINUOUS
 10
118.2049645523
 20
94.4188966955
 11
118.2001915727
 21
94.312495113
  0
LINE
  5
37E
100
AcDbEntity
  8
RACCORDO
100
AcDbLine
 62
250
  6
CONTINUOUS
 10
118.2120969223
 20
94.5620209336
 11
118.2049645523
 21
94.4188966955
  0
LINE
  5
37F
100
AcDbEntity
  8
RACCORDO
100
AcDbLine
 62
250
  6
CONTINUOUS
 10
122.0514340362
 20
115.7614542334
 11
116.8428438968
 21
115.7159995559
  0
LINE
  5
380
100
AcDbEntity
  8
RACCORDO
100
AcDbLine
 62
7
  6
CONTINUOUS
 10
122.0514340362
 20
115.9614313882
 11
116.5498098859
 21
115.9134194416
  0
LINE
  5
381
100
AcDbEntity
  8
RACCORDO
100
AcDbLine
 62
250
  6
CONTINUOUS
 10
116.8428438969
 20
115.7159995021
 11
116.3515552429
 21
115.7132877915
  0
LINE
  5
382
100
AcDbEntity
  8
RACCORDO
100
AcDbLine
 62
7
  6
CONTINUOUS
 10
116.5498098846
 20
116.2094433348
 11
122.0514340362
 21
116.1614313882
  0
LINE
  5
383
100
AcDbEntity
  8
RACCORDO
100
AcDbLine
 62
250
  6
CONTINUOUS
 10
116.3515552429
 20
116.4095749848
 11
116.8428438968
 21
116.4068632743
  0
LINE
  5
384
100
AcDbEntity
  8
RACCORDO
100
AcDbLine
 62
250
  6
CONTINUOUS
 10
116.8428438968
 20
116.4068632204
 11
122.0514340362
 21
116.3614085429
  0
LINE
  5
385
100
AcDbEntity
  8
RACCORDO
100
AcDbLine
 62
7
  6
CONTINUOUS
 10
121.6514340362
 20
133.9949229894
 11
121.6514340362
 21
133.7334523093
  0
LINE
  5
386
100
AcDbEntity
  8
RACCORDO
100
AcDbLine
 62
7
  6
CONTINUOUS
 10
121.6514340362
 20
98.3894104671
 11
121.6514340362
 21
98.127939787
  0
LINE
  5
387
100
AcDbEntity
  8
RACCORDO
100
AcDbLine
 62
7
  6
CONTINUOUS
 10
122.0514340362
 20
115.9614313882
 11
122.0514340362
 21
102.9614313882
  0
LINE
  5
388
100
AcDbEntity
  8
RACCORDO
100
AcDbLine
 62
7
  6
CONTINUOUS
 10
122.0514340362
 20
116.1614313882
 11
122.0514340362
 21
129.1614313882
  0
LINE
  5
389
100
AcDbEntity
  8
RACCORDO
100
AcDbLine
 62
7
  6
CONTINUOUS
 10
122.0514340362
 20
129.1614313882
 11
121.2588468752
 21
138.2207440939
  0
LINE
  5
38A
100
AcDbEntity
  8
RACCORDO
100
AcDbLine
 62
7
  6
CONTINUOUS
 10
122.0514340362
 20
102.9614313882
 11
121.2588468752
 21
93.9021186824
  0
LWPOLYLINE
  5
38B
100
AcDbEntity
  8
0
100
AcDbPolyline
 62
7
  6
CONTINUOUS
 90
3
 70
0
 43
0.3500000006
 10
133.1838890991
 20
147.256461731
 10
133.1124579163
 20
147.0421772461
 10
132.9695955505
 20
146.7564525146
  0
LINE
  5
38C
100
AcDbEntity
  8
RACCORDO
100
AcDbLine
 62
7
  6
CONTINUOUS
 10
121.6233263724
 20
98.0011543084
 11
121.6161125699
 21
97.9856842591
  0
LINE
  5
38D
100
AcDbEntity
  8
RACCORDO
100
AcDbLine
 62
7
  6
CONTINUOUS
 10
121.6161125699
 20
134.1371785172
 11
121.6233263724
 21
134.1217084679
  0
LWPOLYLINE
  5
38E
100
AcDbEntity
  8
0
100
AcDbPolyline
 62
7
  6
CONTINUOUS
 90
4
 70
0
 43
0.3500000006
 10
134.1838894043
 20
149.3278844604
 10
134.1838894043
 20
149.970737915
 10
135.6838898621
 20
149.970737915
 10
134.8267428589
 20
146.9707369995
  0
LINE
  5
38F
100
AcDbEntity
  8
RACCORDO
100
AcDbLine
 62
250
  6
CONTINUOUS
 10
121.6514340362
 20
133.9949229894
 11
121.6285583159
 21
133.9949229893
  0
LWPOLYLINE
  5
390
100
AcDbEntity
  8
RACCORDO
100
AcDbPolyline
 62
250
  6
CONTINUOUS
 90
37
 70
0
 10
118.2120969223
 20
137.5608418428
 10
118.1710709953
 20
137.5578382528
 10
118.1303350877
 20
137.5531782557
 10
118.0898891994
 20
137.5468618515
 10
118.049665365
 20
137.5388728847
 10
118.00973155
 20
137.5292275109
 10
117.9702916507
 20
137.5179741963
 10
117.9313486172
 20
137.5051046558
 10
117.8928994994
 20
137.4906271746
 10
117.8551393435
 20
137.4746150754
 10
117.8180722248
 20
137.457060779
 10
117.7816940679
 20
137.4379718646
 10
117.7461876937
 20
137.4174443928
 10
117.7115574375
 20
137.3954711469
 10
117.6777989639
 20
137.3720593436
 10
117.6450820874
 20
137.347326693
 10
117.6134118541
 20
137.3212663484
 10
117.5827832179
 20
137.2938851566
 10
117.5533508548
 20
137.2653213677
 10
117.5251208704
 20
137.235568978
 10
117.498087159
 20
137.2046339913
 10
117.4723860807
 20
137.1726726682
 10
117.4480245408
 20
137.1396800603
 10
117.4249956339
 20
137.105661116
 10
117.4034150036
 20
137.0707869422
 10
117.3832898999
 20
137.0350532923
 10
117.3646130727
 20
136.9984644128
 10
117.3474784165
 20
136.9612041497
 10
117.3318935576
 20
136.9232685119
 10
117.3178508695
 20
136.8846614906
 10
117.3054213673
 20
136.8455789054
 10
117.2946133309
 20
136.8060175463
 10
117.2854184803
 20
136.7659806232
 10
117.2778829911
 20
136.7256735866
 10
117.2720222549
 20
136.6851649196
 10
117.2678208801
 20
136.644386139
 10
117.2652788666
 20
136.6033372446
  0
LINE
  5
391
100
AcDbEntity
  8
RACCORDO
100
AcDbLine
 62
250
  6
CONTINUOUS
 10
121.3024114814
 20
137.7227983661
 11
118.2120969223
 21
137.5608418428
  0
LINE
  5
392
100
AcDbEntity
  8
RACCORDO
100
AcDbLine
 62
7
  6
CONTINUOUS
 10
121.2588468752
 20
138.2207440939
 11
118.1946724671
 21
138.0601575178
  0
LWPOLYLINE
  5
393
100
AcDbEntity
  8
0
100
AcDbPolyline
 62
7
  6
CONTINUOUS
 90
8
 70
0
 43
0.3500000006
 10
130.3267414856
 20
146.9707369995
 10
131.1838884888
 20
146.9707369995
 10
131.6124574585
 20
147.3993240967
 10
131.6124574585
 20
148.2564620361
 10
131.1838884888
 20
148.6850310059
 10
130.3267414856
 20
148.6850310059
 10
130.3267414856
 20
149.970737915
 10
131.6124574585
 20
149.970737915
  0
LWPOLYLINE
  5
394
100
AcDbEntity
  8
RACCORDO
100
AcDbPolyline
 62
250
  6
CONTINUOUS
 90
4
 70
0
 10
117.2652788666
 20
136.6033372446
 10
116.7777298267
 20
136.6237225709
 10
116.7752537634
 20
136.623845072
 10
116.774428064
 20
136.623899713
  0
LWPOLYLINE
  5
395
100
AcDbEntity
  8
0
100
AcDbPolyline
 62
7
  6
CONTINUOUS
 90
10
 70
0
 43
0.3500000006
 10
133.1124579163
 20
147.4707462158
 10
133.1838890991
 20
147.3278838501
 10
133.1838890991
 20
147.256461731
 10
133.0410267334
 20
147.1135993652
 10
132.9695955505
 20
147.1135993652
 10
132.8981734314
 20
147.1850214844
 10
132.8981734314
 20
147.256461731
 10
132.9695955505
 20
147.3993240967
 10
133.0410267334
 20
147.4707462158
 10
133.1124579163
 20
147.4707462158
  0
ARC
  5
396
100
AcDbEntity
  8
0
100
AcDbCircle
 62
7
  6
CONTINUOUS
 10
164.6441633092
 20
116.0614313882
 40
1.375
100
AcDbArc
 50
195.3271627815
 51
344.6728372185
  0
ARC
  5
397
100
AcDbEntity
  8
0
100
AcDbCircle
 62
7
  6
CONTINUOUS
 10
164.6441633092
 20
116.0614313882
 40
1.375
100
AcDbArc
 50
15.3271627815
 51
164.6728372185
  0
ARC
  5
398
100
AcDbEntity
  8
RACCORDO
100
AcDbCircle
 62
7
  6
CONTINUOUS
 10
118.2731590817
 20
95.5606504683
 40
1.5
100
AcDbArc
 50
182.3561664986
 51
267.000662446
  0
ARC
  5
399
100
AcDbEntity
  8
RACCORDO
100
AcDbCircle
 62
7
  6
CONTINUOUS
 10
121.3514340362
 20
98.127939787
 40
0.3
100
AcDbArc
 50
335.0
 51
360.0
  0
ARC
  5
39A
100
AcDbEntity
  8
RACCORDO
100
AcDbCircle
 62
7
  6
CONTINUOUS
 10
116.5515557036
 20
115.7134270614
 40
0.2
100
AcDbArc
 50
90.5001462858
 51
180.0398957513
  0
ARC
  5
39B
100
AcDbEntity
  8
RACCORDO
100
AcDbCircle
 62
7
  6
CONTINUOUS
 10
118.2731590817
 20
136.562212308
 40
1.5
100
AcDbArc
 50
92.999337554
 51
177.6438335014
  0
ARC
  5
39C
100
AcDbEntity
  8
RACCORDO
100
AcDbCircle
 62
7
  6
CONTINUOUS
 10
121.3514340362
 20
133.9949229894
 40
0.3
100
AcDbArc
 50
0.0
 51
25.0
  0
ARC
  5
39D
100
AcDbEntity
  8
RACCORDO
100
AcDbCircle
 62
7
  6
CONTINUOUS
 10
116.5515557036
 20
116.4094357149
 40
0.2
100
AcDbArc
 50
179.9601042487
 51
269.4998537142
  0
ARC
  5
39E
100
AcDbEntity
  8
RACCORDO
100
AcDbCircle
 62
7
  6
CONTINUOUS
 10
616.3514340362
 20
116.0614313882
 40
500.0
100
AcDbArc
 50
180.0398943199
 51
182.3569476404
  0
ARC
  5
39F
100
AcDbEntity
  8
RACCORDO
100
AcDbCircle
 62
7
  6
CONTINUOUS
 10
616.3514340362
 20
116.0614313882
 40
500.0
100
AcDbArc
 50
177.6430523596
 51
179.9601056801
  0
ELLIPSE
  5
3A0
100
AcDbEntity
  8
RACCORDO
100
AcDbEllipse
 62
7
  6
CONTINUOUS
 10
157.359633363
 20
93.9287110625
 30
0.0
 11
0.2
 21
-0.0
 31
0.0
 40
0.0524077793
 41
1.5707963268
 42
2.617993878
  0
ELLIPSE
  5
3A1
100
AcDbEntity
  8
RACCORDO
100
AcDbEllipse
 62
7
  6
CONTINUOUS
 10
160.7286932554
 20
93.9287110625
 30
0.0
 11
0.2
 21
0.0
 31
0.0
 40
0.0524077793
 41
0.5235987756
 42
1.5707963268
  0
ELLIPSE
  5
3A2
100
AcDbEntity
  8
RACCORDO
100
AcDbEllipse
 62
7
  6
CONTINUOUS
 10
168.559633363
 20
93.9287110625
 30
0.0
 11
0.2
 21
0.0
 31
0.0
 40
0.0524077793
 41
1.5707963268
 42
2.617993878
  0
ELLIPSE
  5
3A3
100
AcDbEntity
  8
RACCORDO
100
AcDbEllipse
 62
7
  6
CONTINUOUS
 10
171.9286932554
 20
93.9287110625
 30
0.0
 11
0.2
 21
0.0
 31
0.0
 40
0.0524077793
 41
0.5235987756
 42
1.5707963268
  0
ELLIPSE
  5
3A4
100
AcDbEntity
  8
RACCORDO
100
AcDbEllipse
 62
7
  6
CONTINUOUS
 10
175.5941328436
 20
115.7614237725
 30
0.0
 11
0.1789222233
 21
0.0894542984
 31
0.0
 40
0.9998096356
 41
-0.4635410001
 42
1.1071030277
  0
ELLIPSE
  5
3A5
100
AcDbEntity
  8
RACCORDO
100
AcDbEllipse
 62
7
  6
CONTINUOUS
 10
153.6941937748
 20
115.7614237725
 30
0.0
 11
0.1789222233
 21
-0.0894542984
 31
0.0
 40
0.9998096356
 41
2.0344896259
 42
3.6051336537
  0
ELLIPSE
  5
3A6
100
AcDbEntity
  8
RACCORDO
100
AcDbEllipse
 62
7
  6
CONTINUOUS
 10
175.2810136031
 20
94.4005196439
 30
0.0
 11
0.498078285
 21
0.0448076117
 31
0.0
 40
0.9965957691
 41
-1.6608206152
 42
-0.0909376769
  0
ELLIPSE
  5
3A7
100
AcDbEntity
  8
RACCORDO
100
AcDbEllipse
 62
7
  6
CONTINUOUS
 10
154.0073130154
 20
94.4005196439
 30
0.0
 11
0.498078285
 21
-0.0448076117
 31
0.0
 40
0.9965957691
 41
-3.0506549766
 42
-1.4807720384
  0
ELLIPSE
  5
3A8
100
AcDbEntity
  8
RACCORDO
100
AcDbEllipse
 62
7
  6
CONTINUOUS
 10
171.9286932554
 20
138.1941517138
 30
0.0
 11
0.2
 21
0.0
 31
0.0
 40
0.0524077793
 41
-1.5707963268
 42
-0.5235987756
  0
ELLIPSE
  5
3A9
100
AcDbEntity
  8
RACCORDO
100
AcDbEllipse
 62
7
  6
CONTINUOUS
 10
168.559633363
 20
138.1941517138
 30
0.0
 11
0.2
 21
0.0
 31
0.0
 40
0.0524077793
 41
-2.617993878
 42
-1.5707963268
  0
ELLIPSE
  5
3AA
100
AcDbEntity
  8
RACCORDO
100
AcDbEllipse
 62
7
  6
CONTINUOUS
 10
160.7286932554
 20
138.1941517138
 30
0.0
 11
0.2
 21
0.0
 31
0.0
 40
0.0524077793
 41
-1.5707963268
 42
-0.5235987756
  0
ELLIPSE
  5
3AB
100
AcDbEntity
  8
RACCORDO
100
AcDbEllipse
 62
7
  6
CONTINUOUS
 10
157.359633363
 20
138.1941517138
 30
0.0
 11
0.2
 21
-0.0
 31
0.0
 40
0.0524077793
 41
-2.617993878
 42
-1.5707963268
  0
ELLIPSE
  5
3AC
100
AcDbEntity
  8
RACCORDO
100
AcDbEllipse
 62
7
  6
CONTINUOUS
 10
153.6941937748
 20
116.3614390038
 30
0.0
 11
0.1789222233
 21
0.0894542984
 31
0.0
 40
0.9998096356
 41
2.6780516535
 42
4.2486956813
  0
ELLIPSE
  5
3AD
100
AcDbEntity
  8
RACCORDO
100
AcDbEllipse
 62
7
  6
CONTINUOUS
 10
175.5941328436
 20
116.3614390038
 30
0.0
 11
0.1789222233
 21
-0.0894542984
 31
0.0
 40
0.9998096356
 41
-1.1071030277
 42
0.4635410001
  0
ELLIPSE
  5
3AE
100
AcDbEntity
  8
RACCORDO
100
AcDbEllipse
 62
7
  6
CONTINUOUS
 10
154.0073130154
 20
137.7223431324
 30
0.0
 11
0.498078285
 21
0.0448076117
 31
0.0
 40
0.9965957691
 41
1.4807720384
 42
3.0506549766
  0
ELLIPSE
  5
3AF
100
AcDbEntity
  8
RACCORDO
100
AcDbEllipse
 62
7
  6
CONTINUOUS
 10
175.2810136031
 20
137.7223431324
 30
0.0
 11
0.498078285
 21
-0.0448076117
 31
0.0
 40
0.9965957691
 41
0.0909376769
 42
1.6608206152
  0
ENDSEC
  0
SECTION
  2
OBJECTS
  0
DICTIONARY
  5
C
100
AcDbDictionary
280
0
281
1
  3
ACAD_GROUP
350
D
  3
ACAD_MLINESTYLE
350
17
  3
ACAD_LAYOUT
350
1A
  3
ACAD_PLOTSETTINGS
350
19
  3
ACAD_PLOTSTYLENAME
350
E
  0
DICTIONARY
  5
D
102
{ACAD_REACTORS
330
C
102
}
100
AcDbDictionary
280
0
281
1
  0
ACDBDICTIONARYWDFLT
  5
E
102
{ACAD_REACTORS
330
C
102
}
100
AcDbDictionary
281
1
  3
Normal
350
F
100
AcDbDictionaryWithDefault
340
F
  0
DICTIONARY
  5
17
102
{ACAD_REACTORS
330
C
102
}
100
AcDbDictionary
280
0
281
1
  3
Standard
350
18
  0
DICTIONARY
  5
19
102
{ACAD_REACTORS
330
C
102
}
100
AcDbDictionary
281
1
  0
DICTIONARY
  5
1A
102
{ACAD_REACTORS
330
C
102
}
100
AcDbDictionary
281
1
  3
Model
350
3B0
  3
Layout1
350
3B1
  0
ACDBPLACEHOLDER
  5
F
102
{ACAD_REACTORS
330
E
102
}
  0
MLINESTYLE
  5
18
102
{ACAD_REACTORS
330
17
102
}
100
AcDbMlineStyle
  2
STANDARD
 70
0
  3

 62
256
 51
90.0
 52
90.0
 71
2
 49
0.5
 62
256
  6
BYLAYER
 49
-0.5
 62
256
  6
BYLAYER
  0
LAYOUT
  5
3B0
102
{ACAD_REACTORS
330
1A
102
}
100
AcDbPlotSettings
  1

  2
none_device
  4
ISO_A4_(297.00_x_210.00_MM)
  6

 40
0.0
 41
0.0
 42
0.0
 43
0.0
 44
297.0
 45
210.0
 46
0.0
 47
0.0
 48
0.0
 49
0.0
140
0.0
141
0.0
142
1.0
143
1.0
 70
1024
 72
1
 73
0
 74
0
  7

 75
0
147
1.0
148
0.0
149
0.0
100
AcDbLayout
  1
Model
 70
0
 71
0
 10
0.0
 20
0.0
 11
297.0
 21
210.0
 12
0.0
 22
0.0
 32
0.0
 14
0.0
 24
0.0
 34
0.0
 15
0.0
 25
0.0
 35
0.0
146
0.0
 13
0.0
 23
0.0
 33
0.0
 16
1.0
 26
0.0
 36
0.0
 17
0.0
 27
1.0
 37
0.0
 76
0
330
212
345
0
346
0
  0
LAYOUT
  5
3B1
102
{ACAD_REACTORS
330
1A
102
}
100
AcDbPlotSettings
  1

  2
none_device
  4
ISO_A4_(297.00_x_210.00_MM)
  6

 40
0.0
 41
0.0
 42
0.0
 43
0.0
 44
297.0
 45
210.0
 46
0.0
 47
0.0
 48
0.0
 49
0.0
140
0.0
141
0.0
142
1.0
143
1.0
 70
0
 72
1
 73
0
 74
0
  7

 75
0
147
1.0
148
0.0
149
0.0
100
AcDbLayout
  1
Layout1
 70
0
 71
1
 10
0.0
 20
0.0
 11
297.0
 21
210.0
 12
0.0
 22
0.0
 32
0.0
 14
0.0
 24
0.0
 34
0.0
 15
0.0
 25
0.0
 35
0.0
146
0.0
 13
0.0
 23
0.0
 33
0.0
 16
1.0
 26
0.0
 36
0.0
 17
0.0
 27
1.0
 37
0.0
 76
0
330
213
345
0
346
0
  0
ENDSEC
  0
EOF
