  0
SECTION
  2
HEADER
  9
$ACADVER
  1
AC1024
  9
$DWGCODEPAGE
  3
ANSI_1252
  9
$EXTMAX
 10
297.0
 20
210.0
 30
0.0
  9
$EXTMIN
 10
0.0
 20
0.0
 30
0.0
  9
$LIMMIN
 10
0.0
 20
0.0
  9
$LIMMAX
 10
297.0
 20
210.0
  9
$VIEWCTR
 10
148.5
 20
105.0
  9
$VIEWSIZE
 40
210.0
  9
$CLAYER
  8
0
  9
$LTSCALE
 40
16.335
  9
$CELTYPE
  6
BYLAYER
  9
$DIMSCALE
 40
1.0
  9
$DIMASZ
 40
3.0
  9
$DIMEXO
 40
0.5
  9
$DIMDLI
 40
11.286
  9
$DIMEXE
 40
1.5
  9
$DIMCEN
 40
2.673
  9
$DIMLFAC
 40
1.0
  9
$DIMBLK
  1
_FILLED
  9
$DIMALT
 70
0
  9
$DIMALTF
 40
0.0393700787
  9
$DIMTXT
 40
3.0
  9
$DIMTOL
 70
1
  9
$DIMLIM
 70
0
  9
$DIMTFAC
 40
1.0
  9
$DIMTP
 40
0.01
  9
$DIMTM
 40
0.01
  9
$DIMGAP
 40
0.625
  9
$DIMDSEP
 70
44
  9
$AUNITS
 70
0
  9
$PDMODE
 70
3
  9
$PDSIZE
 40
3.0
  9
$HANDSEED
  5
508
  9
$TILEMODE
 70
1
  9
$MEASUREMENT
 70
1
  9
$INSUNITS
 70
4
  0
ENDSEC
  0
SECTION
  2
CLASSES
  0
CLASS
  1
ACDBDICTIONARYWDFLT
  2
AcDbDictionaryWithDefault
  3
AutoCAD 2000
 90
0
 91
1
280
0
281
0
  0
CLASS
  1
ACDBPLACEHOLDER
  2
AcDbPlaceHolder
  3
AutoCAD 2000
 90
0
 91
1
280
0
281
0
  0
CLASS
  1
LAYOUT
  2
AcDbLayout
  3
AutoCAD 2000
 90
0
 91
0
280
0
281
0
  0
ENDSEC
  0
SECTION
  2
TABLES
  0
TABLE
  2
VPORT
  5
8
100
AcDbSymbolTable
 70
2
  0
VPORT
  5
1F4
100
AcDbSymbolTableRecord
100
AcDbViewportTableRecord
  2
*ACTIVE
 70
0
 10
0.0
 20
0.0
 11
1.0
 21
1.0
 12
148.5
 22
105.0
 13
0.0
 23
0.0
 14
1.0
 24
1.0
 15
0.0
 25
0.0
 16
0.0
 26
0.0
 36
1.0
 17
0.0
 27
0.0
 37
0.0
 40
210.0
 41
1.4142857143
 42
50.0
 43
0.0
 44
0.0
 50
0.0
 51
0.0
 71
0
 72
100
 73
1
 74
1
 75
0
 76
0
 77
0
 78
0
  0
ENDTAB
  0
TABLE
  2
LTYPE
  5
5
100
AcDbSymbolTable
 70
6
  0
LTYPE
  5
14
100
AcDbSymbolTableRecord
100
AcDbLinetypeTableRecord
  2
BYBLOCK
 70
0
  3

 72
65
 73
0
 40
0.0
  0
LTYPE
  5
15
100
AcDbSymbolTableRecord
100
AcDbLinetypeTableRecord
  2
BYLAYER
 70
0
  3

 72
65
 73
0
 40
0.0
  0
LTYPE
  5
16
100
AcDbSymbolTableRecord
100
AcDbLinetypeTableRecord
  2
CONTINUOUS
 70
64
  3
Solid line
 72
65
 73
0
 40
0.0
  0
LTYPE
  5
1F5
100
AcDbSymbolTableRecord
100
AcDbLinetypeTableRecord
  2
CENTER
 70
64
  3
____ _ ____ _ ____ _ ____ _ ____ _ ____ _ ____
 72
65
 73
4
 40
0.6
 49
0.375
 74
0
 49
-0.075
 74
0
 49
0.075
 74
0
 49
-0.075
 74
0
  0
LTYPE
  5
1F6
100
AcDbSymbolTableRecord
100
AcDbLinetypeTableRecord
  2
HIDDEN
 70
64
  3
- - - - - - - - - - - - - - - - - - - -
 72
65
 73
2
 40
0.2
 49
0.1
 74
0
 49
-0.1
 74
0
  0
LTYPE
  5
1F7
100
AcDbSymbolTableRecord
100
AcDbLinetypeTableRecord
  2
PHANTOM
 70
64
  3
_____ _ _ _____ _ _ _____ _ _ _____
 72
65
 73
6
 40
0.8
 49
0.45
 74
0
 49
-0.05
 74
0
 49
0.1
 74
0
 49
-0.05
 74
0
 49
0.1
 74
0
 49
-0.05
 74
0
  0
LTYPE
  5
1F8
100
AcDbSymbolTableRecord
100
AcDbLinetypeTableRecord
  2
DOT
 70
64
  3
. . . . . . . . . . . . . . . . . . . .
 72
65
 73
2
 40
0.2
 49
0.1
 74
0
 49
-0.1
 74
0
  0
LTYPE
  5
1F9
100
AcDbSymbolTableRecord
100
AcDbLinetypeTableRecord
  2
DASHED
 70
64
  3
- - - - - - - - - - - - - - - - - - - -
 72
65
 73
2
 40
0.2
 49
0.1
 74
0
 49
-0.1
 74
0
  0
ENDTAB
  0
TABLE
  2
LAYER
  5
2
100
AcDbSymbolTable
 70
36
  0
LAYER
  5
10
100
AcDbSymbolTableRecord
100
AcDbLayerTableRecord
  2
0
 70
0
 62
7
  6
CONTINUOUS
370
-3
390
F
  0
LAYER
  5
1FA
100
AcDbSymbolTableRecord
100
AcDbLayerTableRecord
  2
DEFAULT_1
 70
0
 62
7
  6
CENTER
370
-3
390
F
  0
LAYER
  5
1FB
100
AcDbSymbolTableRecord
100
AcDbLayerTableRecord
  2
DEFAULT_2
 70
0
 62
7
  6
HIDDEN
370
-3
390
F
  0
LAYER
  5
1FC
100
AcDbSymbolTableRecord
100
AcDbLayerTableRecord
  2
DEFAULT_3
 70
0
 62
7
  6
PHANTOM
370
-3
390
F
  0
LAYER
  5
1FD
100
AcDbSymbolTableRecord
100
AcDbLayerTableRecord
  2
ASSI
 70
0
 62
7
  6
CONTINUOUS
370
-3
390
F
  0
LAYER
  5
1FE
100
AcDbSymbolTableRecord
100
AcDbLayerTableRecord
  2
COORDINATE
 70
0
 62
7
  6
CONTINUOUS
370
-3
390
F
  0
LAYER
  5
1FF
100
AcDbSymbolTableRecord
100
AcDbLayerTableRecord
  2
COPY_PUBLISH
 70
0
 62
7
  6
CONTINUOUS
370
-3
390
F
  0
LAYER
  5
200
100
AcDbSymbolTableRecord
100
AcDbLayerTableRecord
  2
COSMETICI
 70
0
 62
7
  6
CONTINUOUS
370
-3
390
F
  0
LAYER
  5
201
100
AcDbSymbolTableRecord
100
AcDbLayerTableRecord
  2
CURVE
 70
0
 62
7
  6
CONTINUOUS
370
-3
390
F
  0
LAYER
  5
202
100
AcDbSymbolTableRecord
100
AcDbLayerTableRecord
  2
DRAFT
 70
0
 62
7
  6
CONTINUOUS
370
-3
390
F
  0
LAYER
  5
203
100
AcDbSymbolTableRecord
100
AcDbLayerTableRecord
  2
IMPORT_IGES
 70
0
 62
7
  6
CONTINUOUS
370
-3
390
F
  0
LAYER
  5
204
100
AcDbSymbolTableRecord
100
AcDbLayerTableRecord
  2
INTF_1
 70
0
 62
7
  6
CONTINUOUS
370
-3
390
F
  0
LAYER
  5
205
100
AcDbSymbolTableRecord
100
AcDbLayerTableRecord
  2
INTF_11
 70
0
 62
7
  6
CONTINUOUS
370
-3
390
F
  0
LAYER
  5
206
100
AcDbSymbolTableRecord
100
AcDbLayerTableRecord
  2
NOTE
 70
0
 62
7
  6
CONTINUOUS
370
-3
390
F
  0
LAYER
  5
207
100
AcDbSymbolTableRecord
100
AcDbLayerTableRecord
  2
PIANI
 70
0
 62
7
  6
CONTINUOUS
370
-3
390
F
  0
LAYER
  5
208
100
AcDbSymbolTableRecord
100
AcDbLayerTableRecord
  2
PUNTI
 70
0
 62
7
  6
CONTINUOUS
370
-3
390
F
  0
LAYER
  5
209
100
AcDbSymbolTableRecord
100
AcDbLayerTableRecord
  2
RACCORDO
 70
0
 62
7
  6
CONTINUOUS
370
-3
390
F
  0
LAYER
  5
20A
100
AcDbSymbolTableRecord
100
AcDbLayerTableRecord
  2
RGB____0____0____0__
 70
0
 62
7
  6
CONTINUOUS
370
-3
390
F
  0
LAYER
  5
20B
100
AcDbSymbolTableRecord
100
AcDbLayerTableRecord
  2
SIMBOLI
 70
0
 62
7
  6
CONTINUOUS
370
-3
390
F
  0
LAYER
  5
20C
100
AcDbSymbolTableRecord
100
AcDbLayerTableRecord
  2
SMUSSO
 70
0
 62
7
  6
CONTINUOUS
370
-3
390
F
  0
LAYER
  5
20D
100
AcDbSymbolTableRecord
100
AcDbLayerTableRecord
  2
SNAPLINE
 70
0
 62
7
  6
CONTINUOUS
370
-3
390
F
  0
LAYER
  5
20E
100
AcDbSymbolTableRecord
100
AcDbLayerTableRecord
  2
SUPERFICI
 70
0
 62
7
  6
CONTINUOUS
370
-3
390
F
  0
LAYER
  5
20F
100
AcDbSymbolTableRecord
100
AcDbLayerTableRecord
  2
TRASH
 70
0
 62
7
  6
CONTINUOUS
370
-3
390
F
  0
ENDTAB
  0
TABLE
  2
STYLE
  5
3
100
AcDbSymbolTable
 70
1
  0
STYLE
  5
11
100
AcDbSymbolTableRecord
100
AcDbTextStyleTableRecord
  2
STANDARD
 70
0
 40
0.0
 41
0.8
 50
0.0
 71
0
 42
0.2
  3
txt
  4

  0
STYLE
  5
210
100
AcDbSymbolTableRecord
100
AcDbTextStyleTableRecord
  2
TEXTSTYLE_1
 70
0
 40
0.0
 41
0.8
 50
0.0
 71
0
 42
0.2
  3
gdt
  4

  0
ENDTAB
  0
TABLE
  2
VIEW
  5
6
100
AcDbSymbolTable
 70
0
  0
ENDTAB
  0
TABLE
  2
UCS
  5
7
100
AcDbSymbolTable
 70
0
  0
ENDTAB
  0
TABLE
  2
APPID
  5
9
100
AcDbSymbolTable
 70
1
  0
APPID
  5
211
100
AcDbSymbolTableRecord
100
AcDbRegAppTableRecord
  2
ACAD
 70
0
  0
ENDTAB
  0
TABLE
  2
BLOCK_RECORD
  5
1
100
AcDbSymbolTable
 70
0
  0
BLOCK_RECORD
  5
212
100
AcDbSymbolTableRecord
100
AcDbBlockTableRecord
  2
*Model_Space
  0
BLOCK_RECORD
  5
213
100
AcDbSymbolTableRecord
100
AcDbBlockTableRecord
  2
*Paper_Space
  0
BLOCK_RECORD
  5
214
100
AcDbSymbolTableRecord
100
AcDbBlockTableRecord
  2
_FILLED
  0
BLOCK_RECORD
  5
215
100
AcDbSymbolTableRecord
100
AcDbBlockTableRecord
  2
*D0
  0
BLOCK_RECORD
  5
216
100
AcDbSymbolTableRecord
100
AcDbBlockTableRecord
  2
*D1
  0
BLOCK_RECORD
  5
217
100
AcDbSymbolTableRecord
100
AcDbBlockTableRecord
  2
*D2
  0
ENDTAB
  0
TABLE
  2
DIMSTYLE
  5
A
100
AcDbSymbolTable
 70
1
100
AcDbDimStyleTable
 71
0
  0
DIMSTYLE
105
218
100
AcDbSymbolTableRecord
100
AcDbDimStyleTableRecord
  2
STANDARD
 70
0
  3

  4

 40
1.0
 41
3.0
 42
0.5
 43
0.38
 44
1.5
 45
0.0
 46
0.0
 47
0.01
 48
0.01
140
3.0
141
0.09
142
0.0
143
25.4
144
1.0
145
0.0
146
1.0
147
0.625
 71
1
 72
0
 73
0
 74
0
 75
0
 76
0
 77
1
 78
8
 79
2
170
0
171
1
172
0
173
0
174
0
175
0
176
0
177
0
178
0
270
2
179
2
271
2
272
2
273
2
274
2
275
0
280
0
281
0
282
0
283
1
284
8
285
0
286
0
287
3
288
0
340
11
278
44
341
214
342
214
343
214
344
214
  0
DIMSTYLE
105
219
100
AcDbSymbolTableRecord
100
AcDbDimStyleTableRecord
  2
DIMSTYLE_1
 70
0
  3

  4

 40
1.0
 41
3.0
 42
0.5
 43
0.38
 44
1.5
 45
0.0
 46
0.0
 47
0.0
 48
0.0
140
3.0
141
0.09
142
0.0
143
25.4
144
1.0
145
0.0
146
1.0
147
0.75
 71
0
 72
0
 73
0
 74
0
 75
0
 76
0
 77
1
 78
8
 79
2
170
0
171
1
172
0
173
0
174
0
175
0
176
0
177
0
178
0
270
2
179
2
271
0
272
0
273
2
274
2
275
0
280
0
281
0
282
0
283
1
284
8
285
0
286
0
287
3
288
0
340
11
278
44
341
214
342
214
343
214
344
214
  0
DIMSTYLE
105
21A
100
AcDbSymbolTableRecord
100
AcDbDimStyleTableRecord
  2
DIMSTYLE_2
 70
0
  3

  4

 40
1.0
 41
3.0
 42
0.5
 43
0.38
 44
1.5
 45
0.0
 46
0.0
 47
0.0
 48
0.0
140
3.0
141
0.09
142
0.0
143
25.4
144
1.0
145
0.0
146
1.0
147
0.75
 71
0
 72
0
 73
0
 74
0
 75
0
 76
0
 77
1
 78
8
 79
2
170
0
171
1
172
0
173
0
174
0
175
0
176
0
177
0
178
0
270
2
179
2
271
1
272
1
273
2
274
2
275
0
280
0
281
0
282
0
283
1
284
8
285
0
286
0
287
3
288
0
340
11
278
44
341
214
342
214
343
214
344
214
  0
ENDTAB
  0
ENDSEC
  0
SECTION
  2
BLOCKS
  0
BLOCK
  5
20
100
AcDbEntity
  8
0
100
AcDbBlockBegin
  2
*Model_Space
 70
0
 10
0.0
 20
0.0
 30
0.0
  3
*Model_Space
  1

  0
ENDBLK
  5
21
100
AcDbEntity
  8
0
100
AcDbBlockEnd
  0
BLOCK
  5
1C
100
AcDbEntity
  8
0
100
AcDbBlockBegin
  2
*Paper_Space
 70
0
 10
0.0
 20
0.0
 30
0.0
  3
*Paper_Space
  1

  0
ENDBLK
  5
1D
100
AcDbEntity
  8
0
100
AcDbBlockEnd
  0
BLOCK
  5
21B
100
AcDbEntity
  8
0
100
AcDbBlockBegin
  2
_FILLED
 70
64
 10
0.0
 20
0.0
  3
_FILLED
  1

  0
SOLID
  5
21C
100
AcDbEntity
  8
0
  6
BYBLOCK
 62
0
100
AcDbTrace
 10
0.0
 20
0.0
 11
-1.0
 21
0.3166666667
 12
-1.0
 22
-0.3166666667
 13
-1.0
 23
-0.3166666667
  0
ENDBLK
  5
21D
100
AcDbEntity
  8
0
  6
BYBLOCK
 62
0
100
AcDbBlockEnd
  0
BLOCK
  5
21E
100
AcDbEntity
  8
0
100
AcDbBlockBegin
 62
7
  6
CONTINUOUS
  2
*D0
 70
65
 10
0.0
 20
0.0
  3
*D0
  1

  0
LINE
  5
21F
100
AcDbEntity
  8
0
100
AcDbLine
 62
7
  6
CONTINUOUS
 10
-59.9500009052
 20
42.6502732688
 11
-59.9500009052
 21
55.3941603014
  0
LINE
  5
220
100
AcDbEntity
  8
0
100
AcDbLine
 62
7
  6
CONTINUOUS
 10
59.9499990948
 20
42.6502732688
 11
59.9499990948
 21
55.3941603014
  0
LINE
  5
221
100
AcDbEntity
  8
0
100
AcDbLine
 62
7
  6
CONTINUOUS
 10
-59.9500009052
 20
53.8941603014
 11
-0.0000009052
 21
53.8941603014
  0
LINE
  5
222
100
AcDbEntity
  8
0
100
AcDbLine
 62
7
  6
CONTINUOUS
 10
59.9499990948
 20
53.8941603014
 11
-0.0000009052
 21
53.8941603014
  0
INSERT
  5
223
100
AcDbEntity
  8
0
100
AcDbBlockReference
 62
7
  6
CONTINUOUS
  2
_FILLED
 10
-59.9500009052
 20
53.8941603014
 41
3.0
 42
3.0
 43
3.0
 50
180.0
  0
INSERT
  5
224
100
AcDbEntity
  8
0
100
AcDbBlockReference
 62
7
  6
CONTINUOUS
  2
_FILLED
 10
59.9499990948
 20
53.8941603014
 41
3.0
 42
3.0
 43
3.0
  0
ENDBLK
  5
225
100
AcDbEntity
  8
0
  6
BYBLOCK
 62
0
100
AcDbBlockEnd
  0
BLOCK
  5
226
100
AcDbEntity
  8
0
100
AcDbBlockBegin
 62
7
  6
CONTINUOUS
  2
*D1
 70
65
 10
0.0
 20
0.0
  3
*D1
  1

  0
LINE
  5
227
100
AcDbEntity
  8
0
100
AcDbLine
 62
7
  6
CONTINUOUS
 10
59.6502732348
 20
42.9499991288
 11
72.3943540085
 21
42.9499991288
  0
LINE
  5
228
100
AcDbEntity
  8
0
100
AcDbLine
 62
7
  6
CONTINUOUS
 10
59.6502732348
 20
-42.9500008712
 11
72.3943540085
 21
-42.9500008712
  0
LINE
  5
229
100
AcDbEntity
  8
0
100
AcDbLine
 62
7
  6
CONTINUOUS
 10
70.8943540085
 20
42.9499991288
 11
70.8943540085
 21
-0.0000008712
  0
LINE
  5
22A
100
AcDbEntity
  8
0
100
AcDbLine
 62
7
  6
CONTINUOUS
 10
70.8943540085
 20
-42.9500008712
 11
70.8943540085
 21
-0.0000008712
  0
INSERT
  5
22B
100
AcDbEntity
  8
0
100
AcDbBlockReference
 62
7
  6
CONTINUOUS
  2
_FILLED
 10
70.8943540085
 20
42.9499991288
 41
3.0
 42
3.0
 43
3.0
 50
90.0
  0
INSERT
  5
22C
100
AcDbEntity
  8
0
100
AcDbBlockReference
 62
7
  6
CONTINUOUS
  2
_FILLED
 10
70.8943540085
 20
-42.9500008712
 41
3.0
 42
3.0
 43
3.0
 50
270.0
  0
ENDBLK
  5
22D
100
AcDbEntity
  8
0
  6
BYBLOCK
 62
0
100
AcDbBlockEnd
  0
BLOCK
  5
22E
100
AcDbEntity
  8
0
100
AcDbBlockBegin
 62
7
  6
CONTINUOUS
  2
*D2
 70
65
 10
0.0
 20
0.0
  3
*D2
  1

  0
LINE
  5
22F
100
AcDbEntity
  8
0
100
AcDbLine
 62
7
  6
CONTINUOUS
 10
-79.6517123538
 20
41.9532975918
 11
-79.6517123137
 21
55.3941603014
  0
LINE
  5
230
100
AcDbEntity
  8
0
100
AcDbLine
 62
7
  6
CONTINUOUS
 10
-88.1239481265
 20
0.5000811252
 11
-88.1239479625
 21
55.3941603267
  0
LINE
  5
231
100
AcDbEntity
  8
0
100
AcDbLine
 62
7
  6
CONTINUOUS
 10
-79.6517123181
 20
53.8941603014
 11
-75.6517123181
 21
53.8941602894
  0
LINE
  5
232
100
AcDbEntity
  8
0
100
AcDbLine
 62
7
  6
CONTINUOUS
 10
-75.6517123181
 20
53.8941602894
 11
-83.8878301426
 21
53.894160314
  0
LINE
  5
233
100
AcDbEntity
  8
0
100
AcDbLine
 62
7
  6
CONTINUOUS
 10
-88.123947967
 20
53.8941603267
 11
-92.123947967
 21
53.8941603386
  0
LINE
  5
234
100
AcDbEntity
  8
0
100
AcDbLine
 62
7
  6
CONTINUOUS
 10
-92.123947967
 20
53.8941603386
 11
-83.8878301426
 21
53.894160314
  0
INSERT
  5
235
100
AcDbEntity
  8
0
100
AcDbBlockReference
 62
7
  6
CONTINUOUS
  2
_FILLED
 10
-79.6517123181
 20
53.8941603014
 41
3.0
 42
3.0
 43
3.0
 50
179.9999998288
  0
INSERT
  5
236
100
AcDbEntity
  8
0
100
AcDbBlockReference
 62
7
  6
CONTINUOUS
  2
_FILLED
 10
-88.123947967
 20
53.8941603267
 41
3.0
 42
3.0
 43
3.0
 50
359.9999998288
  0
ENDBLK
  5
237
100
AcDbEntity
  8
0
  6
BYBLOCK
 62
0
100
AcDbBlockEnd
  0
ENDSEC
  0
SECTION
  2
ENTITIES
  0
DIMENSION
  5
238
100
AcDbEntity
  8
0
100
AcDbDimension
 62
7
  6
CONTINUOUS
  2
*D0
 10
59.9499990948
 20
53.8941603014
 11
-3.2142866195
 21
53.8941603014
 70
160
 71
2
 72
2
 41
0.9
 42
119.9
  3
DIMSTYLE_1
100
AcDbAlignedDimension
 13
-59.9500009052
 23
42.1502732688
 14
59.9499990948
 24
42.1502732688
100
AcDbRotatedDimension
  0
DIMENSION
  5
239
100
AcDbEntity
  8
0
100
AcDbDimension
 62
7
  6
CONTINUOUS
  2
*D1
 10
70.8943540085
 20
-42.9500008712
 11
70.8943540085
 21
-2.3571437284
 70
160
 71
2
 72
2
 41
0.9
 42
85.9
  3
DIMSTYLE_1
100
AcDbAlignedDimension
 13
59.1502732348
 23
42.9499991288
 14
59.1502732348
 24
-42.9500008712
 50
270.0
100
AcDbRotatedDimension
  0
DIMENSION
  5
23A
100
AcDbEntity
  8
0
100
AcDbDimension
 62
7
  6
CONTINUOUS
  2
*D2
 10
-88.123947967
 20
53.8941603267
 11
-86.9949729952
 21
53.8941603233
 70
160
 71
2
 72
2
 41
0.9
 42
8.4722356488
  3
DIMSTYLE_2
100
AcDbAlignedDimension
 13
-79.6517123553
 23
41.4532975918
 14
-88.123948128
 24
0.0000811252
 50
179.9999998288
100
AcDbRotatedDimension
  0
LWPOLYLINE
  5
23B
100
AcDbEntity
  8
ASSI
100
AcDbPolyline
 62
250
  6
CONTINUOUS
 90
15
 70
0
 10
-59.1094917811
 20
-42.9092176071
 10
-59.1114282739
 20
-42.9064906321
 10
-59.1133518899
 20
-42.9004582261
 10
-59.1152498381
 20
-42.8911605027
 10
-59.1171094983
 20
-42.8786592879
 10
-59.1189185049
 20
-42.8630377091
 10
-59.1206648292
 20
-42.8443996425
 10
-59.122336859
 20
-42.8228690221
 10
-59.1239234766
 20
-42.798589015
 10
-59.1254141319
 20
-42.7717210694
 10
-59.126798913
 20
-42.7424438422
 10
-59.1280686122
 20
-42.7109520102
 10
-59.1292147867
 20
-42.6774549743
 10
-59.1302298152
 20
-42.6421754702
 10
-59.1311069486
 20
-42.6053480853
  0
LWPOLYLINE
  5
23C
100
AcDbEntity
  8
ASSI
100
AcDbPolyline
 62
250
  6
CONTINUOUS
 90
14
 70
0
 10
-59.9092334267
 20
42.1095057903
 10
-59.9065087856
 20
42.1113321889
 10
-59.9004824125
 20
42.1131464566
 10
-59.8911943347
 20
42.1149365431
 10
-59.8787062432
 20
42.1166905589
 10
-59.8631010838
 20
42.1183968538
 10
-59.8444825054
 20
42.1200440948
 10
-59.8229741721
 20
42.121621341
 10
-59.798718941
 20
42.1231181165
 10
-59.7718779142
 20
42.1245244797
 10
-59.7426293681
 20
42.1258310899
 10
-59.71116757
 20
42.1270292685
 10
-59.6777014866
 20
42.1281110574
 10
-59.6424533977
 20
42.1290692715
  0
LWPOLYLINE
  5
23D
100
AcDbEntity
  8
ASSI
100
AcDbPolyline
 62
250
  6
CONTINUOUS
 90
22
 70
0
 10
-59.4479463487
 20
-42.1321834947
 10
-59.44616476
 20
-42.154888621
 10
-59.4427433561
 20
-42.1773312982
 10
-59.4376816573
 20
-42.1995109281
 10
-59.4309282364
 20
-42.221561174
 10
-59.4225335493
 20
-42.2433471413
 10
-59.4126500441
 20
-42.2644655518
 10
-59.4012550421
 20
-42.2848903506
 10
-59.3883705434
 20
-42.3046467811
 10
-59.3742162699
 20
-42.3234088933
 10
-59.3587738638
 20
-42.341159693
 10
-59.3420614188
 20
-42.3579159439
 10
-59.3243536382
 20
-42.3734027751
 10
-59.3056334545
 20
-42.387602574
 10
-59.2859181293
 20
-42.4005333828
 10
-59.2655341632
 20
-42.4119742547
 10
-59.24445501
 20
-42.4219039484
 10
-59.2227078194
 20
-42.4303447351
 10
-59.200699898
 20
-42.4371413077
 10
-59.1785673543
 20
-42.4422424323
 10
-59.1561749815
 20
-42.4457007885
 10
-59.1335232226
 20
-42.4475170859
  0
LWPOLYLINE
  5
23E
100
AcDbEntity
  8
ASSI
100
AcDbPolyline
 62
250
  6
CONTINUOUS
 90
22
 70
0
 10
-59.9092334267
 20
-42.1095075328
 10
-59.9069976795
 20
-42.1692857568
 10
-59.9003011167
 20
-42.228730346
 10
-59.8891803756
 20
-42.2875091767
 10
-59.8736954237
 20
-42.34529788
 10
-59.853932774
 20
-42.4017689225
 10
-59.8300081608
 20
-42.4565945147
 10
-59.8020594567
 20
-42.5094653564
 10
-59.7702430718
 20
-42.5600910339
 10
-59.7347388753
 20
-42.6081897152
 10
-59.695751222
 20
-42.6534894715
 10
-59.6534956849
 20
-42.6957440427
 10
-59.6081949069
 20
-42.7347307741
 10
-59.5600952994
 20
-42.7702339799
 10
-59.5094686457
 20
-42.8020494292
 10
-59.4565962548
 20
-42.8299974876
 10
-59.401768072
 20
-42.8539217855
 10
-59.3452937499
 20
-42.8736840941
 10
-59.2875018031
 20
-42.8891683624
 10
-59.2287200549
 20
-42.9002880654
 10
-59.1692726645
 20
-42.9069833471
 10
-59.1094917811
 20
-42.9092176071
  0
LINE
  5
23F
100
AcDbEntity
  8
ASSI
100
AcDbLine
 62
250
  6
CONTINUOUS
 10
-59.4479463487
 20
-42.1321834947
 11
-59.4716391826
 21
-41.4835459333
  0
LINE
  5
240
100
AcDbEntity
  8
ASSI
100
AcDbLine
 62
250
  6
CONTINUOUS
 10
-59.4716391826
 20
-41.4835459333
 11
-59.4920682168
 21
-40.7743238049
  0
LINE
  5
241
100
AcDbEntity
  8
ASSI
100
AcDbLine
 62
250
  6
CONTINUOUS
 10
-59.4920682168
 20
-40.7743238049
 11
-59.5091219776
 21
-40.0046082533
  0
LINE
  5
242
100
AcDbEntity
  8
ASSI
100
AcDbLine
 62
250
  6
CONTINUOUS
 10
-59.1311069486
 20
-42.6053480853
 11
-59.1324251562
 21
-42.5280378491
  0
LINE
  5
243
100
AcDbEntity
  8
ASSI
100
AcDbLine
 62
250
  6
CONTINUOUS
 10
-59.5091219776
 20
-40.0046082533
 11
-59.5223275104
 21
-39.171392386
  0
LINE
  5
244
100
AcDbEntity
  8
ASSI
100
AcDbLine
 62
250
  6
CONTINUOUS
 10
-59.5223275104
 20
-39.171392386
 11
-59.5320092977
 21
-38.2937297464
  0
LINE
  5
245
100
AcDbEntity
  8
ASSI
100
AcDbLine
 62
250
  6
CONTINUOUS
 10
-59.1324251562
 20
-42.5280378491
 11
-59.1331344072
 21
-42.4475771075
  0
LINE
  5
246
100
AcDbEntity
  8
ASSI
100
AcDbLine
 62
250
  6
CONTINUOUS
 10
-59.5320092977
 20
-38.2937297464
 11
-59.5413348528
 21
-36.9115869032
  0
LINE
  5
247
100
AcDbEntity
  8
ASSI
100
AcDbLine
 62
250
  6
CONTINUOUS
 10
-59.5413348528
 20
-36.9115869032
 11
-59.549065341
 21
-34.9521458762
  0
LINE
  5
248
100
AcDbEntity
  8
ASSI
100
AcDbLine
 62
250
  6
CONTINUOUS
 10
-59.549065341
 20
-34.9521458762
 11
-59.5535996781
 21
-32.8500049434
  0
LINE
  5
249
100
AcDbEntity
  8
ASSI
100
AcDbLine
 62
250
  6
CONTINUOUS
 10
-59.5535996781
 20
-32.8500049434
 11
-59.5572647549
 21
-26.497145625
  0
LINE
  5
24A
100
AcDbEntity
  8
ASSI
100
AcDbLine
 62
7
  6
CONTINUOUS
 10
-59.9500009052
 20
42.1502732688
 11
-59.9500009052
 21
-42.1502750113
  0
LINE
  5
24B
100
AcDbEntity
  8
ASSI
100
AcDbLine
 62
250
  6
CONTINUOUS
 10
-59.5572647549
 20
-26.497145625
 11
-59.5722124045
 21
-17.1738290824
  0
LINE
  5
24C
100
AcDbEntity
  8
ASSI
100
AcDbLine
 62
250
  6
CONTINUOUS
 10
-59.5614786029
 20
-4.0481621959
 11
-59.5719814528
 21
18.4212247064
  0
LINE
  5
24D
100
AcDbEntity
  8
ASSI
100
AcDbLine
 62
250
  6
CONTINUOUS
 10
-59.9092338761
 20
-42.1095079821
 11
-59.9092330793
 21
42.1095054428
  0
LWPOLYLINE
  5
24E
100
AcDbEntity
  8
ASSI
100
AcDbPolyline
 62
250
  6
CONTINUOUS
 90
3
 70
0
 10
-59.5722124045
 20
-17.1738290824
 10
-59.5679864713
 20
-13.3124474852
 10
-59.5614786029
 20
-4.0481621959
  0
LWPOLYLINE
  5
24F
100
AcDbEntity
  8
ASSI
100
AcDbPolyline
 62
250
  6
CONTINUOUS
 90
3
 70
0
 10
-59.5719814528
 20
18.4212247064
 10
-59.5680679999
 20
20.8433630807
 10
-59.5651867465
 20
22.0541730721
  0
LINE
  5
250
100
AcDbEntity
  8
ASSI
100
AcDbLine
 62
250
  6
CONTINUOUS
 10
-59.5651867465
 20
22.0541730721
 11
-59.5531511809
 21
33.1456071826
  0
LINE
  5
251
100
AcDbEntity
  8
ASSI
100
AcDbLine
 62
250
  6
CONTINUOUS
 10
-59.5531511809
 20
33.1456071826
 11
-59.5486261569
 21
35.0966101939
  0
LINE
  5
252
100
AcDbEntity
  8
ASSI
100
AcDbLine
 62
250
  6
CONTINUOUS
 10
-59.5486261569
 20
35.0966101939
 11
-59.541524135
 21
36.8548985793
  0
LINE
  5
253
100
AcDbEntity
  8
ASSI
100
AcDbLine
 62
250
  6
CONTINUOUS
 10
-59.541524135
 20
36.8548985793
 11
-59.5341172987
 21
38.0350354449
  0
LINE
  5
254
100
AcDbEntity
  8
ASSI
100
AcDbLine
 62
250
  6
CONTINUOUS
 10
-59.5341172987
 20
38.0350354449
 11
-59.5274716496
 21
38.7517000158
  0
LINE
  5
255
100
AcDbEntity
  8
ASSI
100
AcDbLine
 62
250
  6
CONTINUOUS
 10
-59.1331344549
 20
42.4475753336
 11
-59.1324252006
 21
42.5280363343
  0
LINE
  5
256
100
AcDbEntity
  8
ASSI
100
AcDbLine
 62
250
  6
CONTINUOUS
 10
-59.5274716496
 20
38.7517000158
 11
-59.5189683807
 21
39.4166910982
  0
LINE
  5
257
100
AcDbEntity
  8
ASSI
100
AcDbLine
 62
250
  6
CONTINUOUS
 10
-59.5189683807
 20
39.4166910982
 11
-59.5085128108
 21
40.0363981805
  0
LWPOLYLINE
  5
258
100
AcDbEntity
  8
ASSI
100
AcDbPolyline
 62
250
  6
CONTINUOUS
 90
16
 70
0
 10
-59.1324252006
 20
42.5280363343
 10
-59.1311069869
 20
42.6053467426
 10
-59.1302298501
 20
42.6421741787
 10
-59.1292148178
 20
42.6774537205
 10
-59.1280686393
 20
42.7109507832
 10
-59.126798936
 20
42.7424426276
 10
-59.1254141507
 20
42.7717198518
 10
-59.1239234914
 20
42.7985877795
 10
-59.1223368701
 20
42.8228677549
 10
-59.120664837
 20
42.8443983307
 10
-59.1189185083
 20
42.8630363562
 10
-59.1171094977
 20
42.8786578793
 10
-59.1152498391
 20
42.891158997
 10
-59.1133518999
 20
42.9004566028
 10
-59.1114282989
 20
42.9064889119
 10
-59.1094918268
 20
42.9092158394
  0
LINE
  5
259
100
AcDbEntity
  8
ASSI
100
AcDbLine
 62
250
  6
CONTINUOUS
 10
-59.5085128108
 20
40.0363981805
 11
-59.4960877056
 21
40.6139233812
  0
LINE
  5
25A
100
AcDbEntity
  8
ASSI
100
AcDbLine
 62
250
  6
CONTINUOUS
 10
-59.4960877056
 20
40.6139233812
 11
-59.4817771761
 21
41.1522890431
  0
LINE
  5
25B
100
AcDbEntity
  8
ASSI
100
AcDbLine
 62
250
  6
CONTINUOUS
 10
-59.4817771761
 20
41.1522890431
 11
-59.4657417159
 21
41.6576212715
  0
LINE
  5
25C
100
AcDbEntity
  8
ASSI
100
AcDbLine
 62
250
  6
CONTINUOUS
 10
-59.4657417159
 20
41.6576212715
 11
-59.4480282331
 21
42.131644416
  0
LWPOLYLINE
  5
25D
100
AcDbEntity
  8
ASSI
100
AcDbPolyline
 62
250
  6
CONTINUOUS
 90
22
 70
0
 10
59.1337109057
 20
-42.4474878347
 10
59.1562781568
 20
-42.4456845237
 10
59.1786069838
 20
-42.442236021
 10
59.2006969422
 20
-42.4371416158
 10
59.2226901381
 20
-42.4303475998
 10
59.2444435575
 20
-42.4219062283
 10
59.2655291883
 20
-42.4119758864
 10
59.2859130516
 20
-42.4005353182
 10
59.3056285238
 20
-42.3876047507
 10
59.3243488907
 20
-42.3734051688
 10
59.3420568247
 20
-42.357918547
 10
59.3587694593
 20
-42.3411624812
 10
59.3742120782
 20
-42.3234118305
 10
59.3883665705
 20
-42.3046498981
 10
59.4012513111
 20
-42.2848936113
 10
59.412646616
 20
-42.2644687087
 10
59.4225275208
 20
-42.2433696372
 10
59.4309196705
 20
-42.2216027651
 10
59.4376795406
 20
-42.1995120764
 10
59.4427596409
 20
-42.1772126845
 10
59.4462084176
 20
-42.1545906781
 10
59.4480263481
 20
-42.1316466476
  0
LWPOLYLINE
  5
25E
100
AcDbEntity
  8
ASSI
100
AcDbPolyline
 62
250
  6
CONTINUOUS
 90
22
 70
0
 10
59.1094899706
 20
-42.9092176071
 10
59.169270157
 20
-42.9069833992
 10
59.228716538
 20
-42.9002883224
 10
59.2874969898
 20
-42.8891690477
 10
59.3452870891
 20
-42.8736855903
 10
59.4017593736
 20
-42.8539244892
 10
59.4565862374
 20
-42.8300014404
 10
59.5094584297
 20
-42.8020542827
 10
59.5600854837
 20
-42.7702394383
 10
59.6081855805
 20
-42.7347367684
 10
59.6534867902
 20
-42.6957506159
 10
59.6957428434
 20
-42.6534965496
 10
59.7347310835
 20
-42.6081972144
 10
59.7702358203
 20
-42.560099013
 10
59.8020528119
 20
-42.5094737282
 10
59.8300024144
 20
-42.4566026859
 10
59.85392827
 20
-42.4017757837
 10
59.87369212
 20
-42.3453027201
 10
59.8891778793
 20
-42.2875121815
 10
59.9002990482
 20
-42.2287320587
 10
59.9069958165
 20
-42.1692864595
 10
59.9092316163
 20
-42.1095075328
  0
LWPOLYLINE
  5
25F
100
AcDbEntity
  8
ASSI
100
AcDbPolyline
 62
250
  6
CONTINUOUS
 90
3
 70
0
 10
59.1337109057
 20
-42.4474878347
 10
58.3247530534
 20
-42.4789742506
 10
57.8915236841
 20
-42.4936079465
  0
LWPOLYLINE
  5
260
100
AcDbEntity
  8
ASSI
100
AcDbPolyline
 62
250
  6
CONTINUOUS
 90
3
 70
0
 10
-57.9858598367
 20
-42.4905010634
 10
-58.7652892406
 20
-42.4625160782
 10
-59.1335232226
 20
-42.4475170859
  0
LWPOLYLINE
  5
261
100
AcDbEntity
  8
0
100
AcDbPolyline
 62
7
  6
CONTINUOUS
 90
3
 70
0
 43
0.3500000006
 10
-3.2142865334
 20
56.7870151062
 10
-2.3571437788
 20
57.6441621094
 10
-2.3571437788
 20
54.6441611938
  0
LINE
  5
262
100
AcDbEntity
  8
ASSI
100
AcDbLine
 62
250
  6
CONTINUOUS
 10
57.8915236841
 20
-42.4936079465
 11
56.9668239276
 21
-42.5208167183
  0
LINE
  5
263
100
AcDbEntity
  8
ASSI
100
AcDbLine
 62
250
  6
CONTINUOUS
 10
56.9668239276
 20
-42.5208167183
 11
55.9664670442
 21
-42.5441934533
  0
LINE
  5
264
100
AcDbEntity
  8
ASSI
100
AcDbLine
 62
250
  6
CONTINUOUS
 10
59.6424515876
 20
-42.1290710139
 11
59.5675561346
 21
-42.130592123
  0
LINE
  5
265
100
AcDbEntity
  8
ASSI
100
AcDbLine
 62
250
  6
CONTINUOUS
 10
55.9664670442
 20
-42.5441934533
 11
54.9000131684
 21
-42.5634217846
  0
LINE
  5
266
100
AcDbEntity
  8
ASSI
100
AcDbLine
 62
250
  6
CONTINUOUS
 10
54.9000131684
 20
-42.5634217846
 11
53.7989337285
 21
-42.5781588129
  0
LWPOLYLINE
  5
267
100
AcDbEntity
  8
ASSI
100
AcDbPolyline
 62
250
  6
CONTINUOUS
 90
3
 70
0
 10
59.5675561346
 20
-42.130592123
 10
59.488465896
 20
-42.1315539931
 10
59.4480004428
 20
-42.1318166402
  0
LINE
  5
268
100
AcDbEntity
  8
ASSI
100
AcDbLine
 62
250
  6
CONTINUOUS
 10
53.7989337285
 20
-42.5781588129
 11
52.6702695328
 21
-42.5895758425
  0
LINE
  5
269
100
AcDbEntity
  8
ASSI
100
AcDbLine
 62
250
  6
CONTINUOUS
 10
52.6702695328
 20
-42.5895758425
 11
50.9101605972
 21
-42.6024325706
  0
LINE
  5
26A
100
AcDbEntity
  8
ASSI
100
AcDbLine
 62
250
  6
CONTINUOUS
 10
50.9101605972
 20
-42.6024325706
 11
49.0172394501
 21
-42.6128167049
  0
LINE
  5
26B
100
AcDbEntity
  8
ASSI
100
AcDbLine
 62
250
  6
CONTINUOUS
 10
49.0172394501
 20
-42.6128167049
 11
46.9637713047
 21
-42.6211408808
  0
LINE
  5
26C
100
AcDbEntity
  8
ASSI
100
AcDbLine
 62
250
  6
CONTINUOUS
 10
46.9637713047
 20
-42.6211408808
 11
43.9569565758
 21
-42.6290845485
  0
LINE
  5
26D
100
AcDbEntity
  8
ASSI
100
AcDbLine
 62
250
  6
CONTINUOUS
 10
43.9569565758
 20
-42.6290845485
 11
40.6106992634
 21
-42.6341949063
  0
LINE
  5
26E
100
AcDbEntity
  8
ASSI
100
AcDbLine
 62
250
  6
CONTINUOUS
 10
-24.553189991
 20
-42.6237467146
 11
-34.8508617233
 21
-42.6361729652
  0
LINE
  5
26F
100
AcDbEntity
  8
ASSI
100
AcDbLine
 62
250
  6
CONTINUOUS
 10
40.6106992634
 20
-42.6341949063
 11
36.8993981799
 21
-42.6364341549
  0
LINE
  5
270
100
AcDbEntity
  8
ASSI
100
AcDbLine
 62
250
  6
CONTINUOUS
 10
-0.0000009052
 20
-42.5800433822
 11
-24.553189991
 21
-42.6237467146
  0
LINE
  5
271
100
AcDbEntity
  8
ASSI
100
AcDbLine
 62
7
  6
CONTINUOUS
 10
-59.1502750453
 20
-42.9500008712
 11
59.1502732348
 21
-42.9500008712
  0
LINE
  5
272
100
AcDbEntity
  8
ASSI
100
AcDbLine
 62
250
  6
CONTINUOUS
 10
-47.9340894572
 20
-42.9045623876
 11
-59.1094918738
 21
-42.9092176998
  0
LINE
  5
273
100
AcDbEntity
  8
ASSI
100
AcDbLine
 62
250
  6
CONTINUOUS
 10
-6.8796979398
 20
-42.9052314053
 11
-47.9340894572
 21
-42.9045623876
  0
LINE
  5
274
100
AcDbEntity
  8
ASSI
100
AcDbLine
 62
250
  6
CONTINUOUS
 10
-34.8508617233
 20
-42.6361729652
 11
-38.5410755753
 21
-42.6359034147
  0
LINE
  5
275
100
AcDbEntity
  8
ASSI
100
AcDbLine
 62
250
  6
CONTINUOUS
 10
36.8993981799
 20
-42.6364341549
 11
32.7854699487
 21
-42.6349856258
  0
LINE
  5
276
100
AcDbEntity
  8
ASSI
100
AcDbLine
 62
250
  6
CONTINUOUS
 10
57.4237604953
 20
-42.9075118519
 11
-6.8796979398
 21
-42.9052314053
  0
LINE
  5
277
100
AcDbEntity
  8
ASSI
100
AcDbLine
 62
250
  6
CONTINUOUS
 10
58.3055307819
 20
-42.9083097528
 11
57.4237604953
 21
-42.9075118519
  0
LINE
  5
278
100
AcDbEntity
  8
ASSI
100
AcDbLine
 62
250
  6
CONTINUOUS
 10
59.1094907366
 20
-42.9092183731
 11
58.3055307819
 21
-42.9083097528
  0
LINE
  5
279
100
AcDbEntity
  8
ASSI
100
AcDbLine
 62
250
  6
CONTINUOUS
 10
32.7854699487
 20
-42.6349856258
 11
28.1466759871
 21
-42.6297399266
  0
LINE
  5
27A
100
AcDbEntity
  8
ASSI
100
AcDbLine
 62
250
  6
CONTINUOUS
 10
-38.5410755753
 20
-42.6359034147
 11
-42.5733087404
 21
-42.6315568341
  0
LINE
  5
27B
100
AcDbEntity
  8
ASSI
100
AcDbLine
 62
250
  6
CONTINUOUS
 10
9.9487620643
 20
-42.5930993037
 11
-0.0000009052
 21
-42.5800433822
  0
LINE
  5
27C
100
AcDbEntity
  8
ASSI
100
AcDbLine
 62
250
  6
CONTINUOUS
 10
28.1466759871
 20
-42.6297399266
 11
21.7681847847
 21
-42.6181920818
  0
LINE
  5
27D
100
AcDbEntity
  8
ASSI
100
AcDbLine
 62
250
  6
CONTINUOUS
 10
21.7681847847
 20
-42.6181920818
 11
9.9487620643
 21
-42.5930993037
  0
LINE
  5
27E
100
AcDbEntity
  8
ASSI
100
AcDbLine
 62
250
  6
CONTINUOUS
 10
-42.5733087404
 20
-42.6315568341
 11
-45.404783594
 21
-42.6257868369
  0
LINE
  5
27F
100
AcDbEntity
  8
ASSI
100
AcDbLine
 62
250
  6
CONTINUOUS
 10
-45.404783594
 20
-42.6257868369
 11
-47.9360177739
 21
-42.6175489108
  0
LINE
  5
280
100
AcDbEntity
  8
ASSI
100
AcDbLine
 62
250
  6
CONTINUOUS
 10
-47.9360177739
 20
-42.6175489108
 11
-50.2566253057
 21
-42.6063243156
  0
LINE
  5
281
100
AcDbEntity
  8
ASSI
100
AcDbLine
 62
250
  6
CONTINUOUS
 10
-50.2566253057
 20
-42.6063243156
 11
-51.9691871322
 21
-42.5951288481
  0
LINE
  5
282
100
AcDbEntity
  8
ASSI
100
AcDbLine
 62
250
  6
CONTINUOUS
 10
-51.9691871322
 20
-42.5951288481
 11
-53.1132448684
 21
-42.5854763125
  0
LINE
  5
283
100
AcDbEntity
  8
ASSI
100
AcDbLine
 62
250
  6
CONTINUOUS
 10
-59.4480022281
 20
-42.1318166769
 11
-59.5284081714
 21
-42.1311449495
  0
LINE
  5
284
100
AcDbEntity
  8
ASSI
100
AcDbLine
 62
250
  6
CONTINUOUS
 10
-53.1132448684
 20
-42.5854763125
 11
-54.220887787
 21
-42.5729877048
  0
LINE
  5
285
100
AcDbEntity
  8
ASSI
100
AcDbLine
 62
250
  6
CONTINUOUS
 10
-54.220887787
 20
-42.5729877048
 11
-55.2745385041
 21
-42.5573002035
  0
LWPOLYLINE
  5
286
100
AcDbEntity
  8
ASSI
100
AcDbPolyline
 62
250
  6
CONTINUOUS
 90
16
 70
0
 10
-59.5284081714
 20
-42.1311449495
 10
-59.6056576658
 20
-42.1298993198
 10
-59.6424536744
 20
-42.129071043
 10
-59.6777017862
 20
-42.1281128267
 10
-59.7111678877
 20
-42.1270310354
 10
-59.7426296963
 20
-42.1258328542
 10
-59.7718782444
 20
-42.1245262414
 10
-59.7987192648
 20
-42.1231198754
 10
-59.822974481
 20
-42.1216230972
 10
-59.8444827912
 20
-42.1200458485
 10
-59.8631013506
 20
-42.1183986038
 10
-59.8787064793
 20
-42.1166923053
 10
-59.8911945051
 20
-42.11493829
 10
-59.9004824983
 20
-42.1131482095
 10
-59.9065088003
 20
-42.1113339521
 10
-59.9092334062
 20
-42.1095075679
  0
LINE
  5
287
100
AcDbEntity
  8
ASSI
100
AcDbLine
 62
250
  6
CONTINUOUS
 10
-55.2745385041
 20
-42.5573002035
 11
-56.2489747061
 21
-42.5381904854
  0
LINE
  5
288
100
AcDbEntity
  8
ASSI
100
AcDbLine
 62
250
  6
CONTINUOUS
 10
-56.2489747061
 20
-42.5381904854
 11
-57.1513608959
 21
-42.5158692019
  0
LINE
  5
289
100
AcDbEntity
  8
ASSI
100
AcDbLine
 62
250
  6
CONTINUOUS
 10
-57.1513608959
 20
-42.5158692019
 11
-57.9858598367
 21
-42.4905010634
  0
LINE
  5
28A
100
AcDbEntity
  8
RACCORDO
100
AcDbLine
 62
250
  6
CONTINUOUS
 10
-34.3109195868
 20
-22.2699219694
 11
-34.3220681478
 21
-18.6562161656
  0
LINE
  5
28B
100
AcDbEntity
  8
RACCORDO
100
AcDbLine
 62
250
  6
CONTINUOUS
 10
-34.3220681478
 20
-18.6562161656
 11
-34.3312852478
 21
-14.5336500781
  0
LINE
  5
28C
100
AcDbEntity
  8
RACCORDO
100
AcDbLine
 62
250
  6
CONTINUOUS
 10
-34.3312104387
 20
14.5729620741
 11
-34.3109195868
 21
22.2699202269
  0
LWPOLYLINE
  5
28D
100
AcDbEntity
  8
RACCORDO
100
AcDbPolyline
 62
250
  6
CONTINUOUS
 90
25
 70
0
 10
-34.0062764634
 20
22.2581773378
 10
-34.0051720481
 20
22.2909217535
 10
-34.0019384202
 20
22.3233823219
 10
-33.9966137182
 20
22.3554245185
 10
-33.9892571229
 20
22.3868722672
 10
-33.9799160217
 20
22.4176474529
 10
-33.9685963457
 20
22.4477615582
 10
-33.9553180239
 20
22.4771365242
 10
-33.9401501323
 20
22.5055987183
 10
-33.9231609287
 20
22.5330139574
 10
-33.9044171156
 20
22.5592711359
 10
-33.8839988362
 20
22.584256548
 10
-33.8620126749
 20
22.6078442505
 10
-33.8385695152
 20
22.6299245505
 10
-33.8137556744
 20
22.6504258303
 10
-33.7876496639
 20
22.669287586
 10
-33.7604331607
 20
22.6863861375
 10
-33.7321480859
 20
22.7017018445
 10
-33.7026394746
 20
22.7152860231
 10
-33.671879219
 20
22.727071554
 10
-33.6400977007
 20
22.7368915769
 10
-33.6075224838
 20
22.7446255148
 10
-33.5743241618
 20
22.7501957407
 10
-33.5406089606
 20
22.7535459669
 10
-33.5065247209
 20
22.7546202935
  0
LWPOLYLINE
  5
28E
100
AcDbEntity
  8
RACCORDO
100
AcDbPolyline
 62
250
  6
CONTINUOUS
 90
25
 70
0
 10
-34.3109195868
 20
22.2699202269
 10
-34.3088951807
 20
22.322619361
 10
-34.3036189815
 20
22.3744602554
 10
-34.2950909909
 20
22.4254428861
 10
-34.2832555437
 20
22.4756963019
 10
-34.2681683239
 20
22.5250914157
 10
-34.2499963655
 20
22.5732410015
 10
-34.2286940805
 20
22.6202141237
 10
-34.2043071045
 20
22.6659416947
 10
-34.1771393124
 20
22.7098292617
 10
-34.147143945
 20
22.7518549705
 10
-34.1143678301
 20
22.7920406663
 10
-34.0792552239
 20
22.8298574447
 10
-34.0418021942
 20
22.8652516146
 10
-34.0020127493
 20
22.8982768726
 10
-33.9603430485
 20
22.928565395
 10
-33.9169130546
 20
22.9560667492
 10
-33.8716028759
 20
22.9808313862
 10
-33.8245088848
 20
23.0026428088
 10
-33.7754130715
 20
23.0215889604
 10
-33.724533523
 20
23.0375819342
 10
-33.6726207422
 20
23.0501414563
 10
-33.6199249064
 20
23.059107447
 10
-33.5661958833
 20
23.0646400268
 10
-33.5114336962
 20
23.0667392205
  0
LWPOLYLINE
  5
28F
100
AcDbEntity
  8
RACCORDO
100
AcDbPolyline
 62
250
  6
CONTINUOUS
 90
6
 70
0
 10
-33.5089201893
 20
22.8052881451
 10
-33.508471596
 20
22.7894394801
 10
-33.5080028258
 20
22.7763274662
 10
-33.5075187371
 20
22.7660880021
 10
-33.5070243474
 20
22.7588272136
 10
-33.506524781
 20
22.7546203535
  0
LINE
  5
290
100
AcDbEntity
  8
RACCORDO
100
AcDbLine
 62
250
  6
CONTINUOUS
 10
-33.5097385042
 20
22.8445117139
 11
-33.5089201893
 21
22.8052881451
  0
LINE
  5
291
100
AcDbEntity
  8
RACCORDO
100
AcDbLine
 62
250
  6
CONTINUOUS
 10
-33.5104239324
 20
22.8923762541
 11
-33.5097385042
 21
22.8445117139
  0
LINE
  5
292
100
AcDbEntity
  8
RACCORDO
100
AcDbLine
 62
250
  6
CONTINUOUS
 10
-33.5111427078
 20
22.9759674957
 11
-33.5104239324
 21
22.8923762541
  0
LINE
  5
293
100
AcDbEntity
  8
RACCORDO
100
AcDbLine
 62
250
  6
CONTINUOUS
 10
-34.0062764989
 20
-22.2581791159
 11
-34.0149578339
 21
-19.235685001
  0
LINE
  5
294
100
AcDbEntity
  8
RACCORDO
100
AcDbLine
 62
250
  6
CONTINUOUS
 10
-33.5114336962
 20
23.0667392205
 11
-33.5111427078
 21
22.9759674957
  0
LINE
  5
295
100
AcDbEntity
  8
RACCORDO
100
AcDbLine
 62
250
  6
CONTINUOUS
 10
-34.0149578339
 20
-19.235685001
 11
-34.0226643754
 21
-15.1169634114
  0
LINE
  5
296
100
AcDbEntity
  8
RACCORDO
100
AcDbLine
 62
250
  6
CONTINUOUS
 10
-34.3312852478
 20
-14.5336500781
 11
-34.3402461032
 21
-8.6542535651
  0
LINE
  5
297
100
AcDbEntity
  8
RACCORDO
100
AcDbLine
 62
250
  6
CONTINUOUS
 10
-34.3402461032
 20
-8.6542535651
 11
-34.3449975411
 21
-3.6488393227
  0
LINE
  5
298
100
AcDbEntity
  8
RACCORDO
100
AcDbLine
 62
250
  6
CONTINUOUS
 10
-34.0226643754
 20
-15.1169634114
 11
-34.0300805274
 21
-8.0557629362
  0
LINE
  5
299
100
AcDbEntity
  8
RACCORDO
100
AcDbLine
 62
250
  6
CONTINUOUS
 10
-34.0300805274
 20
-8.0557629362
 11
-34.0333078096
 21
-2.2522511055
  0
LINE
  5
29A
100
AcDbEntity
  8
RACCORDO
100
AcDbLine
 62
7
  6
CONTINUOUS
 10
-33.8500009052
 20
22.1019017797
 11
-33.8500009052
 21
-22.1019035222
  0
LINE
  5
29B
100
AcDbEntity
  8
RACCORDO
100
AcDbLine
 62
250
  6
CONTINUOUS
 10
-34.3449975411
 20
-3.6488393227
 11
-34.3461053249
 21
0.6915690273
  0
LINE
  5
29C
100
AcDbEntity
  8
RACCORDO
100
AcDbLine
 62
250
  6
CONTINUOUS
 10
-34.0333078096
 20
-2.2522511055
 11
-34.0320856538
 21
5.1611447968
  0
LINE
  5
29D
100
AcDbEntity
  8
RACCORDO
100
AcDbLine
 62
250
  6
CONTINUOUS
 10
-34.3461053249
 20
0.6915690273
 11
-34.3433725095
 21
5.7657892012
  0
LINE
  5
29E
100
AcDbEntity
  8
RACCORDO
100
AcDbLine
 62
250
  6
CONTINUOUS
 10
-34.0320856538
 20
5.1611447968
 11
-34.0255695202
 21
12.810449756
  0
LINE
  5
29F
100
AcDbEntity
  8
RACCORDO
100
AcDbLine
 62
250
  6
CONTINUOUS
 10
-34.3433725095
 20
5.7657892012
 11
-34.3342889464
 21
12.8142740447
  0
LINE
  5
2A0
100
AcDbEntity
  8
RACCORDO
100
AcDbLine
 62
250
  6
CONTINUOUS
 10
-34.3342889464
 20
12.8142740447
 11
-34.3312104387
 21
14.5729620741
  0
LINE
  5
2A1
100
AcDbEntity
  8
RACCORDO
100
AcDbLine
 62
250
  6
CONTINUOUS
 10
-34.0255695202
 20
12.810449756
 11
-34.0128461775
 21
20.0742814655
  0
LINE
  5
2A2
100
AcDbEntity
  8
RACCORDO
100
AcDbLine
 62
250
  6
CONTINUOUS
 10
-34.0128461775
 20
20.0742814655
 11
-34.0062764989
 21
22.2581773734
  0
LINE
  5
2A3
100
AcDbEntity
  8
RACCORDO
100
AcDbLine
 62
250
  6
CONTINUOUS
 10
-33.5114336968
 20
-23.066740963
 11
-33.5111427199
 21
-22.9759679842
  0
LINE
  5
2A4
100
AcDbEntity
  8
RACCORDO
100
AcDbLine
 62
250
  6
CONTINUOUS
 10
-33.5111427199
 20
-22.9759679842
 11
-33.5104239436
 21
-22.8923764623
  0
LINE
  5
2A5
100
AcDbEntity
  8
RACCORDO
100
AcDbLine
 62
250
  6
CONTINUOUS
 10
-33.5104239436
 20
-22.8923764623
 11
-33.5097385127
 21
-22.8445121816
  0
LWPOLYLINE
  5
2A6
100
AcDbEntity
  8
RACCORDO
100
AcDbPolyline
 62
250
  6
CONTINUOUS
 90
7
 70
0
 10
-33.5097385127
 20
-22.8445121816
 10
-33.5089201955
 20
-22.8052890659
 10
-33.5084716017
 20
-22.7894406493
 10
-33.5080028299
 20
-22.7763288318
 10
-33.5075187381
 20
-22.7660895082
 10
-33.5070243441
 20
-22.7588288251
 10
-33.506524772
 20
-22.7546220436
  0
LWPOLYLINE
  5
2A7
100
AcDbEntity
  8
0
100
AcDbPolyline
 62
7
  6
CONTINUOUS
 90
25
 70
0
 10
2.9643015968
 20
-25.5096502829
 10
3.0177564908
 20
-25.5019447921
 10
3.0711732716
 20
-25.4945954013
 10
3.124544039
 20
-25.4876525406
 10
3.1778174595
 20
-25.4811709702
 10
3.2310292805
 20
-25.475193642
 10
3.2843028682
 20
-25.4697559116
 10
3.3376449098
 20
-25.4649084005
 10
3.3910345897
 20
-25.4607044109
 10
3.444554731
 20
-25.4571904806
 10
3.4982062173
 20
-25.4544219936
 10
3.5519742484
 20
-25.4524557964
 10
3.6059183276
 20
-25.45134789
 10
3.6600876014
 20
-25.4511594282
 10
3.7144185829
 20
-25.4519540008
 10
3.7688017122
 20
-25.453790074
 10
3.8231821453
 20
-25.4567221434
 10
3.8775998369
 20
-25.4608090761
 10
3.9320657066
 20
-25.4661422005
 10
3.9865277103
 20
-25.4729263759
 10
4.0407998098
 20
-25.4813807681
 10
4.094622926
 20
-25.491704427
 10
4.1478274826
 20
-25.5040991734
 10
4.2003306166
 20
-25.5187837779
 10
4.2520066213
 20
-25.5359686154
  0
LWPOLYLINE
  5
2A8
100
AcDbEntity
  8
0
100
AcDbPolyline
 62
7
  6
CONTINUOUS
 90
31
 70
0
 10
3.7648925262
 20
-26.5925259486
 10
3.7859629663
 20
-26.5917848253
 10
3.8071437461
 20
-26.5904689822
 10
3.8283363523
 20
-26.5885351966
 10
3.8493850067
 20
-26.5859505578
 10
3.8702591221
 20
-26.5826713122
 10
3.891050568
 20
-26.5786215252
 10
3.9116678881
 20
-26.5737438516
 10
3.9320180326
 20
-26.567980159
 10
3.9521764118
 20
-26.5612095961
 10
3.9721302007
 20
-26.5533041552
 10
3.9916582194
 20
-26.5442043544
 10
4.0105173607
 20
-26.5338847808
 10
4.0286111991
 20
-26.5222579337
 10
4.0458021457
 20
-26.5092571573
 10
4.0618303714
 20
-26.4949570375
 10
4.0766496468
 20
-26.4794664814
 10
4.0903091192
 20
-26.4628934734
 10
4.1027813297
 20
-26.4454368631
 10
4.1140802192
 20
-26.4272606458
 10
4.124253479
 20
-26.408471152
 10
4.1333343826
 20
-26.3891827847
 10
4.1413299942
 20
-26.3695661513
 10
4.1482921067
 20
-26.3496830891
 10
4.154294457
 20
-26.3294655902
 10
4.1593359163
 20
-26.3090227929
 10
4.1634223258
 20
-26.2884378236
 10
4.1665832269
 20
-26.267590159
 10
4.1687960364
 20
-26.2465063632
 10
4.1700193714
 20
-26.2253637887
 10
4.1702242167
 20
-26.2042739591
  0
LINE
  5
2A9
100
AcDbEntity
  8
0
100
AcDbLine
 62
7
  6
CONTINUOUS
 10
4.7849528554
 20
-27.9801806519
 11
4.2830487571
 21
-27.9801806519
  0
LINE
  5
2AA
100
AcDbEntity
  8
0
100
AcDbLine
 62
7
  6
CONTINUOUS
 10
3.4839949384
 20
-27.9801806519
 11
2.9643015968
 21
-27.9801806519
  0
LINE
  5
2AB
100
AcDbEntity
  8
0
100
AcDbLine
 62
7
  6
CONTINUOUS
 10
2.8110780948
 20
-27.9801808712
 11
2.2611300948
 21
-27.9801808712
  0
LINE
  5
2AC
100
AcDbEntity
  8
0
100
AcDbLine
 62
7
  6
CONTINUOUS
 10
1.2713800948
 20
-27.9801808712
 11
0.7552490948
 21
-27.9801808712
  0
LINE
  5
2AD
100
AcDbEntity
  8
0
100
AcDbLine
 62
7
  6
CONTINUOUS
 10
0.6733130948
 20
-27.9801808712
 11
0.1628610948
 21
-27.9801808712
  0
LINE
  5
2AE
100
AcDbEntity
  8
0
100
AcDbLine
 62
7
  6
CONTINUOUS
 10
-0.5647539052
 20
-27.9801808712
 11
-0.6379359052
 21
-27.9801808712
  0
LINE
  5
2AF
100
AcDbEntity
  8
0
100
AcDbLine
 62
7
  6
CONTINUOUS
 10
-1.3626649052
 20
-27.9801808712
 11
-1.8618509052
 21
-27.9801808712
  0
LINE
  5
2B0
100
AcDbEntity
  8
0
100
AcDbLine
 62
7
  6
CONTINUOUS
 10
-2.1427479052
 20
-27.9801808712
 11
-2.6645409052
 21
-27.9801808712
  0
LINE
  5
2B1
100
AcDbEntity
  8
0
100
AcDbLine
 62
7
  6
CONTINUOUS
 10
-3.6616949052
 20
-27.9801808712
 11
-4.1215249052
 21
-27.9801808712
  0
LINE
  5
2B2
100
AcDbEntity
  8
0
100
AcDbLine
 62
7
  6
CONTINUOUS
 10
2.1259580948
 20
-27.4811448712
 11
1.4153630948
 21
-27.4811448712
  0
LINE
  5
2B3
100
AcDbEntity
  8
0
100
AcDbLine
 62
7
  6
CONTINUOUS
 10
1.5220980948
 20
-27.0949928712
 11
2.0216780948
 21
-27.0949928712
  0
LINE
  5
2B4
100
AcDbEntity
  8
0
100
AcDbLine
 62
7
  6
CONTINUOUS
 10
3.7637678111
 20
-27.0019222326
 11
3.4839949384
 21
-27.0019222326
  0
LINE
  5
2B5
100
AcDbEntity
  8
0
100
AcDbLine
 62
7
  6
CONTINUOUS
 10
3.4666930716
 20
-26.5925259486
 11
3.7648925262
 21
-26.5925259486
  0
LINE
  5
2B6
100
AcDbEntity
  8
0
100
AcDbLine
 62
7
  6
CONTINUOUS
 10
-4.9139899052
 20
-25.4804448712
 11
-4.3471619052
 21
-25.4804448712
  0
LINE
  5
2B7
100
AcDbEntity
  8
0
100
AcDbLine
 62
7
  6
CONTINUOUS
 10
-3.3796159052
 20
-25.4804448712
 11
-2.8581799052
 21
-25.4804448712
  0
LINE
  5
2B8
100
AcDbEntity
  8
0
100
AcDbLine
 62
7
  6
CONTINUOUS
 10
-1.6361389052
 20
-25.4804448712
 11
-1.1147779052
 21
-25.4804448712
  0
LINE
  5
2B9
100
AcDbEntity
  8
0
100
AcDbLine
 62
7
  6
CONTINUOUS
 10
-0.0767029052
 20
-25.4804448712
 11
0.4395600948
 21
-25.4804448712
  0
LINE
  5
2BA
100
AcDbEntity
  8
0
100
AcDbLine
 62
7
  6
CONTINUOUS
 10
1.5393250948
 20
-25.4804448712
 11
2.0440970948
 21
-25.4804448712
  0
LINE
  5
2BB
100
AcDbEntity
  8
0
100
AcDbLine
 62
7
  6
CONTINUOUS
 10
-2.6645409052
 20
-25.4802948712
 11
-2.1427479052
 21
-25.4802948712
  0
LWPOLYLINE
  5
2BC
100
AcDbEntity
  8
0
100
AcDbPolyline
 62
7
  6
CONTINUOUS
 90
10
 70
0
 10
3.8754575133
 20
-25.8915832363
 10
3.8316942983
 20
-25.8872399257
 10
3.7873785541
 20
-25.8843241031
 10
3.7425747966
 20
-25.882872726
 10
3.697373346
 20
-25.8829226256
 10
3.6518235024
 20
-25.8845101927
 10
3.6059339715
 20
-25.8876789213
 10
3.5597616436
 20
-25.8924735351
 10
3.5133614216
 20
-25.8987891313
 10
3.4666930716
 20
-25.9062997962
  0
LWPOLYLINE
  5
2BD
100
AcDbEntity
  8
RACCORDO
100
AcDbPolyline
 62
250
  6
CONTINUOUS
 90
12
 70
0
 10
-34.1934459601
 20
-22.2686800091
 10
-34.1661560416
 20
-22.2680955722
 10
-34.1402600875
 20
-22.2674116678
 10
-34.1160178355
 20
-22.2666351554
 10
-34.0936724365
 20
-22.2657738237
 10
-34.0734480158
 20
-22.2648363119
 10
-34.0555474253
 20
-22.2638320231
 10
-34.0401502087
 20
-22.2627710303
 10
-34.0274108009
 20
-22.2616639758
 10
-34.0174569786
 20
-22.2605219633
 10
-34.0103885791
 20
-22.2593564467
 10
-34.0062764989
 20
-22.2581791159
  0
LINE
  5
2BE
100
AcDbEntity
  8
RACCORDO
100
AcDbLine
 62
250
  6
CONTINUOUS
 10
-34.2511015777
 20
-22.2695280902
 11
-34.1934459601
 21
-22.2686800091
  0
LINE
  5
2BF
100
AcDbEntity
  8
RACCORDO
100
AcDbLine
 62
250
  6
CONTINUOUS
 10
-34.3109195868
 20
-22.2699219694
 11
-34.2511015777
 21
-22.2695280902
  0
LINE
  5
2C0
100
AcDbEntity
  8
RACCORDO
100
AcDbLine
 62
250
  6
CONTINUOUS
 10
33.5114318858
 20
-23.066740963
 11
16.4362950384
 21
-23.0962550538
  0
LINE
  5
2C1
100
AcDbEntity
  8
RACCORDO
100
AcDbLine
 62
250
  6
CONTINUOUS
 10
16.4362950384
 20
-23.0962550538
 11
11.1962818028
 21
-23.1028102411
  0
LINE
  5
2C2
100
AcDbEntity
  8
RACCORDO
100
AcDbLine
 62
250
  6
CONTINUOUS
 10
33.5065229705
 20
-22.754622096
 11
17.1204780134
 21
-22.773837791
  0
LINE
  5
2C3
100
AcDbEntity
  8
RACCORDO
100
AcDbLine
 62
250
  6
CONTINUOUS
 10
17.1204780134
 20
-22.773837791
 11
9.5521550487
 21
-22.7792347366
  0
LINE
  5
2C4
100
AcDbEntity
  8
RACCORDO
100
AcDbLine
 62
250
  6
CONTINUOUS
 10
11.1962818028
 20
-23.1028102411
 11
5.084857192
 21
-23.1067522724
  0
LINE
  5
2C5
100
AcDbEntity
  8
RACCORDO
100
AcDbLine
 62
250
  6
CONTINUOUS
 10
9.5521550487
 20
-22.7792347366
 11
1.0702701499
 21
-22.7812870981
  0
LINE
  5
2C6
100
AcDbEntity
  8
RACCORDO
100
AcDbLine
 62
7
  6
CONTINUOUS
 10
-33.3519035562
 20
-22.6000008712
 11
33.3519017457
 21
-22.6000008712
  0
LINE
  5
2C7
100
AcDbEntity
  8
RACCORDO
100
AcDbLine
 62
250
  6
CONTINUOUS
 10
5.084857192
 20
-23.1067522724
 11
-1.8721637233
 21
-23.1075278711
  0
LINE
  5
2C8
100
AcDbEntity
  8
RACCORDO
100
AcDbLine
 62
250
  6
CONTINUOUS
 10
1.0702701499
 20
-22.7812870981
 11
-7.9170320141
 21
-22.7799224275
  0
LINE
  5
2C9
100
AcDbEntity
  8
RACCORDO
100
AcDbLine
 62
250
  6
CONTINUOUS
 10
-1.8721637233
 20
-23.1075278711
 11
-9.5322366207
 21
-23.1042429497
  0
LINE
  5
2CA
100
AcDbEntity
  8
RACCORDO
100
AcDbLine
 62
250
  6
CONTINUOUS
 10
-7.9170320141
 20
-22.7799224275
 11
-16.7430198871
 21
-22.7741981419
  0
LINE
  5
2CB
100
AcDbEntity
  8
RACCORDO
100
AcDbLine
 62
250
  6
CONTINUOUS
 10
-9.5322366207
 20
-23.1042429497
 11
-15.4335573012
 21
-23.0977597259
  0
LINE
  5
2CC
100
AcDbEntity
  8
RACCORDO
100
AcDbLine
 62
250
  6
CONTINUOUS
 10
-16.7430198871
 20
-22.7741981419
 11
-33.506524781
 21
-22.754622096
  0
LINE
  5
2CD
100
AcDbEntity
  8
RACCORDO
100
AcDbLine
 62
250
  6
CONTINUOUS
 10
-15.4335573012
 20
-23.0977597259
 11
-33.5114336962
 21
-23.066740963
  0
LINE
  5
2CE
100
AcDbEntity
  8
RACCORDO
100
AcDbLine
 62
250
  6
CONTINUOUS
 10
34.3109177763
 20
-22.26992197
 11
34.2510987932
 21
-22.2695280023
  0
LWPOLYLINE
  5
2CF
100
AcDbEntity
  8
RACCORDO
100
AcDbPolyline
 62
250
  6
CONTINUOUS
 90
13
 70
0
 10
34.2510987932
 20
-22.2695280023
 10
34.1934426393
 20
-22.2686798472
 10
34.1661526245
 20
-22.2680953817
 10
34.1402566732
 20
-22.2674114559
 10
34.1160145146
 20
-22.2666349308
 10
34.0936692831
 20
-22.2657735955
 10
34.0734450758
 20
-22.2648360892
 10
34.0555447364
 20
-22.2638318162
 10
34.0401477766
 20
-22.2627708492
 10
34.0274085847
 20
-22.2616638274
 10
34.0174549279
 20
-22.2605218531
 10
34.0103866522
 20
-22.259356381
 10
34.0062746528
 20
-22.2581791007
  0
LWPOLYLINE
  5
2D0
100
AcDbEntity
  8
RACCORDO
100
AcDbPolyline
 62
250
  6
CONTINUOUS
 90
25
 70
0
 10
-33.5065247285
 20
-22.7546220436
 10
-33.5394171287
 20
-22.7536243362
 10
-33.5720275646
 20
-22.7504986721
 10
-33.6042211392
 20
-22.7452839441
 10
-33.6358220453
 20
-22.7380405246
 10
-33.6667514459
 20
-22.7288161517
 10
-33.6970191142
 20
-22.7176163032
 10
-33.7265471434
 20
-22.7044620538
 10
-33.7551618919
 20
-22.689422955
 10
-33.7827273627
 20
-22.672565796
 10
-33.809133004
 20
-22.6539579076
 10
-33.8342651976
 20
-22.6336801478
 10
-33.8579956722
 20
-22.611837756
 10
-33.8802153185
 20
-22.5885420473
 10
-33.9008532012
 20
-22.5638800624
 10
-33.9198469572
 20
-22.537929489
 10
-33.9370723711
 20
-22.5108740696
 10
-33.952512541
 20
-22.482754602
 10
-33.9662211122
 20
-22.4534099604
 10
-33.9781321726
 20
-22.4228108152
 10
-33.9880776201
 20
-22.3911880893
 10
-33.9959343393
 20
-22.3587652555
 10
-34.0016236056
 20
-22.3257112946
 10
-34.0050897077
 20
-22.292133379
 10
-34.0062764582
 20
-22.2581790752
  0
LWPOLYLINE
  5
2D1
100
AcDbEntity
  8
RACCORDO
100
AcDbPolyline
 62
250
  6
CONTINUOUS
 90
25
 70
0
 10
-33.5114336962
 20
-23.066740963
 10
-33.5642654957
 20
-23.0648188154
 10
-33.6162377821
 20
-23.0596429941
 10
-33.6673505361
 20
-23.0512134772
 10
-33.717733382
 20
-23.0394736194
 10
-33.7672566578
 20
-23.02448003
 10
-33.8155314074
 20
-23.0064025693
 10
-33.8626261957
 20
-22.9851959475
 10
-33.9084724039
 20
-22.9609054267
 10
-33.9524752837
 20
-22.9338366926
 10
-33.9946128663
 20
-22.9039429088
 10
-34.0349070481
 20
-22.871270892
 10
-34.0728288628
 20
-22.8362668042
 10
-34.1083240872
 20
-22.7989266058
 10
-34.1414468665
 20
-22.759254329
 10
-34.1718307788
 20
-22.7177082429
 10
-34.1994236824
 20
-22.6744119102
 10
-34.2242776505
 20
-22.6292417759
 10
-34.2461825841
 20
-22.5822854338
 10
-34.2652292296
 20
-22.5333236148
 10
-34.2813267905
 20
-22.4825756177
 10
-34.2939928568
 20
-22.4307868903
 10
-34.3030666177
 20
-22.3782059283
 10
-34.308708862
 20
-22.3245842789
 10
-34.3109195868
 20
-22.2699219694
  0
LWPOLYLINE
  5
2D2
100
AcDbEntity
  8
0
100
AcDbPolyline
 62
7
  6
CONTINUOUS
 90
58
 70
0
 10
4.2520066213
 20
-25.5359686154
 10
4.2817875062
 20
-25.5480608685
 10
4.3118990269
 20
-25.5629758106
 10
4.3422229339
 20
-25.5806235358
 10
4.3725566328
 20
-25.6007764421
 10
4.4028264344
 20
-25.6233873879
 10
4.4330250553
 20
-25.6487657257
 10
4.4630312025
 20
-25.6772521837
 10
4.4923228442
 20
-25.7088567371
 10
4.5202717563
 20
-25.7433592415
 10
4.5467773898
 20
-25.781065108
 10
4.5712452295
 20
-25.8216137718
 10
4.5926311147
 20
-25.8634532846
 10
4.6108436403
 20
-25.906252568
 10
4.6259474832
 20
-25.9498309568
 10
4.6377231864
 20
-25.9926192023
 10
4.6464446979
 20
-26.0338608901
 10
4.652650137
 20
-26.0738376022
 10
4.6567183802
 20
-26.1125126641
 10
4.6589560697
 20
-26.1496637515
 10
4.6595892624
 20
-26.1852810107
 10
4.6587649064
 20
-26.2196878261
 10
4.6565901051
 20
-26.2529164513
 10
4.6531822187
 20
-26.2848185094
 10
4.6486407134
 20
-26.3154690255
 10
4.6430690075
 20
-26.3448684508
 10
4.6365758681
 20
-26.3729983027
 10
4.629248542
 20
-26.3999250583
 10
4.6211955432
 20
-26.4256209194
 10
4.61251067
 20
-26.4501162475
 10
4.6032463079
 20
-26.4735387931
 10
4.5934984149
 20
-26.49586496
 10
4.5833623801
 20
-26.5170700613
 10
4.572855607
 20
-26.5372752098
 10
4.5620440642
 20
-26.5564799494
 10
4.5509991916
 20
-26.5746738373
 10
4.5397181805
 20
-26.5919594955
 10
4.5282358654
 20
-26.6083623575
 10
4.5166170289
 20
-26.6238644449
 10
4.5048883782
 20
-26.6385011815
 10
4.4930864995
 20
-26.6523181556
 10
4.4812672981
 20
-26.6653779862
 10
4.4694815577
 20
-26.6777438119
 10
4.4577708024
 20
-26.6894778868
 10
4.4461747559
 20
-26.7006337122
 10
4.4347380151
 20
-26.711250859
 10
4.4235073919
 20
-26.7213589557
 10
4.4125019524
 20
-26.7310044382
 10
4.4017197196
 20
-26.7402427907
 10
4.3912449184
 20
-26.7490488644
 10
4.381043337
 20
-26.7574916295
 10
4.3709071423
 20
-26.765693898
 10
4.3608106095
 20
-26.7734137379
 10
4.3506924057
 20
-26.7804354197
 10
4.3402266686
 20
-26.7867190956
 10
4.3292531644
 20
-26.7920479522
 10
4.3178013573
 20
-26.7960872757
 10
4.305805492
 20
-26.7985550034
  0
LWPOLYLINE
  5
2D3
100
AcDbEntity
  8
0
100
AcDbPolyline
 62
7
  6
CONTINUOUS
 90
3
 70
0
 10
4.305805492
 20
-26.8133262613
 10
4.3308749504
 20
-26.8247756962
 10
4.3540998266
 20
-26.8381454875
  0
LWPOLYLINE
  5
2D4
100
AcDbEntity
  8
0
100
AcDbPolyline
 62
7
  6
CONTINUOUS
 90
23
 70
0
 10
4.3540998266
 20
-26.8381454875
 10
4.3756005659
 20
-26.8531301679
 10
4.3955307437
 20
-26.8694844841
 10
4.4139540224
 20
-26.8869226825
 10
4.430865314
 20
-26.9050880119
 10
4.4462942525
 20
-26.9236411948
 10
4.4604379958
 20
-26.9424701142
 10
4.4735274908
 20
-26.9615964075
 10
4.4856354281
 20
-26.9808822746
 10
4.4968258253
 20
-27.0001969345
 10
4.5072691213
 20
-27.0196344685
 10
4.5170241929
 20
-27.0391379221
 10
4.5261128866
 20
-27.0585892404
 10
4.5346204117
 20
-27.0780204912
 10
4.54257316
 20
-27.0973550393
 10
4.5500024453
 20
-27.1165347205
 10
4.5569821837
 20
-27.1356302753
 10
4.5635306563
 20
-27.1545839005
 10
4.5696653576
 20
-27.1733379358
 10
4.5754601635
 20
-27.1919954202
 10
4.5809906914
 20
-27.2106394215
 10
4.5863037588
 20
-27.2292498544
 10
4.5914544761
 20
-27.2478252557
  0
LINE
  5
2D5
100
AcDbEntity
  8
ASSI
100
AcDbLine
 62
250
  6
CONTINUOUS
 10
-59.9092338761
 20
-42.1095079821
 11
-59.9500009052
 21
-42.1502750113
  0
LINE
  5
2D6
100
AcDbEntity
  8
ASSI
100
AcDbLine
 62
250
  6
CONTINUOUS
 10
-59.1094918738
 20
-42.9092176998
 11
-59.1502750453
 21
-42.9500008712
  0
LINE
  5
2D7
100
AcDbEntity
  8
ASSI
100
AcDbLine
 62
250
  6
CONTINUOUS
 10
-59.9092330793
 20
42.1095054428
 11
-59.9500009052
 21
42.1502732688
  0
LINE
  5
2D8
100
AcDbEntity
  8
ASSI
100
AcDbLine
 62
250
  6
CONTINUOUS
 10
-59.1094925287
 20
42.9092166122
 11
-59.1502750453
 21
42.9499991288
  0
LINE
  5
2D9
100
AcDbEntity
  8
0
100
AcDbLine
 62
7
  6
CONTINUOUS
 10
-0.6379359052
 20
-27.9801808712
 11
-1.2500619052
 21
-26.3479008712
  0
LINE
  5
2DA
100
AcDbEntity
  8
0
100
AcDbLine
 62
7
  6
CONTINUOUS
 10
-1.1147779052
 20
-25.4804448712
 11
-0.5984959052
 21
-26.8683058712
  0
LINE
  5
2DB
100
AcDbEntity
  8
0
100
AcDbLine
 62
7
  6
CONTINUOUS
 10
-4.1215249052
 20
-27.9801808712
 11
-4.9139899052
 21
-25.4804448712
  0
LINE
  5
2DC
100
AcDbEntity
  8
0
100
AcDbLine
 62
7
  6
CONTINUOUS
 10
-4.3471619052
 20
-25.4804448712
 11
-3.8706669052
 21
-27.2010908712
  0
LINE
  5
2DD
100
AcDbEntity
  8
RACCORDO
100
AcDbLine
 62
250
  6
CONTINUOUS
 10
-34.0062764989
 20
-22.2581791159
 11
-33.8500009052
 21
-22.1019035222
  0
LINE
  5
2DE
100
AcDbEntity
  8
RACCORDO
100
AcDbLine
 62
250
  6
CONTINUOUS
 10
-33.506524781
 20
-22.754622096
 11
-33.3519035562
 21
-22.6000008712
  0
LINE
  5
2DF
100
AcDbEntity
  8
RACCORDO
100
AcDbLine
 62
250
  6
CONTINUOUS
 10
-34.0062764989
 20
22.2581773734
 11
-33.8500009052
 21
22.1019017797
  0
LINE
  5
2E0
100
AcDbEntity
  8
RACCORDO
100
AcDbLine
 62
250
  6
CONTINUOUS
 10
-33.506524781
 20
22.7546203535
 11
-33.3519035562
 21
22.5999991288
  0
LWPOLYLINE
  5
2E1
100
AcDbEntity
  8
0
100
AcDbPolyline
 62
7
  6
CONTINUOUS
 90
19
 70
0
 10
4.0548224828
 20
-27.2220216141
 10
4.0466510507
 20
-27.2019474654
 10
4.0373661879
 20
-27.1822468554
 10
4.0270197924
 20
-27.1630468664
 10
4.0156894734
 20
-27.1445111989
 10
4.0034022782
 20
-27.1267126003
 10
3.9901115384
 20
-27.1096485499
 10
3.9758343259
 20
-27.0934344944
 10
3.9606067339
 20
-27.0782092693
 10
3.9443765139
 20
-27.0640353392
 10
3.927105377
 20
-27.0510223471
 10
3.9088570135
 20
-27.0393670341
 10
3.8897321312
 20
-27.0292637791
 10
3.8698382705
 20
-27.0207965756
 10
3.8492975687
 20
-27.0139298575
 10
3.8282633031
 20
-27.0086359471
 10
3.8068912386
 20
-27.0048879453
 10
3.7853398472
 20
-27.0026591038
 10
3.7637678111
 20
-27.0019222326
  0
LINE
  5
2E2
100
AcDbEntity
  8
0
100
AcDbLine
 62
7
  6
CONTINUOUS
 10
2.0440970948
 20
-25.4804448712
 11
2.8110780948
 21
-27.9801808712
  0
LINE
  5
2E3
100
AcDbEntity
  8
0
100
AcDbLine
 62
7
  6
CONTINUOUS
 10
2.2611300948
 20
-27.9801808712
 11
2.1259580948
 21
-27.4811448712
  0
LINE
  5
2E4
100
AcDbEntity
  8
0
100
AcDbLine
 62
7
  6
CONTINUOUS
 10
2.0216780948
 20
-27.0949928712
 11
1.7819070948
 21
-26.1673088712
  0
LINE
  5
2E5
100
AcDbEntity
  8
0
100
AcDbLine
 62
7
  6
CONTINUOUS
 10
0.4395600948
 20
-25.4804448712
 11
0.6733130948
 21
-27.9801808712
  0
LINE
  5
2E6
100
AcDbEntity
  8
0
100
AcDbLine
 62
7
  6
CONTINUOUS
 10
0.1628610948
 20
-27.9801808712
 11
0.0556570948
 21
-26.3547048712
  0
LINE
  5
2E7
100
AcDbEntity
  8
0
100
AcDbLine
 62
7
  6
CONTINUOUS
 10
-2.6645409052
 20
-27.9801808712
 11
-2.6645409052
 21
-25.4802948712
  0
LINE
  5
2E8
100
AcDbEntity
  8
0
100
AcDbLine
 62
7
  6
CONTINUOUS
 10
-2.1427479052
 20
-25.4802948712
 11
-2.1427479052
 21
-27.9801808712
  0
LINE
  5
2E9
100
AcDbEntity
  8
ASSI
100
AcDbLine
 62
250
  6
CONTINUOUS
 10
-0.0000009052
 20
42.9054189445
 11
-0.0000009052
 21
42.5800416398
  0
LINE
  5
2EA
100
AcDbEntity
  8
ASSI
100
AcDbLine
 62
250
  6
CONTINUOUS
 10
-0.0000009052
 20
-42.905420687
 11
-0.0000009052
 21
-42.5800433822
  0
LINE
  5
2EB
100
AcDbEntity
  8
RACCORDO
100
AcDbLine
 62
250
  6
CONTINUOUS
 10
-0.0000009052
 20
-23.107641691
 11
-0.0000009052
 21
-22.7813116575
  0
LINE
  5
2EC
100
AcDbEntity
  8
0
100
AcDbLine
 62
250
  6
CONTINUOUS
 10
-0.0000009052
 20
-23.107641691
 11
-0.0000009052
 21
-42.5800433822
  0
LINE
  5
2ED
100
AcDbEntity
  8
RACCORDO
100
AcDbLine
 62
250
  6
CONTINUOUS
 10
-0.0000009052
 20
22.781309915
 11
-0.0000009052
 21
42.5800416398
  0
LINE
  5
2EE
100
AcDbEntity
  8
0
100
AcDbLine
 62
7
  6
CONTINUOUS
 10
-1.2500619052
 20
-26.3479008712
 11
-1.3626649052
 21
-27.9801808712
  0
LINE
  5
2EF
100
AcDbEntity
  8
0
100
AcDbLine
 62
7
  6
CONTINUOUS
 10
-1.8618509052
 20
-27.9801808712
 11
-1.6361389052
 21
-25.4804448712
  0
LWPOLYLINE
  5
2F0
100
AcDbEntity
  8
0
100
AcDbPolyline
 62
7
  6
CONTINUOUS
 90
4
 70
0
 43
0.3500000006
 10
69.7157830811
 20
-2.3571432495
 10
68.8586406097
 20
-2.3571432495
 10
68.4300671082
 20
-1.9285720139
 10
68.4300671082
 20
-1.2857140274
  0
LINE
  5
2F1
100
AcDbEntity
  8
ASSI
100
AcDbLine
 62
250
  6
CONTINUOUS
 10
-59.9059702172
 20
-0.0000008712
 11
-59.5605085348
 21
-0.0000008712
  0
LINE
  5
2F2
100
AcDbEntity
  8
ASSI
100
AcDbLine
 62
250
  6
CONTINUOUS
 10
59.9059684067
 20
-0.0000008712
 11
59.5605067243
 21
-0.0000008712
  0
LINE
  5
2F3
100
AcDbEntity
  8
RACCORDO
100
AcDbLine
 62
250
  6
CONTINUOUS
 10
-59.5605085348
 20
-0.0000008712
 11
-34.0336129388
 21
-0.0000008712
  0
LINE
  5
2F4
100
AcDbEntity
  8
RACCORDO
100
AcDbLine
 62
250
  6
CONTINUOUS
 10
59.5605067243
 20
-0.0000008712
 11
34.0336111283
 21
-0.0000008712
  0
LWPOLYLINE
  5
2F5
100
AcDbEntity
  8
0
100
AcDbPolyline
 62
7
  6
CONTINUOUS
 90
8
 70
0
 10
4.1346399186
 20
-27.4669255107
 10
4.1242331345
 20
-27.4316274324
 10
4.113599488
 20
-27.3964375853
 10
4.1026848347
 20
-27.3613783356
 10
4.0914099672
 20
-27.3263943621
 10
4.0797092275
 20
-27.2914809585
 10
4.067532773
 20
-27.2566832606
 10
4.0548224553
 20
-27.2220216244
  0
LINE
  5
2F6
100
AcDbEntity
  8
0
100
AcDbLine
 62
7
  6
CONTINUOUS
 10
4.2719154348
 20
-27.9416437629
 11
4.1958821669
 21
-27.6814831049
  0
LINE
  5
2F7
100
AcDbEntity
  8
0
100
AcDbLine
 62
7
  6
CONTINUOUS
 10
4.2830487571
 20
-27.9801806519
 11
4.2719154348
 21
-27.9416437629
  0
LINE
  5
2F8
100
AcDbEntity
  8
0
100
AcDbLine
 62
7
  6
CONTINUOUS
 10
4.1550214203
 20
-27.53786268
 11
4.1346399186
 21
-27.4669255107
  0
LINE
  5
2F9
100
AcDbEntity
  8
0
100
AcDbLine
 62
7
  6
CONTINUOUS
 10
4.1958821669
 20
-27.6814831049
 11
4.1550214203
 21
-27.53786268
  0
LINE
  5
2FA
100
AcDbEntity
  8
0
100
AcDbLine
 62
7
  6
CONTINUOUS
 10
4.7657156323
 20
-27.9082699892
 11
4.7849528554
 21
-27.9801806519
  0
LINE
  5
2FB
100
AcDbEntity
  8
0
100
AcDbLine
 62
7
  6
CONTINUOUS
 10
4.5914544761
 20
-27.2478252557
 11
4.6483755363
 21
-27.4594002656
  0
LINE
  5
2FC
100
AcDbEntity
  8
0
100
AcDbLine
 62
7
  6
CONTINUOUS
 10
4.6483755363
 20
-27.4594002656
 11
4.7657156323
 21
-27.9082699892
  0
LWPOLYLINE
  5
2FD
100
AcDbEntity
  8
0
100
AcDbPolyline
 62
7
  6
CONTINUOUS
 90
19
 70
0
 10
4.1702242383
 20
-26.2042739588
 10
4.1689520114
 20
-26.1808252385
 10
4.1658058102
 20
-26.1570113197
 10
4.160753011
 20
-26.1330066862
 10
4.1537754183
 20
-26.1090354939
 10
4.1448400941
 20
-26.0852661347
 10
4.1338728289
 20
-26.0618209158
 10
4.1207629387
 20
-26.0388433447
 10
4.1055201759
 20
-26.016726494
 10
4.0882898507
 20
-25.9959685368
 10
4.0691067009
 20
-25.976821531
 10
4.0481074715
 20
-25.9594086578
 10
4.0257137598
 20
-25.9439291781
 10
4.0022420175
 20
-25.9304235308
 10
3.9778483651
 20
-25.9188342966
 10
3.9527546434
 20
-25.9091578813
 10
3.9271805029
 20
-25.9013919234
 10
3.9013437855
 20
-25.8955345462
 10
3.8754575133
 20
-25.8915832361
  0
LWPOLYLINE
  5
2FE
100
AcDbEntity
  8
0
100
AcDbPolyline
 62
7
  6
CONTINUOUS
 90
13
 70
0
 43
0.3500000006
 10
0.8571419756
 20
55.5013036652
 10
0.8571419756
 20
56.7870151062
 10
1.0714276643
 20
57.2155931396
 10
1.4999990416
 20
57.6441621094
 10
1.714284801
 20
57.6441621094
 10
2.1428561783
 20
57.2155931396
 10
2.3571419377
 20
56.7870151062
 10
2.3571419377
 20
55.5013036652
 10
2.1428561783
 20
55.0727301636
 10
1.714284801
 20
54.6441611938
 10
1.4999990416
 20
54.6441611938
 10
1.0714276643
 20
55.0727301636
 10
0.8571419756
 20
55.5013036652
  0
LINE
  5
2FF
100
AcDbEntity
  8
0
100
AcDbLine
 62
7
  6
CONTINUOUS
 10
2.9643015968
 20
-27.9801806519
 11
2.9643015968
 21
-25.5096502829
  0
LINE
  5
300
100
AcDbEntity
  8
0
100
AcDbLine
 62
7
  6
CONTINUOUS
 10
3.4666930716
 20
-25.9062997962
 11
3.4666930716
 21
-26.5925259486
  0
LINE
  5
301
100
AcDbEntity
  8
0
100
AcDbLine
 62
7
  6
CONTINUOUS
 10
3.4839949384
 20
-27.0019222326
 11
3.4839949384
 21
-27.9801806519
  0
LINE
  5
302
100
AcDbEntity
  8
0
100
AcDbLine
 62
7
  6
CONTINUOUS
 10
4.305805492
 20
-26.7985550034
 11
4.305805492
 21
-26.8133262613
  0
LINE
  5
303
100
AcDbEntity
  8
0
100
AcDbLine
 62
7
  6
CONTINUOUS
 10
-3.8706669052
 20
-27.2010908712
 11
-3.3796159052
 21
-25.4804448712
  0
LINE
  5
304
100
AcDbEntity
  8
0
100
AcDbLine
 62
7
  6
CONTINUOUS
 10
-2.8581799052
 20
-25.4804448712
 11
-3.6616949052
 21
-27.9801808712
  0
LINE
  5
305
100
AcDbEntity
  8
0
100
AcDbLine
 62
7
  6
CONTINUOUS
 10
1.7819070948
 20
-26.1673088712
 11
1.5220980948
 21
-27.0949928712
  0
LINE
  5
306
100
AcDbEntity
  8
0
100
AcDbLine
 62
7
  6
CONTINUOUS
 10
1.4153630948
 20
-27.4811448712
 11
1.2713800948
 21
-27.9801808712
  0
LINE
  5
307
100
AcDbEntity
  8
0
100
AcDbLine
 62
7
  6
CONTINUOUS
 10
0.7552490948
 20
-27.9801808712
 11
1.5393250948
 21
-25.4804448712
  0
LINE
  5
308
100
AcDbEntity
  8
0
100
AcDbLine
 62
7
  6
CONTINUOUS
 10
-0.5984959052
 20
-26.8683058712
 11
-0.0767029052
 21
-25.4804448712
  0
LINE
  5
309
100
AcDbEntity
  8
0
100
AcDbLine
 62
7
  6
CONTINUOUS
 10
0.0556570948
 20
-26.3547048712
 11
-0.5647539052
 21
-27.9801808712
  0
LINE
  5
30A
100
AcDbEntity
  8
RACCORDO
100
AcDbLine
 62
250
  6
CONTINUOUS
 10
33.5065229705
 20
22.7546203535
 11
33.3519017457
 21
22.5999991288
  0
LINE
  5
30B
100
AcDbEntity
  8
RACCORDO
100
AcDbLine
 62
250
  6
CONTINUOUS
 10
34.0062746884
 20
22.2581773734
 11
33.8499990948
 21
22.1019017797
  0
LINE
  5
30C
100
AcDbEntity
  8
RACCORDO
100
AcDbLine
 62
250
  6
CONTINUOUS
 10
33.5065229705
 20
-22.754622096
 11
33.3519017457
 21
-22.6000008712
  0
LINE
  5
30D
100
AcDbEntity
  8
RACCORDO
100
AcDbLine
 62
250
  6
CONTINUOUS
 10
34.0062746884
 20
-22.2581791159
 11
33.8499990948
 21
-22.1019035222
  0
LINE
  5
30E
100
AcDbEntity
  8
ASSI
100
AcDbLine
 62
250
  6
CONTINUOUS
 10
59.1094899299
 20
42.9092158239
 11
59.1502732348
 21
42.9499991288
  0
LINE
  5
30F
100
AcDbEntity
  8
ASSI
100
AcDbLine
 62
250
  6
CONTINUOUS
 10
59.9092321018
 20
42.1095062758
 11
59.9499990948
 21
42.1502732688
  0
LINE
  5
310
100
AcDbEntity
  8
ASSI
100
AcDbLine
 62
250
  6
CONTINUOUS
 10
59.1094907366
 20
-42.9092183731
 11
59.1502732348
 21
-42.9500008712
  0
LINE
  5
311
100
AcDbEntity
  8
ASSI
100
AcDbLine
 62
250
  6
CONTINUOUS
 10
59.9092312734
 20
-42.1095071899
 11
59.9499990948
 21
-42.1502750113
  0
LWPOLYLINE
  5
312
100
AcDbEntity
  8
RACCORDO
100
AcDbPolyline
 62
250
  6
CONTINUOUS
 90
12
 70
0
 10
34.1934441496
 20
22.2686782667
 10
34.1661542311
 20
22.2680938298
 10
34.140258277
 20
22.2674099254
 10
34.116016025
 20
22.2666334129
 10
34.093670626
 20
22.2657720812
 10
34.0734462053
 20
22.2648345694
 10
34.0555456148
 20
22.2638302806
 10
34.0401483982
 20
22.2627692878
 10
34.0274089904
 20
22.2616622333
 10
34.0174551681
 20
22.2605202208
 10
34.0103867686
 20
22.2593547042
 10
34.0062746884
 20
22.2581773734
  0
LINE
  5
313
100
AcDbEntity
  8
RACCORDO
100
AcDbLine
 62
250
  6
CONTINUOUS
 10
34.2510997673
 20
22.2695263477
 11
34.1934441496
 21
22.2686782667
  0
LINE
  5
314
100
AcDbEntity
  8
RACCORDO
100
AcDbLine
 62
250
  6
CONTINUOUS
 10
34.3109177763
 20
22.2699202269
 11
34.2510997673
 21
22.2695263477
  0
LINE
  5
315
100
AcDbEntity
  8
RACCORDO
100
AcDbLine
 62
250
  6
CONTINUOUS
 10
-33.5114336962
 20
23.0667392205
 11
-17.7928659846
 21
23.0940480001
  0
LINE
  5
316
100
AcDbEntity
  8
RACCORDO
100
AcDbLine
 62
250
  6
CONTINUOUS
 10
-33.506524781
 20
22.7546203535
 11
-17.7894208096
 21
22.7731802593
  0
LINE
  5
317
100
AcDbEntity
  8
RACCORDO
100
AcDbLine
 62
250
  6
CONTINUOUS
 10
-17.7928659846
 20
23.0940480001
 11
-11.9925335787
 21
23.1020184588
  0
LINE
  5
318
100
AcDbEntity
  8
RACCORDO
100
AcDbLine
 62
250
  6
CONTINUOUS
 10
-17.7894208096
 20
22.7731802593
 11
-9.5521567578
 21
22.7792329942
  0
LINE
  5
319
100
AcDbEntity
  8
RACCORDO
100
AcDbLine
 62
250
  6
CONTINUOUS
 10
-11.9925335787
 20
23.1020184588
 11
-4.1215185331
 21
23.1070681134
  0
LINE
  5
31A
100
AcDbEntity
  8
RACCORDO
100
AcDbLine
 62
7
  6
CONTINUOUS
 10
33.3519017457
 20
22.5999991288
 11
-33.3519035562
 21
22.5999991288
  0
LINE
  5
31B
100
AcDbEntity
  8
RACCORDO
100
AcDbLine
 62
250
  6
CONTINUOUS
 10
-9.5521567578
 20
22.7792329942
 11
0.9447800417
 21
22.7812917135
  0
LINE
  5
31C
100
AcDbEntity
  8
RACCORDO
100
AcDbLine
 62
250
  6
CONTINUOUS
 10
0.9447800417
 20
22.7812917135
 11
9.5306256204
 21
22.7792418463
  0
LINE
  5
31D
100
AcDbEntity
  8
RACCORDO
100
AcDbLine
 62
250
  6
CONTINUOUS
 10
-4.1215185331
 20
23.1070681134
 11
7.0927892089
 21
23.1058419514
  0
LINE
  5
31E
100
AcDbEntity
  8
RACCORDO
100
AcDbLine
 62
250
  6
CONTINUOUS
 10
9.5306256204
 20
22.7792418463
 11
16.7430181402
 21
22.7741963994
  0
LINE
  5
31F
100
AcDbEntity
  8
RACCORDO
100
AcDbLine
 62
250
  6
CONTINUOUS
 10
7.0927892089
 20
23.1058419514
 11
12.5998132518
 21
23.1013671212
  0
LINE
  5
320
100
AcDbEntity
  8
RACCORDO
100
AcDbLine
 62
250
  6
CONTINUOUS
 10
16.7430181402
 20
22.7741963994
 11
33.5065229705
 21
22.7546203535
  0
LINE
  5
321
100
AcDbEntity
  8
RACCORDO
100
AcDbLine
 62
250
  6
CONTINUOUS
 10
12.5998132518
 20
23.1013671212
 11
18.555339675
 21
23.09273957
  0
LINE
  5
322
100
AcDbEntity
  8
RACCORDO
100
AcDbLine
 62
250
  6
CONTINUOUS
 10
18.555339675
 20
23.09273957
 11
33.5114318858
 21
23.0667392205
  0
LINE
  5
323
100
AcDbEntity
  8
RACCORDO
100
AcDbLine
 62
250
  6
CONTINUOUS
 10
-34.3109195868
 20
22.2699202275
 11
-34.2511006037
 21
22.2695262598
  0
LWPOLYLINE
  5
324
100
AcDbEntity
  8
RACCORDO
100
AcDbPolyline
 62
250
  6
CONTINUOUS
 90
13
 70
0
 10
-34.2511006037
 20
22.2695262598
 10
-34.1934444498
 20
22.2686781047
 10
-34.166154435
 20
22.2680936392
 10
-34.1402584836
 20
22.2674097135
 10
-34.116016325
 20
22.2666331883
 10
-34.0936710936
 20
22.265771853
 10
-34.0734468863
 20
22.2648343467
 10
-34.0555465468
 20
22.2638300738
 10
-34.0401495871
 20
22.2627691068
 10
-34.0274103952
 20
22.2616620849
 10
-34.0174567384
 20
22.2605201106
 10
-34.0103884627
 20
22.2593546385
 10
-34.0062764633
 20
22.2581773582
  0
LWPOLYLINE
  5
325
100
AcDbEntity
  8
RACCORDO
100
AcDbPolyline
 62
250
  6
CONTINUOUS
 90
25
 70
0
 10
33.5065229181
 20
22.7546203011
 10
33.5394153183
 20
22.7536225937
 10
33.5720257541
 20
22.7504969297
 10
33.6042193287
 20
22.7452822016
 10
33.6358202348
 20
22.7380387821
 10
33.6667496354
 20
22.7288144093
 10
33.6970173037
 20
22.7176145608
 10
33.7265453329
 20
22.7044603114
 10
33.7551600814
 20
22.6894212125
 10
33.7827255522
 20
22.6725640536
 10
33.8091311935
 20
22.6539561651
 10
33.8342633871
 20
22.6336784054
 10
33.8579938617
 20
22.6118360135
 10
33.880213508
 20
22.5885403049
 10
33.9008513907
 20
22.5638783199
 10
33.9198451467
 20
22.5379277465
 10
33.9370705606
 20
22.5108723271
 10
33.9525107305
 20
22.4827528595
 10
33.9662193017
 20
22.4534082179
 10
33.9781303621
 20
22.4228090727
 10
33.9880758096
 20
22.3911863469
 10
33.9959325288
 20
22.358763513
 10
34.0016217951
 20
22.3257095521
 10
34.0050878972
 20
22.2921316365
 10
34.0062746477
 20
22.2581773327
  0
LWPOLYLINE
  5
326
100
AcDbEntity
  8
RACCORDO
100
AcDbPolyline
 62
250
  6
CONTINUOUS
 90
25
 70
0
 10
33.5114318858
 20
23.0667392205
 10
33.5642636852
 20
23.0648170729
 10
33.6162359716
 20
23.0596412516
 10
33.6673487257
 20
23.0512117347
 10
33.7177315716
 20
23.039471877
 10
33.7672548473
 20
23.0244782875
 10
33.8155295969
 20
23.0064008268
 10
33.8626243852
 20
22.9851942051
 10
33.9084705934
 20
22.9609036843
 10
33.9524734732
 20
22.9338349501
 10
33.9946110558
 20
22.9039411664
 10
34.0349052376
 20
22.8712691495
 10
34.0728270523
 20
22.8362650617
 10
34.1083222768
 20
22.7989248633
 10
34.141445056
 20
22.7592525866
 10
34.1718289684
 20
22.7177065004
 10
34.199421872
 20
22.6744101678
 10
34.22427584
 20
22.6292400334
 10
34.2461807736
 20
22.5822836914
 10
34.2652274192
 20
22.5333218724
 10
34.28132498
 20
22.4825738752
 10
34.2939910463
 20
22.4307851479
 10
34.3030648072
 20
22.3782041858
 10
34.3087070515
 20
22.3245825364
 10
34.3109177763
 20
22.2699202269
  0
LWPOLYLINE
  5
327
100
AcDbEntity
  8
RACCORDO
100
AcDbPolyline
 62
250
  6
CONTINUOUS
 90
6
 70
0
 10
33.5089183788
 20
-22.8052898876
 10
33.5084697855
 20
-22.7894412225
 10
33.5080010153
 20
-22.7763292087
 10
33.5075169266
 20
-22.7660897446
 10
33.5070225369
 20
-22.758828956
 10
33.5065229705
 20
-22.754622096
  0
LINE
  5
328
100
AcDbEntity
  8
RACCORDO
100
AcDbLine
 62
250
  6
CONTINUOUS
 10
33.5097366937
 20
-22.8445134564
 11
33.5089183788
 21
-22.8052898876
  0
LINE
  5
329
100
AcDbEntity
  8
RACCORDO
100
AcDbLine
 62
250
  6
CONTINUOUS
 10
33.5104221219
 20
-22.8923779965
 11
33.5097366937
 21
-22.8445134564
  0
LINE
  5
32A
100
AcDbEntity
  8
RACCORDO
100
AcDbLine
 62
250
  6
CONTINUOUS
 10
33.5111408973
 20
-22.9759692382
 11
33.5104221219
 21
-22.8923779965
  0
LINE
  5
32B
100
AcDbEntity
  8
RACCORDO
100
AcDbLine
 62
250
  6
CONTINUOUS
 10
34.3109177763
 20
22.2699202269
 11
34.3235950818
 21
18.065564683
  0
LINE
  5
32C
100
AcDbEntity
  8
RACCORDO
100
AcDbLine
 62
250
  6
CONTINUOUS
 10
34.0062746884
 20
22.2581773734
 11
34.0149560235
 21
19.2356832506
  0
LINE
  5
32D
100
AcDbEntity
  8
RACCORDO
100
AcDbLine
 62
250
  6
CONTINUOUS
 10
33.5114318858
 20
-23.066740963
 11
33.5111408973
 21
-22.9759692382
  0
LINE
  5
32E
100
AcDbEntity
  8
RACCORDO
100
AcDbLine
 62
250
  6
CONTINUOUS
 10
34.3235950818
 20
18.065564683
 11
34.3361996546
 21
11.594254875
  0
LINE
  5
32F
100
AcDbEntity
  8
RACCORDO
100
AcDbLine
 62
250
  6
CONTINUOUS
 10
34.0149560235
 20
19.2356832506
 11
34.0234778073
 21
14.5290572933
  0
LINE
  5
330
100
AcDbEntity
  8
RACCORDO
100
AcDbLine
 62
250
  6
CONTINUOUS
 10
34.3361996546
 20
11.594254875
 11
34.3440560961
 21
4.9744363872
  0
LINE
  5
331
100
AcDbEntity
  8
RACCORDO
100
AcDbLine
 62
250
  6
CONTINUOUS
 10
34.0234778073
 20
14.5290572933
 11
34.0314219145
 21
6.2372172606
  0
LINE
  5
332
100
AcDbEntity
  8
RACCORDO
100
AcDbLine
 62
7
  6
CONTINUOUS
 10
33.8499990948
 20
-22.1019035222
 11
33.8499990948
 21
22.1019017797
  0
LINE
  5
333
100
AcDbEntity
  8
RACCORDO
100
AcDbLine
 62
250
  6
CONTINUOUS
 10
34.3440560961
 20
4.9744363872
 11
34.3451949039
 21
-3.3132998188
  0
LINE
  5
334
100
AcDbEntity
  8
RACCORDO
100
AcDbLine
 62
250
  6
CONTINUOUS
 10
34.0314219145
 20
6.2372172606
 11
34.0317264389
 21
-5.7636531674
  0
LINE
  5
335
100
AcDbEntity
  8
RACCORDO
100
AcDbLine
 62
250
  6
CONTINUOUS
 10
34.0317264389
 20
-5.7636531674
 11
34.0255677098
 21
-12.8104514989
  0
LINE
  5
336
100
AcDbEntity
  8
RACCORDO
100
AcDbLine
 62
250
  6
CONTINUOUS
 10
34.3451949039
 20
-3.3132998188
 11
34.3401662594
 21
-8.7155006096
  0
LINE
  5
337
100
AcDbEntity
  8
RACCORDO
100
AcDbLine
 62
250
  6
CONTINUOUS
 10
34.0255677098
 20
-12.8104514989
 11
34.0186709202
 21
-17.5151426067
  0
LINE
  5
338
100
AcDbEntity
  8
RACCORDO
100
AcDbLine
 62
250
  6
CONTINUOUS
 10
34.3401662594
 20
-8.7155006096
 11
34.3312086283
 21
-14.5729638166
  0
LINE
  5
339
100
AcDbEntity
  8
RACCORDO
100
AcDbLine
 62
250
  6
CONTINUOUS
 10
34.3312086283
 20
-14.5729638166
 11
34.3217736372
 21
-18.7658185481
  0
LINE
  5
33A
100
AcDbEntity
  8
RACCORDO
100
AcDbLine
 62
250
  6
CONTINUOUS
 10
34.0186709202
 20
-17.5151426067
 11
34.010874867
 21
-20.7757494918
  0
LINE
  5
33B
100
AcDbEntity
  8
RACCORDO
100
AcDbLine
 62
250
  6
CONTINUOUS
 10
34.010874867
 20
-20.7757494918
 11
34.0062746884
 21
-22.2581791159
  0
LINE
  5
33C
100
AcDbEntity
  8
RACCORDO
100
AcDbLine
 62
250
  6
CONTINUOUS
 10
34.3217736372
 20
-18.7658185481
 11
34.3109177763
 21
-22.2699219694
  0
LINE
  5
33D
100
AcDbEntity
  8
RACCORDO
100
AcDbLine
 62
250
  6
CONTINUOUS
 10
33.5114318863
 20
23.0667392205
 11
33.5111409095
 21
22.9759662418
  0
LINE
  5
33E
100
AcDbEntity
  8
RACCORDO
100
AcDbLine
 62
250
  6
CONTINUOUS
 10
33.5111409095
 20
22.9759662418
 11
33.5104221331
 21
22.8923747198
  0
LINE
  5
33F
100
AcDbEntity
  8
RACCORDO
100
AcDbLine
 62
250
  6
CONTINUOUS
 10
33.5104221331
 20
22.8923747198
 11
33.5097367022
 21
22.8445104391
  0
LWPOLYLINE
  5
340
100
AcDbEntity
  8
RACCORDO
100
AcDbPolyline
 62
250
  6
CONTINUOUS
 90
7
 70
0
 10
33.5097367022
 20
22.8445104391
 10
33.508918385
 20
22.8052873234
 10
33.5084697912
 20
22.7894389069
 10
33.5080010194
 20
22.7763270893
 10
33.5075169277
 20
22.7660877657
 10
33.5070225336
 20
22.7588270827
 10
33.5065229615
 20
22.7546203012
  0
LWPOLYLINE
  5
341
100
AcDbEntity
  8
RACCORDO
100
AcDbPolyline
 62
250
  6
CONTINUOUS
 90
25
 70
0
 10
34.0062746529
 20
-22.2581790803
 10
34.0051702376
 20
-22.290923496
 10
34.0019366097
 20
-22.3233840643
 10
33.9966119077
 20
-22.3554262609
 10
33.9892553124
 20
-22.3868740097
 10
33.9799142112
 20
-22.4176491954
 10
33.9685945353
 20
-22.4477633007
 10
33.9553162134
 20
-22.4771382667
 10
33.9401483218
 20
-22.5056004608
 10
33.9231591182
 20
-22.5330156999
 10
33.9044153051
 20
-22.5592728784
 10
33.8839970257
 20
-22.5842582905
 10
33.8620108645
 20
-22.607845993
 10
33.8385677047
 20
-22.629926293
 10
33.8137538639
 20
-22.6504275728
 10
33.7876478534
 20
-22.6692893285
 10
33.7604313502
 20
-22.68638788
 10
33.7321462755
 20
-22.701703587
 10
33.7026376641
 20
-22.7152877655
 10
33.6718774086
 20
-22.7270732965
 10
33.6400958903
 20
-22.7368933193
 10
33.6075206734
 20
-22.7446272572
 10
33.5743223513
 20
-22.7501974831
 10
33.5406071501
 20
-22.7535477094
 10
33.5065229104
 20
-22.754622036
  0
LWPOLYLINE
  5
342
100
AcDbEntity
  8
RACCORDO
100
AcDbPolyline
 62
250
  6
CONTINUOUS
 90
25
 70
0
 10
34.3109177763
 20
-22.2699219694
 10
34.3088933703
 20
-22.3226211035
 10
34.303617171
 20
-22.3744619979
 10
34.2950891805
 20
-22.4254446286
 10
34.2832537332
 20
-22.4756980444
 10
34.2681665134
 20
-22.5250931581
 10
34.249994555
 20
-22.573242744
 10
34.22869227
 20
-22.6202158661
 10
34.204305294
 20
-22.6659434371
 10
34.1771375019
 20
-22.7098310042
 10
34.1471421345
 20
-22.751856713
 10
34.1143660197
 20
-22.7920424088
 10
34.0792534135
 20
-22.8298591871
 10
34.0418003838
 20
-22.865253357
 10
34.0020109388
 20
-22.8982786151
 10
33.960341238
 20
-22.9285671375
 10
33.9169112441
 20
-22.9560684916
 10
33.8716010655
 20
-22.9808331286
 10
33.8245070744
 20
-23.0026445513
 10
33.7754112611
 20
-23.0215907029
 10
33.7245317125
 20
-23.0375836767
 10
33.6726189317
 20
-23.0501431988
 10
33.619923096
 20
-23.0591091895
 10
33.5661940728
 20
-23.0646417692
 10
33.5114318858
 20
-23.066740963
  0
LWPOLYLINE
  5
343
100
AcDbEntity
  8
ASSI
100
AcDbPolyline
 62
250
  6
CONTINUOUS
 90
22
 70
0
 10
-59.1094917811
 20
42.9092158646
 10
-59.1692719674
 20
42.9069816567
 10
-59.2287183485
 20
42.9002865799
 10
-59.2874988003
 20
42.8891673052
 10
-59.3452888995
 20
42.8736838478
 10
-59.4017611841
 20
42.8539227467
 10
-59.4565880478
 20
42.829999698
 10
-59.5094602402
 20
42.8020525402
 10
-59.5600872942
 20
42.7702376959
 10
-59.608187391
 20
42.7347350259
 10
-59.6534886007
 20
42.6957488734
 10
-59.6957446539
 20
42.6534948072
 10
-59.734732894
 20
42.6081954719
 10
-59.7702376308
 20
42.5600972706
 10
-59.8020546224
 20
42.5094719857
 10
-59.8300042249
 20
42.4566009434
 10
-59.8539300805
 20
42.4017740413
 10
-59.8736939305
 20
42.3453009776
 10
-59.8891796898
 20
42.2875104391
 10
-59.9003008587
 20
42.2287303162
 10
-59.906997627
 20
42.169284717
 10
-59.9092334267
 20
42.1095057903
  0
LINE
  5
344
100
AcDbEntity
  8
ASSI
100
AcDbLine
 62
250
  6
CONTINUOUS
 10
-59.1336992911
 20
42.4474881646
 11
-58.3228483168
 21
42.4790420412
  0
LINE
  5
345
100
AcDbEntity
  8
ASSI
100
AcDbLine
 62
250
  6
CONTINUOUS
 10
-58.3228483168
 20
42.4790420412
 11
-57.4345344515
 21
42.5077070637
  0
LINE
  5
346
100
AcDbEntity
  8
ASSI
100
AcDbLine
 62
250
  6
CONTINUOUS
 10
-57.4345344515
 20
42.5077070637
 11
-56.470016398
 21
42.5331990241
  0
LINE
  5
347
100
AcDbEntity
  8
ASSI
100
AcDbLine
 62
250
  6
CONTINUOUS
 10
-56.470016398
 20
42.5331990241
 11
-55.4285332516
 21
42.554508816
  0
LINE
  5
348
100
AcDbEntity
  8
ASSI
100
AcDbLine
 62
250
  6
CONTINUOUS
 10
-59.6424533977
 20
42.1290692715
 11
-59.5675579448
 21
42.1305903805
  0
LINE
  5
349
100
AcDbEntity
  8
ASSI
100
AcDbLine
 62
250
  6
CONTINUOUS
 10
-55.4285332516
 20
42.554508816
 11
-54.3430208202
 21
42.5714681646
  0
LINE
  5
34A
100
AcDbEntity
  8
ASSI
100
AcDbLine
 62
250
  6
CONTINUOUS
 10
-54.3430208202
 20
42.5714681646
 11
-53.2247141563
 21
42.5843712837
  0
LWPOLYLINE
  5
34B
100
AcDbEntity
  8
ASSI
100
AcDbPolyline
 62
250
  6
CONTINUOUS
 90
3
 70
0
 10
-59.5675579448
 20
42.1305903805
 10
-59.4884677064
 20
42.1315522506
 10
-59.4480022533
 20
42.1318148978
  0
LINE
  5
34C
100
AcDbEntity
  8
ASSI
100
AcDbLine
 62
250
  6
CONTINUOUS
 10
-53.2247141563
 20
42.5843712837
 11
-51.498763801
 21
42.5984921451
  0
LINE
  5
34D
100
AcDbEntity
  8
ASSI
100
AcDbLine
 62
250
  6
CONTINUOUS
 10
-51.498763801
 20
42.5984921451
 11
-49.6538730368
 21
42.609632311
  0
LINE
  5
34E
100
AcDbEntity
  8
ASSI
100
AcDbLine
 62
250
  6
CONTINUOUS
 10
-49.6538730368
 20
42.609632311
 11
-47.654272367
 21
42.6186488767
  0
LINE
  5
34F
100
AcDbEntity
  8
ASSI
100
AcDbLine
 62
250
  6
CONTINUOUS
 10
-47.654272367
 20
42.6186488767
 11
-44.7258221692
 21
42.6274451168
  0
LINE
  5
350
100
AcDbEntity
  8
ASSI
100
AcDbLine
 62
250
  6
CONTINUOUS
 10
-44.7258221692
 20
42.6274451168
 11
-41.4675152622
 21
42.6331785395
  0
LINE
  5
351
100
AcDbEntity
  8
ASSI
100
AcDbLine
 62
250
  6
CONTINUOUS
 10
27.8983188774
 20
42.6293745367
 11
32.3867879143
 21
42.6346625005
  0
LINE
  5
352
100
AcDbEntity
  8
ASSI
100
AcDbLine
 62
250
  6
CONTINUOUS
 10
57.8554578897
 20
42.9078782055
 11
59.1094899299
 21
42.9092158239
  0
LINE
  5
353
100
AcDbEntity
  8
ASSI
100
AcDbLine
 62
250
  6
CONTINUOUS
 10
56.93751776
 20
42.9071406781
 11
57.8554578897
 21
42.9078782055
  0
LINE
  5
354
100
AcDbEntity
  8
ASSI
100
AcDbLine
 62
250
  6
CONTINUOUS
 10
-41.4675152622
 20
42.6331785395
 11
-37.8481242302
 21
42.6362148939
  0
LINE
  5
355
100
AcDbEntity
  8
ASSI
100
AcDbLine
 62
250
  6
CONTINUOUS
 10
-0.0000009052
 20
42.5800416398
 11
27.8983188774
 21
42.6293745367
  0
LINE
  5
356
100
AcDbEntity
  8
ASSI
100
AcDbLine
 62
250
  6
CONTINUOUS
 10
32.3867879143
 20
42.6346625005
 11
36.3129692637
 21
42.6364632084
  0
LINE
  5
357
100
AcDbEntity
  8
ASSI
100
AcDbLine
 62
7
  6
CONTINUOUS
 10
59.1502732348
 20
42.9499991288
 11
-59.1502750453
 21
42.9499991288
  0
LWPOLYLINE
  5
358
100
AcDbEntity
  8
ASSI
100
AcDbPolyline
 62
250
  6
CONTINUOUS
 90
3
 70
0
 10
6.7816414242
 20
42.9052341438
 10
17.5524017541
 20
42.9046626364
 10
56.93751776
 20
42.9071406781
  0
LINE
  5
359
100
AcDbEntity
  8
ASSI
100
AcDbLine
 62
250
  6
CONTINUOUS
 10
-37.8481242302
 20
42.6362148939
 11
-33.8429138562
 21
42.6356960304
  0
LINE
  5
35A
100
AcDbEntity
  8
ASSI
100
AcDbLine
 62
250
  6
CONTINUOUS
 10
36.3129692637
 20
42.6364632084
 11
39.7826140445
 21
42.6350081271
  0
LINE
  5
35B
100
AcDbEntity
  8
ASSI
100
AcDbLine
 62
250
  6
CONTINUOUS
 10
-33.8429138562
 20
42.6356960304
 11
-29.3414947029
 21
42.6313832348
  0
LINE
  5
35C
100
AcDbEntity
  8
ASSI
100
AcDbLine
 62
250
  6
CONTINUOUS
 10
-59.1094925287
 20
42.9092166122
 11
6.7816414242
 21
42.9052341438
  0
LINE
  5
35D
100
AcDbEntity
  8
ASSI
100
AcDbLine
 62
250
  6
CONTINUOUS
 10
39.7826140445
 20
42.6350081271
 11
43.5891651439
 21
42.6298109022
  0
LINE
  5
35E
100
AcDbEntity
  8
ASSI
100
AcDbLine
 62
250
  6
CONTINUOUS
 10
-29.3414947029
 20
42.6313832348
 11
-24.3377319591
 21
42.6233400626
  0
LINE
  5
35F
100
AcDbEntity
  8
ASSI
100
AcDbLine
 62
250
  6
CONTINUOUS
 10
-24.3377319591
 20
42.6233400626
 11
-0.0000009052
 21
42.5800416398
  0
LINE
  5
360
100
AcDbEntity
  8
ASSI
100
AcDbLine
 62
250
  6
CONTINUOUS
 10
43.5891651439
 20
42.6298109022
 11
46.2718205336
 21
42.6233626764
  0
LINE
  5
361
100
AcDbEntity
  8
ASSI
100
AcDbLine
 62
250
  6
CONTINUOUS
 10
46.2718205336
 20
42.6233626764
 11
48.684867236
 21
42.6143622256
  0
LINE
  5
362
100
AcDbEntity
  8
ASSI
100
AcDbLine
 62
250
  6
CONTINUOUS
 10
48.684867236
 20
42.6143622256
 11
50.9406605589
 21
42.6022437867
  0
LINE
  5
363
100
AcDbEntity
  8
ASSI
100
AcDbLine
 62
250
  6
CONTINUOUS
 10
50.9406605589
 20
42.6022437867
 11
52.638659066
 21
42.5898504363
  0
LINE
  5
364
100
AcDbEntity
  8
ASSI
100
AcDbLine
 62
250
  6
CONTINUOUS
 10
59.4480004083
 20
42.1318149474
 11
59.5284064007
 21
42.1311432194
  0
LINE
  5
365
100
AcDbEntity
  8
ASSI
100
AcDbLine
 62
250
  6
CONTINUOUS
 10
52.638659066
 20
42.5898504363
 11
53.7743140844
 21
42.5784124646
  0
LINE
  5
366
100
AcDbEntity
  8
ASSI
100
AcDbLine
 62
250
  6
CONTINUOUS
 10
53.7743140844
 20
42.5784124646
 11
54.8929936456
 21
42.5635289639
  0
LWPOLYLINE
  5
367
100
AcDbEntity
  8
ASSI
100
AcDbPolyline
 62
250
  6
CONTINUOUS
 90
16
 70
0
 10
59.5284064007
 20
42.1311432194
 10
59.6056559253
 20
42.1298975886
 10
59.6424519416
 20
42.1290693112
 10
59.6777000597
 20
42.1281110944
 10
59.711166167
 20
42.1270293023
 10
59.7426279794
 20
42.1258311203
 10
59.7718765292
 20
42.1245245067
 10
59.7987175492
 20
42.1231181398
 10
59.8229727625
 20
42.1216213607
 10
59.8444810674
 20
42.120044111
 10
59.8630996233
 20
42.1183968651
 10
59.8787047442
 20
42.1166905652
 10
59.8911927497
 20
42.1149365498
 10
59.9004807157
 20
42.1131464712
 10
59.9065069943
 20
42.1113322171
 10
59.9092315886
 20
42.1095058378
  0
LINE
  5
368
100
AcDbEntity
  8
ASSI
100
AcDbLine
 62
250
  6
CONTINUOUS
 10
54.8929936456
 20
42.5635289639
 11
55.9563361423
 21
42.5444117172
  0
LINE
  5
369
100
AcDbEntity
  8
ASSI
100
AcDbLine
 62
250
  6
CONTINUOUS
 10
55.9563361423
 20
42.5444117172
 11
56.9506597775
 21
42.5212514986
  0
LINE
  5
36A
100
AcDbEntity
  8
ASSI
100
AcDbLine
 62
250
  6
CONTINUOUS
 10
56.9506597775
 20
42.5212514986
 11
57.8723755283
 21
42.4942297716
  0
LWPOLYLINE
  5
36B
100
AcDbEntity
  8
ASSI
100
AcDbPolyline
 62
250
  6
CONTINUOUS
 90
3
 70
0
 10
57.8723755283
 20
42.4942297716
 10
58.7292833576
 20
42.4639713847
 10
59.1330373978
 20
42.4475900609
  0
LWPOLYLINE
  5
36C
100
AcDbEntity
  8
ASSI
100
AcDbPolyline
 62
250
  6
CONTINUOUS
 90
22
 70
0
 10
-59.1336992911
 20
42.4474881646
 10
-59.1562725092
 20
42.4456839329
 10
-59.1786058111
 20
42.4422347393
 10
-59.2006987527
 20
42.4371398734
 10
-59.2226929428
 20
42.4303457036
 10
-59.244445865
 20
42.4219044089
 10
-59.2655309987
 20
42.411974144
 10
-59.2859148621
 20
42.4005335757
 10
-59.3056303342
 20
42.3876030082
 10
-59.3243507012
 20
42.3734034263
 10
-59.3420586352
 20
42.3579168045
 10
-59.3587712698
 20
42.3411607387
 10
-59.3742138887
 20
42.3234100881
 10
-59.388368381
 20
42.3046481557
 10
-59.4012531216
 20
42.2848918688
 10
-59.4126484265
 20
42.2644669662
 10
-59.4225293285
 20
42.2433679128
 10
-59.4309214755
 20
42.2216010589
 10
-59.4376813511
 20
42.1995103339
 10
-59.4427614679
 20
42.1772108333
 10
-59.4462102695
 20
42.1545886639
 10
-59.4480282331
 20
42.131644416
  0
LWPOLYLINE
  5
36D
100
AcDbEntity
  8
0
100
AcDbPolyline
 62
7
  6
CONTINUOUS
 90
10
 70
0
 43
0.3500000006
 10
67.1443556671
 20
1.0714266357
 10
67.7872091217
 20
0.4285709152
 10
68.6443561249
 20
-0.0000003204
 10
69.7157830811
 20
-0.0000003204
 10
70.1443520508
 20
0.4285709152
 10
70.1443520508
 20
1.0714266357
 10
69.7157830811
 20
1.5000001373
 10
68.8586406097
 20
1.5000001373
 10
68.4300671082
 20
1.0714266357
 10
68.4300671082
 20
0.1428552475
  0
LWPOLYLINE
  5
36E
100
AcDbEntity
  8
0
100
AcDbPolyline
 62
7
  6
CONTINUOUS
 90
7
 70
0
 43
0.3500000006
 10
-0.0000009052
 20
54.6441611938
 10
-1.5000008826
 20
54.6441611938
 10
-0.0000009052
 20
56.7870151062
 10
-0.0000009052
 20
57.2155931396
 10
-0.4285723332
 20
57.6441621094
 10
-1.0714295053
 20
57.6441621094
 10
-1.5000008826
 20
57.0012995911
  0
LINE
  5
36F
100
AcDbEntity
  8
ASSI
100
AcDbLine
 62
250
  6
CONTINUOUS
 10
59.4715931676
 20
41.4848517683
 11
59.4919939917
 21
40.7771966686
  0
LINE
  5
370
100
AcDbEntity
  8
ASSI
100
AcDbLine
 62
250
  6
CONTINUOUS
 10
59.4919939917
 20
40.7771966686
 11
59.5090318846
 21
40.0092651832
  0
LINE
  5
371
100
AcDbEntity
  8
ASSI
100
AcDbLine
 62
250
  6
CONTINUOUS
 10
59.1311051348
 20
42.6053464963
 11
59.1324233446
 21
42.5280361944
  0
LINE
  5
372
100
AcDbEntity
  8
ASSI
100
AcDbLine
 62
250
  6
CONTINUOUS
 10
59.5090318846
 20
40.0092651832
 11
59.5222413989
 21
39.177845975
  0
LINE
  5
373
100
AcDbEntity
  8
ASSI
100
AcDbLine
 62
250
  6
CONTINUOUS
 10
59.5222413989
 20
39.177845975
 11
59.5319379394
 21
38.3013956072
  0
LINE
  5
374
100
AcDbEntity
  8
ASSI
100
AcDbLine
 62
250
  6
CONTINUOUS
 10
59.1324233446
 20
42.5280361944
 11
59.1331325967
 21
42.4475753651
  0
LINE
  5
375
100
AcDbEntity
  8
ASSI
100
AcDbLine
 62
250
  6
CONTINUOUS
 10
59.5319379394
 20
38.3013956072
 11
59.5412901697
 21
36.9198623738
  0
LINE
  5
376
100
AcDbEntity
  8
ASSI
100
AcDbLine
 62
250
  6
CONTINUOUS
 10
59.5412901697
 20
36.9198623738
 11
59.5490385153
 21
34.9605205507
  0
LINE
  5
377
100
AcDbEntity
  8
ASSI
100
AcDbLine
 62
250
  6
CONTINUOUS
 10
59.5490385153
 20
34.9605205507
 11
59.5535859958
 21
32.8584381212
  0
LINE
  5
378
100
AcDbEntity
  8
ASSI
100
AcDbLine
 62
250
  6
CONTINUOUS
 10
59.5535859958
 20
32.8584381212
 11
59.5711050198
 21
19.2581548739
  0
LINE
  5
379
100
AcDbEntity
  8
ASSI
100
AcDbLine
 62
250
  6
CONTINUOUS
 10
59.5711050198
 20
19.2581548739
 11
59.5722124713
 21
17.1808572482
  0
LINE
  5
37A
100
AcDbEntity
  8
ASSI
100
AcDbLine
 62
250
  6
CONTINUOUS
 10
59.9061754401
 20
-29.2562333549
 11
59.9092312734
 21
-42.1095071899
  0
LINE
  5
37B
100
AcDbEntity
  8
ASSI
100
AcDbLine
 62
250
  6
CONTINUOUS
 10
59.9057657957
 20
-13.7313513388
 11
59.9061754401
 21
-29.2562333549
  0
LINE
  5
37C
100
AcDbEntity
  8
ASSI
100
AcDbLine
 62
7
  6
CONTINUOUS
 10
59.9499990948
 20
-42.1502750113
 11
59.9499990948
 21
42.1502732688
  0
LINE
  5
37D
100
AcDbEntity
  8
ASSI
100
AcDbLine
 62
250
  6
CONTINUOUS
 10
59.5719193793
 20
-16.5231271581
 11
59.5719831285
 21
-18.4162825709
  0
LINE
  5
37E
100
AcDbEntity
  8
ASSI
100
AcDbLine
 62
250
  6
CONTINUOUS
 10
59.9092321018
 20
42.1095062758
 11
59.9057657957
 21
-13.7313513388
  0
LINE
  5
37F
100
AcDbEntity
  8
ASSI
100
AcDbLine
 62
250
  6
CONTINUOUS
 10
59.5722124713
 20
17.1808572482
 11
59.5719193793
 21
-16.5231271581
  0
LINE
  5
380
100
AcDbEntity
  8
ASSI
100
AcDbLine
 62
250
  6
CONTINUOUS
 10
59.5719831285
 20
-18.4162825709
 11
59.5680789952
 21
-20.8377193509
  0
LWPOLYLINE
  5
381
100
AcDbEntity
  8
ASSI
100
AcDbPolyline
 62
250
  6
CONTINUOUS
 90
3
 70
0
 10
59.5680789952
 20
-20.8377193509
 10
59.5651999057
 20
-22.0481174078
 10
59.5545147172
 20
-32.084814101
  0
LINE
  5
382
100
AcDbEntity
  8
ASSI
100
AcDbLine
 62
250
  6
CONTINUOUS
 10
59.5545147172
 20
-32.084814101
 11
59.5500173001
 21
-34.6195971376
  0
LINE
  5
383
100
AcDbEntity
  8
ASSI
100
AcDbLine
 62
250
  6
CONTINUOUS
 10
59.5500173001
 20
-34.6195971376
 11
59.543538767
 21
-36.4276658391
  0
LINE
  5
384
100
AcDbEntity
  8
ASSI
100
AcDbLine
 62
250
  6
CONTINUOUS
 10
59.543538767
 20
-36.4276658391
 11
59.5369381626
 21
-37.6509642894
  0
LINE
  5
385
100
AcDbEntity
  8
ASSI
100
AcDbLine
 62
250
  6
CONTINUOUS
 10
59.5369381626
 20
-37.6509642894
 11
59.5275126665
 21
-38.7477866281
  0
LINE
  5
386
100
AcDbEntity
  8
ASSI
100
AcDbLine
 62
250
  6
CONTINUOUS
 10
59.1331326561
 20
-42.447577068
 11
59.1324234013
 21
-42.5280381107
  0
LINE
  5
387
100
AcDbEntity
  8
ASSI
100
AcDbLine
 62
250
  6
CONTINUOUS
 10
59.5275126665
 20
-38.7477866281
 11
59.519012717
 21
-39.413562652
  0
LINE
  5
388
100
AcDbEntity
  8
ASSI
100
AcDbLine
 62
250
  6
CONTINUOUS
 10
59.519012717
 20
-39.413562652
 11
59.5085571058
 21
-40.0339884579
  0
LWPOLYLINE
  5
389
100
AcDbEntity
  8
ASSI
100
AcDbPolyline
 62
250
  6
CONTINUOUS
 90
16
 70
0
 10
59.1324234013
 20
-42.5280381107
 10
59.1311051867
 20
-42.6053485449
 10
59.1302280494
 20
-42.6421759877
 10
59.1292130165
 20
-42.677455535
 10
59.1280668373
 20
-42.7109526025
 10
59.1267971333
 20
-42.7424444503
 10
59.1254123472
 20
-42.7717216759
 10
59.1239216872
 20
-42.7985896033
 10
59.1223350651
 20
-42.8228695763
 10
59.120663031
 20
-42.8444001475
 10
59.1189167012
 20
-42.86303817
 10
59.1171076894
 20
-42.8786596864
 10
59.1152480306
 20
-42.8911607868
 10
59.1133500931
 20
-42.9004583691
 10
59.1114264952
 20
-42.9064906582
 10
59.1094900275
 20
-42.9092175758
  0
LINE
  5
38A
100
AcDbEntity
  8
ASSI
100
AcDbLine
 62
250
  6
CONTINUOUS
 10
59.5085571058
 20
-40.0339884579
 11
59.4961278159
 21
-40.6121789459
  0
LWPOLYLINE
  5
38B
100
AcDbEntity
  8
ASSI
100
AcDbPolyline
 62
250
  6
CONTINUOUS
 90
3
 70
0
 10
59.4961278159
 20
-40.6121789459
 10
59.4818080564
 20
-41.1511698374
 10
59.4739887625
 20
-41.4078286253
  0
LWPOLYLINE
  5
38C
100
AcDbEntity
  8
0
100
AcDbPolyline
 62
7
  6
CONTINUOUS
 90
13
 70
0
 43
0.3500000006
 10
68.4300671082
 20
-1.9285720139
 10
68.2157826233
 20
-2.2142865486
 10
67.5729246368
 20
-2.2142865486
 10
67.1443556671
 20
-1.9285720139
 10
67.1443556671
 20
-1.2857140274
 10
67.5729246368
 20
-1.0000006256
 10
68.2157826233
 20
-1.0000006256
 10
68.4300671082
 20
-1.2857140274
 10
68.8586406097
 20
-0.8571427917
 10
69.7157830811
 20
-0.8571427917
 10
70.1443520508
 20
-1.2857140274
 10
70.1443520508
 20
-1.9285720139
 10
69.7157830811
 20
-2.3571432495
  0
LWPOLYLINE
  5
38D
100
AcDbEntity
  8
ASSI
100
AcDbPolyline
 62
250
  6
CONTINUOUS
 90
22
 70
0
 10
59.4479392365
 20
42.1322165432
 10
59.4461600036
 20
42.1549062057
 10
59.442740367
 20
42.177337286
 10
59.4376798468
 20
42.1995091856
 10
59.430926819
 20
42.2215568552
 10
59.4225319355
 20
42.2433441108
 10
59.4126482336
 20
42.2644638093
 10
59.4012532316
 20
42.2848886081
 10
59.3883687329
 20
42.3046450387
 10
59.3742144594
 20
42.3234071508
 10
59.3587720533
 20
42.3411579506
 10
59.3420596084
 20
42.3579142015
 10
59.3243518277
 20
42.3734010327
 10
59.3056316441
 20
42.3876008316
 10
59.2859163188
 20
42.4005316403
 10
59.2655323528
 20
42.4119725123
 10
59.2444711215
 20
42.4218994332
 10
59.2227418551
 20
42.4303374502
 10
59.2006980876
 20
42.4371395652
 10
59.1784579937
 20
42.4422573032
 10
59.1559042841
 20
42.4457405662
 10
59.1330373978
 20
42.4475900609
  0
LWPOLYLINE
  5
38E
100
AcDbEntity
  8
ASSI
100
AcDbPolyline
 62
250
  6
CONTINUOUS
 90
22
 70
0
 10
59.9092316163
 20
42.1095057903
 10
59.906995869
 20
42.1692840144
 10
59.9002993062
 20
42.2287286035
 10
59.8891785652
 20
42.2875074342
 10
59.8736936133
 20
42.3452961376
 10
59.8539309635
 20
42.40176718
 10
59.8300063503
 20
42.4565927722
 10
59.8020576462
 20
42.509463614
 10
59.7702412613
 20
42.5600892914
 10
59.7347370649
 20
42.6081879727
 10
59.6957494115
 20
42.653487729
 10
59.6534938744
 20
42.6957423002
 10
59.6081930964
 20
42.7347290316
 10
59.5600934889
 20
42.7702322375
 10
59.5094668352
 20
42.8020476867
 10
59.4565944444
 20
42.8299957452
 10
59.4017662615
 20
42.853920043
 10
59.3452919394
 20
42.8736823516
 10
59.2874999926
 20
42.88916662
 10
59.2287182444
 20
42.9002863229
 10
59.169270854
 20
42.9069816046
 10
59.1094899706
 20
42.9092158646
  0
LINE
  5
38F
100
AcDbEntity
  8
ASSI
100
AcDbLine
 62
250
  6
CONTINUOUS
 10
59.4479392365
 20
42.1322165432
 11
59.4715931676
 21
41.4848517683
  0
LWPOLYLINE
  5
390
100
AcDbEntity
  8
ASSI
100
AcDbPolyline
 62
250
  6
CONTINUOUS
 90
3
 70
0
 10
59.4739887625
 20
-41.4078286253
 10
59.4571042308
 20
-41.8983572334
 10
59.4480263481
 20
-42.1316466476
  0
LWPOLYLINE
  5
391
100
AcDbEntity
  8
ASSI
100
AcDbPolyline
 62
250
  6
CONTINUOUS
 90
14
 70
0
 10
59.9092316163
 20
-42.1095075328
 10
59.9065069752
 20
-42.1113339313
 10
59.9004806021
 20
-42.113148199
 10
59.8911925243
 20
-42.1149382856
 10
59.8787044329
 20
-42.1166923013
 10
59.8630992735
 20
-42.1183985962
 10
59.8444806952
 20
-42.1200458372
 10
59.8229723619
 20
-42.1216230834
 10
59.7987171309
 20
-42.1231198589
 10
59.7718761041
 20
-42.1245262222
 10
59.742627558
 20
-42.1258328323
 10
59.7111657599
 20
-42.127031011
 10
59.6776996765
 20
-42.1281127999
 10
59.6424515876
 20
-42.1290710139
  0
LWPOLYLINE
  5
392
100
AcDbEntity
  8
ASSI
100
AcDbPolyline
 62
250
  6
CONTINUOUS
 90
15
 70
0
 10
59.1094899706
 20
42.9092158646
 10
59.1114264606
 20
42.9064888961
 10
59.113350074
 20
42.9004565051
 10
59.1152480202
 20
42.8911588031
 10
59.1171076788
 20
42.8786576142
 10
59.1189166844
 20
42.8630360637
 10
59.120663008
 20
42.8443980253
 10
59.1223350378
 20
42.8228674307
 10
59.1239216557
 20
42.7985874451
 10
59.1254123117
 20
42.7717195157
 10
59.1267970939
 20
42.7424422976
 10
59.1280667943
 20
42.7109504666
 10
59.1292129701
 20
42.6774534241
 10
59.1302280001
 20
42.6421739049
 10
59.1311051348
 20
42.6053464963
  0
LWPOLYLINE
  5
393
100
AcDbEntity
  8
ASSI
100
AcDbPolyline
 62
250
  6
CONTINUOUS
 90
16
 70
0
 10
-81.6517124382
 20
-42.1528983248
 10
-81.5206291211
 20
-42.1387303529
 10
-81.3888161948
 20
-42.1203897271
 10
-81.2564417931
 20
-42.0978764474
 10
-81.1241181663
 20
-42.0714320445
 10
-80.9915866415
 20
-42.0408149877
 10
-80.8577570085
 20
-42.0053006853
 10
-80.7227277467
 20
-41.9649583899
 10
-80.5869148985
 20
-41.919718849
 10
-80.4498028652
 20
-41.868649712
 10
-80.3101415895
 20
-41.8108716455
 10
-80.1699676447
 20
-41.7472639831
 10
-80.0335299668
 20
-41.6795323754
 10
-79.9022356428
 20
-41.6082453727
 10
-79.7749194693
 20
-41.5328344247
 10
-79.6517126743
 20
-41.4532995315
  0
LINE
  5
394
100
AcDbEntity
  8
ASSI
100
AcDbLine
 62
250
  6
CONTINUOUS
 10
-83.6806206966
 20
-42.131144915
 11
-83.6934797592
 21
-42.1318166402
  0
LINE
  5
395
100
AcDbEntity
  8
ASSI
100
AcDbLine
 62
250
  6
CONTINUOUS
 10
-83.2085596616
 20
-42.1095075328
 11
-83.6806206966
 21
-42.131144915
  0
LINE
  5
396
100
AcDbEntity
  8
ASSI
100
AcDbLine
 62
7
  6
CONTINUOUS
 10
-81.6517124684
 20
-42.9500008712
 11
-83.4096839907
 21
-42.9039667668
  0
LINE
  5
397
100
AcDbEntity
  8
ASSI
100
AcDbLine
 62
250
  6
CONTINUOUS
 10
-83.2085727533
 20
-42.1095071899
 11
-81.6517124684
 21
-42.1502750113
  0
LINE
  5
398
100
AcDbEntity
  8
ASSI
100
AcDbLine
 62
7
  6
CONTINUOUS
 10
-83.4818011764
 20
-42.8968266365
 11
-83.4444544189
 21
-42.9018433239
  0
LWPOLYLINE
  5
399
100
AcDbEntity
  8
ASSI
100
AcDbPolyline
 62
250
  6
CONTINUOUS
 90
16
 70
0
 10
-83.8393901568
 20
42.6363995114
 10
-83.8393052345
 20
42.6364632084
 10
-83.8390718096
 20
42.6363952638
 10
-83.8387216732
 20
42.6361179238
 10
-83.8382697663
 20
42.6356398665
 10
-83.8377135534
 20
42.6350081271
 10
-83.8370734491
 20
42.6342244639
 10
-83.8363713155
 20
42.6332857651
 10
-83.835600995
 20
42.6322316287
 10
-83.8347695621
 20
42.6310794776
 10
-83.8338951908
 20
42.6298109022
 10
-83.8329698391
 20
42.6284093162
 10
-83.8319808487
 20
42.6268728349
 10
-83.8309202686
 20
42.6251973465
 10
-83.8297847189
 20
42.6233626764
 10
-83.8285724979
 20
42.6213660452
  0
LINE
  5
39A
100
AcDbEntity
  8
0
100
AcDbLine
 62
7
  6
CONTINUOUS
 10
-87.5283697826
 20
-27.9801806519
 11
-87.5910680214
 21
-27.9801806519
  0
LINE
  5
39B
100
AcDbEntity
  8
0
100
AcDbLine
 62
250
  6
CONTINUOUS
 10
-87.6159709359
 20
-27.3036617891
 11
-87.6866367068
 21
-27.3036617891
  0
LINE
  5
39C
100
AcDbEntity
  8
0
100
AcDbLine
 62
7
  6
CONTINUOUS
 10
-87.6820276206
 20
-26.8133262613
 11
-87.752640341
 21
-26.8133262613
  0
LINE
  5
39D
100
AcDbEntity
  8
0
100
AcDbLine
 62
7
  6
CONTINUOUS
 10
-87.683968091
 20
-26.7985550034
 11
-87.7545792194
 21
-26.7985550034
  0
LINE
  5
39E
100
AcDbEntity
  8
0
100
AcDbLine
 62
250
  6
CONTINUOUS
 10
-87.8405276738
 20
-25.5359686154
 11
-87.9110091076
 21
-25.5359686154
  0
LINE
  5
39F
100
AcDbEntity
  8
SUPERFICI
100
AcDbLine
 62
7
  6
CONTINUOUS
 10
-87.8510952631
 20
-25.4511155862
 11
-87.9215696729
 21
-25.4511155862
  0
LINE
  5
3A0
100
AcDbEntity
  8
RACCORDO
100
AcDbLine
 62
250
  6
CONTINUOUS
 10
-87.8115182235
 20
22.2699202269
 11
-87.8115747303
 21
22.269902651
  0
LINE
  5
3A1
100
AcDbEntity
  8
RACCORDO
100
AcDbLine
 62
250
  6
CONTINUOUS
 10
-87.9597931899
 20
-23.0875759114
 11
-88.0926869757
 21
-23.1070698559
  0
LWPOLYLINE
  5
3A2
100
AcDbEntity
  8
RACCORDO
100
AcDbPolyline
 62
250
  6
CONTINUOUS
 90
3
 70
0
 10
-88.0926869757
 20
-23.1070698559
 10
-88.0964415291
 20
-23.1076019698
 10
-88.0966970508
 20
-23.107641691
  0
LINE
  5
3A3
100
AcDbEntity
  8
RACCORDO
100
AcDbLine
 62
250
  6
CONTINUOUS
 10
-87.9266069031
 20
-23.082914224
 11
-87.9597931899
 21
-23.0875759114
  0
LINE
  5
3A4
100
AcDbEntity
  8
RACCORDO
100
AcDbLine
 62
250
  6
CONTINUOUS
 10
-87.9016074313
 20
-23.0795348653
 11
-87.9266069031
 21
-23.082914224
  0
LINE
  5
3A5
100
AcDbEntity
  8
RACCORDO
100
AcDbLine
 62
250
  6
CONTINUOUS
 10
-87.8768713157
 20
-23.0763230415
 11
-87.9016074313
 21
-23.0795348653
  0
LINE
  5
3A6
100
AcDbEntity
  8
RACCORDO
100
AcDbLine
 62
250
  6
CONTINUOUS
 10
-87.8529563777
 20
-23.0733474053
 11
-87.8768713157
 21
-23.0763230415
  0
LINE
  5
3A7
100
AcDbEntity
  8
RACCORDO
100
AcDbLine
 62
250
  6
CONTINUOUS
 10
-87.8305565018
 20
-23.0707016834
 11
-87.8529563777
 21
-23.0733474053
  0
LINE
  5
3A8
100
AcDbEntity
  8
RACCORDO
100
AcDbLine
 62
250
  6
CONTINUOUS
 10
-87.8193875417
 20
-23.0694661397
 11
-87.8305565018
 21
-23.0707016834
  0
LWPOLYLINE
  5
3A9
100
AcDbEntity
  8
RACCORDO
100
AcDbPolyline
 62
250
  6
CONTINUOUS
 90
4
 70
0
 10
-87.7925610178
 20
-23.066740963
 10
-87.8001503715
 20
-23.0674576673
 10
-87.8070634112
 20
-23.0681538522
 10
-87.8193875417
 20
-23.0694661397
  0
LINE
  5
3AA
100
AcDbEntity
  8
RACCORDO
100
AcDbLine
 62
7
  6
CONTINUOUS
 10
-87.8241042385
 20
-22.7813116575
 11
-87.7944150846
 21
-22.7787141931
  0
LINE
  5
3AB
100
AcDbEntity
  8
RACCORDO
100
AcDbLine
 62
250
  6
CONTINUOUS
 10
-87.8115182235
 20
-22.26992197
 11
-87.8115747306
 21
-22.2699043859
  0
LWPOLYLINE
  5
3AC
100
AcDbEntity
  8
ASSI
100
AcDbPolyline
 62
7
  6
CONTINUOUS
 90
13
 70
0
 10
-83.8393888193
 20
-42.6364011812
 10
-83.8215065845
 20
-42.6676947668
 10
-83.7998052449
 20
-42.6998285222
 10
-83.7757334796
 20
-42.7301206612
 10
-83.7494513531
 20
-42.7584010514
 10
-83.7211326113
 20
-42.7845120667
 10
-83.6909713441
 20
-42.808304778
 10
-83.6591474371
 20
-42.8296653347
 10
-83.6258220008
 20
-42.8485041931
 10
-83.5911436531
 20
-42.8647421166
 10
-83.5553682938
 20
-42.8782638705
 10
-83.518832529
 20
-42.8889691411
 10
-83.4818011764
 20
-42.8968266365
  0
LWPOLYLINE
  5
3AD
100
AcDbEntity
  8
ASSI
100
AcDbPolyline
 62
7
  6
CONTINUOUS
 90
15
 70
0
 10
-83.8393886992
 20
-42.6364009098
 10
-83.8243580304
 20
-42.6630408267
 10
-83.803185691
 20
-42.6951625406
 10
-83.7796064409
 20
-42.7255611354
 10
-83.7537599169
 20
-42.7540566733
 10
-83.7257991799
 20
-42.780480484
 10
-83.6958898255
 20
-42.8046761538
 10
-83.6642089257
 20
-42.8265005119
 10
-83.6309439731
 20
-42.8458244494
 10
-83.596291788
 20
-42.8625336502
 10
-83.5604576316
 20
-42.8765291555
 10
-83.5236539329
 20
-42.8877280684
 10
-83.4860986846
 20
-42.8960641715
 10
-83.4480141254
 20
-42.9014882478
 10
-83.409697517
 20
-42.9039664126
  0
LINE
  5
3AE
100
AcDbEntity
  8
ASSI
100
AcDbLine
 62
7
  6
CONTINUOUS
 10
-84.3123542266
 20
41.6714838313
 11
-84.3614289415
 21
41.5635092619
  0
LINE
  5
3AF
100
AcDbEntity
  8
ASSI
100
AcDbLine
 62
7
  6
CONTINUOUS
 10
-84.2633693575
 20
41.7776953389
 11
-84.3123542266
 21
41.6714838313
  0
LINE
  5
3B0
100
AcDbEntity
  8
ASSI
100
AcDbLine
 62
7
  6
CONTINUOUS
 10
-84.2145000767
 20
41.8821309024
 11
-84.2633693575
 21
41.7776953389
  0
LINE
  5
3B1
100
AcDbEntity
  8
ASSI
100
AcDbLine
 62
7
  6
CONTINUOUS
 10
-84.1656704442
 20
41.9849922254
 11
-84.2145000767
 21
41.8821309024
  0
LINE
  5
3B2
100
AcDbEntity
  8
ASSI
100
AcDbLine
 62
7
  6
CONTINUOUS
 10
-84.1166950916
 20
42.0866964846
 11
-84.1656704442
 21
41.9849922254
  0
LINE
  5
3B3
100
AcDbEntity
  8
ASSI
100
AcDbLine
 62
7
  6
CONTINUOUS
 10
-84.0674597119
 20
42.1874941281
 11
-84.1166950916
 21
42.0866964846
  0
LINE
  5
3B4
100
AcDbEntity
  8
ASSI
100
AcDbLine
 62
7
  6
CONTINUOUS
 10
-84.0175167716
 20
42.2882903679
 11
-84.0674597119
 21
42.1874941281
  0
LINE
  5
3B5
100
AcDbEntity
  8
ASSI
100
AcDbLine
 62
7
  6
CONTINUOUS
 10
-83.9677430275
 20
42.3873242914
 11
-84.0175167716
 21
42.2882903679
  0
LINE
  5
3B6
100
AcDbEntity
  8
ASSI
100
AcDbLine
 62
7
  6
CONTINUOUS
 10
-83.9215649447
 20
42.4779641719
 11
-83.9677430275
 21
42.3873242914
  0
LINE
  5
3B7
100
AcDbEntity
  8
ASSI
100
AcDbLine
 62
7
  6
CONTINUOUS
 10
-83.8816502401
 20
42.5553704751
 11
-83.9215649447
 21
42.4779641719
  0
LINE
  5
3B8
100
AcDbEntity
  8
ASSI
100
AcDbLine
 62
7
  6
CONTINUOUS
 10
-83.8393874423
 20
42.636404686
 11
-83.8816505285
 21
42.5553699189
  0
LINE
  5
3B9
100
AcDbEntity
  8
ASSI
100
AcDbLine
 62
7
  6
CONTINUOUS
 10
-83.8833677971
 20
-42.5520590279
 11
-83.8393872792
 21
-42.6364067396
  0
LINE
  5
3BA
100
AcDbEntity
  8
ASSI
100
AcDbLine
 62
7
  6
CONTINUOUS
 10
-83.9244305841
 20
-42.4723753412
 11
-83.8833677971
 21
-42.5520590279
  0
LINE
  5
3BB
100
AcDbEntity
  8
ASSI
100
AcDbLine
 62
7
  6
CONTINUOUS
 10
-83.9705697275
 20
-42.3817392261
 11
-83.9244305841
 21
-42.4723753412
  0
LINE
  5
3BC
100
AcDbEntity
  8
ASSI
100
AcDbLine
 62
7
  6
CONTINUOUS
 10
-84.0172626046
 20
-42.2888013975
 11
-83.9705697275
 21
-42.3817392261
  0
LINE
  5
3BD
100
AcDbEntity
  8
ASSI
100
AcDbLine
 62
7
  6
CONTINUOUS
 10
-84.0636500031
 20
-42.1952357767
 11
-84.0172626046
 21
-42.2888013975
  0
LINE
  5
3BE
100
AcDbEntity
  8
ASSI
100
AcDbLine
 62
7
  6
CONTINUOUS
 10
-84.1097257111
 20
-42.1010537691
 11
-84.0636500031
 21
-42.1952357767
  0
LINE
  5
3BF
100
AcDbEntity
  8
ASSI
100
AcDbLine
 62
7
  6
CONTINUOUS
 10
-84.1546722158
 20
-42.0079598988
 11
-84.1097257111
 21
-42.1010537691
  0
LINE
  5
3C0
100
AcDbEntity
  8
ASSI
100
AcDbLine
 62
7
  6
CONTINUOUS
 10
-84.1987167916
 20
-41.9155420085
 11
-84.1546722158
 21
-42.0079598988
  0
LINE
  5
3C1
100
AcDbEntity
  8
ASSI
100
AcDbLine
 62
7
  6
CONTINUOUS
 10
-84.2423339669
 20
-41.8228353859
 11
-84.1987167916
 21
-41.9155420085
  0
LINE
  5
3C2
100
AcDbEntity
  8
ASSI
100
AcDbLine
 62
7
  6
CONTINUOUS
 10
-84.2857461273
 20
-41.7293705129
 11
-84.2423339669
 21
-41.8228353859
  0
LINE
  5
3C3
100
AcDbEntity
  8
ASSI
100
AcDbLine
 62
7
  6
CONTINUOUS
 10
-84.3290878004
 20
-41.6348463004
 11
-84.2857461273
 21
-41.7293705129
  0
LINE
  5
3C4
100
AcDbEntity
  8
ASSI
100
AcDbLine
 62
7
  6
CONTINUOUS
 10
-84.3615938272
 20
-41.5631455375
 11
-84.3290878004
 21
-41.6348463004
  0
LWPOLYLINE
  5
3C5
100
AcDbEntity
  8
0
100
AcDbPolyline
 62
7
  6
CONTINUOUS
 90
3
 70
0
 43
0.3500000006
 10
-83.9235459595
 20
54.9298768616
 10
-83.9949771423
 20
54.7155878448
 10
-84.1378304443
 20
54.429876709
  0
LINE
  5
3C6
100
AcDbEntity
  8
ASSI
100
AcDbLine
 62
7
  6
CONTINUOUS
 10
-85.0233551712
 20
39.9349415757
 11
-85.0730841962
 21
39.7980694033
  0
LINE
  5
3C7
100
AcDbEntity
  8
ASSI
100
AcDbLine
 62
7
  6
CONTINUOUS
 10
-84.9737638979
 20
40.069222923
 11
-85.0233551712
 21
39.9349415757
  0
LINE
  5
3C8
100
AcDbEntity
  8
ASSI
100
AcDbLine
 62
7
  6
CONTINUOUS
 10
-84.9243125783
 20
40.2009749374
 11
-84.9737638979
 21
40.069222923
  0
LINE
  5
3C9
100
AcDbEntity
  8
ASSI
100
AcDbLine
 62
7
  6
CONTINUOUS
 10
-84.8750026736
 20
40.3302596268
 11
-84.9243125783
 21
40.2009749374
  0
LINE
  5
3CA
100
AcDbEntity
  8
ASSI
100
AcDbLine
 62
7
  6
CONTINUOUS
 10
-84.8258330345
 20
40.4571441047
 11
-84.8750026736
 21
40.3302596268
  0
LINE
  5
3CB
100
AcDbEntity
  8
ASSI
100
AcDbLine
 62
7
  6
CONTINUOUS
 10
-84.776787789
 20
40.5817305701
 11
-84.8258330345
 21
40.4571441047
  0
LINE
  5
3CC
100
AcDbEntity
  8
ASSI
100
AcDbLine
 62
7
  6
CONTINUOUS
 10
-84.7278336268
 20
40.7041601612
 11
-84.776787789
 21
40.5817305701
  0
LINE
  5
3CD
100
AcDbEntity
  8
ASSI
100
AcDbLine
 62
7
  6
CONTINUOUS
 10
-84.6789594
 20
40.8245130934
 11
-84.7278336268
 21
40.7041601612
  0
LINE
  5
3CE
100
AcDbEntity
  8
ASSI
100
AcDbLine
 62
7
  6
CONTINUOUS
 10
-84.630151282
 20
40.9428728901
 11
-84.6789594
 21
40.8245130934
  0
LINE
  5
3CF
100
AcDbEntity
  8
ASSI
100
AcDbLine
 62
7
  6
CONTINUOUS
 10
-84.5813885463
 20
41.0593360164
 11
-84.630151282
 21
40.9428728901
  0
LINE
  5
3D0
100
AcDbEntity
  8
ASSI
100
AcDbLine
 62
7
  6
CONTINUOUS
 10
-84.5326389737
 20
41.1740215107
 11
-84.5813885463
 21
41.0593360164
  0
LINE
  5
3D1
100
AcDbEntity
  8
ASSI
100
AcDbLine
 62
7
  6
CONTINUOUS
 10
-84.4838605253
 20
41.2870653298
 11
-84.5326389737
 21
41.1740215107
  0
LINE
  5
3D2
100
AcDbEntity
  8
ASSI
100
AcDbLine
 62
7
  6
CONTINUOUS
 10
-84.4349924852
 20
41.3986390122
 11
-84.4838605253
 21
41.2870653298
  0
LINE
  5
3D3
100
AcDbEntity
  8
ASSI
100
AcDbLine
 62
7
  6
CONTINUOUS
 10
-84.3859732623
 20
41.5089071254
 11
-84.4349924852
 21
41.3986390122
  0
LINE
  5
3D4
100
AcDbEntity
  8
ASSI
100
AcDbLine
 62
7
  6
CONTINUOUS
 10
-84.3614289415
 20
41.5635092619
 11
-84.3859732623
 21
41.5089071254
  0
LWPOLYLINE
  5
3D5
100
AcDbEntity
  8
0
100
AcDbPolyline
 62
7
  6
CONTINUOUS
 90
5
 70
0
 10
-87.9215665623
 20
-25.4511155862
 10
-87.9215447976
 20
-25.4511594282
 10
-87.9213991056
 20
-25.4519540008
 10
-87.9211248211
 20
-25.453790074
 10
-87.9207292724
 20
-25.4567221434
  0
LINE
  5
3D6
100
AcDbEntity
  8
ASSI
100
AcDbLine
 62
7
  6
CONTINUOUS
 10
-84.4049573862
 20
-41.4663981985
 11
-84.3615938272
 21
-41.5631455375
  0
LINE
  5
3D7
100
AcDbEntity
  8
ASSI
100
AcDbLine
 62
7
  6
CONTINUOUS
 10
-84.44834879
 20
-41.3683108219
 11
-84.4049573862
 21
-41.4663981985
  0
LINE
  5
3D8
100
AcDbEntity
  8
ASSI
100
AcDbLine
 62
7
  6
CONTINUOUS
 10
-84.4918012268
 20
-41.2687795176
 11
-84.44834879
 21
-41.3683108219
  0
LINE
  5
3D9
100
AcDbEntity
  8
ASSI
100
AcDbLine
 62
7
  6
CONTINUOUS
 10
-84.5353552307
 20
-41.1676784213
 11
-84.4918012268
 21
-41.2687795176
  0
LINE
  5
3DA
100
AcDbEntity
  8
ASSI
100
AcDbLine
 62
7
  6
CONTINUOUS
 10
-84.5790197771
 20
-41.0649504394
 11
-84.5353552307
 21
-41.1676784213
  0
LINE
  5
3DB
100
AcDbEntity
  8
ASSI
100
AcDbLine
 62
7
  6
CONTINUOUS
 10
-84.6227967182
 20
-40.9605533936
 11
-84.5790197771
 21
-41.0649504394
  0
LINE
  5
3DC
100
AcDbEntity
  8
ASSI
100
AcDbLine
 62
7
  6
CONTINUOUS
 10
-84.6666820031
 20
-40.8544581443
 11
-84.6227967182
 21
-40.9605533936
  0
LINE
  5
3DD
100
AcDbEntity
  8
ASSI
100
AcDbLine
 62
7
  6
CONTINUOUS
 10
-84.7106660782
 20
-40.7466485675
 11
-84.6666820031
 21
-40.8544581443
  0
LINE
  5
3DE
100
AcDbEntity
  8
ASSI
100
AcDbLine
 62
7
  6
CONTINUOUS
 10
-84.7547357012
 20
-40.6371179788
 11
-84.7106660782
 21
-40.7466485675
  0
LINE
  5
3DF
100
AcDbEntity
  8
ASSI
100
AcDbLine
 62
7
  6
CONTINUOUS
 10
-84.7988748109
 20
-40.5258676398
 11
-84.7547357012
 21
-40.6371179788
  0
LINE
  5
3E0
100
AcDbEntity
  8
ASSI
100
AcDbLine
 62
7
  6
CONTINUOUS
 10
-84.8430721346
 20
-40.4128877709
 11
-84.7988748109
 21
-40.5258676398
  0
LINE
  5
3E1
100
AcDbEntity
  8
ASSI
100
AcDbLine
 62
7
  6
CONTINUOUS
 10
-84.8873337115
 20
-40.2981240458
 11
-84.8430721346
 21
-40.4128877709
  0
LINE
  5
3E2
100
AcDbEntity
  8
ASSI
100
AcDbLine
 62
7
  6
CONTINUOUS
 10
-84.9316425225
 20
-40.181581358
 11
-84.8873337115
 21
-40.2981240458
  0
LINE
  5
3E3
100
AcDbEntity
  8
ASSI
100
AcDbLine
 62
7
  6
CONTINUOUS
 10
-84.9759777757
 20
-40.0632764232
 11
-84.9316425225
 21
-40.181581358
  0
LINE
  5
3E4
100
AcDbEntity
  8
ASSI
100
AcDbLine
 62
7
  6
CONTINUOUS
 10
-85.0203211256
 20
-39.9432217149
 11
-84.9759777757
 21
-40.0632764232
  0
LWPOLYLINE
  5
3E5
100
AcDbEntity
  8
ASSI
100
AcDbPolyline
 62
7
  6
CONTINUOUS
 90
3
 70
0
 10
-85.0757502372
 20
-39.7906695479
 10
-85.0646647616
 20
-39.8214027838
 10
-85.0203211256
 20
-39.9432217149
  0
LINE
  5
3E6
100
AcDbEntity
  8
ASSI
100
AcDbLine
 62
7
  6
CONTINUOUS
 10
-85.8580897353
 20
37.3027137709
 11
-85.9100112928
 21
37.1128982728
  0
LINE
  5
3E7
100
AcDbEntity
  8
ASSI
100
AcDbLine
 62
7
  6
CONTINUOUS
 10
-85.8065102404
 20
37.4880103332
 11
-85.8580897353
 21
37.3027137709
  0
LINE
  5
3E8
100
AcDbEntity
  8
ASSI
100
AcDbLine
 62
7
  6
CONTINUOUS
 10
-85.7552028918
 20
37.6691323173
 11
-85.8065102404
 21
37.4880103332
  0
LINE
  5
3E9
100
AcDbEntity
  8
ASSI
100
AcDbLine
 62
7
  6
CONTINUOUS
 10
-85.7040963806
 20
37.8464155202
 11
-85.7552028918
 21
37.6691323173
  0
LINE
  5
3EA
100
AcDbEntity
  8
ASSI
100
AcDbLine
 62
7
  6
CONTINUOUS
 10
-85.6531133019
 20
38.0202022516
 11
-85.7040963806
 21
37.8464155202
  0
LINE
  5
3EB
100
AcDbEntity
  8
ASSI
100
AcDbLine
 62
7
  6
CONTINUOUS
 10
-85.602205792
 20
38.1907210311
 11
-85.6531133019
 21
38.0202022516
  0
LINE
  5
3EC
100
AcDbEntity
  8
ASSI
100
AcDbLine
 62
7
  6
CONTINUOUS
 10
-85.5513715911
 20
38.358042715
 11
-85.602205792
 21
38.1907210311
  0
LINE
  5
3ED
100
AcDbEntity
  8
ASSI
100
AcDbLine
 62
7
  6
CONTINUOUS
 10
-85.5006136564
 20
38.5222227091
 11
-85.5513715911
 21
38.358042715
  0
LINE
  5
3EE
100
AcDbEntity
  8
ASSI
100
AcDbLine
 62
7
  6
CONTINUOUS
 10
-85.4499369328
 20
38.6833120408
 11
-85.5006136564
 21
38.5222227091
  0
LINE
  5
3EF
100
AcDbEntity
  8
ASSI
100
AcDbLine
 62
7
  6
CONTINUOUS
 10
-85.3993472668
 20
38.8413607294
 11
-85.4499369328
 21
38.6833120408
  0
LINE
  5
3F0
100
AcDbEntity
  8
ASSI
100
AcDbLine
 62
7
  6
CONTINUOUS
 10
-85.3488503473
 20
38.9964207705
 11
-85.3993472668
 21
38.8413607294
  0
LINE
  5
3F1
100
AcDbEntity
  8
ASSI
100
AcDbLine
 62
7
  6
CONTINUOUS
 10
-85.2984531537
 20
39.1485413315
 11
-85.3488503473
 21
38.9964207705
  0
LINE
  5
3F2
100
AcDbEntity
  8
ASSI
100
AcDbLine
 62
7
  6
CONTINUOUS
 10
-85.2481629194
 20
39.2977717583
 11
-85.2984531537
 21
39.1485413315
  0
LINE
  5
3F3
100
AcDbEntity
  8
ASSI
100
AcDbLine
 62
7
  6
CONTINUOUS
 10
-85.1979860407
 20
39.4441644607
 11
-85.2481629194
 21
39.2977717583
  0
LINE
  5
3F4
100
AcDbEntity
  8
ASSI
100
AcDbLine
 62
7
  6
CONTINUOUS
 10
-85.1479295358
 20
39.5877702701
 11
-85.1979860407
 21
39.4441644607
  0
LINE
  5
3F5
100
AcDbEntity
  8
ASSI
100
AcDbLine
 62
7
  6
CONTINUOUS
 10
-85.0979999525
 20
39.7286414005
 11
-85.1479295358
 21
39.5877702701
  0
LINE
  5
3F6
100
AcDbEntity
  8
ASSI
100
AcDbLine
 62
7
  6
CONTINUOUS
 10
-85.0730841962
 20
39.7980694033
 11
-85.0979999525
 21
39.7286414005
  0
LINE
  5
3F7
100
AcDbEntity
  8
ASSI
100
AcDbLine
 62
7
  6
CONTINUOUS
 10
-85.1200876301
 20
-39.6666137078
 11
-85.0757502372
 21
-39.7906695479
  0
LINE
  5
3F8
100
AcDbEntity
  8
ASSI
100
AcDbLine
 62
7
  6
CONTINUOUS
 10
-85.1644142079
 20
-39.5407449393
 11
-85.1200876301
 21
-39.6666137078
  0
LINE
  5
3F9
100
AcDbEntity
  8
ASSI
100
AcDbLine
 62
7
  6
CONTINUOUS
 10
-85.2087240142
 20
-39.413045228
 11
-85.1644142079
 21
-39.5407449393
  0
LINE
  5
3FA
100
AcDbEntity
  8
ASSI
100
AcDbLine
 62
7
  6
CONTINUOUS
 10
-85.2530108523
 20
-39.2834980018
 11
-85.2087240142
 21
-39.413045228
  0
LINE
  5
3FB
100
AcDbEntity
  8
ASSI
100
AcDbLine
 62
7
  6
CONTINUOUS
 10
-85.2972687133
 20
-39.1520870366
 11
-85.2530108523
 21
-39.2834980018
  0
LINE
  5
3FC
100
AcDbEntity
  8
ASSI
100
AcDbLine
 62
7
  6
CONTINUOUS
 10
-85.3414913294
 20
-39.0187979196
 11
-85.2972687133
 21
-39.1520870366
  0
LINE
  5
3FD
100
AcDbEntity
  8
ASSI
100
AcDbLine
 62
7
  6
CONTINUOUS
 10
-85.3856725987
 20
-38.8836169609
 11
-85.3414913294
 21
-39.0187979196
  0
LINE
  5
3FE
100
AcDbEntity
  8
ASSI
100
AcDbLine
 62
7
  6
CONTINUOUS
 10
-85.4298069566
 20
-38.7465301725
 11
-85.3856725987
 21
-38.8836169609
  0
LINE
  5
3FF
100
AcDbEntity
  8
ASSI
100
AcDbLine
 62
7
  6
CONTINUOUS
 10
-85.4849006304
 20
-38.5724721567
 11
-85.4298069566
 21
-38.7465301725
  0
LINE
  5
400
100
AcDbEntity
  8
ASSI
100
AcDbLine
 62
7
  6
CONTINUOUS
 10
-85.5399032609
 20
-38.3953902404
 11
-85.4849006304
 21
-38.5724721567
  0
LINE
  5
401
100
AcDbEntity
  8
ASSI
100
AcDbLine
 62
7
  6
CONTINUOUS
 10
-85.5948067922
 20
-38.2152588981
 11
-85.5399032609
 21
-38.3953902404
  0
LINE
  5
402
100
AcDbEntity
  8
ASSI
100
AcDbLine
 62
7
  6
CONTINUOUS
 10
-85.6496051934
 20
-38.0320506286
 11
-85.5948067922
 21
-38.2152588981
  0
LINE
  5
403
100
AcDbEntity
  8
ASSI
100
AcDbLine
 62
7
  6
CONTINUOUS
 10
-85.7042945075
 20
-37.8457359566
 11
-85.6496051934
 21
-38.0320506286
  0
LINE
  5
404
100
AcDbEntity
  8
ASSI
100
AcDbLine
 62
7
  6
CONTINUOUS
 10
-85.7588727513
 20
-37.6562839939
 11
-85.7042945075
 21
-37.8457359566
  0
LINE
  5
405
100
AcDbEntity
  8
ASSI
100
AcDbLine
 62
7
  6
CONTINUOUS
 10
-85.8133407946
 20
-37.4636596082
 11
-85.7588727513
 21
-37.6562839939
  0
LINE
  5
406
100
AcDbEntity
  8
ASSI
100
AcDbLine
 62
7
  6
CONTINUOUS
 10
-85.8677023649
 20
-37.2678234953
 11
-85.8133407946
 21
-37.4636596082
  0
LINE
  5
407
100
AcDbEntity
  8
ASSI
100
AcDbLine
 62
7
  6
CONTINUOUS
 10
-85.9111191291
 20
-37.1088137788
 11
-85.8677023649
 21
-37.2678234953
  0
LINE
  5
408
100
AcDbEntity
  8
ASSI
100
AcDbLine
 62
7
  6
CONTINUOUS
 10
-86.7897857538
 20
33.2398318619
 11
-86.8420073859
 21
32.9527468066
  0
LINE
  5
409
100
AcDbEntity
  8
ASSI
100
AcDbLine
 62
7
  6
CONTINUOUS
 10
-86.7362347857
 20
33.5248641025
 11
-86.7897857538
 21
33.2398318619
  0
LINE
  5
40A
100
AcDbEntity
  8
ASSI
100
AcDbLine
 62
7
  6
CONTINUOUS
 10
-86.6813526224
 20
33.8079442168
 11
-86.7362347857
 21
33.5248641025
  0
LINE
  5
40B
100
AcDbEntity
  8
ASSI
100
AcDbLine
 62
7
  6
CONTINUOUS
 10
-86.6254238071
 20
34.0877556536
 11
-86.6813526224
 21
33.8079442168
  0
LINE
  5
40C
100
AcDbEntity
  8
ASSI
100
AcDbLine
 62
7
  6
CONTINUOUS
 10
-86.5687683563
 20
34.3629701642
 11
-86.6254238071
 21
34.0877556536
  0
LINE
  5
40D
100
AcDbEntity
  8
ASSI
100
AcDbLine
 62
7
  6
CONTINUOUS
 10
-86.5117090588
 20
34.6323982712
 11
-86.5687683563
 21
34.3629701642
  0
LINE
  5
40E
100
AcDbEntity
  8
ASSI
100
AcDbLine
 62
7
  6
CONTINUOUS
 10
-86.4545809203
 20
34.8949231376
 11
-86.5117090588
 21
34.6323982712
  0
LINE
  5
40F
100
AcDbEntity
  8
ASSI
100
AcDbLine
 62
7
  6
CONTINUOUS
 10
-86.3977115218
 20
35.1495723177
 11
-86.4545809203
 21
34.8949231376
  0
LINE
  5
410
100
AcDbEntity
  8
ASSI
100
AcDbLine
 62
7
  6
CONTINUOUS
 10
-86.3414139115
 20
35.3955243892
 11
-86.3977115218
 21
35.1495723177
  0
LINE
  5
411
100
AcDbEntity
  8
ASSI
100
AcDbLine
 62
7
  6
CONTINUOUS
 10
-86.2857983666
 20
35.6328792686
 11
-86.3414139115
 21
35.3955243892
  0
LINE
  5
412
100
AcDbEntity
  8
ASSI
100
AcDbLine
 62
7
  6
CONTINUOUS
 10
-86.2307867518
 20
35.8624940182
 11
-86.2857983666
 21
35.6328792686
  0
LINE
  5
413
100
AcDbEntity
  8
ASSI
100
AcDbLine
 62
7
  6
CONTINUOUS
 10
-86.1762678658
 20
36.0852769264
 11
-86.2307867518
 21
35.8624940182
  0
LINE
  5
414
100
AcDbEntity
  8
ASSI
100
AcDbLine
 62
7
  6
CONTINUOUS
 10
-86.122146726
 20
36.3019909744
 11
-86.1762678658
 21
36.0852769264
  0
LINE
  5
415
100
AcDbEntity
  8
ASSI
100
AcDbLine
 62
7
  6
CONTINUOUS
 10
-86.0684304165
 20
36.5129373099
 11
-86.122144992
 21
36.3019978495
  0
LINE
  5
416
100
AcDbEntity
  8
ASSI
100
AcDbLine
 62
7
  6
CONTINUOUS
 10
-86.0151567959
 20
36.7182722363
 11
-86.0684304165
 21
36.5129373099
  0
LINE
  5
417
100
AcDbEntity
  8
ASSI
100
AcDbLine
 62
7
  6
CONTINUOUS
 10
-85.9492213848
 20
36.9673478546
 11
-86.0151567959
 21
36.7182722363
  0
LINE
  5
418
100
AcDbEntity
  8
ASSI
100
AcDbLine
 62
7
  6
CONTINUOUS
 10
-85.9100112928
 20
37.1128982728
 11
-85.9492213848
 21
36.9673478546
  0
LINE
  5
419
100
AcDbEntity
  8
ASSI
100
AcDbLine
 62
7
  6
CONTINUOUS
 10
-85.9653039723
 20
-36.9070983901
 11
-85.9111191291
 21
-37.1088137788
  0
LINE
  5
41A
100
AcDbEntity
  8
ASSI
100
AcDbLine
 62
7
  6
CONTINUOUS
 10
-86.0193782945
 20
-36.7021390507
 11
-85.9653039723
 21
-36.9070983901
  0
LINE
  5
41B
100
AcDbEntity
  8
ASSI
100
AcDbLine
 62
7
  6
CONTINUOUS
 10
-86.0732982399
 20
-36.4939874649
 11
-86.0193782945
 21
-36.7021390507
  0
LINE
  5
41C
100
AcDbEntity
  8
ASSI
100
AcDbLine
 62
7
  6
CONTINUOUS
 10
-86.1270074837
 20
-36.282703785
 11
-86.0732982399
 21
-36.4939874649
  0
LINE
  5
41D
100
AcDbEntity
  8
ASSI
100
AcDbLine
 62
7
  6
CONTINUOUS
 10
-86.1804494462
 20
-36.0683535208
 11
-86.1270074837
 21
-36.282703785
  0
LINE
  5
41E
100
AcDbEntity
  8
ASSI
100
AcDbLine
 62
7
  6
CONTINUOUS
 10
-86.2335660548
 20
-35.851013564
 11
-86.1804494462
 21
-36.0683535208
  0
LINE
  5
41F
100
AcDbEntity
  8
ASSI
100
AcDbLine
 62
7
  6
CONTINUOUS
 10
-86.286297992
 20
-35.6307725524
 11
-86.2335660548
 21
-35.851013564
  0
LINE
  5
420
100
AcDbEntity
  8
ASSI
100
AcDbLine
 62
7
  6
CONTINUOUS
 10
-86.3385851606
 20
-35.4077303754
 11
-86.286297992
 21
-35.6307725524
  0
LINE
  5
421
100
AcDbEntity
  8
ASSI
100
AcDbLine
 62
7
  6
CONTINUOUS
 10
-86.3903664626
 20
-35.1820006589
 11
-86.3385851606
 21
-35.4077303754
  0
LINE
  5
422
100
AcDbEntity
  8
ASSI
100
AcDbLine
 62
7
  6
CONTINUOUS
 10
-86.4415787577
 20
-34.9537173141
 11
-86.3903664626
 21
-35.1820006589
  0
LINE
  5
423
100
AcDbEntity
  8
ASSI
100
AcDbLine
 62
7
  6
CONTINUOUS
 10
-86.4921584432
 20
-34.7230299375
 11
-86.4415787577
 21
-34.9537173141
  0
LINE
  5
424
100
AcDbEntity
  8
ASSI
100
AcDbLine
 62
7
  6
CONTINUOUS
 10
-86.5420392442
 20
-34.490116482
 11
-86.4921584432
 21
-34.7230299375
  0
LINE
  5
425
100
AcDbEntity
  8
ASSI
100
AcDbLine
 62
7
  6
CONTINUOUS
 10
-86.5911517623
 20
-34.2551893213
 11
-86.5420392442
 21
-34.490116482
  0
LINE
  5
426
100
AcDbEntity
  8
ASSI
100
AcDbLine
 62
7
  6
CONTINUOUS
 10
-86.6394235559
 20
-34.0184996227
 11
-86.5911517623
 21
-34.2551893213
  0
LINE
  5
427
100
AcDbEntity
  8
ASSI
100
AcDbLine
 62
7
  6
CONTINUOUS
 10
-86.686774218
 20
-33.7803679072
 11
-86.6394235559
 21
-34.0184996227
  0
LINE
  5
428
100
AcDbEntity
  8
ASSI
100
AcDbLine
 62
7
  6
CONTINUOUS
 10
-86.7331153389
 20
-33.5411939391
 11
-86.686774218
 21
-33.7803679072
  0
LINE
  5
429
100
AcDbEntity
  8
ASSI
100
AcDbLine
 62
7
  6
CONTINUOUS
 10
-86.7783681054
 20
-33.3013734168
 11
-86.7331153389
 21
-33.5411939391
  0
LINE
  5
42A
100
AcDbEntity
  8
ASSI
100
AcDbLine
 62
7
  6
CONTINUOUS
 10
-86.8225312487
 20
-33.0609216543
 11
-86.7783681054
 21
-33.3013734168
  0
LINE
  5
42B
100
AcDbEntity
  8
ASSI
100
AcDbLine
 62
7
  6
CONTINUOUS
 10
-86.8399035136
 20
-32.9644988192
 11
-86.8225312487
 21
-33.0609216543
  0
LINE
  5
42C
100
AcDbEntity
  8
0
100
AcDbLine
 62
7
  6
CONTINUOUS
 10
-88.019698497
 20
-23.9100404714
 11
-87.937324897
 21
-24.7009748648
  0
LINE
  5
42D
100
AcDbEntity
  8
0
100
AcDbLine
 62
7
  6
CONTINUOUS
 10
-88.0966970508
 20
-23.107641691
 11
-88.019698497
 21
-23.9100404714
  0
LWPOLYLINE
  5
42E
100
AcDbEntity
  8
RACCORDO
100
AcDbPolyline
 62
7
  6
CONTINUOUS
 90
3
 70
0
 10
-88.0966970508
 20
23.1076399485
 10
-87.9047950457
 20
24.9968990522
 10
-87.6826115162
 20
26.8213326692
  0
LINE
  5
42F
100
AcDbEntity
  8
ASSI
100
AcDbLine
 62
7
  6
CONTINUOUS
 10
-87.3677648972
 20
29.3687950118
 11
-87.5749863938
 21
27.5720772606
  0
LINE
  5
430
100
AcDbEntity
  8
ASSI
100
AcDbLine
 62
7
  6
CONTINUOUS
 10
-87.5749863938
 20
27.5720772606
 11
-87.5857471874
 21
27.4811923452
  0
LINE
  5
431
100
AcDbEntity
  8
ASSI
100
AcDbLine
 62
7
  6
CONTINUOUS
 10
-87.3149388181
 20
29.7967424607
 11
-87.3677648972
 21
29.3687950118
  0
LINE
  5
432
100
AcDbEntity
  8
ASSI
100
AcDbLine
 62
7
  6
CONTINUOUS
 10
-87.2626168577
 20
30.2042018503
 11
-87.3149388181
 21
29.7967424607
  0
LINE
  5
433
100
AcDbEntity
  8
ASSI
100
AcDbLine
 62
7
  6
CONTINUOUS
 10
-87.2128044453
 20
30.5772547025
 11
-87.2626168577
 21
30.2042018503
  0
LINE
  5
434
100
AcDbEntity
  8
ASSI
100
AcDbLine
 62
7
  6
CONTINUOUS
 10
-87.1676516663
 20
30.9033951489
 11
-87.2128044453
 21
30.5772547025
  0
LINE
  5
435
100
AcDbEntity
  8
RACCORDO
100
AcDbLine
 62
7
  6
CONTINUOUS
 10
-87.6826115162
 20
26.8213326692
 11
-87.5770274036
 21
27.5546484924
  0
LINE
  5
436
100
AcDbEntity
  8
ASSI
100
AcDbLine
 62
7
  6
CONTINUOUS
 10
-87.1191184485
 20
31.241620085
 11
-87.1676516663
 21
30.9033951489
  0
LINE
  5
437
100
AcDbEntity
  8
ASSI
100
AcDbLine
 62
7
  6
CONTINUOUS
 10
-87.0779181983
 20
31.5189958343
 11
-87.1191184485
 21
31.241620085
  0
LINE
  5
438
100
AcDbEntity
  8
ASSI
100
AcDbLine
 62
7
  6
CONTINUOUS
 10
-87.0346266648
 20
31.8011620528
 11
-87.0779181983
 21
31.5189958343
  0
LINE
  5
439
100
AcDbEntity
  8
ASSI
100
AcDbLine
 62
7
  6
CONTINUOUS
 10
-86.9892844876
 20
32.0869174754
 11
-87.0346266648
 21
31.8011620528
  0
LINE
  5
43A
100
AcDbEntity
  8
ASSI
100
AcDbLine
 62
7
  6
CONTINUOUS
 10
-86.9419659784
 20
32.3749855963
 11
-86.9892844876
 21
32.0869174754
  0
LINE
  5
43B
100
AcDbEntity
  8
ASSI
100
AcDbLine
 62
7
  6
CONTINUOUS
 10
-86.8928065714
 20
32.6640469219
 11
-86.9419659784
 21
32.3749855963
  0
LINE
  5
43C
100
AcDbEntity
  8
ASSI
100
AcDbLine
 62
7
  6
CONTINUOUS
 10
-86.8420073859
 20
32.9527468066
 11
-86.8928065714
 21
32.6640469219
  0
LINE
  5
43D
100
AcDbEntity
  8
ASSI
100
AcDbLine
 62
7
  6
CONTINUOUS
 10
-86.8825438886
 20
-32.7231638222
 11
-86.8399035136
 21
-32.9644988192
  0
LINE
  5
43E
100
AcDbEntity
  8
ASSI
100
AcDbLine
 62
7
  6
CONTINUOUS
 10
-86.9239665393
 20
-32.4819856443
 11
-86.8825438886
 21
-32.7231638222
  0
LINE
  5
43F
100
AcDbEntity
  8
ASSI
100
AcDbLine
 62
7
  6
CONTINUOUS
 10
-86.964063139
 20
-32.2417148819
 11
-86.9239665393
 21
-32.4819856443
  0
LINE
  5
440
100
AcDbEntity
  8
ASSI
100
AcDbLine
 62
7
  6
CONTINUOUS
 10
-87.0027419443
 20
-32.0031237799
 11
-86.964063139
 21
-32.2417148819
  0
LINE
  5
441
100
AcDbEntity
  8
ASSI
100
AcDbLine
 62
7
  6
CONTINUOUS
 10
-87.0472221338
 20
-31.7200284081
 11
-87.0027419443
 21
-32.0031237799
  0
LINE
  5
442
100
AcDbEntity
  8
ASSI
100
AcDbLine
 62
7
  6
CONTINUOUS
 10
-87.0895538267
 20
-31.441550449
 11
-87.0472221338
 21
-31.7200284081
  0
LINE
  5
443
100
AcDbEntity
  8
ASSI
100
AcDbLine
 62
7
  6
CONTINUOUS
 10
-87.1297160954
 20
-31.1688409567
 11
-87.0895538267
 21
-31.441550449
  0
LINE
  5
444
100
AcDbEntity
  8
0
100
AcDbLine
 62
7
  6
CONTINUOUS
 10
-87.6437355226
 20
-27.6121721386
 11
-87.5910680214
 21
-27.9801806519
  0
LINE
  5
445
100
AcDbEntity
  8
ASSI
100
AcDbLine
 62
7
  6
CONTINUOUS
 10
-87.1738383271
 20
-30.8593702473
 11
-87.1297160954
 21
-31.1688409567
  0
LINE
  5
446
100
AcDbEntity
  8
0
100
AcDbLine
 62
7
  6
CONTINUOUS
 10
-87.5585300573
 20
-27.7145186695
 11
-87.6052320282
 21
-27.381589233
  0
LINE
  5
447
100
AcDbEntity
  8
0
100
AcDbLine
 62
7
  6
CONTINUOUS
 10
-87.752640341
 20
-26.8133262613
 11
-87.7510569721
 21
-26.8247756962
  0
LWPOLYLINE
  5
448
100
AcDbEntity
  8
0
100
AcDbPolyline
 62
7
  6
CONTINUOUS
 90
5
 70
0
 10
-87.8502569807
 20
-25.456665864
 10
-87.8506528488
 20
-25.453772244
 10
-87.8509266248
 20
-25.4519228949
 10
-87.8510712847
 20
-25.4511785167
 10
-87.8510920642
 20
-25.4511431567
  0
LINE
  5
449
100
AcDbEntity
  8
ASSI
100
AcDbLine
 62
7
  6
CONTINUOUS
 10
-87.2207209647
 20
-30.5189134899
 11
-87.1738383271
 21
-30.8593702473
  0
LINE
  5
44A
100
AcDbEntity
  8
0
100
AcDbLine
 62
7
  6
CONTINUOUS
 10
-87.6052320282
 20
-27.381589233
 11
-87.6651456883
 21
-26.94021129
  0
LINE
  5
44B
100
AcDbEntity
  8
0
100
AcDbLine
 62
7
  6
CONTINUOUS
 10
-87.7545792194
 20
-26.7985550034
 11
-87.752640341
 21
-26.8133262613
  0
LINE
  5
44C
100
AcDbEntity
  8
ASSI
100
AcDbLine
 62
7
  6
CONTINUOUS
 10
-87.2688016372
 20
-30.156883743
 11
-87.2207209647
 21
-30.5189134899
  0
LWPOLYLINE
  5
44D
100
AcDbEntity
  8
0
100
AcDbPolyline
 62
7
  6
CONTINUOUS
 90
3
 70
0
 10
-87.7510569721
 20
-26.8247756962
 10
-87.7473519648
 20
-26.8531301679
 10
-87.6437355226
 20
-27.6121721386
  0
LINE
  5
44E
100
AcDbEntity
  8
0
100
AcDbLine
 62
7
  6
CONTINUOUS
 10
-87.7588336323
 20
-26.765693898
 11
-87.7569043127
 21
-26.7804354197
  0
LINE
  5
44F
100
AcDbEntity
  8
0
100
AcDbLine
 62
7
  6
CONTINUOUS
 10
-87.8490353615
 20
-25.466133436
 11
-87.8502569807
 21
-25.456665864
  0
LWPOLYLINE
  5
450
100
AcDbEntity
  8
0
100
AcDbPolyline
 62
7
  6
CONTINUOUS
 90
5
 70
0
 10
-87.7569043127
 20
-26.7804354197
 10
-87.7561050417
 20
-26.7867190956
 10
-87.7554627934
 20
-26.7920479522
 10
-87.7549541859
 20
-26.7960872757
 10
-87.7545792194
 20
-26.7985550034
  0
LINE
  5
451
100
AcDbEntity
  8
0
100
AcDbLine
 62
7
  6
CONTINUOUS
 10
-87.9207292724
 20
-25.4567221434
 11
-87.9186524261
 21
-25.4729263759
  0
LINE
  5
452
100
AcDbEntity
  8
ASSI
100
AcDbLine
 62
7
  6
CONTINUOUS
 10
-87.3166304549
 20
-29.7832983377
 11
-87.2688016372
 21
-30.156883743
  0
LINE
  5
453
100
AcDbEntity
  8
0
100
AcDbLine
 62
7
  6
CONTINUOUS
 10
-87.6651456883
 20
-26.94021129
 11
-87.745705517
 21
-26.3153062012
  0
LINE
  5
454
100
AcDbEntity
  8
0
100
AcDbLine
 62
7
  6
CONTINUOUS
 10
-87.824061462
 20
-26.2529164513
 11
-87.7588336323
 21
-26.765693898
  0
LINE
  5
455
100
AcDbEntity
  8
0
100
AcDbLine
 62
7
  6
CONTINUOUS
 10
-87.8443338136
 20
-25.5044031723
 11
-87.8490353615
 21
-25.466133436
  0
LINE
  5
456
100
AcDbEntity
  8
ASSI
100
AcDbLine
 62
7
  6
CONTINUOUS
 10
-87.3670802112
 20
-29.3744492888
 11
-87.3166304549
 21
-29.7832983377
  0
LWPOLYLINE
  5
457
100
AcDbEntity
  8
0
100
AcDbPolyline
 62
7
  6
CONTINUOUS
 90
3
 70
0
 10
-87.9186524261
 20
-25.4729263759
 10
-87.9130331011
 20
-25.5187837779
 10
-87.824061462
 20
-26.2529164513
  0
LINE
  5
458
100
AcDbEntity
  8
0
100
AcDbLine
 62
7
  6
CONTINUOUS
 10
-87.745705517
 20
-26.3153062012
 11
-87.8041411504
 21
-25.8399181232
  0
LINE
  5
459
100
AcDbEntity
  8
ASSI
100
AcDbLine
 62
7
  6
CONTINUOUS
 10
-87.5862303356
 20
-27.4772108327
 11
-87.5802865031
 21
-27.5269645168
  0
LINE
  5
45A
100
AcDbEntity
  8
0
100
AcDbLine
 62
7
  6
CONTINUOUS
 10
-87.8041411504
 20
-25.8399181232
 11
-87.8443338136
 21
-25.5044031723
  0
LINE
  5
45B
100
AcDbEntity
  8
ASSI
100
AcDbLine
 62
7
  6
CONTINUOUS
 10
-87.4244784837
 20
-28.8913013449
 11
-87.3670802112
 21
-29.3744492888
  0
LINE
  5
45C
100
AcDbEntity
  8
ASSI
100
AcDbLine
 62
7
  6
CONTINUOUS
 10
-87.5802865564
 20
-27.5269640651
 11
-87.5475853243
 21
-27.8104771954
  0
LINE
  5
45D
100
AcDbEntity
  8
ASSI
100
AcDbLine
 62
7
  6
CONTINUOUS
 10
-87.5475853243
 20
-27.8104771954
 11
-87.4244784837
 21
-28.8913013449
  0
LINE
  5
45E
100
AcDbEntity
  8
0
100
AcDbLine
 62
7
  6
CONTINUOUS
 10
-87.937324897
 20
-24.7009748648
 11
-87.8529184787
 21
-25.4513526639
  0
LINE
  5
45F
100
AcDbEntity
  8
RACCORDO
100
AcDbLine
 62
250
  6
CONTINUOUS
 10
-87.8396729461
 20
-21.5144765266
 11
-87.8115182235
 21
-22.2699219694
  0
LINE
  5
460
100
AcDbEntity
  8
RACCORDO
100
AcDbLine
 62
7
  6
CONTINUOUS
 10
-87.8115747306
 20
-22.2699043859
 11
-87.803112634
 21
-22.4991041255
  0
LINE
  5
461
100
AcDbEntity
  8
RACCORDO
100
AcDbLine
 62
250
  6
CONTINUOUS
 10
-87.8038706726
 20
-22.4756980444
 11
-87.803112634
 21
-22.4991041255
  0
LINE
  5
462
100
AcDbEntity
  8
RACCORDO
100
AcDbLine
 62
250
  6
CONTINUOUS
 10
-87.8025466174
 20
-22.5155285799
 11
-87.8021594637
 21
-22.5250931581
  0
LINE
  5
463
100
AcDbEntity
  8
RACCORDO
100
AcDbLine
 62
7
  6
CONTINUOUS
 10
-87.8843189859
 20
-20.1638883842
 11
-87.8115747307
 21
-22.269904385
  0
LINE
  5
464
100
AcDbEntity
  8
RACCORDO
100
AcDbLine
 62
250
  6
CONTINUOUS
 10
-87.8645792921
 20
-20.7856250174
 11
-87.8396729461
 21
-21.5144765266
  0
LINE
  5
465
100
AcDbEntity
  8
RACCORDO
100
AcDbLine
 62
7
  6
CONTINUOUS
 10
-87.803112634
 20
-22.4991041255
 11
-87.797132571
 21
-22.6831582989
  0
LINE
  5
466
100
AcDbEntity
  8
RACCORDO
100
AcDbLine
 62
250
  6
CONTINUOUS
 10
-87.7975858109
 20
-22.6659434371
 11
-87.797132571
 21
-22.6831582989
  0
LINE
  5
467
100
AcDbEntity
  8
RACCORDO
100
AcDbLine
 62
250
  6
CONTINUOUS
 10
-87.7967182344
 20
-22.6970699007
 11
-87.7962678213
 21
-22.7098310042
  0
LINE
  5
468
100
AcDbEntity
  8
RACCORDO
100
AcDbLine
 62
250
  6
CONTINUOUS
 10
-87.9062107817
 20
-19.4113011944
 11
-87.8645792921
 21
-20.7856250174
  0
LINE
  5
469
100
AcDbEntity
  8
RACCORDO
100
AcDbLine
 62
7
  6
CONTINUOUS
 10
-87.9446471039
 20
-17.9057539832
 11
-87.8841255341
 21
-20.1694889985
  0
LINE
  5
46A
100
AcDbEntity
  8
RACCORDO
100
AcDbLine
 62
7
  6
CONTINUOUS
 10
-87.797132571
 20
-22.6831582989
 11
-87.7938782788
 21
-22.799246921
  0
LINE
  5
46B
100
AcDbEntity
  8
RACCORDO
100
AcDbLine
 62
250
  6
CONTINUOUS
 10
-87.7939767457
 20
-22.7920424088
 11
-87.7938782788
 21
-22.799246921
  0
LINE
  5
46C
100
AcDbEntity
  8
RACCORDO
100
AcDbLine
 62
250
  6
CONTINUOUS
 10
-87.7935846152
 20
-22.8108345579
 11
-87.7930169497
 21
-22.8298591871
  0
LINE
  5
46D
100
AcDbEntity
  8
RACCORDO
100
AcDbLine
 62
7
  6
CONTINUOUS
 10
-87.7938782788
 20
-22.799246921
 11
-87.7921009546
 21
-22.8744770376
  0
LINE
  5
46E
100
AcDbEntity
  8
RACCORDO
100
AcDbLine
 62
250
  6
CONTINUOUS
 10
-87.9444922629
 20
-17.9124451236
 11
-87.9391452859
 21
-18.1360434099
  0
LINE
  5
46F
100
AcDbEntity
  8
RACCORDO
100
AcDbLine
 62
7
  6
CONTINUOUS
 10
-87.9915428605
 20
-15.5695745779
 11
-87.9444922629
 21
-17.9124451236
  0
LINE
  5
470
100
AcDbEntity
  8
RACCORDO
100
AcDbLine
 62
7
  6
CONTINUOUS
 10
-87.7906439548
 20
23.0225202942
 11
-87.7905547811
 21
23.0179956359
  0
LINE
  5
471
100
AcDbEntity
  8
RACCORDO
100
AcDbLine
 62
7
  6
CONTINUOUS
 10
-87.7921009546
 20
-22.8744770376
 11
-87.7910993325
 21
-22.9277645566
  0
LINE
  5
472
100
AcDbEntity
  8
RACCORDO
100
AcDbLine
 62
7
  6
CONTINUOUS
 10
-88.027890956
 20
-13.1554115096
 11
-87.9914280549
 21
-15.5762650552
  0
LINE
  5
473
100
AcDbEntity
  8
RACCORDO
100
AcDbLine
 62
7
  6
CONTINUOUS
 10
-87.7910993325
 20
-22.9277645566
 11
-87.7906843693
 21
-22.9573655077
  0
LINE
  5
474
100
AcDbEntity
  8
RACCORDO
100
AcDbLine
 62
7
  6
CONTINUOUS
 10
-88.057460223
 20
-10.6635295731
 11
-88.0277993076
 21
-13.1620925582
  0
LINE
  5
475
100
AcDbEntity
  8
RACCORDO
100
AcDbLine
 62
250
  6
CONTINUOUS
 10
-87.7905038771
 20
-22.9763826905
 11
-87.7902329872
 21
-22.9808331286
  0
LINE
  5
476
100
AcDbEntity
  8
RACCORDO
100
AcDbLine
 62
7
  6
CONTINUOUS
 10
-87.7905547811
 20
23.0179956359
 11
-87.790480222
 21
23.0119054528
  0
LINE
  5
477
100
AcDbEntity
  8
RACCORDO
100
AcDbLine
 62
7
  6
CONTINUOUS
 10
-88.083541699
 20
-8.0941124819
 11
-88.0574038723
 21
-10.6701982293
  0
LINE
  5
478
100
AcDbEntity
  8
RACCORDO
100
AcDbLine
 62
7
  6
CONTINUOUS
 10
-88.1049238462
 20
-5.4469900824
 11
-88.0834815193
 21
-8.1007644671
  0
LINE
  5
479
100
AcDbEntity
  8
RACCORDO
100
AcDbLine
 62
7
  6
CONTINUOUS
 10
-87.7906843693
 20
-22.9573655077
 11
-87.7905038771
 21
-22.9763826905
  0
LWPOLYLINE
  5
47A
100
AcDbEntity
  8
RACCORDO
100
AcDbPolyline
 62
250
  6
CONTINUOUS
 90
3
 70
0
 10
-87.7925610178
 20
23.0667392205
 10
-87.7923568125
 20
23.0361974538
 10
-87.7905901333
 20
23.019982421
  0
LINE
  5
47B
100
AcDbEntity
  8
RACCORDO
100
AcDbLine
 62
250
  6
CONTINUOUS
 10
-87.7904265281
 20
-22.9926885701
 11
-87.7901021922
 21
-23.0026445513
  0
LINE
  5
47C
100
AcDbEntity
  8
RACCORDO
100
AcDbLine
 62
7
  6
CONTINUOUS
 10
-88.119207068
 20
-2.7220748908
 11
-88.1048770445
 21
-5.4536437058
  0
LINE
  5
47D
100
AcDbEntity
  8
RACCORDO
100
AcDbLine
 62
7
  6
CONTINUOUS
 10
-87.790480222
 20
23.0119054528
 11
-87.7904333881
 21
23.0042952949
  0
LINE
  5
47E
100
AcDbEntity
  8
RACCORDO
100
AcDbLine
 62
7
  6
CONTINUOUS
 10
-87.7905038771
 20
-22.9763826905
 11
-87.7904265281
 21
-22.9926885701
  0
LINE
  5
47F
100
AcDbEntity
  8
RACCORDO
100
AcDbLine
 62
7
  6
CONTINUOUS
 10
-88.1242608928
 20
-0.0000008714
 11
-88.1191831448
 21
-2.7287322126
  0
LWPOLYLINE
  5
480
100
AcDbEntity
  8
0
100
AcDbPolyline
 62
7
  6
CONTINUOUS
 90
4
 70
0
 43
0.3500000006
 10
-86.9949689941
 20
55.0727301636
 10
-86.9949689941
 20
55.9298771667
 10
-86.5664000244
 20
56.3584461365
 10
-85.9235465698
 20
56.3584461365
  0
LWPOLYLINE
  5
481
100
AcDbEntity
  8
RACCORDO
100
AcDbPolyline
 62
250
  6
CONTINUOUS
 90
7
 70
0
 10
-87.7904405655
 20
-23.0061169678
 10
-87.7901205817
 20
-23.0215907029
 10
-87.7902886534
 20
-23.0375836767
 10
-87.7906152597
 20
-23.0501431988
 10
-87.7911039711
 20
-23.0591091895
 10
-87.79175247
 20
-23.0646417692
 10
-87.7925610178
 20
-23.066740963
  0
LINE
  5
482
100
AcDbEntity
  8
RACCORDO
100
AcDbLine
 62
7
  6
CONTINUOUS
 10
-87.7904265281
 20
-22.9926885701
 11
-87.7904263683
 21
-23.0019742909
  0
LINE
  5
483
100
AcDbEntity
  8
RACCORDO
100
AcDbLine
 62
7
  6
CONTINUOUS
 10
-87.7904333881
 20
23.0042952949
 11
-87.7904325436
 21
22.9901243449
  0
LINE
  5
484
100
AcDbEntity
  8
RACCORDO
100
AcDbLine
 62
7
  6
CONTINUOUS
 10
-87.7904263683
 20
-23.0019742909
 11
-87.7904635652
 21
-23.0099273132
  0
LWPOLYLINE
  5
485
100
AcDbEntity
  8
RACCORDO
100
AcDbPolyline
 62
250
  6
CONTINUOUS
 90
3
 70
0
 10
-87.7925610178
 20
-23.066740963
 10
-87.7923568425
 20
-23.0361997145
 10
-87.7905905423
 20
-23.0199877906
  0
LINE
  5
486
100
AcDbEntity
  8
RACCORDO
100
AcDbLine
 62
7
  6
CONTINUOUS
 10
-87.7904325436
 20
22.9901243449
 11
-87.7905303159
 21
22.9728588195
  0
LINE
  5
487
100
AcDbEntity
  8
RACCORDO
100
AcDbLine
 62
250
  6
CONTINUOUS
 10
-87.7901999531
 20
22.9851942051
 11
-87.7905303159
 21
22.9728588195
  0
LINE
  5
488
100
AcDbEntity
  8
RACCORDO
100
AcDbLine
 62
7
  6
CONTINUOUS
 10
-87.7904635652
 20
-23.0099273132
 11
-87.7905320845
 21
-23.0164789848
  0
LINE
  5
489
100
AcDbEntity
  8
RACCORDO
100
AcDbLine
 62
7
  6
CONTINUOUS
 10
-87.7905303159
 20
22.9728588195
 11
-87.790838412
 21
22.945226325
  0
LINE
  5
48A
100
AcDbEntity
  8
RACCORDO
100
AcDbLine
 62
250
  6
CONTINUOUS
 10
-87.7904515409
 20
22.9609036843
 11
-87.790838412
 21
22.945226325
  0
LINE
  5
48B
100
AcDbEntity
  8
RACCORDO
100
AcDbLine
 62
250
  6
CONTINUOUS
 10
-87.7909491363
 20
22.9374808502
 11
-87.7908445605
 21
22.9338349501
  0
LINE
  5
48C
100
AcDbEntity
  8
RACCORDO
100
AcDbLine
 62
7
  6
CONTINUOUS
 10
-87.790838412
 20
22.945226325
 11
-87.7915287838
 21
22.9031030666
  0
LWPOLYLINE
  5
48D
100
AcDbEntity
  8
RACCORDO
100
AcDbPolyline
 62
7
  6
CONTINUOUS
 90
4
 70
0
 10
-87.7905320845
 20
-23.0164789848
 10
-87.7906208206
 20
-23.0215197412
 10
-87.7906659644
 20
-23.0233828725
 10
-87.7907080648
 20
-23.0248247316
  0
LINE
  5
48E
100
AcDbEntity
  8
RACCORDO
100
AcDbLine
 62
7
  6
CONTINUOUS
 10
-87.7915287838
 20
22.9031030666
 11
-87.7928453361
 21
22.8412637909
  0
LINE
  5
48F
100
AcDbEntity
  8
RACCORDO
100
AcDbLine
 62
7
  6
CONTINUOUS
 10
-87.7928453361
 20
22.8412637909
 11
-87.7955121687
 21
22.7387370391
  0
LWPOLYLINE
  5
490
100
AcDbEntity
  8
RACCORDO
100
AcDbPolyline
 62
250
  6
CONTINUOUS
 90
3
 70
0
 10
-87.8941882407
 20
19.831551565
 10
-87.9108336198
 20
19.2438898705
 10
-87.9444922629
 20
17.9124433811
  0
LINE
  5
491
100
AcDbEntity
  8
RACCORDO
100
AcDbLine
 62
250
  6
CONTINUOUS
 10
-87.7948597581
 20
22.7592525866
 11
-87.7955121687
 21
22.7387370391
  0
LINE
  5
492
100
AcDbEntity
  8
RACCORDO
100
AcDbLine
 62
250
  6
CONTINUOUS
 10
-87.7959238662
 20
22.7242965644
 11
-87.7960377052
 21
22.7177065004
  0
LINE
  5
493
100
AcDbEntity
  8
RACCORDO
100
AcDbLine
 62
250
  6
CONTINUOUS
 10
-87.8563390813
 20
21.033452163
 11
-87.8840964588
 21
20.1705743483
  0
LINE
  5
494
100
AcDbEntity
  8
RACCORDO
100
AcDbLine
 62
7
  6
CONTINUOUS
 10
-87.7955121687
 20
22.7387370391
 11
-87.8004267359
 21
22.5786640769
  0
LINE
  5
495
100
AcDbEntity
  8
RACCORDO
100
AcDbLine
 62
250
  6
CONTINUOUS
 10
-87.8002443267
 20
22.5822836914
 11
-87.8004267359
 21
22.5786640769
  0
LINE
  5
496
100
AcDbEntity
  8
RACCORDO
100
AcDbLine
 62
250
  6
CONTINUOUS
 10
-87.8016249658
 20
22.5426439647
 11
-87.8018809202
 21
22.5333218724
  0
LWPOLYLINE
  5
497
100
AcDbEntity
  8
RACCORDO
100
AcDbPolyline
 62
7
  6
CONTINUOUS
 90
10
 70
0
 10
-87.8115747303
 20
22.269902651
 10
-87.8840964588
 20
20.1705743483
 10
-87.9444922629
 20
17.9124433811
 10
-87.9914280549
 20
15.5762633128
 10
-88.0277993076
 20
13.1620908157
 10
-88.0574038723
 20
10.6701964868
 10
-88.0834815193
 20
8.1007627246
 10
-88.1048770445
 20
5.4536419634
 10
-88.1191831448
 20
2.7287304702
 10
-88.1242608928
 20
-0.0000008711
  0
LINE
  5
498
100
AcDbEntity
  8
RACCORDO
100
AcDbLine
 62
7
  6
CONTINUOUS
 10
-87.8004267359
 20
22.5786640769
 11
-87.8078845341
 21
22.3663651654
  0
LINE
  5
499
100
AcDbEntity
  8
RACCORDO
100
AcDbLine
 62
250
  6
CONTINUOUS
 10
-87.8122125728
 20
22.2514386568
 11
-87.8563390813
 21
21.033452163
  0
LINE
  5
49A
100
AcDbEntity
  8
RACCORDO
100
AcDbLine
 62
250
  6
CONTINUOUS
 10
-87.8073951436
 20
22.3782041858
 11
-87.8078845341
 21
22.3663651654
  0
LINE
  5
49B
100
AcDbEntity
  8
RACCORDO
100
AcDbLine
 62
7
  6
CONTINUOUS
 10
-87.8078845341
 20
22.3663651654
 11
-87.8115747305
 21
22.2699026455
  0
LINE
  5
49C
100
AcDbEntity
  8
RACCORDO
100
AcDbLine
 62
7
  6
CONTINUOUS
 10
-79.6517124684
 20
-3.6023727144
 11
-81.4569478581
 21
-3.555100962
  0
LWPOLYLINE
  5
49D
100
AcDbEntity
  8
ASSI
100
AcDbPolyline
 62
250
  6
CONTINUOUS
 90
19
 70
0
 10
-83.6940538703
 20
-42.447577068
 10
-83.6892927212
 20
-42.4880691859
 10
-83.6812519616
 20
-42.5280381107
 10
-83.6699850614
 20
-42.5672180729
 10
-83.6555669444
 20
-42.6053485449
 10
-83.6380934847
 20
-42.6421759877
 10
-83.6176808656
 20
-42.677455535
 10
-83.5944648158
 20
-42.7109526025
 10
-83.5685997106
 20
-42.7424444503
 10
-83.5402575374
 20
-42.7717216759
 10
-83.509626755
 20
-42.7985896033
 10
-83.4769110399
 20
-42.8228695763
 10
-83.4423279322
 20
-42.8444001475
 10
-83.4061073486
 20
-42.86303817
 10
-83.368490172
 20
-42.8786596864
 10
-83.329726664
 20
-42.8911607868
 10
-83.290074632
 20
-42.9004583691
 10
-83.2497977005
 20
-42.9064906582
 10
-83.209163687
 20
-42.9092175758
  0
LWPOLYLINE
  5
49E
100
AcDbEntity
  8
RACCORDO
100
AcDbPolyline
 62
7
  6
CONTINUOUS
 90
6
 70
0
 10
-87.7907278371
 20
23.0256196346
 10
-87.7907568633
 20
23.0261560602
 10
-87.7907530364
 20
23.0260670326
 10
-87.7907247158
 20
23.0253193833
 10
-87.7906866774
 20
23.024124309
 10
-87.7906439548
 20
23.0225202942
  0
LINE
  5
49F
100
AcDbEntity
  8
ASSI
100
AcDbLine
 62
250
  6
CONTINUOUS
 10
-83.2280092887
 20
-41.6384376997
 11
-83.2085727533
 21
-42.1095071899
  0
LINE
  5
4A0
100
AcDbEntity
  8
ASSI
100
AcDbLine
 62
250
  6
CONTINUOUS
 10
-83.7113029821
 20
-41.6570843264
 11
-83.6925916979
 21
-42.1545906781
  0
LINE
  5
4A1
100
AcDbEntity
  8
ASSI
100
AcDbLine
 62
250
  6
CONTINUOUS
 10
-83.6918190745
 20
-42.1772126845
 11
-83.6925916979
 21
-42.1545906781
  0
LINE
  5
4A2
100
AcDbEntity
  8
ASSI
100
AcDbLine
 62
250
  6
CONTINUOUS
 10
-83.2452779747
 20
-41.1357799584
 11
-83.2280092887
 21
-41.6384376997
  0
LINE
  5
4A3
100
AcDbEntity
  8
ASSI
100
AcDbLine
 62
250
  6
CONTINUOUS
 10
-83.7265411472
 20
-41.1511698374
 11
-83.7113029821
 21
-41.6570843264
  0
LINE
  5
4A4
100
AcDbEntity
  8
ASSI
100
AcDbLine
 62
250
  6
CONTINUOUS
 10
-83.2603897988
 20
-40.5997813366
 11
-83.2452779747
 21
-41.1357799584
  0
LINE
  5
4A5
100
AcDbEntity
  8
ASSI
100
AcDbLine
 62
250
  6
CONTINUOUS
 10
-83.6905990726
 20
-42.2216027651
 11
-83.6918190745
 21
-42.1772126845
  0
LINE
  5
4A6
100
AcDbEntity
  8
ASSI
100
AcDbLine
 62
250
  6
CONTINUOUS
 10
-83.7393246532
 20
-40.6121789459
 11
-83.7265411472
 21
-41.1511698374
  0
LINE
  5
4A7
100
AcDbEntity
  8
ASSI
100
AcDbLine
 62
250
  6
CONTINUOUS
 10
-83.2733812487
 20
-40.0242400358
 11
-83.2603897988
 21
-40.5997813366
  0
LINE
  5
4A8
100
AcDbEntity
  8
ASSI
100
AcDbLine
 62
250
  6
CONTINUOUS
 10
-83.689760836
 20
-42.2644687087
 11
-83.6905990726
 21
-42.2216027651
  0
LINE
  5
4A9
100
AcDbEntity
  8
ASSI
100
AcDbLine
 62
250
  6
CONTINUOUS
 10
-83.7499235446
 20
-40.0339884579
 11
-83.7393246532
 21
-40.6121789459
  0
LWPOLYLINE
  5
4AA
100
AcDbEntity
  8
ASSI
100
AcDbPolyline
 62
250
  6
CONTINUOUS
 90
3
 70
0
 10
-83.2889265493
 20
-39.0806573066
 10
-83.2842692466
 20
-39.4061144098
 10
-83.2733812487
 20
-40.0242400358
  0
LINE
  5
4AB
100
AcDbEntity
  8
ASSI
100
AcDbLine
 62
250
  6
CONTINUOUS
 10
-83.7621188374
 20
-39.0870939403
 11
-83.7499235446
 21
-40.0339884579
  0
LINE
  5
4AC
100
AcDbEntity
  8
ASSI
100
AcDbLine
 62
250
  6
CONTINUOUS
 10
-83.6892718872
 20
-42.3046498981
 11
-83.689760836
 21
-42.2644687087
  0
LINE
  5
4AD
100
AcDbEntity
  8
ASSI
100
AcDbLine
 62
250
  6
CONTINUOUS
 10
-83.7727577448
 20
-37.6509642894
 11
-83.7621188374
 21
-39.0870939403
  0
LINE
  5
4AE
100
AcDbEntity
  8
ASSI
100
AcDbLine
 62
250
  6
CONTINUOUS
 10
-83.78594939
 20
-33.1373700661
 11
-83.7727577448
 21
-37.6509642894
  0
LWPOLYLINE
  5
4AF
100
AcDbEntity
  8
ASSI
100
AcDbPolyline
 62
250
  6
CONTINUOUS
 90
3
 70
0
 10
-83.7923359919
 20
-25.0838625729
 10
-83.7895606772
 20
-28.6698206486
 10
-83.78594939
 20
-33.1373700661
  0
LINE
  5
4B0
100
AcDbEntity
  8
ASSI
100
AcDbLine
 62
250
  6
CONTINUOUS
 10
-83.8026554654
 20
-16.5231271581
 11
-83.7923359919
 21
-25.0838625729
  0
LINE
  5
4B1
100
AcDbEntity
  8
ASSI
100
AcDbLine
 62
250
  6
CONTINUOUS
 10
-83.7936908586
 20
24.1229566609
 11
-83.802621084
 21
16.4456988892
  0
LINE
  5
4B2
100
AcDbEntity
  8
ASSI
100
AcDbLine
 62
250
  6
CONTINUOUS
 10
-83.7740781172
 20
37.3872413257
 11
-83.7936908586
 21
24.1229566609
  0
LINE
  5
4B3
100
AcDbEntity
  8
ASSI
100
AcDbLine
 62
250
  6
CONTINUOUS
 10
-83.6892719155
 20
42.3046450387
 11
-83.6890987645
 21
42.3411579506
  0
LINE
  5
4B4
100
AcDbEntity
  8
ASSI
100
AcDbLine
 62
250
  6
CONTINUOUS
 10
-83.7653382721
 20
38.7443449041
 11
-83.7740781172
 21
37.3872413257
  0
LINE
  5
4B5
100
AcDbEntity
  8
ASSI
100
AcDbLine
 62
250
  6
CONTINUOUS
 10
-83.7561869005
 20
39.6010863894
 11
-83.7653382721
 21
38.7443449041
  0
LINE
  5
4B6
100
AcDbEntity
  8
ASSI
100
AcDbLine
 62
250
  6
CONTINUOUS
 10
-83.6897608858
 20
42.2644638093
 11
-83.6892719155
 21
42.3046450387
  0
LINE
  5
4B7
100
AcDbEntity
  8
ASSI
100
AcDbLine
 62
250
  6
CONTINUOUS
 10
-83.7435390123
 20
40.4007706915
 11
-83.7561869005
 21
39.6010863894
  0
LINE
  5
4B8
100
AcDbEntity
  8
ASSI
100
AcDbLine
 62
250
  6
CONTINUOUS
 10
-83.2738778847
 20
39.9996199021
 11
-83.2876233804
 21
39.1711292667
  0
LINE
  5
4B9
100
AcDbEntity
  8
ASSI
100
AcDbLine
 62
250
  6
CONTINUOUS
 10
-83.6906006677
 20
42.2215568552
 11
-83.6897608858
 21
42.2644638093
  0
LINE
  5
4BA
100
AcDbEntity
  8
ASSI
100
AcDbLine
 62
250
  6
CONTINUOUS
 10
-83.2560656388
 20
40.7639672757
 11
-83.2738778847
 21
39.9996199021
  0
LWPOLYLINE
  5
4BB
100
AcDbEntity
  8
ASSI
100
AcDbPolyline
 62
250
  6
CONTINUOUS
 90
4
 70
0
 10
-83.7057446514
 20
41.8160724021
 10
-83.7168792276
 20
41.4848517683
 10
-83.7268758245
 20
41.1385564628
 10
-83.7435390123
 20
40.4007706915
  0
LWPOLYLINE
  5
4BC
100
AcDbEntity
  8
ASSI
100
AcDbPolyline
 62
250
  6
CONTINUOUS
 90
4
 70
0
 10
-83.7057446514
 20
41.8160724021
 10
-83.6925810025
 20
42.1549062057
 10
-83.6918147045
 20
42.177337286
 10
-83.6906006677
 20
42.2215568552
  0
LWPOLYLINE
  5
4BD
100
AcDbEntity
  8
ASSI
100
AcDbPolyline
 62
250
  6
CONTINUOUS
 90
4
 70
0
 10
-83.2085411206
 20
42.1095062758
 10
-83.2219097226
 20
41.7960214519
 10
-83.2342866681
 20
41.467271466
 10
-83.2560656388
 20
40.7639672757
  0
LINE
  5
4BE
100
AcDbEntity
  8
ASSI
100
AcDbLine
 62
250
  6
CONTINUOUS
 10
-83.3331766082
 20
-0.0000008712
 11
-83.7956623506
 21
-0.0000008712
  0
LINE
  5
4BF
100
AcDbEntity
  8
RACCORDO
100
AcDbLine
 62
250
  6
CONTINUOUS
 10
-83.7956623506
 20
-0.0000008712
 11
-88.123948128
 21
-0.0000008712
  0
LINE
  5
4C0
100
AcDbEntity
  8
ASSI
100
AcDbLine
 62
250
  6
CONTINUOUS
 10
-83.2090981768
 20
42.9069816046
 11
-83.2091624922
 21
42.9092158646
  0
LINE
  5
4C1
100
AcDbEntity
  8
ASSI
100
AcDbLine
 62
250
  6
CONTINUOUS
 10
-83.3000942406
 20
-38.0262078502
 11
-83.2889265493
 21
-39.0806573066
  0
LINE
  5
4C2
100
AcDbEntity
  8
ASSI
100
AcDbLine
 62
250
  6
CONTINUOUS
 10
-83.3141037623
 20
-35.5453993853
 11
-83.3000942406
 21
-38.0262078502
  0
LWPOLYLINE
  5
4C3
100
AcDbEntity
  8
ASSI
100
AcDbPolyline
 62
250
  6
CONTINUOUS
 90
12
 70
0
 10
-83.6890987645
 20
42.3411579506
 10
-83.6891257421
 20
42.3579142015
 10
-83.6892268363
 20
42.3734010327
 10
-83.6894062185
 20
42.3876008316
 10
-83.6896646946
 20
42.4005316403
 10
-83.6900031078
 20
42.4119725123
 10
-83.6904299675
 20
42.4218994332
 10
-83.6909501374
 20
42.4303374502
 10
-83.6915640485
 20
42.4371395652
 10
-83.692278865
 20
42.4422573032
 10
-83.6931063888
 20
42.4457405662
 10
-83.6940560151
 20
42.4475900609
  0
LINE
  5
4C4
100
AcDbEntity
  8
ASSI
100
AcDbLine
 62
250
  6
CONTINUOUS
 10
-83.3244888692
 20
-30.4133061466
 11
-83.3141037623
 21
-35.5453993853
  0
LINE
  5
4C5
100
AcDbEntity
  8
ASSI
100
AcDbLine
 62
250
  6
CONTINUOUS
 10
-83.3264371563
 20
-27.485467807
 11
-83.3244888692
 21
-30.4133061466
  0
LINE
  5
4C6
100
AcDbEntity
  8
ASSI
100
AcDbLine
 62
250
  6
CONTINUOUS
 10
-83.802621084
 20
16.4456988892
 11
-83.7973931101
 21
8.4858112834
  0
LINE
  5
4C7
100
AcDbEntity
  8
ASSI
100
AcDbLine
 62
250
  6
CONTINUOUS
 10
-83.3368035014
 20
10.0601251355
 11
-83.3332665087
 21
0.8679517305
  0
LINE
  5
4C8
100
AcDbEntity
  8
ASSI
100
AcDbLine
 62
250
  6
CONTINUOUS
 10
-83.2090696526
 20
42.88916662
 11
-83.2090981768
 21
42.9069816046
  0
LINE
  5
4C9
100
AcDbEntity
  8
ASSI
100
AcDbLine
 62
7
  6
CONTINUOUS
 10
-81.6517124684
 20
-42.9500008712
 11
-81.6517124684
 21
42.9499991288
  0
LINE
  5
4CA
100
AcDbEntity
  8
ASSI
100
AcDbLine
 62
250
  6
CONTINUOUS
 10
-83.7973931101
 20
8.4858112834
 11
-83.7982258139
 21
-10.5737926672
  0
LINE
  5
4CB
100
AcDbEntity
  8
ASSI
100
AcDbLine
 62
250
  6
CONTINUOUS
 10
-83.3441041019
 20
-16.5234037435
 11
-83.3264371563
 21
-27.485467807
  0
LINE
  5
4CC
100
AcDbEntity
  8
ASSI
100
AcDbLine
 62
250
  6
CONTINUOUS
 10
-83.3438375096
 20
18.5888149846
 11
-83.3368035014
 21
10.0601251355
  0
LINE
  5
4CD
100
AcDbEntity
  8
ASSI
100
AcDbLine
 62
250
  6
CONTINUOUS
 10
-83.7982258139
 20
-10.5737926672
 11
-83.8026554654
 21
-16.5231271581
  0
LINE
  5
4CE
100
AcDbEntity
  8
ASSI
100
AcDbLine
 62
250
  6
CONTINUOUS
 10
-83.3332665087
 20
0.8679517305
 11
-83.3398894192
 21
-12.9715140071
  0
LINE
  5
4CF
100
AcDbEntity
  8
ASSI
100
AcDbLine
 62
250
  6
CONTINUOUS
 10
-83.3398894192
 20
-12.9715140071
 11
-83.3441041019
 21
-16.5234037435
  0
LINE
  5
4D0
100
AcDbEntity
  8
ASSI
100
AcDbLine
 62
250
  6
CONTINUOUS
 10
-83.2090698142
 20
-42.9002883224
 11
-83.2085596616
 21
-42.1095075328
  0
LINE
  5
4D1
100
AcDbEntity
  8
ASSI
100
AcDbLine
 62
250
  6
CONTINUOUS
 10
-83.2085596616
 20
42.1095057903
 11
-83.2090696526
 21
42.88916662
  0
LWPOLYLINE
  5
4D2
100
AcDbEntity
  8
ASSI
100
AcDbPolyline
 62
250
  6
CONTINUOUS
 90
3
 70
0
 10
-83.3289196594
 20
25.3097732059
 10
-83.3372909256
 20
21.7536258889
 10
-83.3438375096
 20
18.5888149846
  0
LINE
  5
4D3
100
AcDbEntity
  8
ASSI
100
AcDbLine
 62
250
  6
CONTINUOUS
 10
-83.3144133362
 20
35.4632162827
 11
-83.3289196594
 21
25.3097732059
  0
LINE
  5
4D4
100
AcDbEntity
  8
ASSI
100
AcDbLine
 62
250
  6
CONTINUOUS
 10
-83.3015460696
 20
37.8444912734
 11
-83.3144133362
 21
35.4632162827
  0
LWPOLYLINE
  5
4D5
100
AcDbEntity
  8
ASSI
100
AcDbPolyline
 62
250
  6
CONTINUOUS
 90
3
 70
0
 10
-83.2876233804
 20
39.1711292667
 10
-83.2931575708
 20
38.7388328029
 10
-83.3015460696
 20
37.8444912734
  0
LWPOLYLINE
  5
4D6
100
AcDbEntity
  8
ASSI
100
AcDbPolyline
 62
250
  6
CONTINUOUS
 90
3
 70
0
 10
-83.2091624922
 20
-42.9092176071
 10
-83.2090981818
 20
-42.9069833992
 10
-83.2090698142
 20
-42.9002883224
  0
LINE
  5
4D7
100
AcDbEntity
  8
ASSI
100
AcDbLine
 62
7
  6
CONTINUOUS
 10
-79.6517124684
 20
41.8504575646
 11
-79.6517124684
 21
41.4532990143
  0
LINE
  5
4D8
100
AcDbEntity
  8
0
100
AcDbLine
 62
7
  6
CONTINUOUS
 10
-79.6517124684
 20
41.4532990143
 11
-79.6517124684
 21
3.6023709719
  0
LINE
  5
4D9
100
AcDbEntity
  8
0
100
AcDbLine
 62
7
  6
CONTINUOUS
 10
-79.6517124684
 20
-3.6023727144
 11
-79.6517124684
 21
-41.4532969046
  0
LINE
  5
4DA
100
AcDbEntity
  8
ASSI
100
AcDbLine
 62
7
  6
CONTINUOUS
 10
-79.6517124684
 20
-41.4532969046
 11
-79.6517124684
 21
-41.8504604529
  0
LINE
  5
4DB
100
AcDbEntity
  8
RACCORDO
100
AcDbLine
 62
7
  6
CONTINUOUS
 10
-79.6517124684
 20
3.6023709719
 11
-81.4569478581
 21
3.5550992196
  0
LWPOLYLINE
  5
4DC
100
AcDbEntity
  8
RACCORDO
100
AcDbPolyline
 62
250
  6
CONTINUOUS
 90
8
 70
0
 10
-87.7925610178
 20
23.0667392205
 10
-87.7917765647
 20
23.0648170729
 10
-87.7911419533
 20
23.0596412516
 10
-87.7906569004
 20
23.0512117347
 10
-87.7903212262
 20
23.039471877
 10
-87.7901339396
 20
23.0244782875
 10
-87.7900935092
 20
23.0064008268
 10
-87.7904325436
 20
22.9901243449
  0
LWPOLYLINE
  5
4DD
100
AcDbEntity
  8
ASSI
100
AcDbPolyline
 62
250
  6
CONTINUOUS
 90
13
 70
0
 10
-83.6940320061
 20
-42.4474878347
 10
-83.6930928215
 20
-42.4456845237
 10
-83.6922733392
 20
-42.442236021
 10
-83.6915640828
 20
-42.4371416158
 10
-83.6909521323
 20
-42.4303475998
 10
-83.6904310273
 20
-42.4219062283
 10
-83.6900031661
 20
-42.4119758864
 10
-83.6896647462
 20
-42.4005353182
 10
-83.6894062555
 20
-42.3876047507
 10
-83.6892268589
 20
-42.3734051688
 10
-83.6891257527
 20
-42.357918547
 10
-83.6890987626
 20
-42.3411624812
 10
-83.6892718872
 20
-42.3046498981
  0
LWPOLYLINE
  5
4DE
100
AcDbEntity
  8
ASSI
100
AcDbPolyline
 62
250
  6
CONTINUOUS
 90
17
 70
0
 10
-83.821562265
 20
-42.6095710889
 10
-83.826916068
 20
-42.6186023763
 10
-83.8284390175
 20
-42.6211408808
 10
-83.8298416708
 20
-42.6234491166
 10
-83.8311314452
 20
-42.6255428438
 10
-83.8323224234
 20
-42.6274171146
 10
-83.8334245621
 20
-42.6290845485
 10
-83.8344411086
 20
-42.6305878171
 10
-83.8353815838
 20
-42.6319529552
 10
-83.8362555955
 20
-42.6331628652
 10
-83.837058518
 20
-42.6341949063
 10
-83.8377637709
 20
-42.6350604869
 10
-83.8383531927
 20
-42.6357505377
 10
-83.8388305756
 20
-42.6362118158
 10
-83.8391745295
 20
-42.6364341549
 10
-83.8393674557
 20
-42.6364322479
 10
-83.8393907322
 20
-42.636400157
  0
LWPOLYLINE
  5
4DF
100
AcDbEntity
  8
ASSI
100
AcDbPolyline
 62
250
  6
CONTINUOUS
 90
7
 70
0
 10
-83.8023809185
 20
-42.5781588129
 10
-83.8061674926
 20
-42.5842550664
 10
-83.8094165809
 20
-42.5895758425
 10
-83.8123130419
 20
-42.5941591752
 10
-83.8148950028
 20
-42.5984114382
 10
-83.8172564266
 20
-42.6024325706
 10
-83.821562265
 20
-42.6095710889
  0
LINE
  5
4E0
100
AcDbEntity
  8
RACCORDO
100
AcDbLine
 62
7
  6
CONTINUOUS
 10
-87.8241042385
 20
22.781309915
 11
-87.7944145793
 21
22.7787124064
  0
LWPOLYLINE
  5
4E1
100
AcDbEntity
  8
RACCORDO
100
AcDbPolyline
 62
250
  6
CONTINUOUS
 90
3
 70
0
 10
-87.8087657633
 20
23.0683195494
 10
-87.8011377066
 20
23.0675447688
 10
-87.7925610178
 20
23.0667392205
  0
LINE
  5
4E2
100
AcDbEntity
  8
RACCORDO
100
AcDbLine
 62
250
  6
CONTINUOUS
 10
-87.8279168402
 20
23.0704013566
 11
-87.8087657633
 21
23.0683195494
  0
LINE
  5
4E3
100
AcDbEntity
  8
RACCORDO
100
AcDbLine
 62
250
  6
CONTINUOUS
 10
-87.8449239383
 20
23.0723833545
 11
-87.8279168402
 21
23.0704013566
  0
LINE
  5
4E4
100
AcDbEntity
  8
RACCORDO
100
AcDbLine
 62
250
  6
CONTINUOUS
 10
-87.8621075023
 20
23.0744683485
 11
-87.8449239383
 21
23.0723833545
  0
LINE
  5
4E5
100
AcDbEntity
  8
RACCORDO
100
AcDbLine
 62
250
  6
CONTINUOUS
 10
-87.885704864
 20
23.0774526039
 11
-87.8621075023
 21
23.0744683485
  0
LINE
  5
4E6
100
AcDbEntity
  8
RACCORDO
100
AcDbLine
 62
250
  6
CONTINUOUS
 10
-87.9096097229
 20
23.0806006059
 11
-87.885704864
 21
23.0774526039
  0
LINE
  5
4E7
100
AcDbEntity
  8
RACCORDO
100
AcDbLine
 62
250
  6
CONTINUOUS
 10
-87.9390363201
 20
23.0846372455
 11
-87.9096097229
 21
23.0806006059
  0
LINE
  5
4E8
100
AcDbEntity
  8
RACCORDO
100
AcDbLine
 62
250
  6
CONTINUOUS
 10
-87.9755805651
 20
23.0898496117
 11
-87.9390363201
 21
23.0846372455
  0
LINE
  5
4E9
100
AcDbEntity
  8
RACCORDO
100
AcDbLine
 62
250
  6
CONTINUOUS
 10
-88.0959027686
 20
23.1075261287
 11
-87.9755805651
 21
23.0898496117
  0
LINE
  5
4EA
100
AcDbEntity
  8
ASSI
100
AcDbLine
 62
250
  6
CONTINUOUS
 10
-83.8285724979
 20
42.6213660452
 11
-83.8243962522
 21
42.6143622256
  0
LWPOLYLINE
  5
4EB
100
AcDbEntity
  8
ASSI
100
AcDbPolyline
 62
250
  6
CONTINUOUS
 90
3
 70
0
 10
-83.8243962522
 20
42.6143622256
 10
-83.8210758985
 20
42.6087491568
 10
-83.8171379163
 20
42.6022437867
  0
LWPOLYLINE
  5
4EC
100
AcDbEntity
  8
ASSI
100
AcDbPolyline
 62
250
  6
CONTINUOUS
 90
17
 70
0
 10
-83.8171379163
 20
42.6022437867
 10
-83.8149323874
 20
42.5984711553
 10
-83.8124468884
 20
42.5943657556
 10
-83.8095837973
 20
42.5898504363
 10
-83.8063549516
 20
42.5845516635
 10
-83.8025716301
 20
42.5784124646
 10
-83.7980344772
 20
42.5714777888
 10
-83.7927712589
 20
42.5635289639
 10
-83.7866810614
 20
42.5544812829
 10
-83.7795520327
 20
42.5444117172
 10
-83.771338683
 20
42.5333495079
 10
-83.7620067631
 20
42.5212514986
 10
-83.7514080107
 20
42.5081586224
 10
-83.7393833589
 20
42.4942297716
 10
-83.7258371113
 20
42.4795182741
 10
-83.7107411957
 20
42.4639713847
 10
-83.6940560151
 20
42.4475900609
  0
LWPOLYLINE
  5
4ED
100
AcDbEntity
  8
0
100
AcDbPolyline
 62
7
  6
CONTINUOUS
 90
10
 70
0
 43
0.3500000006
 10
-83.9949771423
 20
55.1441613464
 10
-83.9235459595
 20
55.0013035126
 10
-83.9235459595
 20
54.9298768616
 10
-84.0663992615
 20
54.7870190277
 10
-84.1378304443
 20
54.7870190277
 10
-84.2092616272
 20
54.8584456787
 10
-84.2092616272
 20
54.9298768616
 10
-84.1378304443
 20
55.0727301636
 10
-84.0663992615
 20
55.1441613464
 10
-83.9949771423
 20
55.1441613464
  0
LWPOLYLINE
  5
4EE
100
AcDbEntity
  8
ASSI
100
AcDbPolyline
 62
250
  6
CONTINUOUS
 90
11
 70
0
 10
-83.6940320061
 20
-42.4474878347
 10
-83.7103734429
 20
-42.4635998117
 10
-83.7253101758
 20
-42.4789742506
 10
-83.7388323868
 20
-42.4936079465
 10
-83.7509437251
 20
-42.5075854321
 10
-83.7616716567
 20
-42.5208167183
 10
-83.7711045974
 20
-42.5330402655
 10
-83.7794051352
 20
-42.5441934533
 10
-83.7866001405
 20
-42.5543414024
 10
-83.7926982779
 20
-42.5634217846
 10
-83.8023809185
 20
-42.5781588129
  0
LWPOLYLINE
  5
4EF
100
AcDbEntity
  8
ASSI
100
AcDbPolyline
 62
250
  6
CONTINUOUS
 90
16
 70
0
 10
-79.6517123553
 20
41.4532975918
 10
-79.7696663747
 20
41.5292270765
 10
-79.8894888363
 20
41.6006799474
 10
-80.0109321402
 20
41.6676562047
 10
-80.1332467986
 20
41.7299409689
 10
-80.256688507
 20
41.7877491195
 10
-80.3826147696
 20
41.8417252944
 10
-80.5107820421
 20
41.8920315591
 10
-80.6411422966
 20
41.9385058482
 10
-80.775509135
 20
41.9813066033
 10
-80.914893482
 20
42.0207972761
 10
-81.058118919
 20
42.056614415
 10
-81.2037316829
 20
42.0878261066
 10
-81.3511079739
 20
42.1141217134
 10
-81.5005001235
 20
42.1358118729
 10
-81.6517124601
 20
42.1528965853
  0
LWPOLYLINE
  5
4F0
100
AcDbEntity
  8
ASSI
100
AcDbPolyline
 62
250
  6
CONTINUOUS
 90
19
 70
0
 10
-83.2091624922
 20
42.9092158646
 10
-83.2497969721
 20
42.9064888961
 10
-83.2900742271
 20
42.9004565051
 10
-83.3297264381
 20
42.8911588031
 10
-83.3684899422
 20
42.8786576142
 10
-83.4061069856
 20
42.8630360637
 10
-83.4423274382
 20
42.8443980253
 10
-83.4769104559
 20
42.8228674307
 10
-83.5096260828
 20
42.7985874451
 10
-83.54025678
 20
42.7717195157
 10
-83.5685988721
 20
42.7424422976
 10
-83.5944639014
 20
42.7109504666
 10
-83.6176798813
 20
42.6774534241
 10
-83.6380924398
 20
42.6421739049
 10
-83.6555658457
 20
42.6053464963
 10
-83.6699839117
 20
42.5672160782
 10
-83.6812507663
 20
42.5280361944
 10
-83.6892914918
 20
42.4880673672
 10
-83.6940526225
 20
42.4475753651
  0
LWPOLYLINE
  5
4F1
100
AcDbEntity
  8
ASSI
100
AcDbPolyline
 62
7
  6
CONTINUOUS
 90
15
 70
0
 10
-83.4096992515
 20
42.9039646247
 10
-83.4480639633
 20
42.9014814857
 10
-83.4861279343
 20
42.8960573774
 10
-83.5236659728
 20
42.8877235731
 10
-83.560456653
 20
42.8765283089
 10
-83.5962813131
 20
42.8625371809
 10
-83.6309255716
 20
42.8458333443
 10
-83.6641834259
 20
42.8265159782
 10
-83.6958589423
 20
42.8046987363
 10
-83.7257651446
 20
42.780509982
 10
-83.7537249809
 20
42.7540923108
 10
-83.7795724314
 20
42.7256019352
 10
-83.8031541276
 20
42.6952072673
 10
-83.8243301269
 20
42.6630880008
 10
-83.8393908334
 20
42.6363983618
  0
LINE
  5
4F2
100
AcDbEntity
  8
ASSI
100
AcDbLine
 62
250
  6
CONTINUOUS
 10
-83.2085411206
 20
42.1095062758
 11
-81.6517124684
 21
42.1502732688
  0
LINE
  5
4F3
100
AcDbEntity
  8
ASSI
100
AcDbLine
 62
7
  6
CONTINUOUS
 10
-83.4096926783
 20
42.9039647969
 11
-81.6517124684
 21
42.9499991288
  0
LWPOLYLINE
  5
4F4
100
AcDbEntity
  8
0
100
AcDbPolyline
 62
7
  6
CONTINUOUS
 90
8
 70
0
 43
0.3500000006
 10
-82.9235456543
 20
54.6441611938
 10
-82.0663986511
 20
54.6441611938
 10
-81.6378296814
 20
55.0727301636
 10
-81.6378296814
 20
55.9298771667
 10
-82.0663986511
 20
56.3584461365
 10
-82.9235456543
 20
56.3584461365
 10
-82.9235456543
 20
57.6441621094
 10
-81.6378296814
 20
57.6441621094
  0
LINE
  5
4F5
100
AcDbEntity
  8
ASSI
100
AcDbLine
 62
250
  6
CONTINUOUS
 10
-83.6806217471
 20
42.1311432194
 11
-83.2085607182
 21
42.1095058378
  0
LINE
  5
4F6
100
AcDbEntity
  8
ASSI
100
AcDbLine
 62
250
  6
CONTINUOUS
 10
-83.6934808627
 20
42.1318149474
 11
-83.6806217471
 21
42.1311432194
  0
LWPOLYLINE
  5
4F7
100
AcDbEntity
  8
0
100
AcDbPolyline
 62
7
  6
CONTINUOUS
 90
13
 70
0
 43
0.3500000006
 10
-86.5664000244
 20
56.3584461365
 10
-86.8521156921
 20
56.5727306213
 10
-86.8521156921
 20
57.2155931396
 10
-86.5664000244
 20
57.6441621094
 10
-85.9235465698
 20
57.6441621094
 10
-85.6378309021
 20
57.2155931396
 10
-85.6378309021
 20
56.5727306213
 10
-85.9235465698
 20
56.3584461365
 10
-85.4949685364
 20
55.9298771667
 10
-85.4949685364
 20
55.0727301636
 10
-85.9235465698
 20
54.6441611938
 10
-86.5664000244
 20
54.6441611938
 10
-86.9949689941
 20
55.0727301636
  0
ARC
  5
4F8
100
AcDbEntity
  8
ASSI
100
AcDbCircle
 62
7
  6
CONTINUOUS
 10
-82.0817124684
 20
-38.6731805333
 40
4.0
100
AcDbArc
 50
276.1712216282
 51
307.4089400017
  0
ARC
  5
4F9
100
AcDbEntity
  8
ASSI
100
AcDbCircle
 62
7
  6
CONTINUOUS
 10
-82.0817124684
 20
38.6731787909
 40
4.0
100
AcDbArc
 50
52.5910594295
 51
83.8287779178
  0
ARC
  5
4FA
100
AcDbEntity
  8
RACCORDO
100
AcDbCircle
 62
7
  6
CONTINUOUS
 10
-87.7979575157
 20
23.0801683245
 40
0.3
100
AcDbArc
 50
174.7459458326
 51
265.0
  0
ARC
  5
4FB
100
AcDbEntity
  8
RACCORDO
100
AcDbCircle
 62
7
  6
CONTINUOUS
 10
-87.7979575157
 20
-23.0801700669
 40
0.3
100
AcDbArc
 50
95.0
 51
185.2540541674
  0
ARC
  5
4FC
100
AcDbEntity
  8
RACCORDO
100
AcDbCircle
 62
7
  6
CONTINUOUS
 10
-81.4517124684
 20
-3.3551694971
 40
0.2
100
AcDbArc
 50
180.0
 51
268.5
  0
ARC
  5
4FD
100
AcDbEntity
  8
RACCORDO
100
AcDbCircle
 62
7
  6
CONTINUOUS
 10
-81.4517124684
 20
3.3551677546
 40
0.2
100
AcDbArc
 50
91.5
 51
180.0
  0
ELLIPSE
  5
4FE
100
AcDbEntity
  8
RACCORDO
100
AcDbEllipse
 62
7
  6
CONTINUOUS
 10
-33.3480909865
 20
-22.0980909525
 30
0.0
 11
0.3562493039
 21
0.3562493039
 31
0.0
 40
0.9924325091
 41
2.3599925885
 42
3.9231927187
  0
ELLIPSE
  5
4FF
100
AcDbEntity
  8
RACCORDO
100
AcDbEllipse
 62
7
  6
CONTINUOUS
 10
33.348089176
 20
-22.0980909525
 30
0.0
 11
-0.3562493039
 21
0.3562493039
 31
0.0
 40
0.9924325091
 41
2.3599925885
 42
3.9231927187
  0
ELLIPSE
  5
500
100
AcDbEntity
  8
RACCORDO
100
AcDbEllipse
 62
7
  6
CONTINUOUS
 10
33.348089176
 20
22.09808921
 30
0.0
 11
-0.3562493039
 21
-0.3562493039
 31
0.0
 40
0.9924325091
 41
2.3599925885
 42
3.9231927187
  0
ELLIPSE
  5
501
100
AcDbEntity
  8
RACCORDO
100
AcDbEllipse
 62
7
  6
CONTINUOUS
 10
-33.3480909865
 20
22.09808921
 30
0.0
 11
0.3562493039
 21
-0.3562493039
 31
0.0
 40
0.9924325091
 41
2.3599925885
 42
3.9231927187
  0
ELLIPSE
  5
502
100
AcDbEntity
  8
ASSI
100
AcDbEllipse
 62
7
  6
CONTINUOUS
 10
-59.1497266712
 20
42.1497248948
 30
0.0
 11
0.566073184
 21
-0.566073184
 31
0.0
 40
0.999315002
 41
2.3565371065
 42
3.9266482006
  0
ELLIPSE
  5
503
100
AcDbEntity
  8
ASSI
100
AcDbEllipse
 62
7
  6
CONTINUOUS
 10
59.1497248608
 20
42.1497248948
 30
0.0
 11
0.566073184
 21
0.566073184
 31
0.0
 40
0.999315002
 41
-0.7850555471
 42
0.7850555471
  0
ELLIPSE
  5
504
100
AcDbEntity
  8
ASSI
100
AcDbEllipse
 62
7
  6
CONTINUOUS
 10
59.1497248608
 20
-42.1497266372
 30
0.0
 11
0.566073184
 21
-0.566073184
 31
0.0
 40
0.999315002
 41
-0.7850555471
 42
0.7850555471
  0
ELLIPSE
  5
505
100
AcDbEntity
  8
ASSI
100
AcDbEllipse
 62
7
  6
CONTINUOUS
 10
-59.1497266712
 20
-42.1497266372
 30
0.0
 11
0.566073184
 21
0.566073184
 31
0.0
 40
0.999315002
 41
2.3565371065
 42
3.9266482006
  0
ENDSEC
  0
SECTION
  2
OBJECTS
  0
DICTIONARY
  5
C
100
AcDbDictionary
280
0
281
1
  3
ACAD_GROUP
350
D
  3
ACAD_MLINESTYLE
350
17
  3
ACAD_LAYOUT
350
1A
  3
ACAD_PLOTSETTINGS
350
19
  3
ACAD_PLOTSTYLENAME
350
E
  0
DICTIONARY
  5
D
102
{ACAD_REACTORS
330
C
102
}
100
AcDbDictionary
280
0
281
1
  0
ACDBDICTIONARYWDFLT
  5
E
102
{ACAD_REACTORS
330
C
102
}
100
AcDbDictionary
281
1
  3
Normal
350
F
100
AcDbDictionaryWithDefault
340
F
  0
DICTIONARY
  5
17
102
{ACAD_REACTORS
330
C
102
}
100
AcDbDictionary
280
0
281
1
  3
Standard
350
18
  0
DICTIONARY
  5
19
102
{ACAD_REACTORS
330
C
102
}
100
AcDbDictionary
281
1
  0
DICTIONARY
  5
1A
102
{ACAD_REACTORS
330
C
102
}
100
AcDbDictionary
281
1
  3
Model
350
506
  3
Layout1
350
507
  0
ACDBPLACEHOLDER
  5
F
102
{ACAD_REACTORS
330
E
102
}
  0
MLINESTYLE
  5
18
102
{ACAD_REACTORS
330
17
102
}
100
AcDbMlineStyle
  2
STANDARD
 70
0
  3

 62
256
 51
90.0
 52
90.0
 71
2
 49
0.5
 62
256
  6
BYLAYER
 49
-0.5
 62
256
  6
BYLAYER
  0
LAYOUT
  5
506
102
{ACAD_REACTORS
330
1A
102
}
100
AcDbPlotSettings
  1

  2
none_device
  4
ISO_A4_(297.00_x_210.00_MM)
  6

 40
0.0
 41
0.0
 42
0.0
 43
0.0
 44
297.0
 45
210.0
 46
0.0
 47
0.0
 48
0.0
 49
0.0
140
0.0
141
0.0
142
1.0
143
1.0
 70
1024
 72
1
 73
0
 74
0
  7

 75
0
147
1.0
148
0.0
149
0.0
100
AcDbLayout
  1
Model
 70
0
 71
0
 10
0.0
 20
0.0
 11
297.0
 21
210.0
 12
0.0
 22
0.0
 32
0.0
 14
0.0
 24
0.0
 34
0.0
 15
0.0
 25
0.0
 35
0.0
146
0.0
 13
0.0
 23
0.0
 33
0.0
 16
1.0
 26
0.0
 36
0.0
 17
0.0
 27
1.0
 37
0.0
 76
0
330
212
345
0
346
0
  0
LAYOUT
  5
507
102
{ACAD_REACTORS
330
1A
102
}
100
AcDbPlotSettings
  1

  2
none_device
  4
ISO_A4_(297.00_x_210.00_MM)
  6

 40
0.0
 41
0.0
 42
0.0
 43
0.0
 44
297.0
 45
210.0
 46
0.0
 47
0.0
 48
0.0
 49
0.0
140
0.0
141
0.0
142
1.0
143
1.0
 70
0
 72
1
 73
0
 74
0
  7

 75
0
147
1.0
148
0.0
149
0.0
100
AcDbLayout
  1
Layout1
 70
0
 71
1
 10
0.0
 20
0.0
 11
297.0
 21
210.0
 12
0.0
 22
0.0
 32
0.0
 14
0.0
 24
0.0
 34
0.0
 15
0.0
 25
0.0
 35
0.0
146
0.0
 13
0.0
 23
0.0
 33
0.0
 16
1.0
 26
0.0
 36
0.0
 17
0.0
 27
1.0
 37
0.0
 76
0
330
213
345
0
346
0
  0
ENDSEC
  0
EOF
