  0
SECTION
  2
HEADER
  9
$ACADVER
  1
AC1024
  9
$DWGCODEPAGE
  3
ANSI_1252
  9
$EXTMAX
 10
297.0
 20
210.0
 30
0.0
  9
$EXTMIN
 10
0.0
 20
0.0
 30
0.0
  9
$LIMMIN
 10
0.0
 20
0.0
  9
$LIMMAX
 10
297.0
 20
210.0
  9
$VIEWCTR
 10
148.5
 20
105.0
  9
$VIEWSIZE
 40
210.0
  9
$CLAYER
  8
0
  9
$LTSCALE
 40
16.335
  9
$CELTYPE
  6
BYLAYER
  9
$DIMSCALE
 40
1.0
  9
$DIMASZ
 40
3.0
  9
$DIMEXO
 40
0.5
  9
$DIMDLI
 40
11.286
  9
$DIMEXE
 40
1.5
  9
$DIMCEN
 40
2.673
  9
$DIMLFAC
 40
1.0
  9
$DIMBLK
  1
_FILLED
  9
$DIMALT
 70
0
  9
$DIMALTF
 40
0.0393700787
  9
$DIMTXT
 40
3.0
  9
$DIMTOL
 70
1
  9
$DIMLIM
 70
0
  9
$DIMTFAC
 40
1.0
  9
$DIMTP
 40
0.01
  9
$DIMTM
 40
0.01
  9
$DIMGAP
 40
0.625
  9
$DIMDSEP
 70
44
  9
$AUNITS
 70
0
  9
$PDMODE
 70
3
  9
$PDSIZE
 40
3.0
  9
$HANDSEED
  5
49E
  9
$TILEMODE
 70
1
  9
$MEASUREMENT
 70
1
  9
$INSUNITS
 70
4
  0
ENDSEC
  0
SECTION
  2
CLASSES
  0
CLASS
  1
ACDBDICTIONARYWDFLT
  2
AcDbDictionaryWithDefault
  3
AutoCAD 2000
 90
0
 91
1
280
0
281
0
  0
CLASS
  1
ACDBPLACEHOLDER
  2
AcDbPlaceHolder
  3
AutoCAD 2000
 90
0
 91
1
280
0
281
0
  0
CLASS
  1
LAYOUT
  2
AcDbLayout
  3
AutoCAD 2000
 90
0
 91
0
280
0
281
0
  0
ENDSEC
  0
SECTION
  2
TABLES
  0
TABLE
  2
VPORT
  5
8
100
AcDbSymbolTable
 70
2
  0
VPORT
  5
1F4
100
AcDbSymbolTableRecord
100
AcDbViewportTableRecord
  2
*ACTIVE
 70
0
 10
0.0
 20
0.0
 11
1.0
 21
1.0
 12
148.5
 22
105.0
 13
0.0
 23
0.0
 14
1.0
 24
1.0
 15
0.0
 25
0.0
 16
0.0
 26
0.0
 36
1.0
 17
0.0
 27
0.0
 37
0.0
 40
210.0
 41
1.4142857143
 42
50.0
 43
0.0
 44
0.0
 50
0.0
 51
0.0
 71
0
 72
100
 73
1
 74
1
 75
0
 76
0
 77
0
 78
0
  0
ENDTAB
  0
TABLE
  2
LTYPE
  5
5
100
AcDbSymbolTable
 70
6
  0
LTYPE
  5
14
100
AcDbSymbolTableRecord
100
AcDbLinetypeTableRecord
  2
BYBLOCK
 70
0
  3

 72
65
 73
0
 40
0.0
  0
LTYPE
  5
15
100
AcDbSymbolTableRecord
100
AcDbLinetypeTableRecord
  2
BYLAYER
 70
0
  3

 72
65
 73
0
 40
0.0
  0
LTYPE
  5
16
100
AcDbSymbolTableRecord
100
AcDbLinetypeTableRecord
  2
CONTINUOUS
 70
64
  3
Solid line
 72
65
 73
0
 40
0.0
  0
LTYPE
  5
1F5
100
AcDbSymbolTableRecord
100
AcDbLinetypeTableRecord
  2
CENTER
 70
64
  3
____ _ ____ _ ____ _ ____ _ ____ _ ____ _ ____
 72
65
 73
4
 40
0.6
 49
0.375
 74
0
 49
-0.075
 74
0
 49
0.075
 74
0
 49
-0.075
 74
0
  0
LTYPE
  5
1F6
100
AcDbSymbolTableRecord
100
AcDbLinetypeTableRecord
  2
HIDDEN
 70
64
  3
- - - - - - - - - - - - - - - - - - - -
 72
65
 73
2
 40
0.2
 49
0.1
 74
0
 49
-0.1
 74
0
  0
LTYPE
  5
1F7
100
AcDbSymbolTableRecord
100
AcDbLinetypeTableRecord
  2
PHANTOM
 70
64
  3
_____ _ _ _____ _ _ _____ _ _ _____
 72
65
 73
6
 40
0.8
 49
0.45
 74
0
 49
-0.05
 74
0
 49
0.1
 74
0
 49
-0.05
 74
0
 49
0.1
 74
0
 49
-0.05
 74
0
  0
LTYPE
  5
1F8
100
AcDbSymbolTableRecord
100
AcDbLinetypeTableRecord
  2
DOT
 70
64
  3
. . . . . . . . . . . . . . . . . . . .
 72
65
 73
2
 40
0.2
 49
0.1
 74
0
 49
-0.1
 74
0
  0
LTYPE
  5
1F9
100
AcDbSymbolTableRecord
100
AcDbLinetypeTableRecord
  2
DASHED
 70
64
  3
- - - - - - - - - - - - - - - - - - - -
 72
65
 73
2
 40
0.2
 49
0.1
 74
0
 49
-0.1
 74
0
  0
ENDTAB
  0
TABLE
  2
LAYER
  5
2
100
AcDbSymbolTable
 70
36
  0
LAYER
  5
10
100
AcDbSymbolTableRecord
100
AcDbLayerTableRecord
  2
0
 70
0
 62
7
  6
CONTINUOUS
370
-3
390
F
  0
LAYER
  5
1FA
100
AcDbSymbolTableRecord
100
AcDbLayerTableRecord
  2
DEFAULT_1
 70
0
 62
7
  6
CENTER
370
-3
390
F
  0
LAYER
  5
1FB
100
AcDbSymbolTableRecord
100
AcDbLayerTableRecord
  2
DEFAULT_2
 70
0
 62
7
  6
HIDDEN
370
-3
390
F
  0
LAYER
  5
1FC
100
AcDbSymbolTableRecord
100
AcDbLayerTableRecord
  2
DEFAULT_3
 70
0
 62
7
  6
PHANTOM
370
-3
390
F
  0
LAYER
  5
1FD
100
AcDbSymbolTableRecord
100
AcDbLayerTableRecord
  2
ASSI
 70
0
 62
7
  6
CONTINUOUS
370
-3
390
F
  0
LAYER
  5
1FE
100
AcDbSymbolTableRecord
100
AcDbLayerTableRecord
  2
COORDINATE
 70
0
 62
7
  6
CONTINUOUS
370
-3
390
F
  0
LAYER
  5
1FF
100
AcDbSymbolTableRecord
100
AcDbLayerTableRecord
  2
COPY_PUBLISH
 70
0
 62
7
  6
CONTINUOUS
370
-3
390
F
  0
LAYER
  5
200
100
AcDbSymbolTableRecord
100
AcDbLayerTableRecord
  2
COSMETICI
 70
0
 62
7
  6
CONTINUOUS
370
-3
390
F
  0
LAYER
  5
201
100
AcDbSymbolTableRecord
100
AcDbLayerTableRecord
  2
CURVE
 70
0
 62
7
  6
CONTINUOUS
370
-3
390
F
  0
LAYER
  5
202
100
AcDbSymbolTableRecord
100
AcDbLayerTableRecord
  2
DRAFT
 70
0
 62
7
  6
CONTINUOUS
370
-3
390
F
  0
LAYER
  5
203
100
AcDbSymbolTableRecord
100
AcDbLayerTableRecord
  2
IMPORT_IGES
 70
0
 62
7
  6
CONTINUOUS
370
-3
390
F
  0
LAYER
  5
204
100
AcDbSymbolTableRecord
100
AcDbLayerTableRecord
  2
INTF_1
 70
0
 62
7
  6
CONTINUOUS
370
-3
390
F
  0
LAYER
  5
205
100
AcDbSymbolTableRecord
100
AcDbLayerTableRecord
  2
INTF_11
 70
0
 62
7
  6
CONTINUOUS
370
-3
390
F
  0
LAYER
  5
206
100
AcDbSymbolTableRecord
100
AcDbLayerTableRecord
  2
INTF_8
 70
0
 62
7
  6
CONTINUOUS
370
-3
390
F
  0
LAYER
  5
207
100
AcDbSymbolTableRecord
100
AcDbLayerTableRecord
  2
NOTE
 70
0
 62
7
  6
CONTINUOUS
370
-3
390
F
  0
LAYER
  5
208
100
AcDbSymbolTableRecord
100
AcDbLayerTableRecord
  2
PIANI
 70
0
 62
7
  6
CONTINUOUS
370
-3
390
F
  0
LAYER
  5
209
100
AcDbSymbolTableRecord
100
AcDbLayerTableRecord
  2
PUNTI
 70
0
 62
7
  6
CONTINUOUS
370
-3
390
F
  0
LAYER
  5
20A
100
AcDbSymbolTableRecord
100
AcDbLayerTableRecord
  2
RACCORDO
 70
0
 62
7
  6
CONTINUOUS
370
-3
390
F
  0
LAYER
  5
20B
100
AcDbSymbolTableRecord
100
AcDbLayerTableRecord
  2
RGB____0____0____0__
 70
0
 62
7
  6
CONTINUOUS
370
-3
390
F
  0
LAYER
  5
20C
100
AcDbSymbolTableRecord
100
AcDbLayerTableRecord
  2
SIMBOLI
 70
0
 62
7
  6
CONTINUOUS
370
-3
390
F
  0
LAYER
  5
20D
100
AcDbSymbolTableRecord
100
AcDbLayerTableRecord
  2
SMUSSO
 70
0
 62
7
  6
CONTINUOUS
370
-3
390
F
  0
LAYER
  5
20E
100
AcDbSymbolTableRecord
100
AcDbLayerTableRecord
  2
SNAPLINE
 70
0
 62
7
  6
CONTINUOUS
370
-3
390
F
  0
LAYER
  5
20F
100
AcDbSymbolTableRecord
100
AcDbLayerTableRecord
  2
SUPERFICI
 70
0
 62
7
  6
CONTINUOUS
370
-3
390
F
  0
LAYER
  5
210
100
AcDbSymbolTableRecord
100
AcDbLayerTableRecord
  2
TRASH
 70
0
 62
7
  6
CONTINUOUS
370
-3
390
F
  0
ENDTAB
  0
TABLE
  2
STYLE
  5
3
100
AcDbSymbolTable
 70
1
  0
STYLE
  5
11
100
AcDbSymbolTableRecord
100
AcDbTextStyleTableRecord
  2
STANDARD
 70
0
 40
0.0
 41
0.8
 50
0.0
 71
0
 42
0.2
  3
txt
  4

  0
STYLE
  5
211
100
AcDbSymbolTableRecord
100
AcDbTextStyleTableRecord
  2
TEXTSTYLE_1
 70
0
 40
0.0
 41
0.8
 50
0.0
 71
0
 42
0.2
  3
gdt
  4

  0
ENDTAB
  0
TABLE
  2
VIEW
  5
6
100
AcDbSymbolTable
 70
0
  0
ENDTAB
  0
TABLE
  2
UCS
  5
7
100
AcDbSymbolTable
 70
0
  0
ENDTAB
  0
TABLE
  2
APPID
  5
9
100
AcDbSymbolTable
 70
1
  0
APPID
  5
212
100
AcDbSymbolTableRecord
100
AcDbRegAppTableRecord
  2
ACAD
 70
0
  0
ENDTAB
  0
TABLE
  2
BLOCK_RECORD
  5
1
100
AcDbSymbolTable
 70
0
  0
BLOCK_RECORD
  5
213
100
AcDbSymbolTableRecord
100
AcDbBlockTableRecord
  2
*Model_Space
  0
BLOCK_RECORD
  5
214
100
AcDbSymbolTableRecord
100
AcDbBlockTableRecord
  2
*Paper_Space
  0
BLOCK_RECORD
  5
215
100
AcDbSymbolTableRecord
100
AcDbBlockTableRecord
  2
_FILLED
  0
BLOCK_RECORD
  5
216
100
AcDbSymbolTableRecord
100
AcDbBlockTableRecord
  2
*D0
  0
BLOCK_RECORD
  5
217
100
AcDbSymbolTableRecord
100
AcDbBlockTableRecord
  2
*D1
  0
BLOCK_RECORD
  5
218
100
AcDbSymbolTableRecord
100
AcDbBlockTableRecord
  2
*D2
  0
ENDTAB
  0
TABLE
  2
DIMSTYLE
  5
A
100
AcDbSymbolTable
 70
1
100
AcDbDimStyleTable
 71
0
  0
DIMSTYLE
105
219
100
AcDbSymbolTableRecord
100
AcDbDimStyleTableRecord
  2
STANDARD
 70
0
  3

  4

 40
1.0
 41
3.0
 42
0.5
 43
0.38
 44
1.5
 45
0.0
 46
0.0
 47
0.01
 48
0.01
140
3.0
141
0.09
142
0.0
143
25.4
144
1.0
145
0.0
146
1.0
147
0.625
 71
1
 72
0
 73
0
 74
0
 75
0
 76
0
 77
1
 78
8
 79
2
170
0
171
1
172
0
173
0
174
0
175
0
176
0
177
0
178
0
270
2
179
2
271
2
272
2
273
2
274
2
275
0
280
0
281
0
282
0
283
1
284
8
285
0
286
0
287
3
288
0
340
11
278
44
341
215
342
215
343
215
344
215
  0
DIMSTYLE
105
21A
100
AcDbSymbolTableRecord
100
AcDbDimStyleTableRecord
  2
DIMSTYLE_1
 70
0
  3

  4

 40
1.0
 41
3.0
 42
0.5
 43
0.38
 44
1.5
 45
0.0
 46
0.0
 47
0.0
 48
0.0
140
3.0
141
0.09
142
0.0
143
25.4
144
1.0
145
0.0
146
1.0
147
0.75
 71
0
 72
0
 73
0
 74
0
 75
0
 76
0
 77
1
 78
8
 79
2
170
0
171
1
172
0
173
0
174
0
175
0
176
0
177
0
178
0
270
2
179
2
271
0
272
0
273
2
274
2
275
0
280
0
281
0
282
0
283
1
284
8
285
0
286
0
287
3
288
0
340
11
278
44
341
215
342
215
343
215
344
215
  0
DIMSTYLE
105
21B
100
AcDbSymbolTableRecord
100
AcDbDimStyleTableRecord
  2
DIMSTYLE_2
 70
0
  3

  4

 40
1.0
 41
3.0
 42
0.5
 43
0.38
 44
1.5
 45
0.0
 46
0.0
 47
0.0
 48
0.0
140
3.0
141
0.09
142
0.0
143
25.4
144
1.0
145
0.0
146
1.0
147
0.75
 71
0
 72
0
 73
0
 74
0
 75
0
 76
0
 77
1
 78
8
 79
2
170
0
171
1
172
0
173
0
174
0
175
0
176
0
177
0
178
0
270
2
179
2
271
1
272
1
273
2
274
2
275
0
280
0
281
0
282
0
283
1
284
8
285
0
286
0
287
3
288
0
340
11
278
44
341
215
342
215
343
215
344
215
  0
ENDTAB
  0
ENDSEC
  0
SECTION
  2
BLOCKS
  0
BLOCK
  5
20
100
AcDbEntity
  8
0
100
AcDbBlockBegin
  2
*Model_Space
 70
0
 10
0.0
 20
0.0
 30
0.0
  3
*Model_Space
  1

  0
ENDBLK
  5
21
100
AcDbEntity
  8
0
100
AcDbBlockEnd
  0
BLOCK
  5
1C
100
AcDbEntity
  8
0
100
AcDbBlockBegin
  2
*Paper_Space
 70
0
 10
0.0
 20
0.0
 30
0.0
  3
*Paper_Space
  1

  0
ENDBLK
  5
1D
100
AcDbEntity
  8
0
100
AcDbBlockEnd
  0
BLOCK
  5
21C
100
AcDbEntity
  8
0
100
AcDbBlockBegin
  2
_FILLED
 70
64
 10
0.0
 20
0.0
  3
_FILLED
  1

  0
SOLID
  5
21D
100
AcDbEntity
  8
0
  6
BYBLOCK
 62
0
100
AcDbTrace
 10
0.0
 20
0.0
 11
-1.0
 21
0.3166666667
 12
-1.0
 22
-0.3166666667
 13
-1.0
 23
-0.3166666667
  0
ENDBLK
  5
21E
100
AcDbEntity
  8
0
  6
BYBLOCK
 62
0
100
AcDbBlockEnd
  0
BLOCK
  5
21F
100
AcDbEntity
  8
0
100
AcDbBlockBegin
 62
7
  6
CONTINUOUS
  2
*D0
 70
65
 10
0.0
 20
0.0
  3
*D0
  1

  0
LINE
  5
220
100
AcDbEntity
  8
0
100
AcDbLine
 62
7
  6
CONTINUOUS
 10
-42.95
 20
42.65027414
 11
-42.95
 21
52.45
  0
LINE
  5
221
100
AcDbEntity
  8
0
100
AcDbLine
 62
7
  6
CONTINUOUS
 10
42.95
 20
42.65027414
 11
42.95
 21
52.45
  0
LINE
  5
222
100
AcDbEntity
  8
0
100
AcDbLine
 62
7
  6
CONTINUOUS
 10
-42.95
 20
50.95
 11
0.0
 21
50.95
  0
LINE
  5
223
100
AcDbEntity
  8
0
100
AcDbLine
 62
7
  6
CONTINUOUS
 10
42.95
 20
50.95
 11
0.0
 21
50.95
  0
INSERT
  5
224
100
AcDbEntity
  8
0
100
AcDbBlockReference
 62
7
  6
CONTINUOUS
  2
_FILLED
 10
-42.95
 20
50.95
 41
3.0
 42
3.0
 43
3.0
 50
180.0
  0
INSERT
  5
225
100
AcDbEntity
  8
0
100
AcDbBlockReference
 62
7
  6
CONTINUOUS
  2
_FILLED
 10
42.95
 20
50.95
 41
3.0
 42
3.0
 43
3.0
 50
0.0
  0
ENDBLK
  5
226
100
AcDbEntity
  8
0
  6
BYBLOCK
 62
0
100
AcDbBlockEnd
  0
BLOCK
  5
227
100
AcDbEntity
  8
0
100
AcDbBlockBegin
 62
7
  6
CONTINUOUS
  2
*D1
 70
65
 10
0.0
 20
0.0
  3
*D1
  1

  0
LINE
  5
228
100
AcDbEntity
  8
0
100
AcDbLine
 62
7
  6
CONTINUOUS
 10
42.65027414
 20
42.95
 11
52.45
 21
42.95
  0
LINE
  5
229
100
AcDbEntity
  8
0
100
AcDbLine
 62
7
  6
CONTINUOUS
 10
42.65027414
 20
-42.95
 11
52.45
 21
-42.95
  0
LINE
  5
22A
100
AcDbEntity
  8
0
100
AcDbLine
 62
7
  6
CONTINUOUS
 10
50.95
 20
42.95
 11
50.95
 21
0.0
  0
LINE
  5
22B
100
AcDbEntity
  8
0
100
AcDbLine
 62
7
  6
CONTINUOUS
 10
50.95
 20
-42.95
 11
50.95
 21
0.0
  0
INSERT
  5
22C
100
AcDbEntity
  8
0
100
AcDbBlockReference
 62
7
  6
CONTINUOUS
  2
_FILLED
 10
50.95
 20
42.95
 41
3.0
 42
3.0
 43
3.0
 50
90.0
  0
INSERT
  5
22D
100
AcDbEntity
  8
0
100
AcDbBlockReference
 62
7
  6
CONTINUOUS
  2
_FILLED
 10
50.95
 20
-42.95
 41
3.0
 42
3.0
 43
3.0
 50
270.0
  0
ENDBLK
  5
22E
100
AcDbEntity
  8
0
  6
BYBLOCK
 62
0
100
AcDbBlockEnd
  0
BLOCK
  5
22F
100
AcDbEntity
  8
0
100
AcDbBlockBegin
 62
7
  6
CONTINUOUS
  2
*D2
 70
65
 10
0.0
 20
0.0
  3
*D2
  1

  0
LINE
  5
230
100
AcDbEntity
  8
0
100
AcDbLine
 62
7
  6
CONTINUOUS
 10
-63.7192041669
 20
41.9532985447
 11
-63.7192041719
 21
52.4499999997
  0
LINE
  5
231
100
AcDbEntity
  8
0
100
AcDbLine
 62
7
  6
CONTINUOUS
 10
-72.1774669441
 20
23.6023657269
 11
-72.1774669581
 21
52.4499999956
  0
LINE
  5
232
100
AcDbEntity
  8
0
100
AcDbLine
 62
7
  6
CONTINUOUS
 10
-63.7192041712
 20
50.9499999997
 11
-67.9483355643
 21
50.9499999977
  0
LINE
  5
233
100
AcDbEntity
  8
0
100
AcDbLine
 62
7
  6
CONTINUOUS
 10
-67.9483355643
 20
50.9499999977
 11
-56.905372159
 21
50.95
  0
LINE
  5
234
100
AcDbEntity
  8
0
100
AcDbLine
 62
7
  6
CONTINUOUS
 10
-72.1774669574
 20
50.9499999956
 11
-67.9483355643
 21
50.9499999977
  0
INSERT
  5
235
100
AcDbEntity
  8
0
100
AcDbBlockReference
 62
7
  6
CONTINUOUS
  2
_FILLED
 10
-63.7192041712
 20
50.9499999997
 41
3.0
 42
3.0
 43
3.0
 50
0.0000000277
  0
INSERT
  5
236
100
AcDbEntity
  8
0
100
AcDbBlockReference
 62
7
  6
CONTINUOUS
  2
_FILLED
 10
-72.1774669574
 20
50.9499999956
 41
3.0
 42
3.0
 43
3.0
 50
180.0000000277
  0
ENDBLK
  5
237
100
AcDbEntity
  8
0
  6
BYBLOCK
 62
0
100
AcDbBlockEnd
  0
ENDSEC
  0
SECTION
  2
ENTITIES
  0
DIMENSION
  5
238
100
AcDbEntity
  8
0
100
AcDbDimension
 62
7
  6
CONTINUOUS
  2
*D0
 10
42.95
 20
50.95
 11
-2.3571428571
 21
50.95
 70
160
 71
2
 72
2
 41
0.9
 42
85.9
  3
DIMSTYLE_1
100
AcDbAlignedDimension
 13
-42.95
 23
42.15027414
 14
42.95
 24
42.15027414
100
AcDbRotatedDimension
  0
DIMENSION
  5
239
100
AcDbEntity
  8
0
100
AcDbDimension
 62
7
  6
CONTINUOUS
  2
*D1
 10
50.95
 20
-42.95
 11
50.95
 21
-2.3571428571
 70
160
 71
2
 72
2
 41
0.9
 42
85.9
  3
DIMSTYLE_1
100
AcDbAlignedDimension
 13
42.15027414
 23
42.95
 14
42.15027414
 24
-42.95
 50
270.0
100
AcDbRotatedDimension
  0
DIMENSION
  5
23A
100
AcDbEntity
  8
0
100
AcDbDimension
 62
7
  6
CONTINUOUS
  2
*D2
 10
-72.1774669574
 20
50.9499999956
 11
-63.1196578729
 21
50.95
 70
160
 71
1
 72
2
 41
0.9
 42
8.4582627861
  3
DIMSTYLE_2
100
AcDbAlignedDimension
 13
-63.7192041666
 23
41.4532985447
 14
-72.1774669439
 24
23.1023657269
 50
180.0000000277
100
AcDbRotatedDimension
  0
LWPOLYLINE
  5
23B
100
AcDbEntity
  8
ASSI
100
AcDbPolyline
 62
250
  6
CONTINUOUS
 90
16
 70
0
 10
-42.9091084625
 20
42.1093826025
 10
-42.9064024317
 20
42.1113750757
 10
-42.900422249
 20
42.113354426
 10
-42.8912073013
 20
42.1153076171
 10
-42.8788182802
 20
42.1172217848
 10
-42.8633367824
 20
42.119084322
 10
-42.8448647722
 20
42.1208829616
 10
-42.8235239103
 20
42.1226058576
 10
-42.7994547519
 20
42.1242416624
 10
-42.7728158215
 20
42.1257796025
 10
-42.7437825685
 20
42.1272095485
 10
-42.712546212
 20
42.1285220826
 10
-42.679312481
 20
42.1297085601
 10
-42.6443002596
 20
42.1307611668
 10
-42.6077401456
 20
42.1316729698
 10
-42.5698729312
 20
42.132437964
  0
LWPOLYLINE
  5
23C
100
AcDbEntity
  8
ASSI
100
AcDbPolyline
 62
250
  6
CONTINUOUS
 90
16
 70
0
 10
-42.1093782903
 20
-42.9091041503
 10
-42.1114002839
 20
-42.9063974439
 10
-42.1134089557
 20
-42.9004155165
 10
-42.1153910719
 20
-42.89119778
 10
-42.1173335736
 20
-42.8788049648
 10
-42.1192236629
 20
-42.8633187198
 10
-42.1210488872
 20
-42.8448410748
 10
-42.1227972212
 20
-42.8234937681
 10
-42.1244571463
 20
-42.799417444
 10
-42.1260177264
 20
-42.7727707263
 10
-42.1274686798
 20
-42.7437291737
 10
-42.1288004472
 20
-42.7124841228
 10
-42.1300042544
 20
-42.6792414271
 10
-42.1310721704
 20
-42.6442201016
 10
-42.1319971593
 20
-42.6076508795
 10
-42.1327731271
 20
-42.5697746913
  0
LWPOLYLINE
  5
23D
100
AcDbEntity
  8
ASSI
100
AcDbPolyline
 62
250
  6
CONTINUOUS
 90
22
 70
0
 10
-42.4509316786
 20
-42.133962084
 10
-42.4490643668
 20
-42.1567866778
 10
-42.4455561597
 20
-42.1793309737
 10
-42.4404064985
 20
-42.2015944743
 10
-42.4335651484
 20
-42.2237022286
 10
-42.4250811963
 20
-42.2455281614
 10
-42.415103182
 20
-42.2666952149
 10
-42.4036067129
 20
-42.2871876409
 10
-42.3906153543
 20
-42.3070204954
 10
-42.3763498888
 20
-42.3258632441
 10
-42.3607892733
 20
-42.3437003584
 10
-42.343954214
 20
-42.3605471643
 10
-42.3261284943
 20
-42.3761197917
 10
-42.3072967707
 20
-42.3903976254
 10
-42.2874746054
 20
-42.4034016451
 10
-42.2669925175
 20
-42.4149107547
 10
-42.2458323555
 20
-42.4249020145
 10
-42.224012969
 20
-42.4333992332
 10
-42.2019206924
 20
-42.4402517477
 10
-42.1796846933
 20
-42.4454097828
 10
-42.1571768294
 20
-42.448924319
 10
-42.1343975943
 20
-42.4507959465
  0
LINE
  5
23E
100
AcDbEntity
  8
ASSI
100
AcDbLine
 62
250
  6
CONTINUOUS
 10
-42.4509316786
 20
-42.133962084
 11
-42.4704535583
 21
-41.6431088217
  0
LWPOLYLINE
  5
23F
100
AcDbEntity
  8
ASSI
100
AcDbPolyline
 62
250
  6
CONTINUOUS
 90
22
 70
0
 10
-42.9091084625
 20
-42.1093826025
 10
-42.9068773091
 20
-42.1691338904
 10
-42.9001892294
 20
-42.2285535961
 10
-42.8890803933
 20
-42.2873100088
 10
-42.873611469
 20
-42.345075164
 10
-42.8538678174
 20
-42.4015259472
 10
-42.8299592741
 20
-42.456345986
 10
-42.8020182045
 20
-42.5092291763
 10
-42.770200029
 20
-42.5598788795
 10
-42.7346836686
 20
-42.6080092952
 10
-42.6956670279
 20
-42.6533515072
 10
-42.6533681023
 20
-42.6956512409
 10
-42.6080264619
 20
-42.7346688898
 10
-42.5598964711
 20
-42.7701863361
 10
-42.5092469127
 20
-42.802005732
 10
-42.4563631704
 20
-42.8299482993
 10
-42.401541732
 20
-42.8538585175
 10
-42.3450887601
 20
-42.8736038223
 10
-42.2873204946
 20
-42.8890742517
 10
-42.2285600148
 20
-42.9001842703
 10
-42.1691353571
 20
-42.9068730186
 10
-42.1093782903
 20
-42.9091041503
  0
LINE
  5
240
100
AcDbEntity
  8
ASSI
100
AcDbLine
 62
250
  6
CONTINUOUS
 10
-42.4716240459
 20
41.6110202682
 11
-42.4509588132
 21
42.1337876274
  0
LWPOLYLINE
  5
241
100
AcDbEntity
  8
ASSI
100
AcDbPolyline
 62
250
  6
CONTINUOUS
 90
22
 70
0
 10
42.1347969811
 20
-42.450733617
 10
42.1573966464
 20
-42.4488900393
 10
42.1797696635
 20
-42.4453967455
 10
42.2019155338
 20
-42.4402531433
 10
42.2239771979
 20
-42.4334059918
 10
42.2458106717
 20
-42.4249073127
 10
42.2669852008
 20
-42.4149145332
 10
42.2874671949
 20
-42.4034061054
 10
42.3072895488
 20
-42.3904027102
 10
42.3261215618
 20
-42.3761254369
 10
42.3439476239
 20
-42.3605533159
 10
42.3607831264
 20
-42.3437069524
 10
42.3763442492
 20
-42.3258701793
 10
42.3906102758
 20
-42.3070277187
 10
42.4036022593
 20
-42.2871950511
 10
42.4150994104
 20
-42.2667025301
 10
42.4250772099
 20
-42.2455415153
 10
42.4335610049
 20
-42.2237213401
 10
42.4404051066
 20
-42.201599631
 10
42.4455613747
 20
-42.1792959815
 10
42.449079091
 20
-42.1566918159
 10
42.4509588128
 20
-42.1337876298
  0
LWPOLYLINE
  5
242
100
AcDbEntity
  8
ASSI
100
AcDbPolyline
 62
250
  6
CONTINUOUS
 90
5
 70
0
 10
42.1347969811
 20
-42.450733617
 10
41.6530384038
 20
-42.4699872301
 10
41.1722745866
 20
-42.4869164187
 10
40.6925656987
 20
-42.5015348301
 10
40.2130867979
 20
-42.5136382333
  0
LWPOLYLINE
  5
243
100
AcDbEntity
  8
ASSI
100
AcDbPolyline
 62
250
  6
CONTINUOUS
 90
22
 70
0
 10
42.1093782903
 20
-42.9091041503
 10
42.1691300225
 20
-42.9068734181
 10
42.2285501689
 20
-42.9001857532
 10
42.2873070183
 20
-42.8890773255
 10
42.3450726063
 20
-42.8736088024
 10
42.4015238175
 20
-42.8538655455
 10
42.4563442784
 20
-42.8299573942
 10
42.5092278848
 20
-42.8020167148
 10
42.5598779984
 20
-42.7701989283
 10
42.6080088193
 20
-42.7346829577
 10
42.6533514314
 20
-42.6956667085
 10
42.695651561
 20
-42.6533681769
 10
42.7346696033
 20
-42.6080269343
 10
42.7701874412
 20
-42.5598973454
 10
42.8020072276
 20
-42.5092481936
 10
42.8299501854
 20
-42.4563648648
 10
42.8538607947
 20
-42.4015438478
 10
42.8736064929
 20
-42.3450913045
 10
42.8890773221
 20
-42.2873234735
 10
42.9001877477
 20
-42.2285634332
 10
42.9068769099
 20
-42.16913922
 10
42.9091084625
 20
-42.1093826025
  0
LINE
  5
244
100
AcDbEntity
  8
ASSI
100
AcDbLine
 62
250
  6
CONTINUOUS
 10
-41.6165486158
 20
-42.4717799895
 11
-42.1343975943
 21
-42.4507959465
  0
LINE
  5
245
100
AcDbEntity
  8
ASSI
100
AcDbLine
 62
250
  6
CONTINUOUS
 10
-42.4704535583
 20
-41.6431088217
 11
-42.4870273298
 21
-41.1531287353
  0
LINE
  5
246
100
AcDbEntity
  8
ASSI
100
AcDbLine
 62
250
  6
CONTINUOUS
 10
-42.4870273298
 20
-41.1531287353
 11
-42.5007720647
 21
-40.6641824318
  0
LINE
  5
247
100
AcDbEntity
  8
ASSI
100
AcDbLine
 62
250
  6
CONTINUOUS
 10
-42.5007720647
 20
-40.6641824318
 11
-42.5119860845
 21
-40.1778620175
  0
LINE
  5
248
100
AcDbEntity
  8
ASSI
100
AcDbLine
 62
250
  6
CONTINUOUS
 10
-42.5119860845
 20
-40.1778620175
 11
-42.5249336149
 21
-39.4419452828
  0
LWPOLYLINE
  5
249
100
AcDbEntity
  8
ASSI
100
AcDbPolyline
 62
250
  6
CONTINUOUS
 90
3
 70
0
 10
-42.1327731271
 20
-42.5697746913
 10
-42.1338585653
 20
-42.4911065502
 10
-42.1341608846
 20
-42.4508328912
  0
LINE
  5
24A
100
AcDbEntity
  8
ASSI
100
AcDbLine
 62
250
  6
CONTINUOUS
 10
-42.5249336149
 20
-39.4419452828
 11
-42.5342136782
 21
-38.6727526968
  0
LINE
  5
24B
100
AcDbEntity
  8
ASSI
100
AcDbLine
 62
250
  6
CONTINUOUS
 10
-42.5342136782
 20
-38.6727526968
 11
-42.5406772939
 21
-37.8293565758
  0
LINE
  5
24C
100
AcDbEntity
  8
ASSI
100
AcDbLine
 62
250
  6
CONTINUOUS
 10
-42.5406772939
 20
-37.8293565758
 11
-42.5461667171
 21
-36.5446484985
  0
LINE
  5
24D
100
AcDbEntity
  8
ASSI
100
AcDbLine
 62
250
  6
CONTINUOUS
 10
-42.5827445876
 20
-22.3675741359
 11
-42.5879100479
 21
-19.3886336534
  0
LINE
  5
24E
100
AcDbEntity
  8
ASSI
100
AcDbLine
 62
250
  6
CONTINUOUS
 10
-42.5461667171
 20
-36.5446484985
 11
-42.5508194106
 21
-34.3093168306
  0
LINE
  5
24F
100
AcDbEntity
  8
ASSI
100
AcDbLine
 62
250
  6
CONTINUOUS
 10
-42.5508194106
 20
-34.3093168306
 11
-42.5827445876
 21
-22.3675741359
  0
LINE
  5
250
100
AcDbEntity
  8
ASSI
100
AcDbLine
 62
250
  6
CONTINUOUS
 10
-42.5879100479
 20
-19.3886336534
 11
-42.5910743114
 21
-15.2084490027
  0
LINE
  5
251
100
AcDbEntity
  8
ASSI
100
AcDbLine
 62
7
  6
CONTINUOUS
 10
-42.95
 20
42.15027414
 11
-42.95
 21
-42.15027414
  0
LINE
  5
252
100
AcDbEntity
  8
ASSI
100
AcDbLine
 62
250
  6
CONTINUOUS
 10
-42.5910743114
 20
-15.2084490027
 11
-42.5914921223
 21
13.1116999911
  0
LINE
  5
253
100
AcDbEntity
  8
ASSI
100
AcDbLine
 62
250
  6
CONTINUOUS
 10
-42.9091087543
 20
-42.1093828943
 11
-42.9091078251
 21
42.1093819651
  0
LINE
  5
254
100
AcDbEntity
  8
ASSI
100
AcDbLine
 62
250
  6
CONTINUOUS
 10
-42.5914921223
 20
13.1116999911
 11
-42.5874905685
 21
19.7115359302
  0
LINE
  5
255
100
AcDbEntity
  8
ASSI
100
AcDbLine
 62
250
  6
CONTINUOUS
 10
-42.5874905685
 20
19.7115359302
 11
-42.582364171
 21
22.5345632176
  0
LINE
  5
256
100
AcDbEntity
  8
ASSI
100
AcDbLine
 62
250
  6
CONTINUOUS
 10
-42.582364171
 20
22.5345632176
 11
-42.5750275537
 21
25.0790567968
  0
LINE
  5
257
100
AcDbEntity
  8
ASSI
100
AcDbLine
 62
250
  6
CONTINUOUS
 10
-42.5750275537
 20
25.0790567968
 11
-42.5664673382
 21
27.3742873887
  0
LINE
  5
258
100
AcDbEntity
  8
ASSI
100
AcDbLine
 62
250
  6
CONTINUOUS
 10
-42.5664673382
 20
27.3742873887
 11
-42.5479209827
 21
35.9160162
  0
LINE
  5
259
100
AcDbEntity
  8
ASSI
100
AcDbLine
 62
250
  6
CONTINUOUS
 10
-42.5479209827
 20
35.9160162
 11
-42.5429836504
 21
37.3915103263
  0
LINE
  5
25A
100
AcDbEntity
  8
ASSI
100
AcDbLine
 62
250
  6
CONTINUOUS
 10
-42.5429836504
 20
37.3915103263
 11
-42.5361471621
 21
38.4610108199
  0
LWPOLYLINE
  5
25B
100
AcDbEntity
  8
ASSI
100
AcDbPolyline
 62
250
  6
CONTINUOUS
 90
18
 70
0
 10
-42.1341612819
 20
42.4508325985
 10
-42.1333953393
 20
42.5308421835
 10
-42.1327734891
 20
42.5697762989
 10
-42.1319975043
 20
42.6076528205
 10
-42.131072498
 20
42.6442222429
 10
-42.1300045623
 20
42.6792437313
 10
-42.1288007325
 20
42.7124865756
 10
-42.1274689409
 20
42.7437317243
 10
-42.1260179614
 20
42.7727733188
 10
-42.124457354
 20
42.7994200187
 10
-42.1227974011
 20
42.8234962616
 10
-42.1210490384
 20
42.8448434201
 10
-42.1192237728
 20
42.8633209634
 10
-42.1173336422
 20
42.8788069956
 10
-42.1153911389
 20
42.8911992646
 10
-42.1134090771
 20
42.900416265
 10
-42.1114005044
 20
42.9063975651
 10
-42.1093786543
 20
42.9091039595
  0
LINE
  5
25C
100
AcDbEntity
  8
ASSI
100
AcDbLine
 62
250
  6
CONTINUOUS
 10
-42.5361471621
 20
38.4610108199
 11
-42.5276349107
 21
39.247243148
  0
LINE
  5
25D
100
AcDbEntity
  8
ASSI
100
AcDbLine
 62
250
  6
CONTINUOUS
 10
-42.5276349107
 20
39.247243148
 11
-42.5196528965
 21
39.7735015796
  0
LINE
  5
25E
100
AcDbEntity
  8
ASSI
100
AcDbLine
 62
250
  6
CONTINUOUS
 10
-42.5196528965
 20
39.7735015796
 11
-42.5093426776
 21
40.3023022518
  0
LINE
  5
25F
100
AcDbEntity
  8
ASSI
100
AcDbLine
 62
250
  6
CONTINUOUS
 10
-42.5093426776
 20
40.3023022518
 11
-42.4964489938
 21
40.8278109879
  0
LWPOLYLINE
  5
260
100
AcDbEntity
  8
ASSI
100
AcDbPolyline
 62
250
  6
CONTINUOUS
 90
3
 70
0
 10
-42.4964489938
 20
40.8278109879
 10
-42.4807344216
 20
41.3496774359
 10
-42.4716240459
 20
41.6110202682
  0
LINE
  5
261
100
AcDbEntity
  8
ASSI
100
AcDbLine
 62
250
  6
CONTINUOUS
 10
40.2130867979
 20
-42.5136382333
 11
39.2602375036
 21
-42.5316491372
  0
LWPOLYLINE
  5
262
100
AcDbEntity
  8
ASSI
100
AcDbPolyline
 62
250
  6
CONTINUOUS
 90
3
 70
0
 10
42.5698729312
 20
-42.132437964
 10
42.4912217726
 20
-42.1335083719
 10
42.450955841
 20
-42.1338067358
  0
LINE
  5
263
100
AcDbEntity
  8
ASSI
100
AcDbLine
 62
250
  6
CONTINUOUS
 10
39.2602375036
 20
-42.5316491372
 11
38.3272790035
 21
-42.5431542652
  0
LINE
  5
264
100
AcDbEntity
  8
ASSI
100
AcDbLine
 62
250
  6
CONTINUOUS
 10
38.3272790035
 20
-42.5431542652
 11
37.3986378107
 21
-42.5504054253
  0
LINE
  5
265
100
AcDbEntity
  8
ASSI
100
AcDbLine
 62
250
  6
CONTINUOUS
 10
37.3986378107
 20
-42.5504054253
 11
35.9820116521
 21
-42.5560253458
  0
LINE
  5
266
100
AcDbEntity
  8
ASSI
100
AcDbLine
 62
250
  6
CONTINUOUS
 10
23.9795056199
 20
-42.5787281819
 11
20.599834585
 21
-42.5862070873
  0
LINE
  5
267
100
AcDbEntity
  8
ASSI
100
AcDbLine
 62
250
  6
CONTINUOUS
 10
31.0606053072
 20
-42.5586674588
 11
23.9795056199
 21
-42.5787281819
  0
LINE
  5
268
100
AcDbEntity
  8
ASSI
100
AcDbLine
 62
250
  6
CONTINUOUS
 10
35.9820116521
 20
-42.5560253458
 11
34.4759135904
 21
-42.5582306483
  0
LINE
  5
269
100
AcDbEntity
  8
ASSI
100
AcDbLine
 62
250
  6
CONTINUOUS
 10
20.599834585
 20
-42.5862070873
 11
16.8549043474
 21
-42.5902790072
  0
LINE
  5
26A
100
AcDbEntity
  8
ASSI
100
AcDbLine
 62
7
  6
CONTINUOUS
 10
-42.15027414
 20
-42.95
 11
42.15027414
 21
-42.95
  0
LINE
  5
26B
100
AcDbEntity
  8
ASSI
100
AcDbLine
 62
250
  6
CONTINUOUS
 10
-36.7388008344
 20
-42.9062574378
 11
-42.1093785142
 21
-42.9091043742
  0
LINE
  5
26C
100
AcDbEntity
  8
ASSI
100
AcDbLine
 62
250
  6
CONTINUOUS
 10
16.8549043474
 20
-42.5902790072
 11
10.3923351238
 21
-42.5914522767
  0
LINE
  5
26D
100
AcDbEntity
  8
ASSI
100
AcDbLine
 62
250
  6
CONTINUOUS
 10
10.3923351238
 20
-42.5914522767
 11
-13.9108740079
 21
-42.5913988694
  0
LINE
  5
26E
100
AcDbEntity
  8
ASSI
100
AcDbLine
 62
250
  6
CONTINUOUS
 10
34.4759135904
 20
-42.5582306483
 11
31.0606053072
 21
-42.5586674588
  0
LINE
  5
26F
100
AcDbEntity
  8
ASSI
100
AcDbLine
 62
250
  6
CONTINUOUS
 10
42.1093824756
 20
-42.9091083356
 11
-36.7388008344
 21
-42.9062574378
  0
LINE
  5
270
100
AcDbEntity
  8
ASSI
100
AcDbLine
 62
250
  6
CONTINUOUS
 10
-13.9108740079
 20
-42.5913988694
 11
-19.3378391668
 21
-42.5879922034
  0
LINE
  5
271
100
AcDbEntity
  8
ASSI
100
AcDbLine
 62
250
  6
CONTINUOUS
 10
-30.89554189
 20
-42.5587706225
 11
-35.3665445642
 21
-42.5572912239
  0
LINE
  5
272
100
AcDbEntity
  8
ASSI
100
AcDbLine
 62
250
  6
CONTINUOUS
 10
-19.3378391668
 20
-42.5879922034
 11
-22.5225292622
 21
-42.5824903296
  0
LINE
  5
273
100
AcDbEntity
  8
ASSI
100
AcDbLine
 62
250
  6
CONTINUOUS
 10
-35.3665445642
 20
-42.5572912239
 11
-36.7407233352
 21
-42.5535513665
  0
LINE
  5
274
100
AcDbEntity
  8
ASSI
100
AcDbLine
 62
250
  6
CONTINUOUS
 10
-22.5225292622
 20
-42.5824903296
 11
-26.0742940372
 21
-42.5719293763
  0
LINE
  5
275
100
AcDbEntity
  8
ASSI
100
AcDbLine
 62
250
  6
CONTINUOUS
 10
-26.0742940372
 20
-42.5719293763
 11
-30.89554189
 21
-42.5587706225
  0
LINE
  5
276
100
AcDbEntity
  8
ASSI
100
AcDbLine
 62
250
  6
CONTINUOUS
 10
-36.7407233352
 20
-42.5535513665
 11
-38.0100143781
 21
-42.5460163284
  0
LINE
  5
277
100
AcDbEntity
  8
ASSI
100
AcDbLine
 62
250
  6
CONTINUOUS
 10
-38.0100143781
 20
-42.5460163284
 11
-38.7809416069
 21
-42.5382087178
  0
LWPOLYLINE
  5
278
100
AcDbEntity
  8
ASSI
100
AcDbPolyline
 62
250
  6
CONTINUOUS
 90
18
 70
0
 10
-42.4509557992
 20
-42.1338067939
 10
-42.5309481825
 20
-42.133051166
 10
-42.5698731704
 20
-42.1324380169
 10
-42.6077404343
 20
-42.1316730203
 10
-42.6443005783
 20
-42.1307612147
 10
-42.6793128241
 20
-42.1297086052
 10
-42.7125465774
 20
-42.1285221244
 10
-42.7437829486
 20
-42.1272095867
 10
-42.772816208
 20
-42.1257796369
 10
-42.7994551359
 20
-42.1242416929
 10
-42.8235242824
 20
-42.1226058839
 10
-42.8448651224
 20
-42.1208829839
 10
-42.8633371175
 20
-42.1190843381
 10
-42.8788185837
 20
-42.1172217948
 10
-42.8912075232
 20
-42.115307627
 10
-42.9004223609
 20
-42.1133544441
 10
-42.9064024497
 20
-42.1113751085
 10
-42.9091084339
 20
-42.1093826564
  0
LINE
  5
279
100
AcDbEntity
  8
ASSI
100
AcDbLine
 62
250
  6
CONTINUOUS
 10
-38.7809416069
 20
-42.5382087178
 11
-39.4925568932
 21
-42.5278997344
  0
LINE
  5
27A
100
AcDbEntity
  8
ASSI
100
AcDbLine
 62
250
  6
CONTINUOUS
 10
-39.4925568932
 20
-42.5278997344
 11
-40.1538295591
 21
-42.514911156
  0
LINE
  5
27B
100
AcDbEntity
  8
ASSI
100
AcDbLine
 62
250
  6
CONTINUOUS
 10
-40.1538295591
 20
-42.514911156
 11
-40.7697086654
 21
-42.4993962917
  0
LWPOLYLINE
  5
27C
100
AcDbEntity
  8
ASSI
100
AcDbPolyline
 62
250
  6
CONTINUOUS
 90
3
 70
0
 10
-40.7697086654
 20
-42.4993962917
 10
-41.3434133572
 20
-42.4814915184
 10
-41.6165486158
 20
-42.4717799895
  0
LWPOLYLINE
  5
27D
100
AcDbEntity
  8
0
100
AcDbPolyline
 62
7
  6
CONTINUOUS
 90
10
 70
0
 43
0.3500000006
 10
1.0714285848
 20
54.6999982452
 10
0.4285714127
 20
54.0571447906
 10
0.0
 20
53.1999977875
 10
0.0
 20
52.1285708313
 10
0.4285714127
 20
51.7000018616
 10
1.0714285848
 20
51.7000018616
 10
1.5000000329
 20
52.1285708313
 10
1.5000000329
 20
52.9857133026
 10
1.0714285848
 20
53.4142868042
 10
0.1428571435
 20
53.4142868042
  0
LINE
  5
27E
100
AcDbEntity
  8
0
100
AcDbLine
 62
7
  6
CONTINUOUS
 10
4.7849537607
 20
-27.9801797807
 11
4.2830496624
 21
-27.9801797807
  0
LINE
  5
27F
100
AcDbEntity
  8
0
100
AcDbLine
 62
7
  6
CONTINUOUS
 10
3.4839958436
 20
-27.9801797807
 11
2.9643025021
 21
-27.9801797807
  0
LINE
  5
280
100
AcDbEntity
  8
0
100
AcDbLine
 62
7
  6
CONTINUOUS
 10
2.811079
 20
-27.98018
 11
2.261131
 21
-27.98018
  0
LINE
  5
281
100
AcDbEntity
  8
0
100
AcDbLine
 62
7
  6
CONTINUOUS
 10
1.271381
 20
-27.98018
 11
0.75525
 21
-27.98018
  0
LINE
  5
282
100
AcDbEntity
  8
0
100
AcDbLine
 62
7
  6
CONTINUOUS
 10
0.673314
 20
-27.98018
 11
0.162862
 21
-27.98018
  0
LINE
  5
283
100
AcDbEntity
  8
0
100
AcDbLine
 62
7
  6
CONTINUOUS
 10
-0.564753
 20
-27.98018
 11
-0.637935
 21
-27.98018
  0
LINE
  5
284
100
AcDbEntity
  8
0
100
AcDbLine
 62
7
  6
CONTINUOUS
 10
-1.362664
 20
-27.98018
 11
-1.86185
 21
-27.98018
  0
LINE
  5
285
100
AcDbEntity
  8
0
100
AcDbLine
 62
7
  6
CONTINUOUS
 10
-2.142747
 20
-27.98018
 11
-2.66454
 21
-27.98018
  0
LINE
  5
286
100
AcDbEntity
  8
0
100
AcDbLine
 62
7
  6
CONTINUOUS
 10
-3.661694
 20
-27.98018
 11
-4.121524
 21
-27.98018
  0
LWPOLYLINE
  5
287
100
AcDbEntity
  8
RACCORDO
100
AcDbPolyline
 62
250
  6
CONTINUOUS
 90
25
 70
0
 10
-23.0658100897
 20
22.2671948232
 10
-23.0638452877
 20
22.3194146236
 10
-23.0586904477
 20
22.370803649
 10
-23.0503455878
 20
22.421361917
 10
-23.0387564095
 20
22.4712158802
 10
-23.0239772518
 20
22.5202391255
 10
-23.0061710859
 20
22.5680523683
 10
-22.9852963836
 20
22.6147197122
 10
-22.9613947093
 20
22.660177089
 10
-22.9347536621
 20
22.7038529458
 10
-22.9053200341
 20
22.7457351222
 10
-22.8731470541
 20
22.7858357992
 10
-22.8386819582
 20
22.8236199171
 10
-22.8019340131
 20
22.8590225086
 10
-22.7628939511
 20
22.8921085403
 10
-22.721981189
 20
22.9225378365
 10
-22.6794480005
 20
22.9502369631
 10
-22.6350420925
 20
22.9752793354
 10
-22.5884260264
 20
22.9975450461
 10
-22.5392859635
 20
23.0172424691
 10
-22.4879357314
 20
23.0341632205
 10
-22.4349793807
 20
23.0475622473
 10
-22.3806182445
 20
23.0571911815
 10
-22.324650951
 20
23.0632983538
 10
-22.2670774833
 20
23.065883748
  0
LWPOLYLINE
  5
288
100
AcDbEntity
  8
0
100
AcDbPolyline
 62
7
  6
CONTINUOUS
 90
25
 70
0
 10
2.9643025021
 20
-25.5096494116
 10
3.017773935
 20
-25.5019415885
 10
3.0712110009
 20
-25.4945895961
 10
3.1246058095
 20
-25.4876439989
 10
3.1779086022
 20
-25.4811595284
 10
3.231153566
 20
-25.4751795263
 10
3.2844593533
 20
-25.469740009
 10
3.3378324825
 20
-25.4648916728
 10
3.3912522751
 20
-25.4606878587
 10
3.4447972725
 20
-25.4571754103
 10
3.4984680324
 20
-25.4544095864
 10
3.5522500423
 20
-25.4524470398
 10
3.6061994359
 20
-25.4513436159
 10
3.6603632121
 20
-25.4511600514
 10
3.7146800178
 20
-25.4519593998
 10
3.7690433525
 20
-25.4537997266
 10
3.82339786
 20
-25.456735101
 10
3.8777840315
 20
-25.4608239829
 10
3.9322172484
 20
-25.4661579806
 10
3.9866449998
 20
-25.4729417324
 10
4.0408819729
 20
-25.4813939561
 10
4.0946752793
 20
-25.49171444
 10
4.1478573718
 20
-25.5041057052
 10
4.2003433836
 20
-25.5187865259
 10
4.2520075265
 20
-25.5359677442
  0
LWPOLYLINE
  5
289
100
AcDbEntity
  8
0
100
AcDbPolyline
 62
7
  6
CONTINUOUS
 90
31
 70
0
 10
3.7648934314
 20
-26.5925250773
 10
3.7859389059
 20
-26.5917851595
 10
3.8070929106
 20
-26.5904720569
 10
3.8282572531
 20
-26.5885428504
 10
3.8492748876
 20
-26.5859651611
 10
3.8701172303
 20
-26.5826954576
 10
3.8908813743
 20
-26.5786571909
 10
3.9114764402
 20
-26.5737927728
 10
3.9318092831
 20
-26.5680439006
 10
3.9519591768
 20
-26.5612881963
 10
3.9719139799
 20
-26.5533964527
 10
3.9914510547
 20
-26.5443084137
 10
4.0103273481
 20
-26.5339969438
 10
4.0284467541
 20
-26.5223721332
 10
4.0456688326
 20
-26.5093664324
 10
4.0617289782
 20
-26.4950550902
 10
4.0765802963
 20
-26.4795448061
 10
4.0902705346
 20
-26.4629441064
 10
4.1027675991
 20
-26.4454579679
 10
4.1140855179
 20
-26.4272521986
 10
4.1242729986
 20
-26.4084334071
 10
4.1333618574
 20
-26.3891212643
 10
4.141359524
 20
-26.3694895532
 10
4.1483199274
 20
-26.3495988665
 10
4.1543183842
 20
-26.3293798493
 10
4.1593544611
 20
-26.3089425359
 10
4.1634350285
 20
-26.2883695134
 10
4.1665909224
 20
-26.2675363632
 10
4.1687999815
 20
-26.2464681891
 10
4.1700209414
 20
-26.2253433646
 10
4.170225122
 20
-26.2042730878
  0
LINE
  5
28A
100
AcDbEntity
  8
0
100
AcDbLine
 62
7
  6
CONTINUOUS
 10
2.125959
 20
-27.481144
 11
1.415364
 21
-27.481144
  0
LINE
  5
28B
100
AcDbEntity
  8
0
100
AcDbLine
 62
7
  6
CONTINUOUS
 10
1.522099
 20
-27.094992
 11
2.021679
 21
-27.094992
  0
LINE
  5
28C
100
AcDbEntity
  8
0
100
AcDbLine
 62
7
  6
CONTINUOUS
 10
3.7637687163
 20
-27.0019213614
 11
3.4839958436
 21
-27.0019213614
  0
LINE
  5
28D
100
AcDbEntity
  8
0
100
AcDbLine
 62
7
  6
CONTINUOUS
 10
3.4666939769
 20
-26.5925250773
 11
3.7648934314
 21
-26.5925250773
  0
LINE
  5
28E
100
AcDbEntity
  8
0
100
AcDbLine
 62
7
  6
CONTINUOUS
 10
-4.913989
 20
-25.480444
 11
-4.347161
 21
-25.480444
  0
LINE
  5
28F
100
AcDbEntity
  8
0
100
AcDbLine
 62
7
  6
CONTINUOUS
 10
-3.379615
 20
-25.480444
 11
-2.858179
 21
-25.480444
  0
LINE
  5
290
100
AcDbEntity
  8
0
100
AcDbLine
 62
7
  6
CONTINUOUS
 10
-1.636138
 20
-25.480444
 11
-1.114777
 21
-25.480444
  0
LINE
  5
291
100
AcDbEntity
  8
0
100
AcDbLine
 62
7
  6
CONTINUOUS
 10
-0.076702
 20
-25.480444
 11
0.439561
 21
-25.480444
  0
LINE
  5
292
100
AcDbEntity
  8
0
100
AcDbLine
 62
7
  6
CONTINUOUS
 10
1.539326
 20
-25.480444
 11
2.044098
 21
-25.480444
  0
LINE
  5
293
100
AcDbEntity
  8
0
100
AcDbLine
 62
7
  6
CONTINUOUS
 10
-2.66454
 20
-25.480294
 11
-2.142747
 21
-25.480294
  0
LWPOLYLINE
  5
294
100
AcDbEntity
  8
RACCORDO
100
AcDbPolyline
 62
250
  6
CONTINUOUS
 90
25
 70
0
 10
-22.2670774833
 20
-23.065883748
 10
-22.3192998927
 20
-23.0639203719
 10
-22.3706914748
 20
-23.0587669178
 10
-22.4212522476
 20
-23.0504234031
 10
-22.47110868
 20
-23.0388355089
 10
-22.5201343437
 20
-23.0240575936
 10
-22.5679499078
 20
-23.006252688
 10
-22.6146194664
 20
-22.9853792661
 10
-22.6600789618
 20
-22.9614788894
 10
-22.7037568244
 20
-22.9348392086
 10
-22.7456408868
 20
-22.9054070178
 10
-22.7857433375
 20
-22.8732355435
 10
-22.8235291226
 20
-22.8387720668
 10
-22.8589332682
 20
-22.8020258463
 10
-22.8920207475
 20
-22.7629876227
 10
-22.9224514099
 20
-22.7220768826
 10
-22.9501517787
 20
-22.6795459668
 10
-22.9751953112
 20
-22.6351425156
 10
-22.9974622525
 20
-22.5885289598
 10
-23.0171610266
 20
-22.5393914751
 10
-23.0340831984
 20
-22.4880438758
 10
-23.0474837144
 20
-22.4350900408
 10
-23.0571142062
 20
-22.3807312465
 10
-23.0632230036
 20
-22.3247661794
 10
-23.0658100897
 20
-22.2671948232
  0
LWPOLYLINE
  5
295
100
AcDbEntity
  8
0
100
AcDbPolyline
 62
7
  6
CONTINUOUS
 90
10
 70
0
 10
3.8754584185
 20
-25.891582365
 10
3.8316359292
 20
-25.8872341636
 10
3.7872756104
 20
-25.8843181337
 10
3.7424423235
 20
-25.8828697677
 10
3.6972268785
 20
-25.8829244004
 10
3.6516783719
 20
-25.8845168997
 10
3.6058046122
 20
-25.8876893029
 10
3.5596619883
 20
-25.8924848401
 10
3.5133052275
 20
-25.8987968172
 10
3.4666939769
 20
-25.906298925
  0
LWPOLYLINE
  5
296
100
AcDbEntity
  8
RACCORDO
100
AcDbPolyline
 62
250
  6
CONTINUOUS
 90
11
 70
0
 10
-22.265455016
 20
22.9182747431
 10
-22.2648225533
 20
22.8917509689
 10
-22.2641002987
 20
22.8668961224
 10
-22.2632957229
 20
22.8439672959
 10
-22.2624171484
 20
22.8232016594
 10
-22.2614736628
 20
22.8048140076
 10
-22.2604750253
 20
22.7889945376
 10
-22.2594315657
 20
22.7759068823
 10
-22.2583540771
 20
22.7656864173
 10
-22.2572537048
 20
22.7584388608
 10
-22.2561418307
 20
22.7542391797
  0
LINE
  5
297
100
AcDbEntity
  8
RACCORDO
100
AcDbLine
 62
250
  6
CONTINUOUS
 10
-22.2664253939
 20
22.9752172293
 11
-22.265455016
 21
22.9182747431
  0
LWPOLYLINE
  5
298
100
AcDbEntity
  8
RACCORDO
100
AcDbPolyline
 62
250
  6
CONTINUOUS
 90
3
 70
0
 10
-22.2670774833
 20
23.065883748
 10
-22.2669713871
 20
23.0353736799
 10
-22.2664253939
 20
22.9752172293
  0
LINE
  5
299
100
AcDbEntity
  8
RACCORDO
100
AcDbLine
 62
250
  6
CONTINUOUS
 10
-22.7542614007
 20
-22.2561640516
 11
-22.7636626706
 21
-18.381373552
  0
LINE
  5
29A
100
AcDbEntity
  8
RACCORDO
100
AcDbLine
 62
250
  6
CONTINUOUS
 10
-23.0658100897
 20
-22.2671948232
 11
-23.0953482121
 21
-9.2887003888
  0
LINE
  5
29B
100
AcDbEntity
  8
RACCORDO
100
AcDbLine
 62
250
  6
CONTINUOUS
 10
-22.7636626706
 20
-18.381373552
 11
-22.7733144838
 21
-12.7199710879
  0
LINE
  5
29C
100
AcDbEntity
  8
RACCORDO
100
AcDbLine
 62
250
  6
CONTINUOUS
 10
-22.7733144838
 20
-12.7199710879
 11
-22.7796034092
 21
-7.1021421627
  0
LINE
  5
29D
100
AcDbEntity
  8
RACCORDO
100
AcDbLine
 62
250
  6
CONTINUOUS
 10
-23.0953482121
 20
-9.2887003888
 11
-23.1005844569
 21
-4.7436005247
  0
LINE
  5
29E
100
AcDbEntity
  8
RACCORDO
100
AcDbLine
 62
250
  6
CONTINUOUS
 10
-22.7796034092
 20
-7.1021421627
 11
-22.7823100326
 21
-1.4465653421
  0
LINE
  5
29F
100
AcDbEntity
  8
RACCORDO
100
AcDbLine
 62
250
  6
CONTINUOUS
 10
-23.1005844569
 20
-4.7436005247
 11
-23.1023571031
 21
0.0
  0
LINE
  5
2A0
100
AcDbEntity
  8
RACCORDO
100
AcDbLine
 62
7
  6
CONTINUOUS
 10
-22.6
 20
22.101902651
 11
-22.6
 21
-22.101902651
  0
LINE
  5
2A1
100
AcDbEntity
  8
RACCORDO
100
AcDbLine
 62
250
  6
CONTINUOUS
 10
-22.7823100326
 20
-1.4465653421
 11
-22.7809874012
 21
5.0806978585
  0
LINE
  5
2A2
100
AcDbEntity
  8
RACCORDO
100
AcDbLine
 62
250
  6
CONTINUOUS
 10
-23.1023571031
 20
0.0
 11
-23.0997966101
 21
5.6805348918
  0
LINE
  5
2A3
100
AcDbEntity
  8
RACCORDO
100
AcDbLine
 62
250
  6
CONTINUOUS
 10
-22.7809874012
 20
5.0806978585
 11
-22.7754468416
 21
11.1344372699
  0
LINE
  5
2A4
100
AcDbEntity
  8
RACCORDO
100
AcDbLine
 62
250
  6
CONTINUOUS
 10
-23.0997966101
 20
5.6805348918
 11
-23.0930742434
 21
10.6432709122
  0
LINE
  5
2A5
100
AcDbEntity
  8
RACCORDO
100
AcDbLine
 62
250
  6
CONTINUOUS
 10
-22.7754468416
 20
11.1344372699
 11
-22.7643372911
 21
18.0399119525
  0
LINE
  5
2A6
100
AcDbEntity
  8
RACCORDO
100
AcDbLine
 62
250
  6
CONTINUOUS
 10
-23.0930742434
 20
10.6432709122
 11
-23.0680044505
 21
21.5327465772
  0
LINE
  5
2A7
100
AcDbEntity
  8
RACCORDO
100
AcDbLine
 62
250
  6
CONTINUOUS
 10
-23.0680044505
 20
21.5327465772
 11
-23.0658100897
 21
22.2671948232
  0
LINE
  5
2A8
100
AcDbEntity
  8
RACCORDO
100
AcDbLine
 62
250
  6
CONTINUOUS
 10
-22.7643372911
 20
18.0399119525
 11
-22.7542614007
 21
22.2561640516
  0
LINE
  5
2A9
100
AcDbEntity
  8
RACCORDO
100
AcDbLine
 62
250
  6
CONTINUOUS
 10
-22.2670774838
 20
-23.065883748
 11
-22.266753252
 21
-23.0050459461
  0
LWPOLYLINE
  5
2AA
100
AcDbEntity
  8
RACCORDO
100
AcDbPolyline
 62
250
  6
CONTINUOUS
 90
13
 70
0
 10
-22.266753252
 20
-23.0050459461
 10
-22.2659910992
 20
-22.9461915394
 10
-22.2654549587
 20
-22.9182730914
 10
-22.2648224861
 20
-22.8917493181
 10
-22.2641002243
 20
-22.8668945664
 10
-22.263295645
 20
-22.8439659118
 10
-22.2624170706
 20
-22.8232004948
 10
-22.2614735896
 20
-22.8048131018
 10
-22.2604749611
 20
-22.7889938969
 10
-22.2594315124
 20
-22.7759064643
 10
-22.2583540355
 20
-22.7656861699
 10
-22.2572536762
 20
-22.7584387408
 10
-22.2561418162
 20
-22.7542391432
  0
LWPOLYLINE
  5
2AB
100
AcDbEntity
  8
RACCORDO
100
AcDbPolyline
 62
250
  6
CONTINUOUS
 90
25
 70
0
 10
-22.7542613644
 20
22.2561640154
 10
-22.7531923993
 20
22.2886057788
 10
-22.750040974
 20
22.3207765097
 10
-22.7448439856
 20
22.352545507
 10
-22.7376585913
 20
22.3837422966
 10
-22.7285305301
 20
22.4142901651
 10
-22.7174658951
 20
22.4441982888
 10
-22.7044855768
 20
22.4733888181
 10
-22.6896555742
 20
22.501695391
 10
-22.6730379292
 20
22.5289918694
 10
-22.654691911
 20
22.5551757892
 10
-22.6346978523
 20
22.5801292472
 10
-22.6131684391
 20
22.6037158582
 10
-22.5902209162
 20
22.6258222625
 10
-22.5659325407
 20
22.646388952
 10
-22.5403644058
 20
22.6653679448
 10
-22.5137635093
 20
22.682593302
 10
-22.4861022065
 20
22.6980978646
 10
-22.4569790489
 20
22.7120419395
 10
-22.4262773126
 20
22.7243376425
 10
-22.3942685714
 20
22.7347328294
 10
-22.3611095536
 20
22.7430598261
 10
-22.3269444383
 20
22.7491735904
 10
-22.2919016537
 20
22.7529428042
 10
-22.2561417838
 20
22.7542391328
  0
LWPOLYLINE
  5
2AC
100
AcDbEntity
  8
RACCORDO
100
AcDbPolyline
 62
250
  6
CONTINUOUS
 90
11
 70
0
 10
-22.9182397357
 20
-22.2655571433
 10
-22.8917245612
 20
-22.2649191168
 10
-22.8668781206
 20
-22.2641905673
 10
-22.843957312
 20
-22.2633790274
 10
-22.8231991234
 20
-22.2624928881
 10
-22.8048181826
 20
-22.2615413114
 10
-22.7890045383
 20
-22.2605341363
 10
-22.7759216946
 20
-22.2594817762
 10
-22.7657049209
 20
-22.2583951121
 10
-22.7584598529
 20
-22.2572853792
 10
-22.7542614007
 20
-22.2561640516
  0
LINE
  5
2AD
100
AcDbEntity
  8
RACCORDO
100
AcDbLine
 62
250
  6
CONTINUOUS
 10
-22.9751652606
 20
-22.2665362438
 11
-22.9182397357
 21
-22.2655571433
  0
LWPOLYLINE
  5
2AE
100
AcDbEntity
  8
RACCORDO
100
AcDbPolyline
 62
250
  6
CONTINUOUS
 90
3
 70
0
 10
-23.0658100897
 20
-22.2671948232
 10
-23.035306472
 20
-22.2670874803
 10
-22.9751652606
 20
-22.2665362438
  0
LINE
  5
2AF
100
AcDbEntity
  8
RACCORDO
100
AcDbLine
 62
250
  6
CONTINUOUS
 10
22.2561418307
 20
-22.7542391797
 11
18.371588124
 21
-22.7635845935
  0
LINE
  5
2B0
100
AcDbEntity
  8
RACCORDO
100
AcDbLine
 62
250
  6
CONTINUOUS
 10
22.2670774833
 20
-23.065883748
 11
9.2357880495
 21
-23.0954520834
  0
LINE
  5
2B1
100
AcDbEntity
  8
RACCORDO
100
AcDbLine
 62
250
  6
CONTINUOUS
 10
18.371588124
 20
-22.7635845935
 11
12.6852809071
 21
-22.7733218287
  0
LINE
  5
2B2
100
AcDbEntity
  8
RACCORDO
100
AcDbLine
 62
250
  6
CONTINUOUS
 10
12.6852809071
 20
-22.7733218287
 11
7.0465579863
 21
-22.7796551826
  0
LINE
  5
2B3
100
AcDbEntity
  8
RACCORDO
100
AcDbLine
 62
250
  6
CONTINUOUS
 10
9.2357880495
 20
-23.0954520834
 11
4.7024426081
 21
-23.1006343258
  0
LINE
  5
2B4
100
AcDbEntity
  8
RACCORDO
100
AcDbLine
 62
250
  6
CONTINUOUS
 10
7.0465579863
 20
-22.7796551826
 11
1.4351551734
 21
-22.7823085326
  0
LINE
  5
2B5
100
AcDbEntity
  8
RACCORDO
100
AcDbLine
 62
250
  6
CONTINUOUS
 10
4.7024426081
 20
-23.1006343258
 11
0.0
 21
-23.1023657269
  0
LINE
  5
2B6
100
AcDbEntity
  8
RACCORDO
100
AcDbLine
 62
7
  6
CONTINUOUS
 10
-22.101902651
 20
-22.6
 11
22.101902651
 21
-22.6
  0
LINE
  5
2B7
100
AcDbEntity
  8
RACCORDO
100
AcDbLine
 62
250
  6
CONTINUOUS
 10
1.4351551734
 20
-22.7823085326
 11
-5.0187697918
 21
-22.7810282443
  0
LINE
  5
2B8
100
AcDbEntity
  8
RACCORDO
100
AcDbLine
 62
250
  6
CONTINUOUS
 10
0.0
 20
-23.1023657269
 11
-5.617602798
 21
-23.0998752077
  0
LINE
  5
2B9
100
AcDbEntity
  8
RACCORDO
100
AcDbLine
 62
250
  6
CONTINUOUS
 10
-5.0187697918
 20
-22.7810282443
 11
-11.0929425937
 21
-22.7754809801
  0
LINE
  5
2BA
100
AcDbEntity
  8
RACCORDO
100
AcDbLine
 62
250
  6
CONTINUOUS
 10
-5.617602798
 20
-23.0998752077
 11
-10.5992607179
 21
-23.0931693325
  0
LINE
  5
2BB
100
AcDbEntity
  8
RACCORDO
100
AcDbLine
 62
250
  6
CONTINUOUS
 10
-11.0929425937
 20
-22.7754809801
 11
-18.0286604944
 21
-22.7642602916
  0
LINE
  5
2BC
100
AcDbEntity
  8
RACCORDO
100
AcDbLine
 62
250
  6
CONTINUOUS
 10
-10.5992607179
 20
-23.0931693325
 11
-20.5091755329
 21
-23.0707723737
  0
LINE
  5
2BD
100
AcDbEntity
  8
RACCORDO
100
AcDbLine
 62
250
  6
CONTINUOUS
 10
-20.5091755329
 20
-23.0707723737
 11
-22.2670774833
 21
-23.065883748
  0
LINE
  5
2BE
100
AcDbEntity
  8
RACCORDO
100
AcDbLine
 62
250
  6
CONTINUOUS
 10
-18.0286604944
 20
-22.7642602916
 11
-22.2561418307
 21
-22.7542391797
  0
LINE
  5
2BF
100
AcDbEntity
  8
RACCORDO
100
AcDbLine
 62
250
  6
CONTINUOUS
 10
23.0658100897
 20
-22.2671948238
 11
23.0049860377
 21
-22.2668671748
  0
LWPOLYLINE
  5
2C0
100
AcDbEntity
  8
RACCORDO
100
AcDbPolyline
 62
250
  6
CONTINUOUS
 90
13
 70
0
 10
23.0049860377
 20
-22.2668671748
 10
22.9461479431
 20
-22.2660980045
 10
22.9182380856
 20
-22.2655570861
 10
22.8917229121
 20
-22.2649190497
 10
22.8668765663
 20
-22.264190493
 10
22.8439559294
 20
-22.2633789495
 10
22.8231979601
 20
-22.2624928102
 10
22.8048172779
 20
-22.2615412382
 10
22.7890038983
 20
-22.260534072
 10
22.7759212771
 20
-22.2594817229
 10
22.7657046739
 20
-22.2583950704
 10
22.7584597333
 20
-22.2572853506
 10
22.7542613644
 20
-22.2561640372
  0
LWPOLYLINE
  5
2C1
100
AcDbEntity
  8
RACCORDO
100
AcDbPolyline
 62
250
  6
CONTINUOUS
 90
25
 70
0
 10
-22.2561417942
 20
-22.7542391432
 10
-22.2885858836
 20
-22.7531716184
 10
-22.3207589336
 20
-22.7500216032
 10
-22.3525302351
 20
-22.7448260089
 10
-22.3837293165
 20
-22.7376420118
 10
-22.414279451
 20
-22.7285153609
 10
-22.4441897856
 20
-22.7174521521
 10
-22.4733824711
 20
-22.7044732964
 10
-22.5016911463
 20
-22.6896448052
 10
-22.5289896477
 20
-22.673028715
 10
-22.555175519
 20
-22.6546843112
 10
-22.5801308627
 20
-22.634691941
 10
-22.6037192692
 20
-22.6131642834
 10
-22.6258273948
 20
-22.5902185891
 10
-22.6463957411
 20
-22.5659321345
 10
-22.6653763015
 20
-22.5403660278
 10
-22.6826031279
 20
-22.5137673088
 10
-22.6981091199
 20
-22.4861083143
 10
-22.712054652
 20
-22.4569875128
 10
-22.7243518671
 20
-22.4262881802
 10
-22.7347486114
 20
-22.3942818832
 10
-22.7430771953
 20
-22.3611252421
 10
-22.7491925625
 20
-22.3269623924
 10
-22.7529633959
 20
-22.2919217879
 10
-22.7542613541
 20
-22.2561640051
  0
LWPOLYLINE
  5
2C2
100
AcDbEntity
  8
0
100
AcDbPolyline
 62
7
  6
CONTINUOUS
 90
55
 70
0
 10
4.2520075265
 20
-25.5359677442
 10
4.2833222349
 20
-25.5487551359
 10
4.3149810987
 20
-25.5646497906
 10
4.3468480341
 20
-25.5835371867
 10
4.3787251823
 20
-25.6051717917
 10
4.4104725205
 20
-25.6295286037
 10
4.441969463
 20
-25.6568883167
 10
4.4730956895
 20
-25.6876461171
 10
4.5032401791
 20
-25.7217719866
 10
4.5315839294
 20
-25.758777664
 10
4.558013366
 20
-25.7988840999
 10
4.5819684472
 20
-25.8416838455
 10
4.6023953522
 20
-25.885358294
 10
4.6192597458
 20
-25.9293515304
 10
4.6328502698
 20
-25.9736131444
 10
4.6431504767
 20
-26.0168707016
 10
4.6505081987
 20
-26.0584231214
 10
4.655458635
 20
-26.098527207
 10
4.658393453
 20
-26.1373666609
 10
4.6595595979
 20
-26.1748428694
 10
4.6591147175
 20
-26.2108389067
 10
4.6571921447
 20
-26.2455517649
 10
4.6539061526
 20
-26.2789761574
 10
4.649381277
 20
-26.3110104397
 10
4.6437210597
 20
-26.341738413
 10
4.6370385627
 20
-26.3711520299
 10
4.6294460256
 20
-26.3992518991
 10
4.6210202502
 20
-26.4261466227
 10
4.6118713183
 20
-26.45181524
 10
4.6021163288
 20
-26.4762393089
 10
4.5918067597
 20
-26.499536215
 10
4.5810415606
 20
-26.5216782649
 10
4.5699113599
 20
-26.5426546567
 10
4.5584145207
 20
-26.5626084701
 10
4.546600334
 20
-26.5815615333
 10
4.534549973
 20
-26.599483521
 10
4.5222834192
 20
-26.6164352333
 10
4.5098393908
 20
-26.6324407025
 10
4.4972830226
 20
-26.6475009761
 10
4.4846700678
 20
-26.6616905717
 10
4.4720460414
 20
-26.6751038084
 10
4.4594688952
 20
-26.6878073469
 10
4.4470119012
 20
-26.6998422546
 10
4.4347322958
 20
-26.711256038
 10
4.4226592824
 20
-26.722110806
 10
4.4108202596
 20
-26.7324581278
 10
4.3993198154
 20
-26.7422738993
 10
4.3881209726
 20
-26.7516469914
 10
4.3770221256
 20
-26.7607808064
 10
4.3660437173
 20
-26.7694857688
 10
4.3550850856
 20
-26.7774895582
 10
4.3437102541
 20
-26.7847496291
 10
4.3317030894
 20
-26.7909774655
 10
4.3190993852
 20
-26.7957102532
 10
4.3058063972
 20
-26.7985541322
  0
LWPOLYLINE
  5
2C3
100
AcDbEntity
  8
0
100
AcDbPolyline
 62
7
  6
CONTINUOUS
 90
3
 70
0
 10
4.3058063972
 20
-26.8133253901
 10
4.3314871428
 20
-26.8250915106
 10
4.3551638791
 20
-26.8388245967
  0
LWPOLYLINE
  5
2C4
100
AcDbEntity
  8
0
100
AcDbPolyline
 62
7
  6
CONTINUOUS
 90
23
 70
0
 10
4.3551638791
 20
-26.8388245967
 10
4.3769770811
 20
-26.8541792282
 10
4.3970920672
 20
-26.8708710871
 10
4.4155960796
 20
-26.8885908786
 10
4.4325163547
 20
-26.9069779424
 10
4.4478889301
 20
-26.9256718614
 10
4.4619250753
 20
-26.9445556732
 10
4.474890338
 20
-26.9636857639
 10
4.486865613
 20
-26.9829307438
 10
4.4979123478
 20
-27.0021510003
 10
4.508212808
 20
-27.0214598063
 10
4.5178260249
 20
-27.0407998874
 10
4.5267756366
 20
-27.0600561716
 10
4.5351577547
 20
-27.0792870519
 10
4.542998146
 20
-27.0984189799
 10
4.5503269188
 20
-27.1173952856
 10
4.5572249996
 20
-27.1363111272
 10
4.56371182
 20
-27.1551198803
 10
4.5697993573
 20
-27.1737552549
 10
4.5755582788
 20
-27.1923153304
 10
4.5810635208
 20
-27.2108861324
 10
4.5863593234
 20
-27.229443609
 10
4.5914952166
 20
-27.2479696774
  0
LINE
  5
2C5
100
AcDbEntity
  8
0
100
AcDbLine
 62
7
  6
CONTINUOUS
 10
-4.121524
 20
-27.98018
 11
-4.913989
 21
-25.480444
  0
LINE
  5
2C6
100
AcDbEntity
  8
0
100
AcDbLine
 62
7
  6
CONTINUOUS
 10
-0.637935
 20
-27.98018
 11
-1.250061
 21
-26.3479
  0
LINE
  5
2C7
100
AcDbEntity
  8
0
100
AcDbLine
 62
7
  6
CONTINUOUS
 10
-1.114777
 20
-25.480444
 11
-0.598495
 21
-26.868305
  0
LINE
  5
2C8
100
AcDbEntity
  8
0
100
AcDbLine
 62
7
  6
CONTINUOUS
 10
-4.347161
 20
-25.480444
 11
-3.870666
 21
-27.20109
  0
LWPOLYLINE
  5
2C9
100
AcDbEntity
  8
0
100
AcDbPolyline
 62
7
  6
CONTINUOUS
 90
19
 70
0
 10
4.054823388
 20
-27.2220207429
 10
4.0466397773
 20
-27.2019188452
 10
4.0373393028
 20
-27.1821909154
 10
4.0269739421
 20
-27.1629646118
 10
4.015620367
 20
-27.1444026183
 10
4.0033065558
 20
-27.1265799738
 10
3.9899894965
 20
-27.1094992011
 10
3.9756874423
 20
-27.0932760815
 10
3.9604369545
 20
-27.0780487633
 10
3.9441895977
 20
-27.0638818841
 10
3.9269097247
 20
-27.050884828
 10
3.9086608605
 20
-27.0392513474
 10
3.8895436423
 20
-27.0291729912
 10
3.8696687779
 20
-27.0207312707
 10
3.8491573573
 20
-27.013887831
 10
3.8281561634
 20
-27.0086121105
 10
3.8068181087
 20
-27.0048768025
 10
3.7853029961
 20
-27.0026556494
 10
3.7637687163
 20
-27.0019213614
  0
LINE
  5
2CA
100
AcDbEntity
  8
0
100
AcDbLine
 62
7
  6
CONTINUOUS
 10
2.044098
 20
-25.480444
 11
2.811079
 21
-27.98018
  0
LWPOLYLINE
  5
2CB
100
AcDbEntity
  8
0
100
AcDbPolyline
 62
7
  6
CONTINUOUS
 90
8
 70
0
 10
4.1346369444
 20
-27.4669113418
 10
4.1242303989
 20
-27.4316143519
 10
4.1135970568
 20
-27.3964258267
 10
4.1026827882
 20
-27.3613681381
 10
4.0914084235
 20
-27.3263860337
 10
4.079708332
 20
-27.2914748251
 10
4.0675326854
 20
-27.2566796158
 10
4.0548233605
 20
-27.2220207532
  0
LINE
  5
2CC
100
AcDbEntity
  8
0
100
AcDbLine
 62
7
  6
CONTINUOUS
 10
4.2719151942
 20
-27.9416389429
 11
4.1958786255
 21
-27.6814668286
  0
LINE
  5
2CD
100
AcDbEntity
  8
0
100
AcDbLine
 62
7
  6
CONTINUOUS
 10
4.2830496624
 20
-27.9801797807
 11
4.2719151942
 21
-27.9416389429
  0
LWPOLYLINE
  5
2CE
100
AcDbEntity
  8
0
100
AcDbPolyline
 62
7
  6
CONTINUOUS
 90
5
 70
0
 10
4.1958786255
 20
-27.6814668286
 10
4.1752602213
 20
-27.609335895
 10
4.1651283921
 20
-27.573532478
 10
4.1550181275
 20
-27.5378470308
 10
4.1346369444
 20
-27.4669113418
  0
LINE
  5
2CF
100
AcDbEntity
  8
0
100
AcDbLine
 62
7
  6
CONTINUOUS
 10
2.261131
 20
-27.98018
 11
2.125959
 21
-27.481144
  0
LINE
  5
2D0
100
AcDbEntity
  8
0
100
AcDbLine
 62
7
  6
CONTINUOUS
 10
2.021679
 20
-27.094992
 11
1.781908
 21
-26.167308
  0
LINE
  5
2D1
100
AcDbEntity
  8
0
100
AcDbLine
 62
7
  6
CONTINUOUS
 10
0.439561
 20
-25.480444
 11
0.673314
 21
-27.98018
  0
LINE
  5
2D2
100
AcDbEntity
  8
0
100
AcDbLine
 62
7
  6
CONTINUOUS
 10
0.162862
 20
-27.98018
 11
0.055658
 21
-26.354704
  0
LINE
  5
2D3
100
AcDbEntity
  8
0
100
AcDbLine
 62
7
  6
CONTINUOUS
 10
-2.66454
 20
-27.98018
 11
-2.66454
 21
-25.480294
  0
LWPOLYLINE
  5
2D4
100
AcDbEntity
  8
0
100
AcDbPolyline
 62
7
  6
CONTINUOUS
 90
4
 70
0
 43
0.3500000006
 10
-2.3571427875
 20
52.1285708313
 10
-2.3571427875
 20
52.9857133026
 10
-1.9285714102
 20
53.4142868042
 10
-1.2857142735
 20
53.4142868042
  0
LINE
  5
2D5
100
AcDbEntity
  8
0
100
AcDbLine
 62
7
  6
CONTINUOUS
 10
-2.142747
 20
-25.480294
 11
-2.142747
 21
-27.98018
  0
LINE
  5
2D6
100
AcDbEntity
  8
ASSI
100
AcDbLine
 62
250
  6
CONTINUOUS
 10
0.0
 20
42.9051299762
 11
0.0
 21
42.5903482773
  0
LINE
  5
2D7
100
AcDbEntity
  8
ASSI
100
AcDbLine
 62
250
  6
CONTINUOUS
 10
0.0
 20
-42.9051299762
 11
0.0
 21
-42.5903482773
  0
LINE
  5
2D8
100
AcDbEntity
  8
RACCORDO
100
AcDbLine
 62
250
  6
CONTINUOUS
 10
0.0
 20
-23.1023657269
 11
0.0
 21
-22.7824270797
  0
LINE
  5
2D9
100
AcDbEntity
  8
0
100
AcDbLine
 62
250
  6
CONTINUOUS
 10
0.0
 20
-23.1023657269
 11
0.0
 21
-42.5903482773
  0
LINE
  5
2DA
100
AcDbEntity
  8
RACCORDO
100
AcDbLine
 62
250
  6
CONTINUOUS
 10
0.0
 20
22.7824270797
 11
0.0
 21
42.5903482773
  0
LINE
  5
2DB
100
AcDbEntity
  8
ASSI
100
AcDbLine
 62
250
  6
CONTINUOUS
 10
-42.9091087543
 20
-42.1093828943
 11
-42.95
 21
-42.15027414
  0
LINE
  5
2DC
100
AcDbEntity
  8
ASSI
100
AcDbLine
 62
250
  6
CONTINUOUS
 10
42.1093785134
 20
42.9091043734
 11
42.15027414
 21
42.95
  0
LINE
  5
2DD
100
AcDbEntity
  8
RACCORDO
100
AcDbLine
 62
250
  6
CONTINUOUS
 10
22.2561418307
 20
22.7542391797
 11
22.101902651
 21
22.6
  0
LINE
  5
2DE
100
AcDbEntity
  8
RACCORDO
100
AcDbLine
 62
250
  6
CONTINUOUS
 10
-22.7542614007
 20
-22.2561640516
 11
-22.6
 21
-22.101902651
  0
LINE
  5
2DF
100
AcDbEntity
  8
RACCORDO
100
AcDbLine
 62
250
  6
CONTINUOUS
 10
22.7542614007
 20
22.2561640516
 11
22.6
 21
22.101902651
  0
LINE
  5
2E0
100
AcDbEntity
  8
RACCORDO
100
AcDbLine
 62
250
  6
CONTINUOUS
 10
-22.2561418307
 20
-22.7542391797
 11
-22.101902651
 21
-22.6
  0
LWPOLYLINE
  5
2E1
100
AcDbEntity
  8
0
100
AcDbPolyline
 62
7
  6
CONTINUOUS
 90
4
 70
0
 43
0.3500000006
 10
49.7714282227
 20
-2.3571432495
 10
48.9142857513
 20
-2.3571432495
 10
48.4857122498
 20
-1.9285708809
 10
48.4857122498
 20
-1.2857140274
  0
LINE
  5
2E2
100
AcDbEntity
  8
ASSI
100
AcDbLine
 62
250
  6
CONTINUOUS
 10
-42.9051300382
 20
-0.0
 11
-42.5903472071
 21
-0.0
  0
LINE
  5
2E3
100
AcDbEntity
  8
ASSI
100
AcDbLine
 62
250
  6
CONTINUOUS
 10
42.9051300382
 20
-0.0
 11
42.5903472071
 21
-0.0
  0
LINE
  5
2E4
100
AcDbEntity
  8
RACCORDO
100
AcDbLine
 62
250
  6
CONTINUOUS
 10
-42.5903472071
 20
-0.0
 11
-22.7824322316
 21
0.0
  0
LINE
  5
2E5
100
AcDbEntity
  8
RACCORDO
100
AcDbLine
 62
250
  6
CONTINUOUS
 10
42.5903472071
 20
-0.0
 11
22.7824322316
 21
0.0
  0
LINE
  5
2E6
100
AcDbEntity
  8
ASSI
100
AcDbLine
 62
250
  6
CONTINUOUS
 10
42.1093824756
 20
-42.9091083356
 11
42.15027414
 21
-42.95
  0
LINE
  5
2E7
100
AcDbEntity
  8
ASSI
100
AcDbLine
 62
250
  6
CONTINUOUS
 10
-42.9091078251
 20
42.1093819651
 11
-42.95
 21
42.15027414
  0
LINE
  5
2E8
100
AcDbEntity
  8
RACCORDO
100
AcDbLine
 62
250
  6
CONTINUOUS
 10
-22.7542614007
 20
22.2561640516
 11
-22.6
 21
22.101902651
  0
LINE
  5
2E9
100
AcDbEntity
  8
RACCORDO
100
AcDbLine
 62
250
  6
CONTINUOUS
 10
22.2561418307
 20
-22.7542391797
 11
22.101902651
 21
-22.6
  0
LINE
  5
2EA
100
AcDbEntity
  8
RACCORDO
100
AcDbLine
 62
250
  6
CONTINUOUS
 10
-22.2561418307
 20
22.7542391797
 11
-22.101902651
 21
22.6
  0
LINE
  5
2EB
100
AcDbEntity
  8
RACCORDO
100
AcDbLine
 62
250
  6
CONTINUOUS
 10
22.7542614007
 20
-22.2561640516
 11
22.6
 21
-22.101902651
  0
LINE
  5
2EC
100
AcDbEntity
  8
0
100
AcDbLine
 62
7
  6
CONTINUOUS
 10
4.7656783543
 20
-27.908124579
 11
4.7849537607
 21
-27.9801797807
  0
LINE
  5
2ED
100
AcDbEntity
  8
0
100
AcDbLine
 62
7
  6
CONTINUOUS
 10
4.5914952166
 20
-27.2479696774
 11
4.6483091913
 21
-27.4591454377
  0
LINE
  5
2EE
100
AcDbEntity
  8
0
100
AcDbLine
 62
7
  6
CONTINUOUS
 10
4.6483091913
 20
-27.4591454377
 11
4.7656783543
 21
-27.908124579
  0
LWPOLYLINE
  5
2EF
100
AcDbEntity
  8
0
100
AcDbPolyline
 62
7
  6
CONTINUOUS
 90
22
 70
0
 10
4.1702251436
 20
-26.2042730875
 10
4.1690552481
 20
-26.1819452671
 10
4.1662524757
 20
-26.1596852048
 10
4.1618761707
 20
-26.1376327526
 10
4.1559930945
 20
-26.1159516339
 10
4.1486556417
 20
-26.0947454627
 10
4.139883012
 20
-26.0740635083
 10
4.1297046118
 20
-26.05402155
 10
4.1181661639
 20
-26.0347703115
 10
4.1052889884
 20
-26.016419036
 10
4.0910984426
 20
-25.9990942133
 10
4.0756370983
 20
-25.9829397542
 10
4.0589906087
 20
-25.9680328908
 10
4.0412837179
 20
-25.9543876747
 10
4.0226364808
 20
-25.942010542
 10
4.0031686285
 20
-25.9309090001
 10
3.9830219342
 20
-25.9211014736
 10
3.9623018871
 20
-25.9125872267
 10
3.9410693386
 20
-25.9053571495
 10
3.9194245271
 20
-25.8994278277
 10
3.8975120118
 20
-25.894828852
 10
3.8754584186
 20
-25.8915823649
  0
LINE
  5
2F0
100
AcDbEntity
  8
0
100
AcDbLine
 62
7
  6
CONTINUOUS
 10
2.9643025021
 20
-27.9801797807
 11
2.9643025021
 21
-25.5096494116
  0
LINE
  5
2F1
100
AcDbEntity
  8
0
100
AcDbLine
 62
7
  6
CONTINUOUS
 10
3.4666939769
 20
-25.906298925
 11
3.4666939769
 21
-26.5925250773
  0
LINE
  5
2F2
100
AcDbEntity
  8
0
100
AcDbLine
 62
7
  6
CONTINUOUS
 10
3.4839958436
 20
-27.0019213614
 11
3.4839958436
 21
-27.9801797807
  0
LINE
  5
2F3
100
AcDbEntity
  8
0
100
AcDbLine
 62
7
  6
CONTINUOUS
 10
4.3058063972
 20
-26.7985541322
 11
4.3058063972
 21
-26.8133253901
  0
LINE
  5
2F4
100
AcDbEntity
  8
0
100
AcDbLine
 62
7
  6
CONTINUOUS
 10
-1.250061
 20
-26.3479
 11
-1.362664
 21
-27.98018
  0
LINE
  5
2F5
100
AcDbEntity
  8
0
100
AcDbLine
 62
7
  6
CONTINUOUS
 10
-1.86185
 20
-27.98018
 11
-1.636138
 21
-25.480444
  0
LINE
  5
2F6
100
AcDbEntity
  8
0
100
AcDbLine
 62
7
  6
CONTINUOUS
 10
-3.870666
 20
-27.20109
 11
-3.379615
 21
-25.480444
  0
LINE
  5
2F7
100
AcDbEntity
  8
ASSI
100
AcDbLine
 62
250
  6
CONTINUOUS
 10
-42.1093785142
 20
-42.9091043742
 11
-42.15027414
 21
-42.95
  0
LINE
  5
2F8
100
AcDbEntity
  8
ASSI
100
AcDbLine
 62
250
  6
CONTINUOUS
 10
42.9091087523
 20
42.1093828924
 11
42.95
 21
42.15027414
  0
LINE
  5
2F9
100
AcDbEntity
  8
ASSI
100
AcDbLine
 62
250
  6
CONTINUOUS
 10
42.9091078251
 20
-42.1093819651
 11
42.95
 21
-42.15027414
  0
LINE
  5
2FA
100
AcDbEntity
  8
ASSI
100
AcDbLine
 62
250
  6
CONTINUOUS
 10
-42.1093824756
 20
42.9091083356
 11
-42.15027414
 21
42.95
  0
LINE
  5
2FB
100
AcDbEntity
  8
0
100
AcDbLine
 62
7
  6
CONTINUOUS
 10
-2.858179
 20
-25.480444
 11
-3.661694
 21
-27.98018
  0
LINE
  5
2FC
100
AcDbEntity
  8
0
100
AcDbLine
 62
7
  6
CONTINUOUS
 10
1.781908
 20
-26.167308
 11
1.522099
 21
-27.094992
  0
LINE
  5
2FD
100
AcDbEntity
  8
0
100
AcDbLine
 62
7
  6
CONTINUOUS
 10
1.415364
 20
-27.481144
 11
1.271381
 21
-27.98018
  0
LINE
  5
2FE
100
AcDbEntity
  8
0
100
AcDbLine
 62
7
  6
CONTINUOUS
 10
0.75525
 20
-27.98018
 11
1.539326
 21
-25.480444
  0
LINE
  5
2FF
100
AcDbEntity
  8
0
100
AcDbLine
 62
7
  6
CONTINUOUS
 10
-0.598495
 20
-26.868305
 11
-0.076702
 21
-25.480444
  0
LINE
  5
300
100
AcDbEntity
  8
0
100
AcDbLine
 62
7
  6
CONTINUOUS
 10
0.055658
 20
-26.354704
 11
-0.564753
 21
-27.98018
  0
LWPOLYLINE
  5
301
100
AcDbEntity
  8
RACCORDO
100
AcDbPolyline
 62
250
  6
CONTINUOUS
 90
11
 70
0
 10
22.265455016
 20
-22.9182747431
 10
22.2648225533
 20
-22.8917509689
 10
22.2641002987
 20
-22.8668961224
 10
22.2632957229
 20
-22.8439672959
 10
22.2624171484
 20
-22.8232016594
 10
22.2614736628
 20
-22.8048140076
 10
22.2604750253
 20
-22.7889945376
 10
22.2594315657
 20
-22.7759068823
 10
22.2583540771
 20
-22.7656864173
 10
22.2572537048
 20
-22.7584388608
 10
22.2561418307
 20
-22.7542391797
  0
LINE
  5
302
100
AcDbEntity
  8
RACCORDO
100
AcDbLine
 62
250
  6
CONTINUOUS
 10
22.2664253939
 20
-22.9752172293
 11
22.265455016
 21
-22.9182747431
  0
LWPOLYLINE
  5
303
100
AcDbEntity
  8
RACCORDO
100
AcDbPolyline
 62
250
  6
CONTINUOUS
 90
3
 70
0
 10
22.2670774833
 20
-23.065883748
 10
22.2669713871
 20
-23.0353736799
 10
22.2664253939
 20
-22.9752172293
  0
LINE
  5
304
100
AcDbEntity
  8
RACCORDO
100
AcDbLine
 62
250
  6
CONTINUOUS
 10
23.0658100897
 20
22.2671948232
 11
23.0870472536
 21
13.6058383088
  0
LINE
  5
305
100
AcDbEntity
  8
RACCORDO
100
AcDbLine
 62
250
  6
CONTINUOUS
 10
22.7542614007
 20
22.2561640516
 11
22.7659845156
 21
17.1797179099
  0
LINE
  5
306
100
AcDbEntity
  8
RACCORDO
100
AcDbLine
 62
250
  6
CONTINUOUS
 10
23.0870472536
 20
13.6058383088
 11
23.0969113606
 21
8.2167592064
  0
LINE
  5
307
100
AcDbEntity
  8
RACCORDO
100
AcDbLine
 62
250
  6
CONTINUOUS
 10
22.7659845156
 20
17.1797179099
 11
22.7764391541
 21
10.316923873
  0
LINE
  5
308
100
AcDbEntity
  8
RACCORDO
100
AcDbLine
 62
250
  6
CONTINUOUS
 10
22.7764391541
 20
10.316923873
 11
22.7814852653
 21
4.1163790556
  0
LINE
  5
309
100
AcDbEntity
  8
RACCORDO
100
AcDbLine
 62
250
  6
CONTINUOUS
 10
23.0969113606
 20
8.2167592064
 11
23.1017405656
 21
2.8188693207
  0
LINE
  5
30A
100
AcDbEntity
  8
RACCORDO
100
AcDbLine
 62
7
  6
CONTINUOUS
 10
22.6
 20
-22.101902651
 11
22.6
 21
22.101902651
  0
LINE
  5
30B
100
AcDbEntity
  8
RACCORDO
100
AcDbLine
 62
250
  6
CONTINUOUS
 10
23.1017405656
 20
2.8188693207
 11
23.1011867308
 21
-3.8635298124
  0
LINE
  5
30C
100
AcDbEntity
  8
RACCORDO
100
AcDbLine
 62
250
  6
CONTINUOUS
 10
22.7814852653
 20
4.1163790556
 11
22.7806270916
 21
-5.6783397839
  0
LINE
  5
30D
100
AcDbEntity
  8
RACCORDO
100
AcDbLine
 62
250
  6
CONTINUOUS
 10
22.7806270916
 20
-5.6783397839
 11
22.7754468416
 21
-11.1344372698
  0
LINE
  5
30E
100
AcDbEntity
  8
RACCORDO
100
AcDbLine
 62
250
  6
CONTINUOUS
 10
23.1011867308
 20
-3.8635298124
 11
23.0964609527
 21
-8.5393835476
  0
LINE
  5
30F
100
AcDbEntity
  8
RACCORDO
100
AcDbLine
 62
250
  6
CONTINUOUS
 10
22.7754468416
 20
-11.1344372698
 11
22.7660788313
 21
-17.12907786
  0
LINE
  5
310
100
AcDbEntity
  8
RACCORDO
100
AcDbLine
 62
250
  6
CONTINUOUS
 10
23.0964609527
 20
-8.5393835476
 11
23.0875219375
 21
-13.3908271278
  0
LINE
  5
311
100
AcDbEntity
  8
RACCORDO
100
AcDbLine
 62
250
  6
CONTINUOUS
 10
22.7660788313
 20
-17.12907786
 11
22.756449636
 21
-21.5230702438
  0
LINE
  5
312
100
AcDbEntity
  8
RACCORDO
100
AcDbLine
 62
250
  6
CONTINUOUS
 10
22.756449636
 20
-21.5230702438
 11
22.7542614007
 21
-22.2561640516
  0
LINE
  5
313
100
AcDbEntity
  8
RACCORDO
100
AcDbLine
 62
250
  6
CONTINUOUS
 10
23.0875219375
 20
-13.3908271278
 11
23.0658100897
 21
-22.2671948232
  0
LINE
  5
314
100
AcDbEntity
  8
RACCORDO
100
AcDbLine
 62
250
  6
CONTINUOUS
 10
22.2670774838
 20
23.065883748
 11
22.266753252
 21
23.0050459461
  0
LWPOLYLINE
  5
315
100
AcDbEntity
  8
RACCORDO
100
AcDbPolyline
 62
250
  6
CONTINUOUS
 90
13
 70
0
 10
22.266753252
 20
23.0050459461
 10
22.2659910992
 20
22.9461915394
 10
22.2654549587
 20
22.9182730914
 10
22.2648224861
 20
22.8917493181
 10
22.2641002243
 20
22.8668945664
 10
22.263295645
 20
22.8439659118
 10
22.2624170706
 20
22.8232004948
 10
22.2614735896
 20
22.8048131018
 10
22.2604749611
 20
22.7889938969
 10
22.2594315124
 20
22.7759064643
 10
22.2583540355
 20
22.7656861699
 10
22.2572536762
 20
22.7584387408
 10
22.2561418162
 20
22.7542391432
  0
LWPOLYLINE
  5
316
100
AcDbEntity
  8
RACCORDO
100
AcDbPolyline
 62
250
  6
CONTINUOUS
 90
25
 70
0
 10
22.7542613644
 20
-22.2561640154
 10
22.7531923993
 20
-22.2886057788
 10
22.750040974
 20
-22.3207765097
 10
22.7448439856
 20
-22.352545507
 10
22.7376585913
 20
-22.3837422966
 10
22.7285305301
 20
-22.4142901651
 10
22.7174658951
 20
-22.4441982888
 10
22.7044855768
 20
-22.4733888181
 10
22.6896555742
 20
-22.501695391
 10
22.6730379292
 20
-22.5289918694
 10
22.654691911
 20
-22.5551757892
 10
22.6346978523
 20
-22.5801292472
 10
22.6131684391
 20
-22.6037158582
 10
22.5902209162
 20
-22.6258222625
 10
22.5659325407
 20
-22.646388952
 10
22.5403644058
 20
-22.6653679448
 10
22.5137635093
 20
-22.682593302
 10
22.4861022065
 20
-22.6980978646
 10
22.4569790489
 20
-22.7120419395
 10
22.4262773126
 20
-22.7243376425
 10
22.3942685714
 20
-22.7347328294
 10
22.3611095536
 20
-22.7430598261
 10
22.3269444383
 20
-22.7491735904
 10
22.2919016537
 20
-22.7529428042
 10
22.2561417838
 20
-22.7542391328
  0
LWPOLYLINE
  5
317
100
AcDbEntity
  8
RACCORDO
100
AcDbPolyline
 62
250
  6
CONTINUOUS
 90
25
 70
0
 10
23.0658100897
 20
-22.2671948232
 10
23.0638452877
 20
-22.3194146236
 10
23.0586904477
 20
-22.370803649
 10
23.0503455878
 20
-22.421361917
 10
23.0387564095
 20
-22.4712158802
 10
23.0239772518
 20
-22.5202391255
 10
23.0061710859
 20
-22.5680523683
 10
22.9852963836
 20
-22.6147197122
 10
22.9613947093
 20
-22.660177089
 10
22.9347536621
 20
-22.7038529458
 10
22.9053200341
 20
-22.7457351222
 10
22.8731470541
 20
-22.7858357992
 10
22.8386819582
 20
-22.8236199171
 10
22.8019340131
 20
-22.8590225086
 10
22.7628939511
 20
-22.8921085403
 10
22.721981189
 20
-22.9225378365
 10
22.6794480005
 20
-22.9502369631
 10
22.6350420925
 20
-22.9752793354
 10
22.5884260264
 20
-22.9975450461
 10
22.5392859635
 20
-23.0172424691
 10
22.4879357314
 20
-23.0341632205
 10
22.4349793807
 20
-23.0475622473
 10
22.3806182445
 20
-23.0571911815
 10
22.324650951
 20
-23.0632983538
 10
22.2670774833
 20
-23.065883748
  0
LWPOLYLINE
  5
318
100
AcDbEntity
  8
RACCORDO
100
AcDbPolyline
 62
250
  6
CONTINUOUS
 90
11
 70
0
 10
22.9182397357
 20
22.2655571433
 10
22.8917245612
 20
22.2649191168
 10
22.8668781206
 20
22.2641905673
 10
22.843957312
 20
22.2633790274
 10
22.8231991234
 20
22.2624928881
 10
22.8048181826
 20
22.2615413114
 10
22.7890045383
 20
22.2605341363
 10
22.7759216946
 20
22.2594817762
 10
22.7657049209
 20
22.2583951121
 10
22.7584598529
 20
22.2572853792
 10
22.7542614007
 20
22.2561640516
  0
LINE
  5
319
100
AcDbEntity
  8
RACCORDO
100
AcDbLine
 62
250
  6
CONTINUOUS
 10
22.9751652606
 20
22.2665362438
 11
22.9182397357
 21
22.2655571433
  0
LWPOLYLINE
  5
31A
100
AcDbEntity
  8
RACCORDO
100
AcDbPolyline
 62
250
  6
CONTINUOUS
 90
3
 70
0
 10
23.0658100897
 20
22.2671948232
 10
23.035306472
 20
22.2670874803
 10
22.9751652606
 20
22.2665362438
  0
LINE
  5
31B
100
AcDbEntity
  8
RACCORDO
100
AcDbLine
 62
250
  6
CONTINUOUS
 10
-22.2670774833
 20
23.065883748
 11
-13.5755661303
 21
23.0871049707
  0
LINE
  5
31C
100
AcDbEntity
  8
RACCORDO
100
AcDbLine
 62
250
  6
CONTINUOUS
 10
-22.2561418307
 20
22.7542391797
 11
-17.1662036254
 21
22.7659110794
  0
LINE
  5
31D
100
AcDbEntity
  8
RACCORDO
100
AcDbLine
 62
250
  6
CONTINUOUS
 10
-13.5755661303
 20
23.0871049707
 11
-8.1604690424
 21
23.0970111971
  0
LINE
  5
31E
100
AcDbEntity
  8
RACCORDO
100
AcDbLine
 62
250
  6
CONTINUOUS
 10
-17.1662036254
 20
22.7659110794
 11
-10.2691040879
 21
22.7764862455
  0
LINE
  5
31F
100
AcDbEntity
  8
RACCORDO
100
AcDbLine
 62
250
  6
CONTINUOUS
 10
-10.2691040879
 20
22.7764862455
 11
-4.0807298606
 21
22.7815050625
  0
LINE
  5
320
100
AcDbEntity
  8
RACCORDO
100
AcDbLine
 62
250
  6
CONTINUOUS
 10
-8.1604690424
 20
23.0970111971
 11
-2.7953826009
 21
23.1017641448
  0
LINE
  5
321
100
AcDbEntity
  8
RACCORDO
100
AcDbLine
 62
7
  6
CONTINUOUS
 10
22.101902651
 20
22.6
 11
-22.101902651
 21
22.6
  0
LINE
  5
322
100
AcDbEntity
  8
RACCORDO
100
AcDbLine
 62
250
  6
CONTINUOUS
 10
-2.7953826009
 20
23.1017641448
 11
3.8073726042
 21
23.1012370569
  0
LINE
  5
323
100
AcDbEntity
  8
RACCORDO
100
AcDbLine
 62
250
  6
CONTINUOUS
 10
-4.0807298606
 20
22.7815050625
 11
5.6154373006
 21
22.7806738033
  0
LINE
  5
324
100
AcDbEntity
  8
RACCORDO
100
AcDbLine
 62
250
  6
CONTINUOUS
 10
5.6154373006
 20
22.7806738033
 11
11.0929425935
 21
22.7754809801
  0
LINE
  5
325
100
AcDbEntity
  8
RACCORDO
100
AcDbLine
 62
250
  6
CONTINUOUS
 10
3.8073726042
 20
23.1012370569
 11
8.4842589432
 21
23.0965622339
  0
LINE
  5
326
100
AcDbEntity
  8
RACCORDO
100
AcDbLine
 62
250
  6
CONTINUOUS
 10
11.0929425935
 20
22.7754809801
 11
17.1153849608
 21
22.7660058142
  0
LINE
  5
327
100
AcDbEntity
  8
RACCORDO
100
AcDbLine
 62
250
  6
CONTINUOUS
 10
8.4842589432
 20
23.0965622339
 11
13.3608590742
 21
23.0875802713
  0
LINE
  5
328
100
AcDbEntity
  8
RACCORDO
100
AcDbLine
 62
250
  6
CONTINUOUS
 10
17.1153849608
 20
22.7660058142
 11
21.5210783956
 21
22.7564129099
  0
LINE
  5
329
100
AcDbEntity
  8
RACCORDO
100
AcDbLine
 62
250
  6
CONTINUOUS
 10
13.3608590742
 20
23.0875802713
 11
22.2670774833
 21
23.065883748
  0
LINE
  5
32A
100
AcDbEntity
  8
RACCORDO
100
AcDbLine
 62
250
  6
CONTINUOUS
 10
21.5210783956
 20
22.7564129099
 11
22.2561418307
 21
22.7542391797
  0
LINE
  5
32B
100
AcDbEntity
  8
RACCORDO
100
AcDbLine
 62
250
  6
CONTINUOUS
 10
-23.0658100897
 20
22.2671948238
 11
-23.0049860377
 21
22.2668671748
  0
LWPOLYLINE
  5
32C
100
AcDbEntity
  8
RACCORDO
100
AcDbPolyline
 62
250
  6
CONTINUOUS
 90
13
 70
0
 10
-23.0049860377
 20
22.2668671748
 10
-22.9461479431
 20
22.2660980045
 10
-22.9182380856
 20
22.2655570861
 10
-22.8917229121
 20
22.2649190497
 10
-22.8668765663
 20
22.264190493
 10
-22.8439559294
 20
22.2633789495
 10
-22.8231979601
 20
22.2624928102
 10
-22.8048172779
 20
22.2615412382
 10
-22.7890038983
 20
22.260534072
 10
-22.7759212771
 20
22.2594817229
 10
-22.7657046739
 20
22.2583950704
 10
-22.7584597333
 20
22.2572853506
 10
-22.7542613644
 20
22.2561640372
  0
LWPOLYLINE
  5
32D
100
AcDbEntity
  8
RACCORDO
100
AcDbPolyline
 62
250
  6
CONTINUOUS
 90
25
 70
0
 10
22.2561417942
 20
22.7542391432
 10
22.2885858836
 20
22.7531716184
 10
22.3207589336
 20
22.7500216032
 10
22.3525302351
 20
22.7448260089
 10
22.3837293165
 20
22.7376420118
 10
22.414279451
 20
22.7285153609
 10
22.4441897856
 20
22.7174521521
 10
22.4733824711
 20
22.7044732964
 10
22.5016911463
 20
22.6896448052
 10
22.5289896477
 20
22.673028715
 10
22.555175519
 20
22.6546843112
 10
22.5801308627
 20
22.634691941
 10
22.6037192692
 20
22.6131642834
 10
22.6258273948
 20
22.5902185891
 10
22.6463957411
 20
22.5659321345
 10
22.6653763015
 20
22.5403660278
 10
22.6826031279
 20
22.5137673088
 10
22.6981091199
 20
22.4861083143
 10
22.712054652
 20
22.4569875128
 10
22.7243518671
 20
22.4262881802
 10
22.7347486114
 20
22.3942818832
 10
22.7430771953
 20
22.3611252421
 10
22.7491925625
 20
22.3269623924
 10
22.7529633959
 20
22.2919217879
 10
22.7542613541
 20
22.2561640051
  0
LWPOLYLINE
  5
32E
100
AcDbEntity
  8
RACCORDO
100
AcDbPolyline
 62
250
  6
CONTINUOUS
 90
25
 70
0
 10
22.2670774833
 20
23.065883748
 10
22.3192998927
 20
23.0639203719
 10
22.3706914748
 20
23.0587669178
 10
22.4212522476
 20
23.0504234031
 10
22.47110868
 20
23.0388355089
 10
22.5201343437
 20
23.0240575936
 10
22.5679499078
 20
23.006252688
 10
22.6146194664
 20
22.9853792661
 10
22.6600789618
 20
22.9614788894
 10
22.7037568244
 20
22.9348392086
 10
22.7456408868
 20
22.9054070178
 10
22.7857433375
 20
22.8732355435
 10
22.8235291226
 20
22.8387720668
 10
22.8589332682
 20
22.8020258463
 10
22.8920207475
 20
22.7629876227
 10
22.9224514099
 20
22.7220768826
 10
22.9501517787
 20
22.6795459668
 10
22.9751953112
 20
22.6351425156
 10
22.9974622525
 20
22.5885289598
 10
23.0171610266
 20
22.5393914751
 10
23.0340831984
 20
22.4880438758
 10
23.0474837144
 20
22.4350900408
 10
23.0571142062
 20
22.3807312465
 10
23.0632230036
 20
22.3247661794
 10
23.0658100897
 20
22.2671948232
  0
LWPOLYLINE
  5
32F
100
AcDbEntity
  8
0
100
AcDbPolyline
 62
7
  6
CONTINUOUS
 90
10
 70
0
 43
0.3500000006
 10
47.2000008087
 20
1.0714289017
 10
47.8428587952
 20
0.4285709152
 10
48.7000012665
 20
-0.0000003204
 10
49.7714282227
 20
-0.0000003204
 10
50.2000017242
 20
0.4285709152
 10
50.2000017242
 20
1.0714289017
 10
49.7714282227
 20
1.5000001373
 10
48.9142857513
 20
1.5000001373
 10
48.4857122498
 20
1.0714289017
 10
48.4857122498
 20
0.1428575134
  0
LWPOLYLINE
  5
330
100
AcDbEntity
  8
0
100
AcDbPolyline
 62
7
  6
CONTINUOUS
 90
13
 70
0
 43
0.3500000006
 10
48.4857122498
 20
-1.9285708809
 10
48.2714277649
 20
-2.2142854156
 10
47.6285697784
 20
-2.2142854156
 10
47.2000008087
 20
-1.9285708809
 10
47.2000008087
 20
-1.2857140274
 10
47.6285697784
 20
-1.0000006256
 10
48.2714277649
 20
-1.0000006256
 10
48.4857122498
 20
-1.2857140274
 10
48.9142857513
 20
-0.8571427917
 10
49.7714282227
 20
-0.8571427917
 10
50.2000017242
 20
-1.2857140274
 10
50.2000017242
 20
-1.9285708809
 10
49.7714282227
 20
-2.3571432495
  0
LINE
  5
331
100
AcDbEntity
  8
ASSI
100
AcDbLine
 62
250
  6
CONTINUOUS
 10
42.450931626
 20
42.133962422
 11
42.4704536041
 21
41.6431073035
  0
LWPOLYLINE
  5
332
100
AcDbEntity
  8
ASSI
100
AcDbPolyline
 62
250
  6
CONTINUOUS
 90
22
 70
0
 10
42.9091084625
 20
42.1093826025
 10
42.9068773091
 20
42.1691338904
 10
42.9001892294
 20
42.2285535961
 10
42.8890803933
 20
42.2873100088
 10
42.873611469
 20
42.345075164
 10
42.8538678174
 20
42.4015259472
 10
42.8299592741
 20
42.456345986
 10
42.8020182045
 20
42.5092291763
 10
42.770200029
 20
42.5598788795
 10
42.7346836686
 20
42.6080092952
 10
42.6956670279
 20
42.6533515072
 10
42.6533681023
 20
42.6956512409
 10
42.6080264619
 20
42.7346688898
 10
42.5598964711
 20
42.7701863361
 10
42.5092469127
 20
42.802005732
 10
42.4563631704
 20
42.8299482993
 10
42.401541732
 20
42.8538585175
 10
42.3450887601
 20
42.8736038223
 10
42.2873204946
 20
42.8890742517
 10
42.2285600148
 20
42.9001842703
 10
42.1691353571
 20
42.9068730186
 10
42.1093782903
 20
42.9091041503
  0
LINE
  5
333
100
AcDbEntity
  8
ASSI
100
AcDbLine
 62
250
  6
CONTINUOUS
 10
42.4704536041
 20
41.6431073035
 11
42.4870274259
 21
41.153125716
  0
LINE
  5
334
100
AcDbEntity
  8
ASSI
100
AcDbLine
 62
250
  6
CONTINUOUS
 10
42.4870274259
 20
41.153125716
 11
42.5007721712
 21
40.6641782456
  0
LINE
  5
335
100
AcDbEntity
  8
ASSI
100
AcDbLine
 62
250
  6
CONTINUOUS
 10
42.5007721712
 20
40.6641782456
 11
42.5119861905
 21
40.1778568982
  0
LINE
  5
336
100
AcDbEntity
  8
ASSI
100
AcDbLine
 62
250
  6
CONTINUOUS
 10
42.5119861905
 20
40.1778568982
 11
42.5249337024
 21
39.441939223
  0
LWPOLYLINE
  5
337
100
AcDbEntity
  8
ASSI
100
AcDbPolyline
 62
250
  6
CONTINUOUS
 90
3
 70
0
 10
42.1327731271
 20
42.5697746909
 10
42.1338585653
 20
42.49110655
 10
42.1341608846
 20
42.4508328912
  0
LINE
  5
338
100
AcDbEntity
  8
ASSI
100
AcDbLine
 62
250
  6
CONTINUOUS
 10
42.5249337024
 20
39.441939223
 11
42.5342137243
 21
38.6727480686
  0
LINE
  5
339
100
AcDbEntity
  8
ASSI
100
AcDbLine
 62
250
  6
CONTINUOUS
 10
42.5342137243
 20
38.6727480686
 11
42.5406772896
 21
37.8293569886
  0
LINE
  5
33A
100
AcDbEntity
  8
ASSI
100
AcDbLine
 62
250
  6
CONTINUOUS
 10
42.5406772896
 20
37.8293569886
 11
42.5461667141
 21
36.5446525675
  0
LINE
  5
33B
100
AcDbEntity
  8
ASSI
100
AcDbLine
 62
250
  6
CONTINUOUS
 10
42.5461667141
 20
36.5446525675
 11
42.5508194032
 21
34.3093231901
  0
LWPOLYLINE
  5
33C
100
AcDbEntity
  8
ASSI
100
AcDbPolyline
 62
250
  6
CONTINUOUS
 90
3
 70
0
 10
42.5508194032
 20
34.3093231901
 10
42.5527384836
 20
32.6205486899
 10
42.5842715106
 20
21.650311822
  0
LINE
  5
33D
100
AcDbEntity
  8
ASSI
100
AcDbLine
 62
250
  6
CONTINUOUS
 10
42.5842715106
 20
21.650311822
 11
42.5888219917
 21
18.5957582899
  0
LINE
  5
33E
100
AcDbEntity
  8
ASSI
100
AcDbLine
 62
250
  6
CONTINUOUS
 10
42.5888219917
 20
18.5957582899
 11
42.5913158595
 21
14.303088228
  0
LINE
  5
33F
100
AcDbEntity
  8
ASSI
100
AcDbLine
 62
7
  6
CONTINUOUS
 10
42.95
 20
-42.15027414
 11
42.95
 21
42.15027414
  0
LINE
  5
340
100
AcDbEntity
  8
ASSI
100
AcDbLine
 62
250
  6
CONTINUOUS
 10
42.5913158595
 20
14.303088228
 11
42.5913721578
 21
-14.0154981305
  0
LINE
  5
341
100
AcDbEntity
  8
ASSI
100
AcDbLine
 62
250
  6
CONTINUOUS
 10
42.5913721578
 20
-14.0154981305
 11
42.589226995
 21
-18.187590521
  0
LINE
  5
342
100
AcDbEntity
  8
ASSI
100
AcDbLine
 62
250
  6
CONTINUOUS
 10
42.9091087523
 20
42.1093828924
 11
42.9091078251
 21
-42.1093819651
  0
LINE
  5
343
100
AcDbEntity
  8
ASSI
100
AcDbLine
 62
250
  6
CONTINUOUS
 10
42.589226995
 20
-18.187590521
 11
42.5838545706
 21
-21.8558390968
  0
LINE
  5
344
100
AcDbEntity
  8
ASSI
100
AcDbLine
 62
250
  6
CONTINUOUS
 10
42.5838545706
 20
-21.8558390968
 11
42.5770582974
 21
-24.4672480616
  0
LINE
  5
345
100
AcDbEntity
  8
ASSI
100
AcDbLine
 62
250
  6
CONTINUOUS
 10
42.5770582974
 20
-24.4672480616
 11
42.5686023072
 21
-26.8224858695
  0
LINE
  5
346
100
AcDbEntity
  8
ASSI
100
AcDbLine
 62
250
  6
CONTINUOUS
 10
42.5686023072
 20
-26.8224858695
 11
42.5429836483
 21
-37.3915107788
  0
LINE
  5
347
100
AcDbEntity
  8
ASSI
100
AcDbLine
 62
250
  6
CONTINUOUS
 10
42.5429836483
 20
-37.3915107788
 11
42.536147158
 21
-38.4610112855
  0
LWPOLYLINE
  5
348
100
AcDbEntity
  8
ASSI
100
AcDbPolyline
 62
250
  6
CONTINUOUS
 90
18
 70
0
 10
42.1341612819
 20
-42.4508325985
 10
42.1333953393
 20
-42.5308421835
 10
42.1327734891
 20
-42.5697762989
 10
42.1319975043
 20
-42.6076528205
 10
42.131072498
 20
-42.6442222429
 10
42.1300045623
 20
-42.6792437313
 10
42.1288007325
 20
-42.7124865757
 10
42.1274689409
 20
-42.7437317243
 10
42.1260179614
 20
-42.7727733188
 10
42.124457354
 20
-42.7994200187
 10
42.1227974011
 20
-42.8234962616
 10
42.1210490384
 20
-42.8448434202
 10
42.1192237728
 20
-42.8633209634
 10
42.1173336422
 20
-42.8788069956
 10
42.1153911389
 20
-42.8911992646
 10
42.1134090771
 20
-42.900416265
 10
42.1114005044
 20
-42.9063975651
 10
42.1093786543
 20
-42.9091039595
  0
LINE
  5
349
100
AcDbEntity
  8
ASSI
100
AcDbLine
 62
250
  6
CONTINUOUS
 10
42.536147158
 20
-38.4610112855
 11
42.5276349042
 21
-39.2472436413
  0
LINE
  5
34A
100
AcDbEntity
  8
ASSI
100
AcDbLine
 62
250
  6
CONTINUOUS
 10
42.5276349042
 20
-39.2472436413
 11
42.5196528876
 21
-39.7735020936
  0
LINE
  5
34B
100
AcDbEntity
  8
ASSI
100
AcDbLine
 62
250
  6
CONTINUOUS
 10
42.5196528876
 20
-39.7735020936
 11
42.509342666
 21
-40.3023027798
  0
LINE
  5
34C
100
AcDbEntity
  8
ASSI
100
AcDbLine
 62
250
  6
CONTINUOUS
 10
42.509342666
 20
-40.3023027798
 11
42.496448978
 21
-40.8278115564
  0
LINE
  5
34D
100
AcDbEntity
  8
ASSI
100
AcDbLine
 62
250
  6
CONTINUOUS
 10
42.496448978
 20
-40.8278115564
 11
42.4807344027
 21
-41.3496780057
  0
LWPOLYLINE
  5
34E
100
AcDbEntity
  8
ASSI
100
AcDbPolyline
 62
250
  6
CONTINUOUS
 90
3
 70
0
 10
42.4807344027
 20
-41.3496780057
 10
42.4617003498
 20
-41.8723943228
 10
42.4509588128
 20
-42.1337876298
  0
LWPOLYLINE
  5
34F
100
AcDbEntity
  8
ASSI
100
AcDbPolyline
 62
250
  6
CONTINUOUS
 90
5
 70
0
 10
-42.1347969751
 20
42.450733618
 10
-41.6530384062
 20
42.4699872304
 10
-41.1722745952
 20
42.4869164186
 10
-40.6925657112
 20
42.5015348297
 10
-40.2130868115
 20
42.5136382329
  0
LWPOLYLINE
  5
350
100
AcDbEntity
  8
ASSI
100
AcDbPolyline
 62
250
  6
CONTINUOUS
 90
22
 70
0
 10
-42.1093782903
 20
42.9091041503
 10
-42.1691300225
 20
42.9068734181
 10
-42.2285501689
 20
42.9001857532
 10
-42.2873070183
 20
42.8890773255
 10
-42.3450726063
 20
42.8736088024
 10
-42.4015238175
 20
42.8538655455
 10
-42.4563442784
 20
42.8299573942
 10
-42.5092278848
 20
42.8020167148
 10
-42.5598779984
 20
42.7701989283
 10
-42.6080088193
 20
42.7346829577
 10
-42.6533514314
 20
42.6956667085
 10
-42.695651561
 20
42.6533681769
 10
-42.7346696033
 20
42.6080269343
 10
-42.7701874412
 20
42.5598973454
 10
-42.8020072276
 20
42.5092481936
 10
-42.8299501854
 20
42.4563648648
 10
-42.8538607947
 20
42.4015438478
 10
-42.8736064929
 20
42.3450913045
 10
-42.8890773221
 20
42.2873234735
 10
-42.9001877477
 20
42.2285634332
 10
-42.9068769099
 20
42.16913922
 10
-42.9091084625
 20
42.1093826025
  0
LINE
  5
351
100
AcDbEntity
  8
ASSI
100
AcDbLine
 62
250
  6
CONTINUOUS
 10
-40.2130868115
 20
42.5136382329
 11
-39.2602375151
 21
42.531649137
  0
LWPOLYLINE
  5
352
100
AcDbEntity
  8
ASSI
100
AcDbPolyline
 62
250
  6
CONTINUOUS
 90
3
 70
0
 10
-42.5698729312
 20
42.132437964
 10
-42.4912217726
 20
42.1335083719
 10
-42.450955841
 20
42.1338067358
  0
LINE
  5
353
100
AcDbEntity
  8
ASSI
100
AcDbLine
 62
250
  6
CONTINUOUS
 10
-39.2602375151
 20
42.531649137
 11
-38.3272790168
 21
42.5431542651
  0
LINE
  5
354
100
AcDbEntity
  8
ASSI
100
AcDbLine
 62
250
  6
CONTINUOUS
 10
-38.3272790168
 20
42.5431542651
 11
-37.3986378259
 21
42.5504054252
  0
LINE
  5
355
100
AcDbEntity
  8
ASSI
100
AcDbLine
 62
250
  6
CONTINUOUS
 10
-37.3986378259
 20
42.5504054252
 11
-35.9820116673
 21
42.5560253458
  0
LINE
  5
356
100
AcDbEntity
  8
ASSI
100
AcDbLine
 62
250
  6
CONTINUOUS
 10
-23.1659529572
 20
42.5809481248
 11
-19.7001254333
 21
42.5875284624
  0
LINE
  5
357
100
AcDbEntity
  8
ASSI
100
AcDbLine
 62
250
  6
CONTINUOUS
 10
-31.0606053194
 20
42.5586674588
 11
-23.1659529572
 21
42.5809481248
  0
LINE
  5
358
100
AcDbEntity
  8
ASSI
100
AcDbLine
 62
250
  6
CONTINUOUS
 10
-35.9820116673
 20
42.5560253458
 11
-34.4759136027
 21
42.5582306483
  0
LINE
  5
359
100
AcDbEntity
  8
ASSI
100
AcDbLine
 62
250
  6
CONTINUOUS
 10
-19.7001254333
 20
42.5875284624
 11
-15.8545514016
 21
42.5908116385
  0
LINE
  5
35A
100
AcDbEntity
  8
ASSI
100
AcDbLine
 62
250
  6
CONTINUOUS
 10
33.4550764184
 20
42.9061116556
 11
42.1093785134
 21
42.9091043734
  0
LINE
  5
35B
100
AcDbEntity
  8
ASSI
100
AcDbLine
 62
7
  6
CONTINUOUS
 10
42.15027414
 20
42.95
 11
-42.15027414
 21
42.95
  0
LINE
  5
35C
100
AcDbEntity
  8
ASSI
100
AcDbLine
 62
250
  6
CONTINUOUS
 10
-34.4759136027
 20
42.5582306483
 11
-31.0606053194
 21
42.5586674588
  0
LINE
  5
35D
100
AcDbEntity
  8
ASSI
100
AcDbLine
 62
250
  6
CONTINUOUS
 10
-15.8545514016
 20
42.5908116385
 11
-1.4144878867
 21
42.5904220656
  0
LINE
  5
35E
100
AcDbEntity
  8
ASSI
100
AcDbLine
 62
250
  6
CONTINUOUS
 10
-1.4144878867
 20
42.5904220656
 11
14.8715038458
 21
42.5911739615
  0
LINE
  5
35F
100
AcDbEntity
  8
ASSI
100
AcDbLine
 62
250
  6
CONTINUOUS
 10
14.8715038458
 20
42.5911739615
 11
19.3333959131
 21
42.5879976808
  0
LINE
  5
360
100
AcDbEntity
  8
ASSI
100
AcDbLine
 62
250
  6
CONTINUOUS
 10
-42.1093824756
 20
42.9091083356
 11
33.4550764184
 21
42.9061116556
  0
LINE
  5
361
100
AcDbEntity
  8
ASSI
100
AcDbLine
 62
250
  6
CONTINUOUS
 10
19.3333959131
 20
42.5879976808
 11
22.5176160773
 21
42.582501539
  0
LINE
  5
362
100
AcDbEntity
  8
ASSI
100
AcDbLine
 62
250
  6
CONTINUOUS
 10
29.1959743587
 20
42.5617405999
 11
34.889980595
 21
42.5578847477
  0
LINE
  5
363
100
AcDbEntity
  8
ASSI
100
AcDbLine
 62
250
  6
CONTINUOUS
 10
34.889980595
 20
42.5578847477
 11
36.2835341966
 21
42.5551565572
  0
LINE
  5
364
100
AcDbEntity
  8
ASSI
100
AcDbLine
 62
250
  6
CONTINUOUS
 10
22.5176160773
 20
42.582501539
 11
26.0689734166
 21
42.5719481626
  0
LINE
  5
365
100
AcDbEntity
  8
ASSI
100
AcDbLine
 62
250
  6
CONTINUOUS
 10
26.0689734166
 20
42.5719481626
 11
29.1959743587
 21
42.5617405999
  0
LINE
  5
366
100
AcDbEntity
  8
ASSI
100
AcDbLine
 62
250
  6
CONTINUOUS
 10
36.2835341966
 20
42.5551565572
 11
37.5968830207
 21
42.5490054614
  0
LINE
  5
367
100
AcDbEntity
  8
ASSI
100
AcDbLine
 62
250
  6
CONTINUOUS
 10
37.5968830207
 20
42.5490054614
 11
38.4001190996
 21
42.5424711772
  0
LWPOLYLINE
  5
368
100
AcDbEntity
  8
ASSI
100
AcDbPolyline
 62
250
  6
CONTINUOUS
 90
18
 70
0
 10
42.4509557992
 20
42.133806794
 10
42.5309481827
 20
42.133051166
 10
42.5698731707
 20
42.1324380169
 10
42.6077404346
 20
42.1316730203
 10
42.6443005787
 20
42.1307612148
 10
42.6793128245
 20
42.1297086053
 10
42.7125465778
 20
42.1285221244
 10
42.743782949
 20
42.1272095867
 10
42.7728162084
 20
42.1257796369
 10
42.7994551363
 20
42.1242416929
 10
42.8235242827
 20
42.122605884
 10
42.8448651227
 20
42.1208829839
 10
42.8633371179
 20
42.1190843382
 10
42.878818584
 20
42.1172217948
 10
42.8912075235
 20
42.115307627
 10
42.900422361
 20
42.1133544441
 10
42.9064024497
 20
42.1113751085
 10
42.9091084338
 20
42.1093826565
  0
LINE
  5
369
100
AcDbEntity
  8
ASSI
100
AcDbLine
 62
250
  6
CONTINUOUS
 10
38.4001190996
 20
42.5424711772
 11
39.1402774922
 21
42.5334252347
  0
LINE
  5
36A
100
AcDbEntity
  8
ASSI
100
AcDbLine
 62
250
  6
CONTINUOUS
 10
39.1402774922
 20
42.5334252347
 11
39.8273888532
 21
42.5217717249
  0
LINE
  5
36B
100
AcDbEntity
  8
ASSI
100
AcDbLine
 62
250
  6
CONTINUOUS
 10
39.8273888532
 20
42.5217717249
 11
40.4656301011
 21
42.5075115427
  0
LINE
  5
36C
100
AcDbEntity
  8
ASSI
100
AcDbLine
 62
250
  6
CONTINUOUS
 10
40.4656301011
 20
42.5075115427
 11
41.0602983297
 21
42.4907382249
  0
LINE
  5
36D
100
AcDbEntity
  8
ASSI
100
AcDbLine
 62
250
  6
CONTINUOUS
 10
41.0602983297
 20
42.4907382249
 11
41.6160693949
 21
42.4717979533
  0
LINE
  5
36E
100
AcDbEntity
  8
ASSI
100
AcDbLine
 62
250
  6
CONTINUOUS
 10
41.6160693949
 20
42.4717979533
 11
42.1343982063
 21
42.450795851
  0
LWPOLYLINE
  5
36F
100
AcDbEntity
  8
0
100
AcDbPolyline
 62
7
  6
CONTINUOUS
 90
13
 70
0
 43
0.3500000006
 10
-1.9285714102
 20
53.4142868042
 10
-2.2142856617
 20
53.6285712891
 10
-2.2142856617
 20
54.2714292755
 10
-1.9285714102
 20
54.6999982452
 10
-1.2857142735
 20
54.6999982452
 10
-1.0000000219
 20
54.2714292755
 10
-1.0000000219
 20
53.6285712891
 10
-1.2857142735
 20
53.4142868042
 10
-0.8571428254
 20
52.9857133026
 10
-0.8571428254
 20
52.1285708313
 10
-1.2857142735
 20
51.7000018616
 10
-1.9285714102
 20
51.7000018616
 10
-2.3571427875
 20
52.1285708313
  0
LWPOLYLINE
  5
370
100
AcDbEntity
  8
ASSI
100
AcDbPolyline
 62
250
  6
CONTINUOUS
 90
22
 70
0
 10
42.450931626
 20
42.133962422
 10
42.4490643375
 20
42.1567868655
 10
42.445556148
 20
42.1793310488
 10
42.4404064985
 20
42.2015944743
 10
42.4335651523
 20
42.2237022036
 10
42.4250811982
 20
42.2455281489
 10
42.415103182
 20
42.2666952149
 10
42.4036067129
 20
42.2871876409
 10
42.3906153543
 20
42.3070204954
 10
42.3763498888
 20
42.3258632441
 10
42.3607892733
 20
42.3437003584
 10
42.343954214
 20
42.3605471643
 10
42.3261284943
 20
42.3761197917
 10
42.3072967707
 20
42.3903976254
 10
42.2874746054
 20
42.4034016451
 10
42.2669925175
 20
42.4149107547
 10
42.2458323329
 20
42.424902018
 10
42.2240129237
 20
42.4333992402
 10
42.2019206924
 20
42.4402517477
 10
42.1796848293
 20
42.4454097616
 10
42.1571771694
 20
42.4489242659
 10
42.1343982063
 20
42.450795851
  0
LWPOLYLINE
  5
371
100
AcDbEntity
  8
ASSI
100
AcDbPolyline
 62
250
  6
CONTINUOUS
 90
22
 70
0
 10
-42.1347969751
 20
42.450733618
 10
-42.1573966431
 20
42.4488900398
 10
-42.1797696622
 20
42.4453967457
 10
-42.2019155338
 20
42.4402531433
 10
-42.2239771984
 20
42.4334059917
 10
-42.2458106719
 20
42.4249073127
 10
-42.2669852008
 20
42.4149145332
 10
-42.2874671949
 20
42.4034061054
 10
-42.3072895488
 20
42.3904027102
 10
-42.3261215618
 20
42.3761254369
 10
-42.3439476239
 20
42.3605533159
 10
-42.3607831264
 20
42.3437069524
 10
-42.3763442492
 20
42.3258701793
 10
-42.3906102758
 20
42.3070277187
 10
-42.4036022593
 20
42.2871950511
 10
-42.4150994104
 20
42.2667025301
 10
-42.4250772099
 20
42.2455415154
 10
-42.4335610049
 20
42.2237213402
 10
-42.4404051066
 20
42.201599631
 10
-42.4455613748
 20
42.1792959809
 10
-42.4490790912
 20
42.1566918146
 10
-42.4509588132
 20
42.1337876274
  0
LWPOLYLINE
  5
372
100
AcDbEntity
  8
ASSI
100
AcDbPolyline
 62
250
  6
CONTINUOUS
 90
16
 70
0
 10
42.9091084625
 20
-42.1093826025
 10
42.9064024317
 20
-42.1113750757
 10
42.900422249
 20
-42.113354426
 10
42.8912073013
 20
-42.1153076171
 10
42.8788182802
 20
-42.1172217848
 10
42.8633367824
 20
-42.119084322
 10
42.8448647722
 20
-42.1208829616
 10
42.8235239103
 20
-42.1226058576
 10
42.7994547519
 20
-42.1242416624
 10
42.7728158215
 20
-42.1257796025
 10
42.7437825685
 20
-42.1272095485
 10
42.712546212
 20
-42.1285220826
 10
42.679312481
 20
-42.1297085601
 10
42.6443002596
 20
-42.1307611668
 10
42.6077401456
 20
-42.1316729698
 10
42.5698729312
 20
-42.132437964
  0
LWPOLYLINE
  5
373
100
AcDbEntity
  8
ASSI
100
AcDbPolyline
 62
250
  6
CONTINUOUS
 90
16
 70
0
 10
42.1093782903
 20
42.9091041503
 10
42.1114002839
 20
42.9063974438
 10
42.1134089558
 20
42.9004155165
 10
42.115391072
 20
42.8911977799
 10
42.1173335737
 20
42.8788049646
 10
42.1192236629
 20
42.8633187194
 10
42.1210488872
 20
42.8448410744
 10
42.1227972212
 20
42.8234937676
 10
42.1244571463
 20
42.7994174434
 10
42.1260177264
 20
42.7727707256
 10
42.1274686798
 20
42.743729173
 10
42.1288004472
 20
42.7124841221
 10
42.1300042544
 20
42.6792414264
 10
42.1310721704
 20
42.644220101
 10
42.1319971593
 20
42.607650879
 10
42.1327731271
 20
42.5697746909
  0
LINE
  5
374
100
AcDbEntity
  8
ASSI
100
AcDbLine
 62
7
  6
CONTINUOUS
 10
-67.4338323149
 20
-42.9051008813
 11
-65.7192041483
 21
-42.95
  0
LWPOLYLINE
  5
375
100
AcDbEntity
  8
ASSI
100
AcDbPolyline
 62
250
  6
CONTINUOUS
 90
19
 70
0
 10
-65.7192040245
 20
-42.1528974414
 10
-65.6059863742
 20
-42.1408566984
 10
-65.4921846554
 20
-42.1257214735
 10
-65.3779065817
 20
-42.1074917665
 10
-65.2635495756
 20
-42.0863181153
 10
-65.1489420103
 20
-42.0620499821
 10
-65.0333635246
 20
-42.0342357532
 10
-64.9165017102
 20
-42.0027613914
 10
-64.7989872954
 20
-41.9677409339
 10
-64.6815303975
 20
-41.9290648792
 10
-64.5638139027
 20
-41.886415871
 10
-64.4464950064
 20
-41.8401112656
 10
-64.3316529259
 20
-41.7909936309
 10
-64.2193021379
 20
-41.7388105177
 10
-64.1095917711
 20
-41.6838143752
 10
-64.0045981792
 20
-41.6276051191
 10
-63.9049228696
 20
-41.5707160545
 10
-63.8098176412
 20
-41.5126138763
 10
-63.7192042297
 20
-41.4532985845
  0
LINE
  5
376
100
AcDbEntity
  8
ASSI
100
AcDbLine
 62
250
  6
CONTINUOUS
 10
-67.7520935587
 20
-42.1330511107
 11
-67.7653615873
 21
-42.1338067358
  0
LINE
  5
377
100
AcDbEntity
  8
ASSI
100
AcDbLine
 62
250
  6
CONTINUOUS
 10
-67.2807889626
 20
-42.1093826025
 11
-67.7520935587
 21
-42.1330511107
  0
LINE
  5
378
100
AcDbEntity
  8
ASSI
100
AcDbLine
 62
250
  6
CONTINUOUS
 10
-67.280813305
 20
-42.1093819651
 11
-65.7192041483
 21
-42.15027414
  0
LINE
  5
379
100
AcDbEntity
  8
0
100
AcDbLine
 62
7
  6
CONTINUOUS
 10
-71.683891327
 20
-27.9801797807
 11
-71.7544325566
 21
-27.9801797807
  0
LINE
  5
37A
100
AcDbEntity
  8
0
100
AcDbLine
 62
250
  6
CONTINUOUS
 10
-71.7700897979
 20
-27.3036609179
 11
-71.84054577
 21
-27.3036609179
  0
LINE
  5
37B
100
AcDbEntity
  8
0
100
AcDbLine
 62
7
  6
CONTINUOUS
 10
-71.8289562111
 20
-26.8133253901
 11
-71.8993716602
 21
-26.8133253901
  0
LINE
  5
37C
100
AcDbEntity
  8
0
100
AcDbLine
 62
7
  6
CONTINUOUS
 10
-71.830652018
 20
-26.7985541322
 11
-71.9010663606
 21
-26.7985541322
  0
LINE
  5
37D
100
AcDbEntity
  8
0
100
AcDbLine
 62
250
  6
CONTINUOUS
 10
-71.9645930202
 20
-25.5359677442
 11
-72.0349078748
 21
-25.5359677442
  0
LINE
  5
37E
100
AcDbEntity
  8
RACCORDO
100
AcDbLine
 62
250
  6
CONTINUOUS
 10
-71.8555471544
 20
-23.065883748
 11
-71.895255242
 21
-23.0693862435
  0
LINE
  5
37F
100
AcDbEntity
  8
0
100
AcDbLine
 62
7
  6
CONTINUOUS
 10
-71.9749638911
 20
-25.451114715
 11
-72.0452805612
 21
-25.451114715
  0
LINE
  5
380
100
AcDbEntity
  8
RACCORDO
100
AcDbLine
 62
250
  6
CONTINUOUS
 10
-72.0226213097
 20
-23.0826075538
 11
-72.1746310762
 21
-23.1020184236
  0
LWPOLYLINE
  5
381
100
AcDbEntity
  8
RACCORDO
100
AcDbPolyline
 62
250
  6
CONTINUOUS
 90
3
 70
0
 10
-72.1761758447
 20
-23.1022014829
 10
-72.1771367737
 20
-23.1023172506
 10
-72.1774669439
 20
-23.1023657269
  0
LINE
  5
382
100
AcDbEntity
  8
RACCORDO
100
AcDbLine
 62
250
  6
CONTINUOUS
 10
-72.0022872123
 20
-23.0802036035
 11
-72.0226213097
 21
-23.0826075538
  0
LINE
  5
383
100
AcDbEntity
  8
RACCORDO
100
AcDbLine
 62
250
  6
CONTINUOUS
 10
-71.9824587683
 20
-23.0779663185
 11
-72.0022872123
 21
-23.0802036035
  0
LINE
  5
384
100
AcDbEntity
  8
RACCORDO
100
AcDbLine
 62
250
  6
CONTINUOUS
 10
-71.9624578696
 20
-23.0758249483
 11
-71.9824587683
 21
-23.0779663185
  0
LINE
  5
385
100
AcDbEntity
  8
RACCORDO
100
AcDbLine
 62
250
  6
CONTINUOUS
 10
-71.9417941605
 20
-23.0737360096
 11
-71.9624578696
 21
-23.0758249483
  0
LINE
  5
386
100
AcDbEntity
  8
RACCORDO
100
AcDbLine
 62
250
  6
CONTINUOUS
 10
-71.9197399507
 20
-23.0716232694
 11
-71.9417941605
 21
-23.0737360096
  0
LINE
  5
387
100
AcDbEntity
  8
RACCORDO
100
AcDbLine
 62
250
  6
CONTINUOUS
 10
-71.895255242
 20
-23.0693862435
 11
-71.9197399507
 21
-23.0716232694
  0
LINE
  5
388
100
AcDbEntity
  8
RACCORDO
100
AcDbLine
 62
7
  6
CONTINUOUS
 10
-71.9043552106
 20
-22.7824270797
 11
-71.8442559183
 21
-22.7771690729
  0
LINE
  5
389
100
AcDbEntity
  8
RACCORDO
100
AcDbLine
 62
250
  6
CONTINUOUS
 10
-71.8558017312
 20
-22.2671948238
 11
-71.8560715715
 21
-22.2671639891
  0
LWPOLYLINE
  5
38A
100
AcDbEntity
  8
0
100
AcDbPolyline
 62
7
  6
CONTINUOUS
 90
8
 70
0
 10
-72.0452780097
 20
-25.451114715
 10
-72.0452196926
 20
-25.4511600514
 10
-72.0449661463
 20
-25.4519593998
 10
-72.0446036133
 20
-25.4537997266
 10
-72.044138246
 20
-25.456735101
 10
-72.0435638921
 20
-25.4608239829
 10
-72.0428453162
 20
-25.4661579806
 10
-72.0419902863
 20
-25.4729417324
  0
LINE
  5
38B
100
AcDbEntity
  8
ASSI
100
AcDbLine
 62
7
  6
CONTINUOUS
 10
-68.7225096419
 20
40.3894769537
 11
-68.818393069
 21
40.1207972685
  0
LINE
  5
38C
100
AcDbEntity
  8
ASSI
100
AcDbLine
 62
7
  6
CONTINUOUS
 10
-68.6281886985
 20
40.6500708733
 11
-68.7225096419
 21
40.3894769537
  0
LINE
  5
38D
100
AcDbEntity
  8
ASSI
100
AcDbLine
 62
7
  6
CONTINUOUS
 10
-68.490021595
 20
41.0254974687
 11
-68.6281886985
 21
40.6500708733
  0
LINE
  5
38E
100
AcDbEntity
  8
ASSI
100
AcDbLine
 62
7
  6
CONTINUOUS
 10
-68.3565283999
 20
41.3814801094
 11
-68.490021595
 21
41.0254974687
  0
LINE
  5
38F
100
AcDbEntity
  8
ASSI
100
AcDbLine
 62
7
  6
CONTINUOUS
 10
-68.2289266402
 20
41.7158968278
 11
-68.3565283999
 21
41.3814801094
  0
LINE
  5
390
100
AcDbEntity
  8
ASSI
100
AcDbLine
 62
7
  6
CONTINUOUS
 10
-68.1087982657
 20
42.0257580369
 11
-68.2289266402
 21
41.7158968278
  0
LINE
  5
391
100
AcDbEntity
  8
ASSI
100
AcDbLine
 62
7
  6
CONTINUOUS
 10
-67.9987536536
 20
42.3055684572
 11
-68.1087982657
 21
42.0257580369
  0
LINE
  5
392
100
AcDbEntity
  8
ASSI
100
AcDbLine
 62
7
  6
CONTINUOUS
 10
-67.8847590882
 20
42.5915162612
 11
-67.9987536536
 21
42.3055684572
  0
LINE
  5
393
100
AcDbEntity
  8
ASSI
100
AcDbLine
 62
7
  6
CONTINUOUS
 10
-68.0121134102
 20
-42.2717991897
 11
-67.8847580252
 21
-42.5915189087
  0
LINE
  5
394
100
AcDbEntity
  8
ASSI
100
AcDbLine
 62
7
  6
CONTINUOUS
 10
-68.1287280835
 20
-41.9746744518
 11
-68.0121134102
 21
-42.2717991897
  0
LINE
  5
395
100
AcDbEntity
  8
ASSI
100
AcDbLine
 62
7
  6
CONTINUOUS
 10
-68.2547386588
 20
-41.6486962291
 11
-68.1287280835
 21
-41.9746744518
  0
LINE
  5
396
100
AcDbEntity
  8
ASSI
100
AcDbLine
 62
7
  6
CONTINUOUS
 10
-68.3874581297
 20
-41.2995704067
 11
-68.2547386588
 21
-41.6486962291
  0
LINE
  5
397
100
AcDbEntity
  8
ASSI
100
AcDbLine
 62
7
  6
CONTINUOUS
 10
-68.5263320849
 20
-40.9275397563
 11
-68.3874581297
 21
-41.2995704067
  0
LINE
  5
398
100
AcDbEntity
  8
ASSI
100
AcDbLine
 62
7
  6
CONTINUOUS
 10
-68.6221915324
 20
-40.6665195795
 11
-68.5263320849
 21
-40.9275397563
  0
LINE
  5
399
100
AcDbEntity
  8
ASSI
100
AcDbLine
 62
7
  6
CONTINUOUS
 10
-68.7204997716
 20
-40.3950676515
 11
-68.6221915324
 21
-40.6665195795
  0
LINE
  5
39A
100
AcDbEntity
  8
ASSI
100
AcDbLine
 62
7
  6
CONTINUOUS
 10
-68.8211306325
 20
-40.113068656
 11
-68.7204997716
 21
-40.3950676515
  0
LINE
  5
39B
100
AcDbEntity
  8
ASSI
100
AcDbLine
 62
7
  6
CONTINUOUS
 10
-70.0786184421
 20
36.1179969411
 11
-70.1824490058
 21
35.7338536391
  0
LINE
  5
39C
100
AcDbEntity
  8
ASSI
100
AcDbLine
 62
7
  6
CONTINUOUS
 10
-69.9753852947
 20
36.4891248938
 11
-70.0786184421
 21
36.1179969411
  0
LINE
  5
39D
100
AcDbEntity
  8
ASSI
100
AcDbLine
 62
7
  6
CONTINUOUS
 10
-69.8728519827
 20
36.8480018192
 11
-69.9753852947
 21
36.4891248938
  0
LINE
  5
39E
100
AcDbEntity
  8
ASSI
100
AcDbLine
 62
7
  6
CONTINUOUS
 10
-69.7708453334
 20
37.1961982329
 11
-69.8728519827
 21
36.8480018192
  0
LINE
  5
39F
100
AcDbEntity
  8
ASSI
100
AcDbLine
 62
7
  6
CONTINUOUS
 10
-69.6691764302
 20
37.5351509304
 11
-69.7708453334
 21
37.1961982329
  0
LINE
  5
3A0
100
AcDbEntity
  8
ASSI
100
AcDbLine
 62
7
  6
CONTINUOUS
 10
-69.5677768734
 20
37.8657511657
 11
-69.6691764302
 21
37.5351509304
  0
LINE
  5
3A1
100
AcDbEntity
  8
ASSI
100
AcDbLine
 62
7
  6
CONTINUOUS
 10
-69.4663714061
 20
38.1894452115
 11
-69.5677768734
 21
37.8657511657
  0
LINE
  5
3A2
100
AcDbEntity
  8
ASSI
100
AcDbLine
 62
7
  6
CONTINUOUS
 10
-69.3650823749
 20
38.5063137038
 11
-69.4663714061
 21
38.1894452115
  0
LINE
  5
3A3
100
AcDbEntity
  8
ASSI
100
AcDbLine
 62
7
  6
CONTINUOUS
 10
-69.2640503518
 20
38.8163602654
 11
-69.3650823749
 21
38.5063137038
  0
LINE
  5
3A4
100
AcDbEntity
  8
ASSI
100
AcDbLine
 62
7
  6
CONTINUOUS
 10
-69.1635114044
 20
39.1192883394
 11
-69.2640503518
 21
38.8163602654
  0
LINE
  5
3A5
100
AcDbEntity
  8
ASSI
100
AcDbLine
 62
7
  6
CONTINUOUS
 10
-69.063674376
 20
39.4148872935
 11
-69.1635114044
 21
39.1192883394
  0
LINE
  5
3A6
100
AcDbEntity
  8
ASSI
100
AcDbLine
 62
7
  6
CONTINUOUS
 10
-68.9647221093
 20
39.7030208962
 11
-69.063674376
 21
39.4148872935
  0
LWPOLYLINE
  5
3A7
100
AcDbEntity
  8
ASSI
100
AcDbPolyline
 62
7
  6
CONTINUOUS
 90
3
 70
0
 10
-68.818393069
 20
40.1207972685
 10
-68.8668561493
 20
39.9834938988
 10
-68.9647221093
 20
39.7030208962
  0
LINE
  5
3A8
100
AcDbEntity
  8
ASSI
100
AcDbLine
 62
7
  6
CONTINUOUS
 10
-68.9238369384
 20
-39.8207239096
 11
-68.8211306325
 21
-40.113068656
  0
LINE
  5
3A9
100
AcDbEntity
  8
ASSI
100
AcDbLine
 62
7
  6
CONTINUOUS
 10
-69.0283801043
 20
-39.5181985247
 11
-68.9238369384
 21
-39.8207239096
  0
LINE
  5
3AA
100
AcDbEntity
  8
ASSI
100
AcDbLine
 62
7
  6
CONTINUOUS
 10
-69.1344583128
 20
-39.2058319028
 11
-69.0283801043
 21
-39.5181985247
  0
LINE
  5
3AB
100
AcDbEntity
  8
ASSI
100
AcDbLine
 62
7
  6
CONTINUOUS
 10
-69.241764134
 20
-38.8839800356
 11
-69.1344583128
 21
-39.2058319028
  0
LINE
  5
3AC
100
AcDbEntity
  8
ASSI
100
AcDbLine
 62
7
  6
CONTINUOUS
 10
-69.3500267826
 20
-38.5528880113
 11
-69.241764134
 21
-38.8839800356
  0
LINE
  5
3AD
100
AcDbEntity
  8
ASSI
100
AcDbLine
 62
7
  6
CONTINUOUS
 10
-69.4589099206
 20
-38.213002216
 11
-69.3500267826
 21
-38.5528880113
  0
LINE
  5
3AE
100
AcDbEntity
  8
ASSI
100
AcDbLine
 62
7
  6
CONTINUOUS
 10
-69.5681423497
 20
-37.8645723052
 11
-69.4589099206
 21
-38.213002216
  0
LINE
  5
3AF
100
AcDbEntity
  8
ASSI
100
AcDbLine
 62
7
  6
CONTINUOUS
 10
-69.677692818
 20
-37.5070531611
 11
-69.5681423497
 21
-37.8645723052
  0
LINE
  5
3B0
100
AcDbEntity
  8
ASSI
100
AcDbLine
 62
7
  6
CONTINUOUS
 10
-69.7878686976
 20
-37.1386720742
 11
-69.677692818
 21
-37.5070531611
  0
LINE
  5
3B1
100
AcDbEntity
  8
ASSI
100
AcDbLine
 62
7
  6
CONTINUOUS
 10
-69.8991760537
 20
-36.7567443618
 11
-69.7878686976
 21
-37.1386720742
  0
LINE
  5
3B2
100
AcDbEntity
  8
ASSI
100
AcDbLine
 62
7
  6
CONTINUOUS
 10
-70.0117513814
 20
-36.3595542888
 11
-69.8991760537
 21
-36.7567443618
  0
LINE
  5
3B3
100
AcDbEntity
  8
ASSI
100
AcDbLine
 62
7
  6
CONTINUOUS
 10
-71.1739756203
 20
31.2266948514
 11
-71.2248957213
 21
30.9355357263
  0
LINE
  5
3B4
100
AcDbEntity
  8
ASSI
100
AcDbLine
 62
7
  6
CONTINUOUS
 10
-71.1232355561
 20
31.5094194216
 11
-71.1740015476
 21
31.2265484741
  0
LINE
  5
3B5
100
AcDbEntity
  8
ASSI
100
AcDbLine
 62
7
  6
CONTINUOUS
 10
-71.0545368347
 20
31.8805422238
 11
-71.1232355561
 21
31.5094194216
  0
LINE
  5
3B6
100
AcDbEntity
  8
ASSI
100
AcDbLine
 62
7
  6
CONTINUOUS
 10
-70.9978529076
 20
32.1771309969
 11
-71.0545368347
 21
31.8805422238
  0
LINE
  5
3B7
100
AcDbEntity
  8
ASSI
100
AcDbLine
 62
7
  6
CONTINUOUS
 10
-70.9318429908
 20
32.512226473
 11
-70.9978529076
 21
32.1771309969
  0
LINE
  5
3B8
100
AcDbEntity
  8
ASSI
100
AcDbLine
 62
7
  6
CONTINUOUS
 10
-70.8573018348
 20
32.8782202601
 11
-70.9318429908
 21
32.512226473
  0
LINE
  5
3B9
100
AcDbEntity
  8
ASSI
100
AcDbLine
 62
7
  6
CONTINUOUS
 10
-70.7746868253
 20
33.2696616465
 11
-70.8573018348
 21
32.8782202601
  0
LINE
  5
3BA
100
AcDbEntity
  8
ASSI
100
AcDbLine
 62
7
  6
CONTINUOUS
 10
-70.6856631688
 20
33.6761593351
 11
-70.7746868253
 21
33.2696616465
  0
LINE
  5
3BB
100
AcDbEntity
  8
ASSI
100
AcDbLine
 62
7
  6
CONTINUOUS
 10
-70.5914197476
 20
34.0907039514
 11
-70.6856631688
 21
33.6761593351
  0
LINE
  5
3BC
100
AcDbEntity
  8
ASSI
100
AcDbLine
 62
7
  6
CONTINUOUS
 10
-70.492719413
 20
34.5090039576
 11
-70.5914197476
 21
34.0907039514
  0
LINE
  5
3BD
100
AcDbEntity
  8
ASSI
100
AcDbLine
 62
7
  6
CONTINUOUS
 10
-70.3907394874
 20
34.9256987471
 11
-70.492719413
 21
34.5090039576
  0
LINE
  5
3BE
100
AcDbEntity
  8
ASSI
100
AcDbLine
 62
7
  6
CONTINUOUS
 10
-70.2869772801
 20
35.3349938689
 11
-70.3907394874
 21
34.9256987471
  0
LINE
  5
3BF
100
AcDbEntity
  8
ASSI
100
AcDbLine
 62
7
  6
CONTINUOUS
 10
-70.1824490058
 20
35.7338536391
 11
-70.2869772801
 21
35.3349938689
  0
LWPOLYLINE
  5
3C0
100
AcDbEntity
  8
0
100
AcDbPolyline
 62
7
  6
CONTINUOUS
 90
3
 70
0
 43
0.3500000006
 10
-60.048228241
 20
51.9857129974
 10
-60.1196594238
 20
51.7714285126
 10
-60.2625172577
 20
51.4857128448
  0
LWPOLYLINE
  5
3C1
100
AcDbEntity
  8
ASSI
100
AcDbPolyline
 62
7
  6
CONTINUOUS
 90
10
 70
0
 10
-70.5805562379
 20
-34.1375114186
 10
-70.5271170831
 20
-34.3649716429
 10
-70.4720744959
 20
-34.5945851854
 10
-70.4154153763
 20
-34.8262398223
 10
-70.3581073205
 20
-35.0559415039
 10
-70.3002768399
 20
-35.2833069078
 10
-70.2418618792
 20
-35.5087193399
 10
-70.1836520379
 20
-35.7293347017
 10
-70.1260043411
 20
-35.9440974801
 10
-70.0117513814
 20
-36.3595542888
  0
LINE
  5
3C2
100
AcDbEntity
  8
ASSI
100
AcDbLine
 62
7
  6
CONTINUOUS
 10
-70.682043422
 20
-33.6923717865
 11
-70.5805562379
 21
-34.1375114186
  0
LINE
  5
3C3
100
AcDbEntity
  8
ASSI
100
AcDbLine
 62
7
  6
CONTINUOUS
 10
-70.7743813713
 20
-33.2710827631
 11
-70.682043422
 21
-33.6923717865
  0
LINE
  5
3C4
100
AcDbEntity
  8
ASSI
100
AcDbLine
 62
7
  6
CONTINUOUS
 10
-70.8570730292
 20
-32.8793244289
 11
-70.7743813713
 21
-33.2710827631
  0
LINE
  5
3C5
100
AcDbEntity
  8
ASSI
100
AcDbLine
 62
7
  6
CONTINUOUS
 10
-70.9303485198
 20
-32.519690428
 11
-70.8570730292
 21
-32.8793244289
  0
LINE
  5
3C6
100
AcDbEntity
  8
ASSI
100
AcDbLine
 62
7
  6
CONTINUOUS
 10
-70.9947148312
 20
-32.1933066747
 11
-70.9303485198
 21
-32.519690428
  0
LINE
  5
3C7
100
AcDbEntity
  8
ASSI
100
AcDbLine
 62
7
  6
CONTINUOUS
 10
-71.0755486594
 20
-31.7684231017
 11
-70.9947148312
 21
-32.1933066747
  0
LINE
  5
3C8
100
AcDbEntity
  8
ASSI
100
AcDbLine
 62
7
  6
CONTINUOUS
 10
-71.1384847164
 20
-31.4252337623
 11
-71.0755486594
 21
-31.7684231017
  0
LWPOLYLINE
  5
3C9
100
AcDbEntity
  8
0
100
AcDbPolyline
 62
7
  6
CONTINUOUS
 90
3
 70
0
 10
-71.393657593
 20
-29.9689882477
 10
-71.2017202934
 20
-31.0756666456
 10
-71.1869287477
 20
-31.1532901243
  0
LINE
  5
3CA
100
AcDbEntity
  8
ASSI
100
AcDbLine
 62
7
  6
CONTINUOUS
 10
-71.2337464981
 20
-30.8842437725
 11
-71.1384847164
 21
-31.4252337623
  0
LWPOLYLINE
  5
3CB
100
AcDbEntity
  8
0
100
AcDbPolyline
 62
7
  6
CONTINUOUS
 90
3
 70
0
 10
-71.9061648208
 20
-26.7516469914
 10
-71.9051768374
 20
-26.7607808064
 10
-71.9033125179
 20
-26.7774895582
  0
LWPOLYLINE
  5
3CC
100
AcDbEntity
  8
0
100
AcDbPolyline
 62
7
  6
CONTINUOUS
 90
3
 70
0
 10
-71.9033125179
 20
-26.7774895582
 10
-71.9025370955
 20
-26.7847496291
 10
-71.9014267159
 20
-26.7957102532
  0
LINE
  5
3CD
100
AcDbEntity
  8
0
100
AcDbLine
 62
7
  6
CONTINUOUS
 10
-71.8418861023
 20
-26.6961766064
 11
-71.8996217237
 21
-26.1616119569
  0
LINE
  5
3CE
100
AcDbEntity
  8
0
100
AcDbLine
 62
7
  6
CONTINUOUS
 10
-71.9616377561
 20
-25.5638757193
 11
-71.9664230963
 21
-25.519152889
  0
LINE
  5
3CF
100
AcDbEntity
  8
0
100
AcDbLine
 62
7
  6
CONTINUOUS
 10
-71.9808335235
 20
-26.0584231214
 11
-71.9176387372
 21
-26.6475009761
  0
LINE
  5
3D0
100
AcDbEntity
  8
0
100
AcDbLine
 62
7
  6
CONTINUOUS
 10
-72.036737685
 20
-25.5187865259
 11
-72.031858307
 21
-25.5646497906
  0
LWPOLYLINE
  5
3D1
100
AcDbEntity
  8
0
100
AcDbPolyline
 62
7
  6
CONTINUOUS
 90
3
 70
0
 10
-71.830652018
 20
-26.7985541322
 10
-71.8310412149
 20
-26.7948166878
 10
-71.8330317926
 20
-26.7764829763
  0
LINE
  5
3D2
100
AcDbEntity
  8
0
100
AcDbLine
 62
7
  6
CONTINUOUS
 10
-71.8996217237
 20
-26.1616119569
 11
-71.9616377561
 21
-25.5638757193
  0
LINE
  5
3D3
100
AcDbEntity
  8
0
100
AcDbLine
 62
7
  6
CONTINUOUS
 10
-72.031858307
 20
-25.5646497906
 11
-71.9808335235
 21
-26.0584231214
  0
LINE
  5
3D4
100
AcDbEntity
  8
0
100
AcDbLine
 62
7
  6
CONTINUOUS
 10
-72.0435844142
 20
-25.509848184
 11
-72.0057371272
 21
-25.8830850223
  0
LINE
  5
3D5
100
AcDbEntity
  8
0
100
AcDbLine
 62
7
  6
CONTINUOUS
 10
-72.0133841765
 20
-25.7927241543
 11
-72.0416014608
 21
-25.5096494116
  0
LINE
  5
3D6
100
AcDbEntity
  8
0
100
AcDbLine
 62
7
  6
CONTINUOUS
 10
-72.0153081102
 20
-25.09160892
 11
-71.9808337874
 21
-25.4516767222
  0
LWPOLYLINE
  5
3D7
100
AcDbEntity
  8
0
100
AcDbPolyline
 62
7
  6
CONTINUOUS
 90
6
 70
0
 10
-72.1774669439
 20
-23.1023657269
 10
-72.1481554392
 20
-23.5062234046
 10
-72.1173097482
 20
-23.9070765627
 10
-72.0849025826
 20
-24.3049252013
 10
-72.0509093525
 20
-24.6997693204
 10
-72.0153081102
 20
-25.09160892
  0
LWPOLYLINE
  5
3D8
100
AcDbEntity
  8
RACCORDO
100
AcDbPolyline
 62
7
  6
CONTINUOUS
 90
7
 70
0
 10
-72.1774669439
 20
23.1023657269
 10
-72.0593875059
 20
24.6032887481
 10
-71.9187481654
 20
26.0618492081
 10
-71.7546912477
 20
27.4780471068
 10
-71.5682370091
 20
28.8462317286
 10
-71.3599383448
 20
30.1720537892
 10
-71.2237740269
 20
30.9353356236
  0
LWPOLYLINE
  5
3D9
100
AcDbEntity
  8
0
100
AcDbPolyline
 62
7
  6
CONTINUOUS
 90
3
 70
0
 10
-71.6876309375
 20
-27.979918766
 10
-71.5697553229
 20
-28.8358754764
 10
-71.393657593
 20
-29.9689882477
  0
LINE
  5
3DA
100
AcDbEntity
  8
0
100
AcDbLine
 62
7
  6
CONTINUOUS
 10
-71.8021425014
 20
-27.6118085889
 11
-71.7544325566
 21
-27.9801797807
  0
LINE
  5
3DB
100
AcDbEntity
  8
0
100
AcDbLine
 62
7
  6
CONTINUOUS
 10
-71.683891327
 20
-27.9801797807
 11
-71.7317480196
 21
-27.6110347413
  0
LINE
  5
3DC
100
AcDbEntity
  8
0
100
AcDbLine
 62
7
  6
CONTINUOUS
 10
-71.9014267159
 20
-26.7957102532
 11
-71.9010663606
 21
-26.7985541322
  0
LINE
  5
3DD
100
AcDbEntity
  8
0
100
AcDbLine
 62
7
  6
CONTINUOUS
 10
-71.8993716602
 20
-26.8133253901
 11
-71.897887251
 21
-26.8250915106
  0
LINE
  5
3DE
100
AcDbEntity
  8
0
100
AcDbLine
 62
7
  6
CONTINUOUS
 10
-71.7317480196
 20
-27.6110347413
 11
-71.7700898053
 21
-27.3036608576
  0
LWPOLYLINE
  5
3DF
100
AcDbEntity
  8
0
100
AcDbPolyline
 62
7
  6
CONTINUOUS
 90
9
 70
0
 10
-71.9706755992
 20
-25.4813368757
 10
-71.9716766019
 20
-25.4730080611
 10
-71.9725328954
 20
-25.466148349
 10
-71.9732519141
 20
-25.460678668
 10
-71.9738265645
 20
-25.4566780897
 10
-71.9742917332
 20
-25.4537815861
 10
-71.9746533122
 20
-25.4519281901
 10
-71.9749053881
 20
-25.4511788688
 10
-71.9749612413
 20
-25.4511420948
  0
LINE
  5
3E0
100
AcDbEntity
  8
0
100
AcDbLine
 62
7
  6
CONTINUOUS
 10
-71.7700898053
 20
-27.3036608576
 11
-71.8289562111
 21
-26.8133253901
  0
LINE
  5
3E1
100
AcDbEntity
  8
0
100
AcDbLine
 62
7
  6
CONTINUOUS
 10
-71.897887251
 20
-26.8250915106
 11
-71.8021425014
 21
-27.6118085889
  0
LWPOLYLINE
  5
3E2
100
AcDbEntity
  8
0
100
AcDbPolyline
 62
7
  6
CONTINUOUS
 90
3
 70
0
 10
-72.0419902863
 20
-25.4729417324
 10
-72.0383647338
 20
-25.5041057052
 10
-72.036737685
 20
-25.5187865259
  0
LINE
  5
3E3
100
AcDbEntity
  8
0
100
AcDbLine
 62
7
  6
CONTINUOUS
 10
-71.8289562111
 20
-26.8133253901
 11
-71.830652018
 21
-26.7985541322
  0
LINE
  5
3E4
100
AcDbEntity
  8
0
100
AcDbLine
 62
7
  6
CONTINUOUS
 10
-71.9010663606
 20
-26.7985541322
 11
-71.8993716602
 21
-26.8133253901
  0
LINE
  5
3E5
100
AcDbEntity
  8
0
100
AcDbLine
 62
7
  6
CONTINUOUS
 10
-71.9288889866
 20
-26.5928561039
 11
-71.9266895715
 21
-26.6125614446
  0
LWPOLYLINE
  5
3E6
100
AcDbEntity
  8
0
100
AcDbPolyline
 62
7
  6
CONTINUOUS
 90
4
 70
0
 10
-71.9118877605
 20
-26.6998422546
 10
-71.9106300485
 20
-26.711256038
 10
-71.9094391133
 20
-26.722110806
 10
-71.9061648208
 20
-26.7516469914
  0
LWPOLYLINE
  5
3E7
100
AcDbEntity
  8
0
100
AcDbPolyline
 62
7
  6
CONTINUOUS
 90
3
 70
0
 10
-71.9664230963
 20
-25.519152889
 10
-71.9680494744
 20
-25.5044092897
 10
-71.9706755992
 20
-25.4813368757
  0
LWPOLYLINE
  5
3E8
100
AcDbEntity
  8
0
100
AcDbPolyline
 62
7
  6
CONTINUOUS
 90
3
 70
0
 10
-71.9176387372
 20
-26.6475009761
 10
-71.9146009658
 20
-26.6751038084
 10
-71.9118877605
 20
-26.6998422546
  0
LINE
  5
3E9
100
AcDbEntity
  8
0
100
AcDbLine
 62
7
  6
CONTINUOUS
 10
-71.8330317926
 20
-26.7764829763
 11
-71.8418861023
 21
-26.6961766064
  0
LINE
  5
3EA
100
AcDbEntity
  8
RACCORDO
100
AcDbLine
 62
7
  6
CONTINUOUS
 10
-71.8560715719
 20
-22.2671639764
 11
-71.8530769142
 21
-22.3533563492
  0
LINE
  5
3EB
100
AcDbEntity
  8
RACCORDO
100
AcDbLine
 62
250
  6
CONTINUOUS
 10
-71.8919942649
 20
-21.1815708945
 11
-71.8558017312
 21
-22.2671948232
  0
LINE
  5
3EC
100
AcDbEntity
  8
RACCORDO
100
AcDbLine
 62
7
  6
CONTINUOUS
 10
-71.9209273494
 20
-20.1605402991
 11
-71.8560715715
 21
-22.2671639887
  0
LINE
  5
3ED
100
AcDbEntity
  8
RACCORDO
100
AcDbLine
 62
250
  6
CONTINUOUS
 10
-71.9112054992
 20
-20.5140504113
 11
-71.8919942649
 21
-21.1815708945
  0
LINE
  5
3EE
100
AcDbEntity
  8
RACCORDO
100
AcDbLine
 62
7
  6
CONTINUOUS
 10
-71.8530769142
 20
-22.3533563492
 11
-71.8498339902
 21
-22.4616103701
  0
LINE
  5
3EF
100
AcDbEntity
  8
RACCORDO
100
AcDbLine
 62
7
  6
CONTINUOUS
 10
-71.8458448766
 20
22.9536821243
 11
-71.8453201615
 21
22.9356867073
  0
LINE
  5
3F0
100
AcDbEntity
  8
RACCORDO
100
AcDbLine
 62
250
  6
CONTINUOUS
 10
-71.9207520826
 20
-20.1672103376
 11
-71.9198243231
 21
-20.1922221192
  0
LINE
  5
3F1
100
AcDbEntity
  8
RACCORDO
100
AcDbLine
 62
7
  6
CONTINUOUS
 10
-71.9745655604
 20
-17.9030169314
 11
-71.9207520826
 21
-20.1672103376
  0
LINE
  5
3F2
100
AcDbEntity
  8
RACCORDO
100
AcDbLine
 62
7
  6
CONTINUOUS
 10
-71.8500055644
 20
-22.4553868904
 11
-71.8475637813
 21
-22.5527504652
  0
LINE
  5
3F3
100
AcDbEntity
  8
RACCORDO
100
AcDbLine
 62
7
  6
CONTINUOUS
 10
-72.0232416894
 20
-15.567638129
 11
-71.9744212206
 21
-17.9096851392
  0
LINE
  5
3F4
100
AcDbEntity
  8
RACCORDO
100
AcDbLine
 62
7
  6
CONTINUOUS
 10
-71.8453201615
 20
22.9356867073
 11
-71.8448698509
 21
22.9147415044
  0
LINE
  5
3F5
100
AcDbEntity
  8
RACCORDO
100
AcDbLine
 62
7
  6
CONTINUOUS
 10
-71.8478774368
 20
-22.5389944083
 11
-71.8461616057
 21
-22.6216446019
  0
LINE
  5
3F6
100
AcDbEntity
  8
RACCORDO
100
AcDbLine
 62
7
  6
CONTINUOUS
 10
-72.0669199986
 20
-13.1540739499
 11
-72.0231119096
 21
-15.5743111812
  0
LINE
  5
3F7
100
AcDbEntity
  8
RACCORDO
100
AcDbLine
 62
7
  6
CONTINUOUS
 10
-72.1051120531
 20
-10.66242002
 11
-72.0668076348
 21
-13.1607452046
  0
LINE
  5
3F8
100
AcDbEntity
  8
RACCORDO
100
AcDbLine
 62
7
  6
CONTINUOUS
 10
-71.8463288093
 20
-22.612558332
 11
-71.8451327561
 21
-22.6862376526
  0
LINE
  5
3F9
100
AcDbEntity
  8
RACCORDO
100
AcDbLine
 62
7
  6
CONTINUOUS
 10
-71.8448698509
 20
22.9147415044
 11
-71.8445104234
 21
22.8908479855
  0
LINE
  5
3FA
100
AcDbEntity
  8
RACCORDO
100
AcDbLine
 62
7
  6
CONTINUOUS
 10
-72.1362533175
 20
-8.0930193737
 11
-72.1050196141
 21
-10.6690885096
  0
LINE
  5
3FB
100
AcDbEntity
  8
RACCORDO
100
AcDbLine
 62
7
  6
CONTINUOUS
 10
-71.8451992068
 20
-22.6814628144
 11
-71.8444766858
 21
-22.7449397544
  0
LINE
  5
3FC
100
AcDbEntity
  8
RACCORDO
100
AcDbLine
 62
7
  6
CONTINUOUS
 10
-72.1593000995
 20
-5.4460976743
 11
-72.1361841445
 21
-8.0996839248
  0
LINE
  5
3FD
100
AcDbEntity
  8
RACCORDO
100
AcDbLine
 62
250
  6
CONTINUOUS
 10
-71.8440221058
 20
22.9054070178
 11
-71.8445104234
 21
22.8908479855
  0
LWPOLYLINE
  5
3FE
100
AcDbEntity
  8
RACCORDO
100
AcDbPolyline
 62
250
  6
CONTINUOUS
 90
3
 70
0
 10
-71.8443717585
 20
22.877839986
 10
-71.8437446961
 20
22.8732355435
 10
-71.8442631072
 20
22.8641109605
  0
LWPOLYLINE
  5
3FF
100
AcDbEntity
  8
RACCORDO
100
AcDbPolyline
 62
250
  6
CONTINUOUS
 90
4
 70
0
 10
-71.8555471544
 20
23.065883748
 10
-71.8552993936
 20
23.0353731312
 10
-71.8519558593
 20
23.0050459461
 10
-71.8471161719
 20
22.9825049637
  0
LINE
  5
400
100
AcDbEntity
  8
RACCORDO
100
AcDbLine
 62
7
  6
CONTINUOUS
 10
-71.8445104234
 20
22.8908479855
 11
-71.8442631072
 21
22.8641109605
  0
LINE
  5
401
100
AcDbEntity
  8
RACCORDO
100
AcDbLine
 62
7
  6
CONTINUOUS
 10
-72.1735451158
 20
-2.7215473873
 11
-72.1592535458
 21
-5.4527617639
  0
LINE
  5
402
100
AcDbEntity
  8
RACCORDO
100
AcDbLine
 62
250
  6
CONTINUOUS
 10
-71.8441536602
 20
-22.8023761548
 11
-71.8436399138
 21
-22.8236199171
  0
LINE
  5
403
100
AcDbEntity
  8
RACCORDO
100
AcDbLine
 62
7
  6
CONTINUOUS
 10
-71.8444766858
 20
-22.7449397544
 11
-71.8441536602
 21
-22.8023761548
  0
LWPOLYLINE
  5
404
100
AcDbEntity
  8
RACCORDO
100
AcDbPolyline
 62
250
  6
CONTINUOUS
 90
3
 70
0
 10
-71.8441860987
 20
22.8496742346
 10
-71.8436350594
 20
22.8387720668
 10
-71.8441416868
 20
22.8345221585
  0
LINE
  5
405
100
AcDbEntity
  8
RACCORDO
100
AcDbLine
 62
7
  6
CONTINUOUS
 10
-71.8442631072
 20
22.8641109605
 11
-71.8441416868
 21
22.8345221585
  0
LINE
  5
406
100
AcDbEntity
  8
RACCORDO
100
AcDbLine
 62
7
  6
CONTINUOUS
 10
-72.1782673743
 20
-0.0000000001
 11
-72.1735219158
 21
-2.7282122319
  0
LINE
  5
407
100
AcDbEntity
  8
RACCORDO
100
AcDbLine
 62
7
  6
CONTINUOUS
 10
-71.8441536602
 20
-22.8023761548
 11
-71.8441458177
 21
-22.8370180274
  0
LINE
  5
408
100
AcDbEntity
  8
RACCORDO
100
AcDbLine
 62
250
  6
CONTINUOUS
 10
-71.844201004
 20
-22.853200493
 11
-71.8436773686
 21
-22.8590225086
  0
LINE
  5
409
100
AcDbEntity
  8
RACCORDO
100
AcDbLine
 62
7
  6
CONTINUOUS
 10
-71.8441416868
 20
22.8345221585
 11
-71.8442129456
 21
22.7849182629
  0
LINE
  5
40A
100
AcDbEntity
  8
RACCORDO
100
AcDbLine
 62
250
  6
CONTINUOUS
 10
-71.8436956285
 20
22.8020258463
 11
-71.8442129456
 21
22.7849182629
  0
LINE
  5
40B
100
AcDbEntity
  8
RACCORDO
100
AcDbLine
 62
250
  6
CONTINUOUS
 10
-71.8443104228
 20
22.7670484667
 11
-71.8439241325
 21
22.7629876227
  0
LINE
  5
40C
100
AcDbEntity
  8
RACCORDO
100
AcDbLine
 62
7
  6
CONTINUOUS
 10
-71.8441458177
 20
-22.8370180274
 11
-71.8442946364
 21
-22.8685966499
  0
LINE
  5
40D
100
AcDbEntity
  8
RACCORDO
100
AcDbLine
 62
250
  6
CONTINUOUS
 10
-71.8444251972
 20
-22.8832098416
 11
-71.8438827692
 21
-22.8921085403
  0
LWPOLYLINE
  5
40E
100
AcDbEntity
  8
RACCORDO
100
AcDbPolyline
 62
250
  6
CONTINUOUS
 90
4
 70
0
 10
-71.8555471544
 20
-23.065883748
 10
-71.8552994257
 20
-23.0353736799
 10
-71.8519560205
 20
-23.005046943
 10
-71.8471141716
 20
-22.9824954561
  0
LINE
  5
40F
100
AcDbEntity
  8
RACCORDO
100
AcDbLine
 62
250
  6
CONTINUOUS
 10
-72.1592535458
 20
5.4527617639
 11
-72.1592482768
 21
5.3533386859
  0
LINE
  5
410
100
AcDbEntity
  8
RACCORDO
100
AcDbLine
 62
7
  6
CONTINUOUS
 10
-71.8442129456
 20
22.7849182629
 11
-71.8446228493
 21
22.7293847709
  0
LINE
  5
411
100
AcDbEntity
  8
RACCORDO
100
AcDbLine
 62
7
  6
CONTINUOUS
 10
-71.8442946364
 20
-22.8685966499
 11
-71.8445904845
 21
-22.8970336204
  0
LINE
  5
412
100
AcDbEntity
  8
RACCORDO
100
AcDbLine
 62
250
  6
CONTINUOUS
 10
-71.8447871352
 20
-22.9100282458
 11
-71.8442533621
 21
-22.9225378365
  0
LINE
  5
413
100
AcDbEntity
  8
RACCORDO
100
AcDbLine
 62
7
  6
CONTINUOUS
 10
-71.8446228493
 20
22.7293847709
 11
-71.8453876046
 21
22.6683041053
  0
LINE
  5
414
100
AcDbEntity
  8
RACCORDO
100
AcDbLine
 62
250
  6
CONTINUOUS
 10
-71.8448691408
 20
22.6795459668
 11
-71.8453876046
 21
22.6683041053
  0
LINE
  5
415
100
AcDbEntity
  8
RACCORDO
100
AcDbLine
 62
250
  6
CONTINUOUS
 10
-71.8457249165
 20
22.6468046453
 11
-71.845586036
 21
22.6351425156
  0
LINE
  5
416
100
AcDbEntity
  8
RACCORDO
100
AcDbLine
 62
7
  6
CONTINUOUS
 10
-71.8445904845
 20
-22.8970336204
 11
-71.8450128171
 21
-22.9221979444
  0
LINE
  5
417
100
AcDbEntity
  8
RACCORDO
100
AcDbLine
 62
7
  6
CONTINUOUS
 10
-71.8453876046
 20
22.6683041053
 11
-71.8465274785
 21
22.6022377429
  0
LINE
  5
418
100
AcDbEntity
  8
RACCORDO
100
AcDbLine
 62
250
  6
CONTINUOUS
 10
-71.8452662965
 20
-22.9335450773
 11
-71.844782468
 21
-22.9502369631
  0
LINE
  5
419
100
AcDbEntity
  8
RACCORDO
100
AcDbLine
 62
7
  6
CONTINUOUS
 10
-71.8465274785
 20
22.6022377429
 11
-71.848634523
 21
22.5074946961
  0
LINE
  5
41A
100
AcDbEntity
  8
RACCORDO
100
AcDbLine
 62
250
  6
CONTINUOUS
 10
-71.8475725338
 20
22.5393914751
 11
-71.848634523
 21
22.5074946961
  0
LWPOLYLINE
  5
41B
100
AcDbEntity
  8
RACCORDO
100
AcDbPolyline
 62
7
  6
CONTINUOUS
 90
10
 70
0
 10
-71.8450128171
 20
-22.9221979444
 10
-71.8455444999
 20
-22.9440274677
 10
-71.8458448874
 20
-22.953664321
 10
-71.8461635314
 20
-22.9624498695
 10
-71.8464922477
 20
-22.9703034341
 10
-71.8468268015
 20
-22.9772729094
 10
-71.8471601101
 20
-22.9833303239
 10
-71.8474724556
 20
-22.9882832569
 10
-71.8477560508
 20
-22.9922079449
 10
-71.8478263588
 20
-22.9930966281
  0
LWPOLYLINE
  5
41C
100
AcDbEntity
  8
RACCORDO
100
AcDbPolyline
 62
250
  6
CONTINUOUS
 90
9
 70
0
 10
-71.8458448874
 20
-22.953664321
 10
-71.8454771636
 20
-22.9752793354
 10
-71.8463553969
 20
-22.9975450461
 10
-71.8474197142
 20
-23.0172424691
 10
-71.8486656689
 20
-23.0341632205
 10
-71.850101061
 20
-23.0475622473
 10
-71.8517284721
 20
-23.0571911815
 10
-71.8535442066
 20
-23.0632983538
 10
-71.8555471544
 20
-23.065883748
  0
LINE
  5
41D
100
AcDbEntity
  8
RACCORDO
100
AcDbLine
 62
7
  6
CONTINUOUS
 10
-71.848634523
 20
22.5074946961
 11
-71.851404295
 21
22.4068160369
  0
LINE
  5
41E
100
AcDbEntity
  8
RACCORDO
100
AcDbLine
 62
250
  6
CONTINUOUS
 10
-71.8502967107
 20
22.4350900408
 11
-71.851404295
 21
22.4068160369
  0
LINE
  5
41F
100
AcDbEntity
  8
RACCORDO
100
AcDbLine
 62
250
  6
CONTINUOUS
 10
-71.8867208234
 20
21.3530802921
 11
-71.9204469409
 21
20.1684375311
  0
LWPOLYLINE
  5
420
100
AcDbEntity
  8
RACCORDO
100
AcDbPolyline
 62
7
  6
CONTINUOUS
 90
10
 70
0
 10
-71.8560715714
 20
22.2671639913
 10
-71.9207520826
 20
20.1672103376
 10
-71.9744212206
 20
17.9096851392
 10
-72.0231119096
 20
15.5743111812
 10
-72.0668076348
 20
13.1607452046
 10
-72.1050196141
 20
10.6690885096
 10
-72.1361841445
 20
8.0996839248
 10
-72.1592535458
 20
5.4527617639
 10
-72.1735219158
 20
2.7282122319
 10
-72.1782673743
 20
-0.0000000001
  0
LINE
  5
421
100
AcDbEntity
  8
RACCORDO
100
AcDbLine
 62
7
  6
CONTINUOUS
 10
-71.851404295
 20
22.4068160369
 11
-71.854807469
 21
22.3023301054
  0
LINE
  5
422
100
AcDbEntity
  8
RACCORDO
100
AcDbLine
 62
250
  6
CONTINUOUS
 10
-71.8537798009
 20
22.3247661794
 11
-71.854807469
 21
22.3023301054
  0
LINE
  5
423
100
AcDbEntity
  8
RACCORDO
100
AcDbLine
 62
250
  6
CONTINUOUS
 10
-71.8557524051
 20
22.2759028064
 11
-71.8558017312
 21
22.2671948232
  0
LINE
  5
424
100
AcDbEntity
  8
RACCORDO
100
AcDbLine
 62
250
  6
CONTINUOUS
 10
-71.8558017312
 20
22.2671948232
 11
-71.8867208234
 21
21.3530802921
  0
LINE
  5
425
100
AcDbEntity
  8
RACCORDO
100
AcDbLine
 62
7
  6
CONTINUOUS
 10
-71.854807469
 20
22.3023301054
 11
-71.8560715718
 21
22.2671639808
  0
LINE
  5
426
100
AcDbEntity
  8
RACCORDO
100
AcDbLine
 62
7
  6
CONTINUOUS
 10
-63.7192041483
 20
-3.5892788824
 11
-65.024439538
 21
-3.5551000908
  0
LWPOLYLINE
  5
427
100
AcDbEntity
  8
ASSI
100
AcDbPolyline
 62
250
  6
CONTINUOUS
 90
19
 70
0
 10
-67.7655264241
 20
-42.4508325985
 10
-67.760523375
 20
-42.4911070191
 10
-67.7522744694
 20
-42.5308421835
 10
-67.7408340802
 20
-42.5697762989
 10
-67.7262776209
 20
-42.6076528205
 10
-67.7087010111
 20
-42.6442222429
 10
-67.6882200182
 20
-42.6792437313
 10
-67.6649695576
 20
-42.7124865757
 10
-67.6391028302
 20
-42.7437317243
 10
-67.6107902571
 20
-42.7727733188
 10
-67.5802183738
 20
-42.7994200187
 10
-67.5475886019
 20
-42.8234962616
 10
-67.5131159221
 20
-42.8448434202
 10
-67.4770272068
 20
-42.8633209634
 10
-67.4395604562
 20
-42.8788069956
 10
-67.4009633184
 20
-42.8911992646
 10
-67.3614904144
 20
-42.900416265
 10
-67.3214015766
 20
-42.9063975651
 10
-67.2809609269
 20
-42.9091039595
  0
LINE
  5
428
100
AcDbEntity
  8
RACCORDO
100
AcDbLine
 62
7
  6
CONTINUOUS
 10
-71.8481582554
 20
22.9967675055
 11
-71.8481174638
 21
22.9963750588
  0
LWPOLYLINE
  5
429
100
AcDbEntity
  8
RACCORDO
100
AcDbPolyline
 62
7
  6
CONTINUOUS
 90
10
 70
0
 10
-71.848126699
 20
22.9964715937
 10
-71.8480084815
 20
22.995235882
 10
-71.8478097845
 20
22.9928908541
 10
-71.8475702587
 20
22.989694227
 10
-71.8473029467
 20
22.9856721779
 10
-71.8470138327
 20
22.9807695561
 10
-71.8467180492
 20
22.975118504
 10
-71.8464216989
 20
22.9687324586
 10
-71.8461284162
 20
22.9615710947
 10
-71.8458448766
 20
22.9536821243
  0
LINE
  5
42A
100
AcDbEntity
  8
ASSI
100
AcDbLine
 62
250
  6
CONTINUOUS
 10
-67.3037554096
 20
-41.5911867162
 11
-67.280813305
 21
-42.1093819651
  0
LINE
  5
42B
100
AcDbEntity
  8
ASSI
100
AcDbLine
 62
250
  6
CONTINUOUS
 10
-67.7863969561
 20
-41.6110207156
 11
-67.7765432986
 21
-41.8723943228
  0
LINE
  5
42C
100
AcDbEntity
  8
ASSI
100
AcDbLine
 62
250
  6
CONTINUOUS
 10
-67.3226307674
 20
-41.0728212203
 11
-67.3037554096
 21
-41.5911867162
  0
LWPOLYLINE
  5
42D
100
AcDbEntity
  8
ASSI
100
AcDbPolyline
 62
250
  6
CONTINUOUS
 90
4
 70
0
 10
-67.7628181784
 20
-42.201599631
 10
-67.7635430298
 20
-42.1792959815
 10
-67.7643878015
 20
-42.1566918159
 10
-67.7765432986
 20
-41.8723943228
  0
LINE
  5
42E
100
AcDbEntity
  8
ASSI
100
AcDbLine
 62
250
  6
CONTINUOUS
 10
-67.802676825
 20
-41.0887195187
 11
-67.7863969561
 21
-41.6110207156
  0
LINE
  5
42F
100
AcDbEntity
  8
ASSI
100
AcDbLine
 62
250
  6
CONTINUOUS
 10
-67.3376748915
 20
-40.5533125478
 11
-67.3226307674
 21
-41.0728212203
  0
LINE
  5
430
100
AcDbEntity
  8
ASSI
100
AcDbLine
 62
250
  6
CONTINUOUS
 10
-67.7616836527
 20
-42.2455415153
 11
-67.7628181784
 21
-42.201599631
  0
LINE
  5
431
100
AcDbEntity
  8
ASSI
100
AcDbLine
 62
250
  6
CONTINUOUS
 10
-67.8152313696
 20
-40.5659323977
 11
-67.802676825
 21
-41.0887195187
  0
LINE
  5
432
100
AcDbEntity
  8
ASSI
100
AcDbLine
 62
250
  6
CONTINUOUS
 10
-67.3497314035
 20
-40.0278601645
 11
-67.3376748915
 21
-40.5533125478
  0
LINE
  5
433
100
AcDbEntity
  8
ASSI
100
AcDbLine
 62
250
  6
CONTINUOUS
 10
-67.8249136022
 20
-40.0377146691
 11
-67.8152313696
 21
-40.5659323977
  0
LINE
  5
434
100
AcDbEntity
  8
ASSI
100
AcDbLine
 62
250
  6
CONTINUOUS
 10
-67.3591788901
 20
-39.5026196414
 11
-67.3497314035
 21
-40.0278601645
  0
LINE
  5
435
100
AcDbEntity
  8
ASSI
100
AcDbLine
 62
250
  6
CONTINUOUS
 10
-67.7609417966
 20
-42.2871950511
 11
-67.7616836527
 21
-42.2455415153
  0
LINE
  5
436
100
AcDbEntity
  8
ASSI
100
AcDbLine
 62
250
  6
CONTINUOUS
 10
-67.3692364896
 20
-38.7177309398
 11
-67.3591788901
 21
-39.5026196414
  0
LINE
  5
437
100
AcDbEntity
  8
ASSI
100
AcDbLine
 62
250
  6
CONTINUOUS
 10
-67.8351189561
 20
-39.2472436413
 11
-67.8249136022
 21
-40.0377146691
  0
LINE
  5
438
100
AcDbEntity
  8
ASSI
100
AcDbLine
 62
250
  6
CONTINUOUS
 10
-67.8431730413
 20
-38.1972988876
 11
-67.8351189561
 21
-39.2472436413
  0
LINE
  5
439
100
AcDbEntity
  8
ASSI
100
AcDbLine
 62
250
  6
CONTINUOUS
 10
-67.854166697
 20
-33.4027279904
 11
-67.8431730413
 21
-38.1972988876
  0
LINE
  5
43A
100
AcDbEntity
  8
ASSI
100
AcDbLine
 62
250
  6
CONTINUOUS
 10
-67.8844707654
 20
-6.0161750879
 11
-67.854166697
 21
-33.4027279904
  0
LINE
  5
43B
100
AcDbEntity
  8
ASSI
100
AcDbLine
 62
250
  6
CONTINUOUS
 10
-67.8688128783
 20
26.9249219813
 11
-67.8844707654
 21
-6.0161750879
  0
LINE
  5
43C
100
AcDbEntity
  8
ASSI
100
AcDbLine
 62
250
  6
CONTINUOUS
 10
-67.8583463658
 20
30.73729804
 11
-67.8688128783
 21
26.9249219813
  0
LINE
  5
43D
100
AcDbEntity
  8
ASSI
100
AcDbLine
 62
250
  6
CONTINUOUS
 10
-67.841974456
 20
38.4017603188
 11
-67.8583463658
 21
30.73729804
  0
LINE
  5
43E
100
AcDbEntity
  8
ASSI
100
AcDbLine
 62
250
  6
CONTINUOUS
 10
-67.7607032319
 20
42.3070204954
 11
-67.7604770748
 21
42.3437003584
  0
LINE
  5
43F
100
AcDbEntity
  8
ASSI
100
AcDbLine
 62
250
  6
CONTINUOUS
 10
-67.8329992467
 20
39.441939223
 11
-67.841974456
 21
38.4017603188
  0
LINE
  5
440
100
AcDbEntity
  8
ASSI
100
AcDbLine
 62
250
  6
CONTINUOUS
 10
-67.360206255
 20
39.4346446639
 11
-67.3697197363
 21
38.6679683285
  0
LINE
  5
441
100
AcDbEntity
  8
ASSI
100
AcDbLine
 62
250
  6
CONTINUOUS
 10
-67.7612657295
 20
42.2666952149
 11
-67.7607032319
 21
42.3070204954
  0
LINE
  5
442
100
AcDbEntity
  8
ASSI
100
AcDbLine
 62
250
  6
CONTINUOUS
 10
-67.8225978781
 20
40.1778568982
 11
-67.8329992467
 21
39.441939223
  0
LINE
  5
443
100
AcDbEntity
  8
ASSI
100
AcDbLine
 62
250
  6
CONTINUOUS
 10
-67.3518069035
 20
39.9241356466
 11
-67.360206255
 21
39.4346446639
  0
LINE
  5
444
100
AcDbEntity
  8
ASSI
100
AcDbLine
 62
250
  6
CONTINUOUS
 10
-67.8131198009
 20
40.6641782456
 11
-67.8225978781
 21
40.1778568982
  0
LINE
  5
445
100
AcDbEntity
  8
ASSI
100
AcDbLine
 62
250
  6
CONTINUOUS
 10
-67.3413162177
 20
40.4090443997
 11
-67.3518069035
 21
39.9241356466
  0
LINE
  5
446
100
AcDbEntity
  8
ASSI
100
AcDbLine
 62
250
  6
CONTINUOUS
 10
-67.8008893978
 20
41.153125716
 11
-67.8131198009
 21
40.6641782456
  0
LINE
  5
447
100
AcDbEntity
  8
ASSI
100
AcDbLine
 62
250
  6
CONTINUOUS
 10
-67.3281650501
 20
40.8937779093
 11
-67.3413162177
 21
40.4090443997
  0
LINE
  5
448
100
AcDbEntity
  8
ASSI
100
AcDbLine
 62
250
  6
CONTINUOUS
 10
-67.3119834872
 20
41.3798777248
 11
-67.3281650501
 21
40.8937779093
  0
LWPOLYLINE
  5
449
100
AcDbEntity
  8
ASSI
100
AcDbPolyline
 62
250
  6
CONTINUOUS
 90
5
 70
0
 10
-67.7643842927
 20
42.1567868655
 10
-67.7635416836
 20
42.1793310488
 10
-67.7628183339
 20
42.2015944743
 10
-67.7622016312
 20
42.2237022036
 10
-67.7612657295
 20
42.2666952149
  0
LWPOLYLINE
  5
44A
100
AcDbEntity
  8
ASSI
100
AcDbPolyline
 62
250
  6
CONTINUOUS
 90
4
 70
0
 10
-67.7643842927
 20
42.1567868655
 10
-67.7758978334
 20
41.8884264408
 10
-67.7852533357
 20
41.6431073035
 10
-67.8008893978
 20
41.153125716
  0
LWPOLYLINE
  5
44B
100
AcDbEntity
  8
ASSI
100
AcDbPolyline
 62
250
  6
CONTINUOUS
 90
3
 70
0
 10
-67.2807778955
 20
42.1093828924
 10
-67.2920790927
 20
41.8661460666
 10
-67.3119834872
 20
41.3798777248
  0
LINE
  5
44C
100
AcDbEntity
  8
ASSI
100
AcDbLine
 62
250
  6
CONTINUOUS
 10
-67.432718858
 20
-0.0
 11
-67.8841280052
 21
-0.0
  0
LINE
  5
44D
100
AcDbEntity
  8
RACCORDO
100
AcDbLine
 62
250
  6
CONTINUOUS
 10
-67.8841280052
 20
-0.0
 11
-72.1775268005
 21
0.0
  0
LINE
  5
44E
100
AcDbEntity
  8
RACCORDO
100
AcDbLine
 62
7
  6
CONTINUOUS
 10
-71.8481471933
 20
22.9966742756
 11
-71.8481508378
 21
22.9967053165
  0
LWPOLYLINE
  5
44F
100
AcDbEntity
  8
ASSI
100
AcDbPolyline
 62
250
  6
CONTINUOUS
 90
3
 70
0
 10
-67.2807730483
 20
42.9001842703
 10
-67.2808415598
 20
42.9068730186
 10
-67.2809536397
 20
42.9091041503
  0
LINE
  5
450
100
AcDbEntity
  8
ASSI
100
AcDbLine
 62
250
  6
CONTINUOUS
 10
-67.3787050731
 20
-37.3892411067
 11
-67.3692364896
 21
-38.7177309398
  0
LINE
  5
451
100
AcDbEntity
  8
ASSI
100
AcDbLine
 62
250
  6
CONTINUOUS
 10
-67.4271327373
 20
-21.1588028535
 11
-67.392783651
 21
-31.3093597233
  0
LINE
  5
452
100
AcDbEntity
  8
ASSI
100
AcDbLine
 62
250
  6
CONTINUOUS
 10
-67.392783651
 20
-31.3093597233
 11
-67.3787050731
 21
-37.3892411067
  0
LWPOLYLINE
  5
453
100
AcDbEntity
  8
ASSI
100
AcDbPolyline
 62
250
  6
CONTINUOUS
 90
12
 70
0
 10
-67.7604770748
 20
42.3437003584
 10
-67.7604845322
 20
42.3605471643
 10
-67.7605707689
 20
42.3761197917
 10
-67.7607403248
 20
42.3903976254
 10
-67.7609938871
 20
42.4034016451
 10
-67.761332523
 20
42.4149107547
 10
-67.7617658086
 20
42.424902018
 10
-67.7622984162
 20
42.4333992402
 10
-67.7629297716
 20
42.4402517477
 10
-67.7636673152
 20
42.4454097616
 10
-67.7645239922
 20
42.4489242659
 10
-67.7655097374
 20
42.450795851
  0
LINE
  5
454
100
AcDbEntity
  8
ASSI
100
AcDbLine
 62
250
  6
CONTINUOUS
 10
-67.4338255554
 20
-12.1827113028
 11
-67.4271327373
 21
-21.1588028535
  0
LINE
  5
455
100
AcDbEntity
  8
ASSI
100
AcDbLine
 62
7
  6
CONTINUOUS
 10
-65.7192041483
 20
-42.95
 11
-65.7192041483
 21
42.95
  0
LINE
  5
456
100
AcDbEntity
  8
RACCORDO
100
AcDbLine
 62
7
  6
CONTINUOUS
 10
-65.2192041483
 20
3.3551686258
 11
-65.2192041483
 21
-3.3551686258
  0
LINE
  5
457
100
AcDbEntity
  8
ASSI
100
AcDbLine
 62
250
  6
CONTINUOUS
 10
-67.2807403736
 20
-42.8890773255
 11
-67.2807889626
 21
-42.1093826025
  0
LINE
  5
458
100
AcDbEntity
  8
ASSI
100
AcDbLine
 62
250
  6
CONTINUOUS
 10
-67.2807889626
 20
42.1093826025
 11
-67.2807730483
 21
42.9001842703
  0
LINE
  5
459
100
AcDbEntity
  8
ASSI
100
AcDbLine
 62
250
  6
CONTINUOUS
 10
-67.4245907325
 20
22.3665181184
 11
-67.4338255554
 21
-12.1827113028
  0
LINE
  5
45A
100
AcDbEntity
  8
ASSI
100
AcDbLine
 62
250
  6
CONTINUOUS
 10
-67.3995453787
 20
29.1849902197
 11
-67.4245907325
 21
22.3665181184
  0
LINE
  5
45B
100
AcDbEntity
  8
ASSI
100
AcDbLine
 62
250
  6
CONTINUOUS
 10
-67.3744187423
 20
38.1169031597
 11
-67.3995453787
 21
29.1849902197
  0
LINE
  5
45C
100
AcDbEntity
  8
ASSI
100
AcDbLine
 62
250
  6
CONTINUOUS
 10
-67.3697197363
 20
38.6679683285
 11
-67.3744187423
 21
38.1169031597
  0
LWPOLYLINE
  5
45D
100
AcDbEntity
  8
ASSI
100
AcDbPolyline
 62
250
  6
CONTINUOUS
 90
4
 70
0
 10
-67.2809536397
 20
-42.9091041503
 10
-67.2808415571
 20
-42.9068734181
 10
-67.2807730481
 20
-42.9001857532
 10
-67.2807403736
 20
-42.8890773255
  0
LINE
  5
45E
100
AcDbEntity
  8
ASSI
100
AcDbLine
 62
7
  6
CONTINUOUS
 10
-63.7192041483
 20
41.8504584023
 11
-63.7192041483
 21
41.4532983136
  0
LINE
  5
45F
100
AcDbEntity
  8
0
100
AcDbLine
 62
7
  6
CONTINUOUS
 10
-63.7192041483
 20
41.4532983136
 11
-63.7192041483
 21
3.5892788824
  0
LINE
  5
460
100
AcDbEntity
  8
0
100
AcDbLine
 62
7
  6
CONTINUOUS
 10
-63.7192041483
 20
-3.5892788824
 11
-63.7192041483
 21
-41.4532975428
  0
LINE
  5
461
100
AcDbEntity
  8
ASSI
100
AcDbLine
 62
7
  6
CONTINUOUS
 10
-63.7192041483
 20
-41.4532975428
 11
-63.7192041483
 21
-41.8504588735
  0
LWPOLYLINE
  5
462
100
AcDbEntity
  8
0
100
AcDbPolyline
 62
7
  6
CONTINUOUS
 90
4
 70
0
 43
0.3500000006
 10
-63.1196558075
 20
52.1285708313
 10
-63.1196558075
 20
52.9857133026
 10
-62.6910868378
 20
53.4142868042
 10
-62.0482288513
 20
53.4142868042
  0
LINE
  5
463
100
AcDbEntity
  8
RACCORDO
100
AcDbLine
 62
7
  6
CONTINUOUS
 10
-63.7192041483
 20
3.5892788824
 11
-65.024439538
 21
3.5551000908
  0
LWPOLYLINE
  5
464
100
AcDbEntity
  8
RACCORDO
100
AcDbPolyline
 62
250
  6
CONTINUOUS
 90
11
 70
0
 10
-71.8555471544
 20
23.065883748
 10
-71.8537150359
 20
23.0639203719
 10
-71.8520311292
 20
23.0587669178
 10
-71.8504957402
 20
23.0504234031
 10
-71.8491064555
 20
23.0388355089
 10
-71.8478655034
 20
23.0240575936
 10
-71.8467802581
 20
23.006252688
 10
-71.8458498171
 20
22.9853792661
 10
-71.8450745018
 20
22.9614788894
 10
-71.8444643852
 20
22.9348392086
 10
-71.8448698509
 20
22.9147415044
  0
LWPOLYLINE
  5
465
100
AcDbEntity
  8
ASSI
100
AcDbPolyline
 62
250
  6
CONTINUOUS
 90
14
 70
0
 10
-67.7654950684
 20
-42.450733617
 10
-67.7645157395
 20
-42.4488900393
 10
-67.763664027
 20
-42.4453967455
 10
-67.7629299306
 20
-42.4402531433
 10
-67.7622997907
 20
-42.4334059918
 10
-67.7617665872
 20
-42.4249073127
 10
-67.7613326582
 20
-42.4149145332
 10
-67.7609939988
 20
-42.4034061054
 10
-67.7607404045
 20
-42.3904027102
 10
-67.7605708171
 20
-42.3761254369
 10
-67.7604845506
 20
-42.3605533159
 10
-67.760477062
 20
-42.3437069524
 10
-67.7605484451
 20
-42.3258701793
 10
-67.7609417966
 20
-42.2871950511
  0
LWPOLYLINE
  5
466
100
AcDbEntity
  8
ASSI
100
AcDbPolyline
 62
250
  6
CONTINUOUS
 90
3
 70
0
 10
-67.8812295747
 20
-42.5862070873
 10
-67.8833328588
 20
-42.5895563907
 10
-67.8838017905
 20
-42.5902790072
  0
LINE
  5
467
100
AcDbEntity
  8
RACCORDO
100
AcDbLine
 62
250
  6
CONTINUOUS
 10
-71.8558017312
 20
22.2671948232
 11
-71.8560715714
 21
22.2671639913
  0
LINE
  5
468
100
AcDbEntity
  8
RACCORDO
100
AcDbLine
 62
7
  6
CONTINUOUS
 10
-71.9043552106
 20
22.7824270797
 11
-71.8442552167
 21
22.7771690115
  0
LINE
  5
469
100
AcDbEntity
  8
RACCORDO
100
AcDbLine
 62
250
  6
CONTINUOUS
 10
-71.8806125025
 20
23.068062448
 11
-71.8555471544
 21
23.065883748
  0
LINE
  5
46A
100
AcDbEntity
  8
RACCORDO
100
AcDbLine
 62
250
  6
CONTINUOUS
 10
-71.9271846156
 20
23.0723256558
 11
-71.8806125025
 21
23.068062448
  0
LINE
  5
46B
100
AcDbEntity
  8
RACCORDO
100
AcDbLine
 62
250
  6
CONTINUOUS
 10
-71.9421779601
 20
23.0737705057
 11
-71.9271846156
 21
23.0723256558
  0
LINE
  5
46C
100
AcDbEntity
  8
RACCORDO
100
AcDbLine
 62
250
  6
CONTINUOUS
 10
-71.9633316587
 20
23.0759151784
 11
-71.9421779601
 21
23.0737705057
  0
LINE
  5
46D
100
AcDbEntity
  8
RACCORDO
100
AcDbLine
 62
250
  6
CONTINUOUS
 10
-71.9835834686
 20
23.0780905492
 11
-71.9633316587
 21
23.0759151784
  0
LINE
  5
46E
100
AcDbEntity
  8
RACCORDO
100
AcDbLine
 62
250
  6
CONTINUOUS
 10
-72.0029729823
 20
23.0802830272
 11
-71.9835834686
 21
23.0780905492
  0
LINE
  5
46F
100
AcDbEntity
  8
RACCORDO
100
AcDbLine
 62
250
  6
CONTINUOUS
 10
-72.0221290431
 20
23.0825481267
 11
-72.0029729823
 21
23.0802830272
  0
LINE
  5
470
100
AcDbEntity
  8
RACCORDO
100
AcDbLine
 62
250
  6
CONTINUOUS
 10
-72.1763914648
 20
23.1022315814
 11
-72.1683260625
 21
23.1012370569
  0
LINE
  5
471
100
AcDbEntity
  8
RACCORDO
100
AcDbLine
 62
250
  6
CONTINUOUS
 10
-72.0485444555
 20
23.0858148157
 11
-72.0221290431
 21
23.0825481267
  0
LINE
  5
472
100
AcDbEntity
  8
RACCORDO
100
AcDbLine
 62
250
  6
CONTINUOUS
 10
-72.1683260625
 20
23.1012370569
 11
-72.0485444555
 21
23.0858148157
  0
LINE
  5
473
100
AcDbEntity
  8
RACCORDO
100
AcDbLine
 62
250
  6
CONTINUOUS
 10
-72.1774669439
 20
23.1023657269
 11
-72.1771944928
 21
23.1023289139
  0
LWPOLYLINE
  5
474
100
AcDbEntity
  8
ASSI
100
AcDbPolyline
 62
7
  6
CONTINUOUS
 90
6
 70
0
 10
-67.8816565668
 20
42.5868795702
 10
-67.8808442887
 20
42.5855955886
 10
-67.8799059767
 20
42.5841388313
 10
-67.8788363168
 20
42.582501539
 10
-67.8776260833
 20
42.5806918919
 10
-67.8747499306
 20
42.5765678994
  0
LINE
  5
475
100
AcDbEntity
  8
ASSI
100
AcDbLine
 62
7
  6
CONTINUOUS
 10
-67.8829465556
 20
42.5889456117
 11
-67.8823527048
 21
42.5879976808
  0
LWPOLYLINE
  5
476
100
AcDbEntity
  8
ASSI
100
AcDbPolyline
 62
250
  6
CONTINUOUS
 90
3
 70
0
 10
-67.8791125189
 20
-42.5829138445
 10
-67.8802529413
 20
-42.5846663846
 10
-67.8812295747
 20
-42.5862070873
  0
LWPOLYLINE
  5
477
100
AcDbEntity
  8
ASSI
100
AcDbPolyline
 62
250
  6
CONTINUOUS
 90
5
 70
0
 10
-67.8841702154
 20
-42.5908116385
 10
-67.8844354113
 20
-42.5911969056
 10
-67.88461629
 20
-42.5914241458
 10
-67.8847268983
 20
-42.5915039743
 10
-67.8847610723
 20
-42.591511317
  0
LWPOLYLINE
  5
478
100
AcDbEntity
  8
ASSI
100
AcDbPolyline
 62
250
  6
CONTINUOUS
 90
3
 70
0
 10
-67.8746071558
 20
-42.5762956846
 10
-67.8762984486
 20
-42.5787281819
 10
-67.8791125189
 20
-42.5829138445
  0
LWPOLYLINE
  5
479
100
AcDbEntity
  8
ASSI
100
AcDbPolyline
 62
7
  6
CONTINUOUS
 90
12
 70
0
 10
-67.8435563685
 20
42.5382473197
 10
-67.8399623579
 20
42.5334252347
 10
-67.8357771393
 20
42.5279417957
 10
-67.8309692534
 20
42.5217717249
 10
-67.8255088632
 20
42.5149525223
 10
-67.8193294325
 20
42.5075115427
 10
-67.8124091245
 20
42.4994320964
 10
-67.8047304297
 20
42.4907382249
 10
-67.7962183957
 20
42.4815166641
 10
-67.786836683
 20
42.4717979533
 10
-67.7766002064
 20
42.461556846
 10
-67.7655097374
 20
42.450795851
  0
LWPOLYLINE
  5
47A
100
AcDbEntity
  8
ASSI
100
AcDbPolyline
 62
7
  6
CONTINUOUS
 90
4
 70
0
 10
-67.8555545332
 20
42.5551565572
 10
-67.854403749
 20
42.553572028
 10
-67.8530207212
 20
42.5515109779
 10
-67.8513157542
 20
42.5490054614
  0
LINE
  5
47B
100
AcDbEntity
  8
ASSI
100
AcDbLine
 62
7
  6
CONTINUOUS
 10
-67.8513157542
 20
42.5490054614
 11
-67.8435563685
 21
42.5382473197
  0
LWPOLYLINE
  5
47C
100
AcDbEntity
  8
ASSI
100
AcDbPolyline
 62
7
  6
CONTINUOUS
 90
7
 70
0
 10
-67.8747499306
 20
42.5765678994
 10
-67.8731047105
 20
42.5742590194
 10
-67.8713473541
 20
42.5719481626
 10
-67.8695545173
 20
42.5696409577
 10
-67.8677909597
 20
42.5673580786
 10
-67.8660705505
 20
42.5652686186
 10
-67.8630159126
 20
42.5617405999
  0
LWPOLYLINE
  5
47D
100
AcDbEntity
  8
ASSI
100
AcDbPolyline
 62
7
  6
CONTINUOUS
 90
3
 70
0
 10
-67.8841802506
 20
42.5908412985
 10
-67.8838553693
 20
42.5903613312
 10
-67.8834473874
 20
42.5897271104
  0
LWPOLYLINE
  5
47E
100
AcDbEntity
  8
ASSI
100
AcDbPolyline
 62
250
  6
CONTINUOUS
 90
5
 70
0
 10
-67.8631773396
 20
-42.5619198413
 10
-67.8667346744
 20
-42.5660726994
 10
-67.8687216402
 20
-42.5685160871
 10
-67.8707169928
 20
-42.5711692697
 10
-67.8746071558
 20
-42.5762956846
  0
LWPOLYLINE
  5
47F
100
AcDbEntity
  8
ASSI
100
AcDbPolyline
 62
250
  6
CONTINUOUS
 90
26
 70
0
 10
-67.7654950684
 20
-42.450733617
 10
-67.785528808
 20
-42.4699872301
 10
-67.8015316855
 20
-42.4869164187
 10
-67.8142396266
 20
-42.5015348301
 10
-67.8243637134
 20
-42.5136382333
 10
-67.8323961508
 20
-42.5234560662
 10
-67.8386101604
 20
-42.5316491372
 10
-67.8433939119
 20
-42.5382070483
 10
-67.847139695
 20
-42.5431542652
 10
-67.8499812849
 20
-42.5471945546
 10
-67.8521217547
 20
-42.5504054253
 10
-67.8538141365
 20
-42.5527037452
 10
-67.8551438487
 20
-42.5545397041
 10
-67.8561662883
 20
-42.5560253458
 10
-67.8569590064
 20
-42.557065149
 10
-67.857540194
 20
-42.557798804
 10
-67.8579607209
 20
-42.5582306483
 10
-67.8582692449
 20
-42.5583844105
 10
-67.8584791225
 20
-42.5584293342
 10
-67.8586689994
 20
-42.5583615406
 10
-67.8589136123
 20
-42.5582339959
 10
-67.8592374802
 20
-42.5583089178
 10
-67.8597401259
 20
-42.5586674588
 10
-67.8605623451
 20
-42.5593100427
 10
-67.8617337659
 20
-42.5603657394
 10
-67.8631773396
 20
-42.5619198413
  0
LWPOLYLINE
  5
480
100
AcDbEntity
  8
ASSI
100
AcDbPolyline
 62
7
  6
CONTINUOUS
 90
14
 70
0
 10
-67.8630159126
 20
42.5617405999
 10
-67.8617604174
 20
42.5603967399
 10
-67.8607180234
 20
42.5594253316
 10
-67.8599409523
 20
42.5587755719
 10
-67.8594235009
 20
42.5583790278
 10
-67.8590698066
 20
42.5582438743
 10
-67.8588111577
 20
42.5583054963
 10
-67.8586291028
 20
42.5583737059
 10
-67.8584654951
 20
42.5584161762
 10
-67.8582607086
 20
42.5584266793
 10
-67.8580029204
 20
42.55825829
 10
-67.8576429515
 20
42.5578847477
 10
-67.8571300507
 20
42.5573006679
 10
-67.8564512179
 20
42.5563925928
  0
LWPOLYLINE
  5
481
100
AcDbEntity
  8
0
100
AcDbPolyline
 62
7
  6
CONTINUOUS
 90
10
 70
0
 43
0.3500000006
 10
-60.1196594238
 20
52.2000020142
 10
-60.048228241
 20
52.0571441803
 10
-60.048228241
 20
51.9857129974
 10
-60.1910860748
 20
51.8428551636
 10
-60.2625172577
 20
51.8428551636
 10
-60.3339439087
 20
51.9142863464
 10
-60.3339439087
 20
51.9857129974
 10
-60.2625172577
 20
52.1285708313
 10
-60.1910860748
 20
52.2000020142
 10
-60.1196594238
 20
52.2000020142
  0
LWPOLYLINE
  5
482
100
AcDbEntity
  8
ASSI
100
AcDbPolyline
 62
250
  6
CONTINUOUS
 90
19
 70
0
 10
-63.7192041666
 20
41.4532985447
 10
-63.8138289201
 20
41.5147292056
 10
-63.9100064333
 20
41.5733919634
 10
-64.0076253727
 20
41.6292868183
 10
-64.1064748915
 20
41.6823792367
 10
-64.2065427065
 20
41.7327037522
 10
-64.308032013
 20
41.7803639645
 10
-64.4105068615
 20
41.8252836516
 10
-64.5142073818
 20
41.8675390355
 10
-64.620419687
 20
41.9074623834
 10
-64.7291697778
 20
41.9452115806
 10
-64.8403362497
 20
41.9806287418
 10
-64.9550665471
 20
42.0135724768
 10
-65.0736903334
 20
42.0442220521
 10
-65.1958051613
 20
42.0723982012
 10
-65.3214820223
 20
42.0974217352
 10
-65.4506919904
 20
42.1190662577
 10
-65.5833017225
 20
42.1375581652
 10
-65.7192041463
 20
42.1528974575
  0
LWPOLYLINE
  5
483
100
AcDbEntity
  8
ASSI
100
AcDbPolyline
 62
250
  6
CONTINUOUS
 90
19
 70
0
 10
-67.2809536397
 20
42.9091041503
 10
-67.3213971409
 20
42.9063974438
 10
-67.3614879513
 20
42.9004155165
 10
-67.4009619381
 20
42.8911977799
 10
-67.4395590325
 20
42.8788049646
 10
-67.4770249429
 20
42.8633187194
 10
-67.5131128301
 20
42.8448410744
 10
-67.5475849343
 20
42.8234937676
 10
-67.5802141413
 20
42.7994174434
 10
-67.6107854789
 20
42.7727707256
 10
-67.6390975325
 20
42.743729173
 10
-67.6649637729
 20
42.7124841221
 10
-67.6882137847
 20
42.6792414264
 10
-67.7086943891
 20
42.644220101
 10
-67.7262706531
 20
42.607650879
 10
-67.7408267786
 20
42.5697746909
 10
-67.7522668653
 20
42.5308410783
 10
-67.760515542
 20
42.49110655
 10
-67.7655184638
 20
42.4508328912
  0
LINE
  5
484
100
AcDbEntity
  8
ASSI
100
AcDbLine
 62
250
  6
CONTINUOUS
 10
-67.2807778955
 20
42.1093828924
 11
-65.7192041483
 21
42.15027414
  0
LINE
  5
485
100
AcDbEntity
  8
ASSI
100
AcDbLine
 62
7
  6
CONTINUOUS
 10
-67.4327212242
 20
42.9051299762
 11
-65.7192041483
 21
42.95
  0
LWPOLYLINE
  5
486
100
AcDbEntity
  8
0
100
AcDbPolyline
 62
7
  6
CONTINUOUS
 90
8
 70
0
 43
0.3500000006
 10
-59.0482279358
 20
51.7000018616
 10
-58.1910854645
 20
51.7000018616
 10
-57.7625164948
 20
52.1285708313
 10
-57.7625164948
 20
52.9857133026
 10
-58.1910854645
 20
53.4142868042
 10
-59.0482279358
 20
53.4142868042
 10
-59.0482279358
 20
54.6999982452
 10
-57.7625164948
 20
54.6999982452
  0
LINE
  5
487
100
AcDbEntity
  8
ASSI
100
AcDbLine
 62
250
  6
CONTINUOUS
 10
-67.7520946871
 20
42.133051166
 11
-67.2807900579
 21
42.1093826565
  0
LINE
  5
488
100
AcDbEntity
  8
ASSI
100
AcDbLine
 62
250
  6
CONTINUOUS
 10
-67.7653627683
 20
42.133806794
 11
-67.7520946871
 21
42.133051166
  0
LWPOLYLINE
  5
489
100
AcDbEntity
  8
ASSI
100
AcDbPolyline
 62
7
  6
CONTINUOUS
 90
4
 70
0
 10
-67.8847569669
 20
42.591516357
 10
-67.8847019953
 20
42.5915115116
 10
-67.8845974486
 20
42.5913994297
 10
-67.8844288527
 20
42.5911739615
  0
LWPOLYLINE
  5
48A
100
AcDbEntity
  8
0
100
AcDbPolyline
 62
7
  6
CONTINUOUS
 90
13
 70
0
 43
0.3500000006
 10
-62.6910868378
 20
53.4142868042
 10
-62.9768025055
 20
53.6285712891
 10
-62.9768025055
 20
54.2714292755
 10
-62.6910868378
 20
54.6999982452
 10
-62.0482288513
 20
54.6999982452
 10
-61.7625131836
 20
54.2714292755
 10
-61.7625131836
 20
53.6285712891
 10
-62.0482288513
 20
53.4142868042
 10
-61.6196598816
 20
52.9857133026
 10
-61.6196598816
 20
52.1285708313
 10
-62.0482288513
 20
51.7000018616
 10
-62.6910868378
 20
51.7000018616
 10
-63.1196558075
 20
52.1285708313
  0
ARC
  5
48B
100
AcDbEntity
  8
ASSI
100
AcDbCircle
 62
7
  6
CONTINUOUS
 10
-66.1492041483
 20
-38.6731796621
 40
4.0
100
AcDbArc
 50
276.1712213776
 51
307.4089490037
  0
ARC
  5
48C
100
AcDbEntity
  8
ASSI
100
AcDbCircle
 62
7
  6
CONTINUOUS
 10
-66.1492041483
 20
38.6731796621
 40
4.0
100
AcDbArc
 50
52.5910507011
 51
83.8287756249
  0
ARC
  5
48D
100
AcDbEntity
  8
ASSI
100
AcDbCircle
 62
7
  6
CONTINUOUS
 10
-67.4207434239
 20
42.4052722297
 40
0.5
100
AcDbArc
 50
132.9851878825
 51
158.1314634056
  0
ARC
  5
48E
100
AcDbEntity
  8
ASSI
100
AcDbCircle
 62
7
  6
CONTINUOUS
 10
-67.4207399807
 20
-42.4052723199
 40
0.5
100
AcDbArc
 50
201.868536594
 51
268.4588251859
  0
ARC
  5
48F
100
AcDbEntity
  8
ASSI
100
AcDbCircle
 62
7
  6
CONTINUOUS
 10
-67.41963275
 20
42.4053013138
 40
0.5
100
AcDbArc
 50
91.5
 51
97.06488215
  0
ARC
  5
490
100
AcDbEntity
  8
RACCORDO
100
AcDbCircle
 62
7
  6
CONTINUOUS
 10
-71.8782084878
 20
23.0812854891
 40
0.3
100
AcDbArc
 50
175.9706506727
 51
265.0
  0
ARC
  5
491
100
AcDbEntity
  8
RACCORDO
100
AcDbCircle
 62
7
  6
CONTINUOUS
 10
-71.8782084878
 20
-23.0812854891
 40
0.3
100
AcDbArc
 50
95.0
 51
184.0293493273
  0
ARC
  5
492
100
AcDbEntity
  8
RACCORDO
100
AcDbCircle
 62
7
  6
CONTINUOUS
 10
-65.0192041483
 20
-3.3551686258
 40
0.2
100
AcDbArc
 50
180.0
 51
268.5
  0
ARC
  5
493
100
AcDbEntity
  8
RACCORDO
100
AcDbCircle
 62
7
  6
CONTINUOUS
 10
-65.0192041483
 20
3.3551686258
 40
0.2
100
AcDbArc
 50
91.5
 51
180.0
  0
ELLIPSE
  5
494
100
AcDbEntity
  8
RACCORDO
100
AcDbEllipse
 62
7
  6
CONTINUOUS
 10
-22.0980900812
 20
-22.0980900812
 30
0.0
 11
0.3562493039
 21
0.3562493039
 31
0.0
 40
0.9924325091
 41
2.3599925885
 42
3.9231927187
  0
ELLIPSE
  5
495
100
AcDbEntity
  8
RACCORDO
100
AcDbEllipse
 62
7
  6
CONTINUOUS
 10
22.0980900812
 20
-22.0980900812
 30
0.0
 11
-0.3562493039
 21
0.3562493039
 31
0.0
 40
0.9924325091
 41
2.3599925885
 42
3.9231927187
  0
ELLIPSE
  5
496
100
AcDbEntity
  8
RACCORDO
100
AcDbEllipse
 62
7
  6
CONTINUOUS
 10
22.0980900812
 20
22.0980900812
 30
0.0
 11
-0.3562493039
 21
-0.3562493039
 31
0.0
 40
0.9924325091
 41
2.3599925885
 42
3.9231927187
  0
ELLIPSE
  5
497
100
AcDbEntity
  8
RACCORDO
100
AcDbEllipse
 62
7
  6
CONTINUOUS
 10
-22.0980900812
 20
22.0980900812
 30
0.0
 11
0.3562493039
 21
-0.3562493039
 31
0.0
 40
0.9924325091
 41
2.3599925885
 42
3.9231927187
  0
ELLIPSE
  5
498
100
AcDbEntity
  8
ASSI
100
AcDbEllipse
 62
7
  6
CONTINUOUS
 10
-42.149725766
 20
42.149725766
 30
0.0
 11
0.566073184
 21
-0.566073184
 31
0.0
 40
0.999315002
 41
2.3565371065
 42
3.9266482006
  0
ELLIPSE
  5
499
100
AcDbEntity
  8
ASSI
100
AcDbEllipse
 62
7
  6
CONTINUOUS
 10
42.149725766
 20
42.149725766
 30
0.0
 11
0.566073184
 21
0.566073184
 31
0.0
 40
0.999315002
 41
-0.7850555471
 42
0.7850555471
  0
ELLIPSE
  5
49A
100
AcDbEntity
  8
ASSI
100
AcDbEllipse
 62
7
  6
CONTINUOUS
 10
42.149725766
 20
-42.149725766
 30
0.0
 11
0.566073184
 21
-0.566073184
 31
0.0
 40
0.999315002
 41
-0.7850555471
 42
0.7850555471
  0
ELLIPSE
  5
49B
100
AcDbEntity
  8
ASSI
100
AcDbEllipse
 62
7
  6
CONTINUOUS
 10
-42.149725766
 20
-42.149725766
 30
0.0
 11
0.566073184
 21
0.566073184
 31
0.0
 40
0.999315002
 41
2.3565371065
 42
3.9266482006
  0
ENDSEC
  0
SECTION
  2
OBJECTS
  0
DICTIONARY
  5
C
100
AcDbDictionary
280
0
281
1
  3
ACAD_GROUP
350
D
  3
ACAD_MLINESTYLE
350
17
  3
ACAD_LAYOUT
350
1A
  3
ACAD_PLOTSETTINGS
350
19
  3
ACAD_PLOTSTYLENAME
350
E
  0
DICTIONARY
  5
D
102
{ACAD_REACTORS
330
C
102
}
100
AcDbDictionary
280
0
281
1
  0
ACDBDICTIONARYWDFLT
  5
E
102
{ACAD_REACTORS
330
C
102
}
100
AcDbDictionary
281
1
  3
Normal
350
F
100
AcDbDictionaryWithDefault
340
F
  0
DICTIONARY
  5
17
102
{ACAD_REACTORS
330
C
102
}
100
AcDbDictionary
280
0
281
1
  3
Standard
350
18
  0
DICTIONARY
  5
19
102
{ACAD_REACTORS
330
C
102
}
100
AcDbDictionary
281
1
  0
DICTIONARY
  5
1A
102
{ACAD_REACTORS
330
C
102
}
100
AcDbDictionary
281
1
  3
Model
350
49C
  3
Layout1
350
49D
  0
ACDBPLACEHOLDER
  5
F
102
{ACAD_REACTORS
330
E
102
}
  0
MLINESTYLE
  5
18
102
{ACAD_REACTORS
330
17
102
}
100
AcDbMlineStyle
  2
STANDARD
 70
0
  3

 62
256
 51
90.0
 52
90.0
 71
2
 49
0.5
 62
256
  6
BYLAYER
 49
-0.5
 62
256
  6
BYLAYER
  0
LAYOUT
  5
49C
102
{ACAD_REACTORS
330
1A
102
}
100
AcDbPlotSettings
  1

  2
none_device
  4
ISO_A4_(297.00_x_210.00_MM)
  6

 40
0.0
 41
0.0
 42
0.0
 43
0.0
 44
297.0
 45
210.0
 46
0.0
 47
0.0
 48
0.0
 49
0.0
140
0.0
141
0.0
142
1.0
143
1.0
 70
1024
 72
1
 73
0
 74
0
  7

 75
0
147
1.0
148
0.0
149
0.0
100
AcDbLayout
  1
Model
 70
0
 71
0
 10
0.0
 20
0.0
 11
297.0
 21
210.0
 12
0.0
 22
0.0
 32
0.0
 14
0.0
 24
0.0
 34
0.0
 15
0.0
 25
0.0
 35
0.0
146
0.0
 13
0.0
 23
0.0
 33
0.0
 16
1.0
 26
0.0
 36
0.0
 17
0.0
 27
1.0
 37
0.0
 76
0
330
213
345
0
346
0
  0
LAYOUT
  5
49D
102
{ACAD_REACTORS
330
1A
102
}
100
AcDbPlotSettings
  1

  2
none_device
  4
ISO_A4_(297.00_x_210.00_MM)
  6

 40
0.0
 41
0.0
 42
0.0
 43
0.0
 44
297.0
 45
210.0
 46
0.0
 47
0.0
 48
0.0
 49
0.0
140
0.0
141
0.0
142
1.0
143
1.0
 70
0
 72
1
 73
0
 74
0
  7

 75
0
147
1.0
148
0.0
149
0.0
100
AcDbLayout
  1
Layout1
 70
0
 71
1
 10
0.0
 20
0.0
 11
297.0
 21
210.0
 12
0.0
 22
0.0
 32
0.0
 14
0.0
 24
0.0
 34
0.0
 15
0.0
 25
0.0
 35
0.0
146
0.0
 13
0.0
 23
0.0
 33
0.0
 16
1.0
 26
0.0
 36
0.0
 17
0.0
 27
1.0
 37
0.0
 76
0
330
214
345
0
346
0
  0
ENDSEC
  0
EOF
