  0
SECTION
  2
HEADER
  9
$ACADVER
  1
AC1024
  9
$DWGCODEPAGE
  3
ANSI_1252
  9
$EXTMAX
 10
297.0
 20
210.0
 30
0.0
  9
$EXTMIN
 10
0.0
 20
0.0
 30
0.0
  9
$LIMMIN
 10
0.0
 20
0.0
  9
$LIMMAX
 10
297.0
 20
210.0
  9
$VIEWCTR
 10
148.5
 20
105.0
  9
$VIEWSIZE
 40
210.0
  9
$CLAYER
  8
0
  9
$LTSCALE
 40
16.335
  9
$CELTYPE
  6
BYLAYER
  9
$DIMSCALE
 40
1.0
  9
$DIMASZ
 40
3.0
  9
$DIMEXO
 40
0.5
  9
$DIMDLI
 40
11.286
  9
$DIMEXE
 40
1.5
  9
$DIMCEN
 40
2.673
  9
$DIMLFAC
 40
1.0
  9
$DIMBLK
  1
_FILLED
  9
$DIMALT
 70
0
  9
$DIMALTF
 40
0.0393700787
  9
$DIMTXT
 40
3.0
  9
$DIMTOL
 70
1
  9
$DIMLIM
 70
0
  9
$DIMTFAC
 40
1.0
  9
$DIMTP
 40
0.01
  9
$DIMTM
 40
0.01
  9
$DIMGAP
 40
0.625
  9
$DIMDSEP
 70
44
  9
$AUNITS
 70
0
  9
$PDMODE
 70
3
  9
$PDSIZE
 40
3.0
  9
$HANDSEED
  5
30F
  9
$TILEMODE
 70
1
  9
$MEASUREMENT
 70
1
  9
$INSUNITS
 70
4
  0
ENDSEC
  0
SECTION
  2
CLASSES
  0
CLASS
  1
ACDBDICTIONARYWDFLT
  2
AcDbDictionaryWithDefault
  3
AutoCAD 2000
 90
0
 91
1
280
0
281
0
  0
CLASS
  1
ACDBPLACEHOLDER
  2
AcDbPlaceHolder
  3
AutoCAD 2000
 90
0
 91
1
280
0
281
0
  0
CLASS
  1
LAYOUT
  2
AcDbLayout
  3
AutoCAD 2000
 90
0
 91
0
280
0
281
0
  0
ENDSEC
  0
SECTION
  2
TABLES
  0
TABLE
  2
VPORT
  5
8
100
AcDbSymbolTable
 70
2
  0
VPORT
  5
1F4
100
AcDbSymbolTableRecord
100
AcDbViewportTableRecord
  2
*ACTIVE
 70
0
 10
0.0
 20
0.0
 11
1.0
 21
1.0
 12
148.5
 22
105.0
 13
0.0
 23
0.0
 14
1.0
 24
1.0
 15
0.0
 25
0.0
 16
0.0
 26
0.0
 36
1.0
 17
0.0
 27
0.0
 37
0.0
 40
210.0
 41
1.4142857143
 42
50.0
 43
0.0
 44
0.0
 50
0.0
 51
0.0
 71
0
 72
100
 73
1
 74
1
 75
0
 76
0
 77
0
 78
0
  0
ENDTAB
  0
TABLE
  2
LTYPE
  5
5
100
AcDbSymbolTable
 70
6
  0
LTYPE
  5
14
100
AcDbSymbolTableRecord
100
AcDbLinetypeTableRecord
  2
BYBLOCK
 70
0
  3

 72
65
 73
0
 40
0.0
  0
LTYPE
  5
15
100
AcDbSymbolTableRecord
100
AcDbLinetypeTableRecord
  2
BYLAYER
 70
0
  3

 72
65
 73
0
 40
0.0
  0
LTYPE
  5
16
100
AcDbSymbolTableRecord
100
AcDbLinetypeTableRecord
  2
CONTINUOUS
 70
64
  3
Solid line
 72
65
 73
0
 40
0.0
  0
LTYPE
  5
1F5
100
AcDbSymbolTableRecord
100
AcDbLinetypeTableRecord
  2
CENTER
 70
64
  3
____ _ ____ _ ____ _ ____ _ ____ _ ____ _ ____
 72
65
 73
4
 40
0.6
 49
0.375
 74
0
 49
-0.075
 74
0
 49
0.075
 74
0
 49
-0.075
 74
0
  0
LTYPE
  5
1F6
100
AcDbSymbolTableRecord
100
AcDbLinetypeTableRecord
  2
HIDDEN
 70
64
  3
- - - - - - - - - - - - - - - - - - - -
 72
65
 73
2
 40
0.2
 49
0.1
 74
0
 49
-0.1
 74
0
  0
LTYPE
  5
1F7
100
AcDbSymbolTableRecord
100
AcDbLinetypeTableRecord
  2
PHANTOM
 70
64
  3
_____ _ _ _____ _ _ _____ _ _ _____
 72
65
 73
6
 40
0.8
 49
0.45
 74
0
 49
-0.05
 74
0
 49
0.1
 74
0
 49
-0.05
 74
0
 49
0.1
 74
0
 49
-0.05
 74
0
  0
LTYPE
  5
1F8
100
AcDbSymbolTableRecord
100
AcDbLinetypeTableRecord
  2
DOT
 70
64
  3
. . . . . . . . . . . . . . . . . . . .
 72
65
 73
2
 40
0.2
 49
0.1
 74
0
 49
-0.1
 74
0
  0
LTYPE
  5
1F9
100
AcDbSymbolTableRecord
100
AcDbLinetypeTableRecord
  2
DASHED
 70
64
  3
- - - - - - - - - - - - - - - - - - - -
 72
65
 73
2
 40
0.2
 49
0.1
 74
0
 49
-0.1
 74
0
  0
ENDTAB
  0
TABLE
  2
LAYER
  5
2
100
AcDbSymbolTable
 70
36
  0
LAYER
  5
10
100
AcDbSymbolTableRecord
100
AcDbLayerTableRecord
  2
0
 70
0
 62
7
  6
CONTINUOUS
370
-3
390
F
  0
LAYER
  5
1FA
100
AcDbSymbolTableRecord
100
AcDbLayerTableRecord
  2
DEFAULT_1
 70
0
 62
7
  6
CENTER
370
-3
390
F
  0
LAYER
  5
1FB
100
AcDbSymbolTableRecord
100
AcDbLayerTableRecord
  2
DEFAULT_2
 70
0
 62
7
  6
HIDDEN
370
-3
390
F
  0
LAYER
  5
1FC
100
AcDbSymbolTableRecord
100
AcDbLayerTableRecord
  2
DEFAULT_3
 70
0
 62
7
  6
PHANTOM
370
-3
390
F
  0
LAYER
  5
1FD
100
AcDbSymbolTableRecord
100
AcDbLayerTableRecord
  2
ASSI
 70
0
 62
7
  6
CONTINUOUS
370
-3
390
F
  0
LAYER
  5
1FE
100
AcDbSymbolTableRecord
100
AcDbLayerTableRecord
  2
COORDINATE
 70
0
 62
7
  6
CONTINUOUS
370
-3
390
F
  0
LAYER
  5
1FF
100
AcDbSymbolTableRecord
100
AcDbLayerTableRecord
  2
COPY_PUBLISH
 70
0
 62
7
  6
CONTINUOUS
370
-3
390
F
  0
LAYER
  5
200
100
AcDbSymbolTableRecord
100
AcDbLayerTableRecord
  2
COSMETIC
 70
0
 62
7
  6
CONTINUOUS
370
-3
390
F
  0
LAYER
  5
201
100
AcDbSymbolTableRecord
100
AcDbLayerTableRecord
  2
COSMETICI
 70
0
 62
7
  6
CONTINUOUS
370
-3
390
F
  0
LAYER
  5
202
100
AcDbSymbolTableRecord
100
AcDbLayerTableRecord
  2
CURVE
 70
0
 62
7
  6
CONTINUOUS
370
-3
390
F
  0
LAYER
  5
203
100
AcDbSymbolTableRecord
100
AcDbLayerTableRecord
  2
DRAFT
 70
0
 62
7
  6
CONTINUOUS
370
-3
390
F
  0
LAYER
  5
204
100
AcDbSymbolTableRecord
100
AcDbLayerTableRecord
  2
IMPORT_IGES
 70
0
 62
7
  6
CONTINUOUS
370
-3
390
F
  0
LAYER
  5
205
100
AcDbSymbolTableRecord
100
AcDbLayerTableRecord
  2
NOTE
 70
0
 62
7
  6
CONTINUOUS
370
-3
390
F
  0
LAYER
  5
206
100
AcDbSymbolTableRecord
100
AcDbLayerTableRecord
  2
PIANI
 70
0
 62
7
  6
CONTINUOUS
370
-3
390
F
  0
LAYER
  5
207
100
AcDbSymbolTableRecord
100
AcDbLayerTableRecord
  2
PUNTI
 70
0
 62
7
  6
CONTINUOUS
370
-3
390
F
  0
LAYER
  5
208
100
AcDbSymbolTableRecord
100
AcDbLayerTableRecord
  2
RACCORDO
 70
0
 62
7
  6
CONTINUOUS
370
-3
390
F
  0
LAYER
  5
209
100
AcDbSymbolTableRecord
100
AcDbLayerTableRecord
  2
SIMBOLI
 70
0
 62
7
  6
CONTINUOUS
370
-3
390
F
  0
LAYER
  5
20A
100
AcDbSymbolTableRecord
100
AcDbLayerTableRecord
  2
SMUSSO
 70
0
 62
7
  6
CONTINUOUS
370
-3
390
F
  0
LAYER
  5
20B
100
AcDbSymbolTableRecord
100
AcDbLayerTableRecord
  2
SUPERFICI
 70
0
 62
7
  6
CONTINUOUS
370
-3
390
F
  0
LAYER
  5
20C
100
AcDbSymbolTableRecord
100
AcDbLayerTableRecord
  2
TRASH
 70
0
 62
7
  6
CONTINUOUS
370
-3
390
F
  0
ENDTAB
  0
TABLE
  2
STYLE
  5
3
100
AcDbSymbolTable
 70
1
  0
STYLE
  5
11
100
AcDbSymbolTableRecord
100
AcDbTextStyleTableRecord
  2
STANDARD
 70
0
 40
0.0
 41
0.8
 50
0.0
 71
0
 42
0.2
  3
txt
  4

  0
STYLE
  5
20D
100
AcDbSymbolTableRecord
100
AcDbTextStyleTableRecord
  2
TEXTSTYLE_1
 70
0
 40
0.0
 41
0.8
 50
0.0
 71
0
 42
0.2
  3
gdt
  4

  0
ENDTAB
  0
TABLE
  2
VIEW
  5
6
100
AcDbSymbolTable
 70
0
  0
ENDTAB
  0
TABLE
  2
UCS
  5
7
100
AcDbSymbolTable
 70
0
  0
ENDTAB
  0
TABLE
  2
APPID
  5
9
100
AcDbSymbolTable
 70
1
  0
APPID
  5
20E
100
AcDbSymbolTableRecord
100
AcDbRegAppTableRecord
  2
ACAD
 70
0
  0
ENDTAB
  0
TABLE
  2
BLOCK_RECORD
  5
1
100
AcDbSymbolTable
 70
0
  0
BLOCK_RECORD
  5
20F
100
AcDbSymbolTableRecord
100
AcDbBlockTableRecord
  2
*Model_Space
  0
BLOCK_RECORD
  5
210
100
AcDbSymbolTableRecord
100
AcDbBlockTableRecord
  2
*Paper_Space
  0
BLOCK_RECORD
  5
211
100
AcDbSymbolTableRecord
100
AcDbBlockTableRecord
  2
_FILLED
  0
BLOCK_RECORD
  5
212
100
AcDbSymbolTableRecord
100
AcDbBlockTableRecord
  2
*D0
  0
BLOCK_RECORD
  5
213
100
AcDbSymbolTableRecord
100
AcDbBlockTableRecord
  2
*D1
  0
BLOCK_RECORD
  5
214
100
AcDbSymbolTableRecord
100
AcDbBlockTableRecord
  2
*D2
  0
ENDTAB
  0
TABLE
  2
DIMSTYLE
  5
A
100
AcDbSymbolTable
 70
1
100
AcDbDimStyleTable
 71
0
  0
DIMSTYLE
105
215
100
AcDbSymbolTableRecord
100
AcDbDimStyleTableRecord
  2
STANDARD
 70
0
  3

  4

 40
1.0
 41
3.0
 42
0.5
 43
0.38
 44
1.5
 45
0.0
 46
0.0
 47
0.01
 48
0.01
140
3.0
141
0.09
142
0.0
143
25.4
144
1.0
145
0.0
146
1.0
147
0.625
 71
1
 72
0
 73
0
 74
0
 75
0
 76
0
 77
1
 78
8
 79
2
170
0
171
1
172
0
173
0
174
0
175
0
176
0
177
0
178
0
270
2
179
2
271
2
272
2
273
2
274
2
275
0
280
0
281
0
282
0
283
1
284
8
285
0
286
0
287
3
288
0
340
11
278
44
341
211
342
211
343
211
344
211
  0
DIMSTYLE
105
216
100
AcDbSymbolTableRecord
100
AcDbDimStyleTableRecord
  2
DIMSTYLE_1
 70
0
  3

  4

 40
1.0
 41
3.0
 42
0.5
 43
0.38
 44
1.5
 45
0.0
 46
0.0
 47
0.0
 48
0.0
140
3.0
141
0.09
142
0.0
143
25.4
144
1.0
145
0.0
146
1.0
147
0.75
 71
0
 72
0
 73
0
 74
0
 75
0
 76
0
 77
1
 78
8
 79
2
170
0
171
1
172
0
173
0
174
0
175
0
176
0
177
0
178
0
270
2
179
2
271
2
272
2
273
2
274
2
275
0
280
0
281
0
282
0
283
1
284
8
285
0
286
0
287
3
288
0
340
11
278
44
341
211
342
211
343
211
344
211
  0
DIMSTYLE
105
217
100
AcDbSymbolTableRecord
100
AcDbDimStyleTableRecord
  2
DIMSTYLE_2
 70
0
  3

  4

 40
1.0
 41
3.0
 42
0.5
 43
0.38
 44
1.5
 45
0.0
 46
0.0
 47
0.0
 48
0.0
140
3.0
141
0.09
142
0.0
143
25.4
144
1.0
145
0.0
146
1.0
147
0.75
 71
0
 72
0
 73
0
 74
0
 75
0
 76
0
 77
1
 78
8
 79
2
170
0
171
1
172
0
173
0
174
0
175
0
176
0
177
0
178
0
270
2
179
2
271
1
272
1
273
2
274
2
275
0
280
0
281
0
282
0
283
1
284
8
285
0
286
0
287
3
288
0
340
11
278
44
341
211
342
211
343
211
344
211
  0
ENDTAB
  0
ENDSEC
  0
SECTION
  2
BLOCKS
  0
BLOCK
  5
20
100
AcDbEntity
  8
0
100
AcDbBlockBegin
  2
*Model_Space
 70
0
 10
0.0
 20
0.0
 30
0.0
  3
*Model_Space
  1

  0
ENDBLK
  5
21
100
AcDbEntity
  8
0
100
AcDbBlockEnd
  0
BLOCK
  5
1C
100
AcDbEntity
  8
0
100
AcDbBlockBegin
  2
*Paper_Space
 70
0
 10
0.0
 20
0.0
 30
0.0
  3
*Paper_Space
  1

  0
ENDBLK
  5
1D
100
AcDbEntity
  8
0
100
AcDbBlockEnd
  0
BLOCK
  5
218
100
AcDbEntity
  8
0
100
AcDbBlockBegin
  2
_FILLED
 70
64
 10
0.0
 20
0.0
  3
_FILLED
  1

  0
SOLID
  5
219
100
AcDbEntity
  8
0
  6
BYBLOCK
 62
0
100
AcDbTrace
 10
0.0
 20
0.0
 11
-1.0
 21
0.3166666667
 12
-1.0
 22
-0.3166666667
 13
-1.0
 23
-0.3166666667
  0
ENDBLK
  5
21A
100
AcDbEntity
  8
0
  6
BYBLOCK
 62
0
100
AcDbBlockEnd
  0
BLOCK
  5
21B
100
AcDbEntity
  8
0
100
AcDbBlockBegin
 62
7
  6
CONTINUOUS
  2
*D0
 70
65
 10
0.0
 20
0.0
  3
*D0
  1

  0
LINE
  5
21C
100
AcDbEntity
  8
0
100
AcDbLine
 62
7
  6
CONTINUOUS
 10
133.0134662829
 20
136.5929866085
 11
133.0134662829
 21
146.945936388
  0
LINE
  5
21D
100
AcDbEntity
  8
0
100
AcDbLine
 62
7
  6
CONTINUOUS
 10
192.0134662829
 20
136.5929866085
 11
192.0134662829
 21
146.945936388
  0
LINE
  5
21E
100
AcDbEntity
  8
0
100
AcDbLine
 62
7
  6
CONTINUOUS
 10
133.0134662829
 20
145.445936388
 11
162.5134662829
 21
145.445936388
  0
LINE
  5
21F
100
AcDbEntity
  8
0
100
AcDbLine
 62
7
  6
CONTINUOUS
 10
192.0134662829
 20
145.445936388
 11
162.5134662829
 21
145.445936388
  0
INSERT
  5
220
100
AcDbEntity
  8
0
100
AcDbBlockReference
 62
7
  6
CONTINUOUS
  2
_FILLED
 10
133.0134662829
 20
145.445936388
 41
3.0
 42
3.0
 43
3.0
 50
180.0
  0
INSERT
  5
221
100
AcDbEntity
  8
0
100
AcDbBlockReference
 62
7
  6
CONTINUOUS
  2
_FILLED
 10
192.0134662829
 20
145.445936388
 41
3.0
 42
3.0
 43
3.0
  0
ENDBLK
  5
222
100
AcDbEntity
  8
0
  6
BYBLOCK
 62
0
100
AcDbBlockEnd
  0
BLOCK
  5
223
100
AcDbEntity
  8
0
100
AcDbBlockBegin
 62
7
  6
CONTINUOUS
  2
*D1
 70
65
 10
0.0
 20
0.0
  3
*D1
  1

  0
LINE
  5
224
100
AcDbEntity
  8
0
100
AcDbLine
 62
7
  6
CONTINUOUS
 10
192.0138468826
 20
136.5932154605
 11
206.6767996732
 21
136.5932154605
  0
LINE
  5
225
100
AcDbEntity
  8
0
100
AcDbLine
 62
7
  6
CONTINUOUS
 10
192.0138468826
 20
89.8932154605
 11
206.6767996732
 21
89.8932154605
  0
LINE
  5
226
100
AcDbEntity
  8
0
100
AcDbLine
 62
7
  6
CONTINUOUS
 10
205.1767996732
 20
136.5932154605
 11
205.1767996732
 21
113.2432154605
  0
LINE
  5
227
100
AcDbEntity
  8
0
100
AcDbLine
 62
7
  6
CONTINUOUS
 10
205.1767996732
 20
89.8932154605
 11
205.1767996732
 21
113.2432154605
  0
INSERT
  5
228
100
AcDbEntity
  8
0
100
AcDbBlockReference
 62
7
  6
CONTINUOUS
  2
_FILLED
 10
205.1767996732
 20
136.5932154605
 41
3.0
 42
3.0
 43
3.0
 50
90.0
  0
INSERT
  5
229
100
AcDbEntity
  8
0
100
AcDbBlockReference
 62
7
  6
CONTINUOUS
  2
_FILLED
 10
205.1767996732
 20
89.8932154605
 41
3.0
 42
3.0
 43
3.0
 50
270.0
  0
ENDBLK
  5
22A
100
AcDbEntity
  8
0
  6
BYBLOCK
 62
0
100
AcDbBlockEnd
  0
BLOCK
  5
22B
100
AcDbEntity
  8
0
100
AcDbBlockBegin
 62
7
  6
CONTINUOUS
  2
*D2
 70
65
 10
0.0
 20
0.0
  3
*D2
  1

  0
LINE
  5
22C
100
AcDbEntity
  8
0
100
AcDbLine
 62
7
  6
CONTINUOUS
 10
104.8786498928
 20
137.0932154605
 11
104.8786498928
 21
146.5743676493
  0
LINE
  5
22D
100
AcDbEntity
  8
0
100
AcDbLine
 62
7
  6
CONTINUOUS
 10
92.3562880483
 20
133.5568045942
 11
92.3562880483
 21
146.5743676493
  0
LINE
  5
22E
100
AcDbEntity
  8
0
100
AcDbLine
 62
7
  6
CONTINUOUS
 10
104.8786498928
 20
145.0743676493
 11
98.6174689706
 21
145.0743676493
  0
LINE
  5
22F
100
AcDbEntity
  8
0
100
AcDbLine
 62
7
  6
CONTINUOUS
 10
98.6174689706
 20
145.0743676493
 11
115.4109560805
 21
145.0743676493
  0
LINE
  5
230
100
AcDbEntity
  8
0
100
AcDbLine
 62
7
  6
CONTINUOUS
 10
92.3562880483
 20
145.0743676493
 11
98.6174689706
 21
145.0743676493
  0
INSERT
  5
231
100
AcDbEntity
  8
0
100
AcDbBlockReference
 62
7
  6
CONTINUOUS
  2
_FILLED
 10
104.8786498928
 20
145.0743676493
 41
3.0
 42
3.0
 43
3.0
  0
INSERT
  5
232
100
AcDbEntity
  8
0
100
AcDbBlockReference
 62
7
  6
CONTINUOUS
  2
_FILLED
 10
92.3562880483
 20
145.0743676493
 41
3.0
 42
3.0
 43
3.0
 50
180.0
  0
ENDBLK
  5
233
100
AcDbEntity
  8
0
  6
BYBLOCK
 62
0
100
AcDbBlockEnd
  0
ENDSEC
  0
SECTION
  2
ENTITIES
  0
DIMENSION
  5
234
100
AcDbEntity
  8
0
100
AcDbDimension
 62
7
  6
CONTINUOUS
  2
*D0
 10
192.0134662829
 20
145.445936388
 11
160.2634662829
 21
145.445936388
 70
160
 71
2
 72
2
 41
0.9
 42
59.0
  3
DIMSTYLE_1
100
AcDbAlignedDimension
 13
133.0134662829
 23
136.0929866085
 14
192.0134662829
 24
136.0929866085
100
AcDbRotatedDimension
  0
DIMENSION
  5
235
100
AcDbEntity
  8
0
100
AcDbDimension
 62
7
  6
CONTINUOUS
  2
*D1
 10
205.1767996732
 20
89.8932154605
 11
205.1767996732
 21
108.8503583177
 70
160
 71
2
 72
2
 41
0.9
 42
46.7
  3
DIMSTYLE_1
100
AcDbAlignedDimension
 13
191.5138468826
 23
136.5932154605
 14
191.5138468826
 24
89.8932154605
 50
270.0
100
AcDbRotatedDimension
  0
DIMENSION
  5
236
100
AcDbEntity
  8
0
100
AcDbDimension
 62
7
  6
CONTINUOUS
  2
*D2
 10
92.3562880483
 20
145.0743676493
 11
107.4823846519
 21
145.0743676493
 70
160
 71
1
 72
2
 41
0.9
 42
12.5223618444
  3
DIMSTYLE_2
100
AcDbAlignedDimension
 13
104.8786498928
 23
136.5932154605
 14
92.3562880483
 24
133.0568045942
 50
180.0
100
AcDbRotatedDimension
  0
LINE
  5
237
100
AcDbEntity
  8
0
100
AcDbLine
 62
7
  6
CONTINUOUS
 10
133.8002865233
 20
136.3628811844
 11
133.8314628412
 21
136.3789636183
  0
LWPOLYLINE
  5
238
100
AcDbEntity
  8
0
100
AcDbPolyline
 62
250
  6
CONTINUOUS
 90
16
 70
0
 10
133.0640346161
 20
91.240575796
 10
133.0675872174
 20
91.2273685346
 10
133.0764620536
 20
91.2143028851
 10
133.0905639663
 20
91.2015189414
 10
133.1097417506
 20
91.1891537764
 10
133.1337897769
 20
91.177339973
 10
133.1624501954
 20
91.1662042023
 10
133.1954157009
 20
91.1558658651
 10
133.2323328277
 20
91.1464358121
 10
133.2728057399
 20
91.1380151551
 10
133.3164004753
 20
91.1306941826
 10
133.3626495986
 20
91.1245513924
 10
133.4110572134
 20
91.1196526492
 10
133.4611042793
 20
91.1160504787
 10
133.5122541774
 20
91.1137835044
 10
133.5639584637
 20
91.1128760334
  0
LWPOLYLINE
  5
239
100
AcDbEntity
  8
0
100
AcDbPolyline
 62
250
  6
CONTINUOUS
 90
16
 70
0
 10
133.0480719654
 20
90.4973457865
 10
133.0508550555
 20
90.4451840253
 10
133.0590784872
 20
90.3935929812
 10
133.0726523009
 20
90.3431372337
 10
133.0914279867
 20
90.2943689404
 10
133.1152001051
 20
90.2478218047
 10
133.143708531
 20
90.204005233
 10
133.1766413108
 20
90.1633987424
 10
133.2136380664
 20
90.1264467295
 10
133.2542939285
 20
90.0935536108
 10
133.2981639943
 20
90.0650793702
 10
133.3447681795
 20
90.0413356381
 10
133.3935964517
 20
90.0225822853
 10
133.4441144492
 20
90.0090245567
 10
133.4957693333
 20
90.0008108337
 10
133.547995813
 20
89.998031019
  0
LWPOLYLINE
  5
23A
100
AcDbEntity
  8
0
100
AcDbPolyline
 62
250
  6
CONTINUOUS
 90
16
 70
0
 10
133.0898775408
 20
135.863566417
 10
133.0926606975
 20
135.915728806
 10
133.1008843048
 20
135.9673203568
 10
133.1144583679
 20
136.0177764781
 10
133.1332343393
 20
136.0665450042
 10
133.1570067443
 20
136.1130922376
 10
133.1855154302
 20
136.1569087895
 10
133.2184484126
 20
136.1975151541
 10
133.2554452899
 20
136.2344669564
 10
133.2961011874
 20
136.267359815
 10
133.3399711881
 20
136.2958337674
 10
133.3865752014
 20
136.3195772095
 10
133.4354032169
 20
136.3383303052
 10
133.4859208862
 20
136.3518878304
 10
133.53757537
 20
136.3601014186
 10
133.5898013883
 20
136.3628811844
  0
LWPOLYLINE
  5
23B
100
AcDbEntity
  8
0
100
AcDbPolyline
 62
250
  6
CONTINUOUS
 90
16
 70
0
 10
133.0916796286
 20
135.8472145628
 10
133.0946379082
 20
135.8975537129
 10
133.1030097885
 20
135.9473445174
 10
133.1167040766
 20
135.9960445889
 10
133.135571601
 20
136.0431234209
 10
133.1594068358
 20
136.0880681669
 10
133.1879501396
 20
136.130389226
 10
133.2208905846
 20
136.1696255788
 10
133.2578693425
 20
136.2053498073
 10
133.2984835921
 20
136.2371727507
 10
133.3422909107
 20
136.2647477479
 10
133.3888140913
 20
136.2877744113
 10
133.4375463385
 20
136.3060018989
 10
133.4879567939
 20
136.3192316494
 10
133.5394963194
 20
136.327319544
 10
133.5916034762
 20
136.3301774759
  0
LWPOLYLINE
  5
23C
100
AcDbEntity
  8
0
100
AcDbPolyline
 62
250
  6
CONTINUOUS
 90
16
 70
0
 10
133.2105323442
 20
134.0227304205
 10
133.2134906342
 20
134.0730696624
 10
133.2218625414
 20
134.1228605415
 10
133.2355568679
 20
134.1715606687
 10
133.2544244365
 20
134.2186395367
 10
133.2782597163
 20
134.2635842991
 10
133.3068030615
 20
134.305905357
 10
133.3397435395
 20
134.3451416927
 10
133.3767223184
 20
134.3808658912
 10
133.4173365754
 20
134.4126887964
 10
133.4611438856
 20
134.4402637505
 10
133.5076670407
 20
134.46329037
 10
133.556399248
 20
134.4815178179
 10
133.6068096508
 20
134.4947475364
 10
133.6583491111
 20
134.5028354097
 10
133.7104561918
 20
134.5056933336
  0
LWPOLYLINE
  5
23D
100
AcDbEntity
  8
0
100
AcDbPolyline
 62
250
  6
CONTINUOUS
 90
9
 70
0
 10
133.0914826709
 20
135.8500970292
 10
133.0912848404
 20
135.8527136677
 10
133.0910861372
 20
135.8550644782
 10
133.0908864891
 20
135.8571502213
 10
133.0906859682
 20
135.8589701364
 10
133.0904847913
 20
135.8605219418
 10
133.0902830305
 20
135.8618048767
 10
133.0900806137
 20
135.8628197018
 10
133.0898775408
 20
135.863566417
  0
LINE
  5
23E
100
AcDbEntity
  8
0
100
AcDbLine
 62
250
  6
CONTINUOUS
 10
133.2105323442
 20
134.0227304205
 11
133.0914826709
 21
135.8500970292
  0
LINE
  5
23F
100
AcDbEntity
  8
0
100
AcDbLine
 62
250
  6
CONTINUOUS
 10
133.7104561918
 20
134.5056933336
 11
133.5916034762
 21
136.3301774759
  0
LWPOLYLINE
  5
240
100
AcDbEntity
  8
0
100
AcDbPolyline
 62
250
  6
CONTINUOUS
 90
8
 70
0
 10
133.5912086698
 20
136.3411726878
 10
133.5910099666
 20
136.3458773066
 10
133.5908103287
 20
136.3500493735
 10
133.5906098241
 20
136.3536877523
 10
133.5904086574
 20
136.3567922339
 10
133.5902068966
 20
136.3593609112
 10
133.5900044736
 20
136.3613911431
 10
133.5898013883
 20
136.3628811844
  0
LINE
  5
241
100
AcDbEntity
  8
0
100
AcDbLine
 62
7
  6
CONTINUOUS
 10
133.7905985054
 20
136.3301774759
 11
133.8519540661
 21
134.6188998287
  0
LINE
  5
242
100
AcDbEntity
  8
0
100
AcDbLine
 62
250
  6
CONTINUOUS
 10
133.5916034762
 20
136.3301774759
 11
133.5912086698
 21
136.3411726878
  0
LWPOLYLINE
  5
243
100
AcDbEntity
  8
0
100
AcDbPolyline
 62
250
  6
CONTINUOUS
 90
5
 70
0
 10
133.2148913506
 20
133.9178249382
 10
133.2138705027
 20
133.9498018957
 10
133.2128058333
 20
133.97774888
 10
133.2116931138
 20
134.0020583882
 10
133.2105323442
 20
134.0227304205
  0
LWPOLYLINE
  5
244
100
AcDbEntity
  8
0
100
AcDbPolyline
 62
250
  6
CONTINUOUS
 90
3
 70
0
 10
133.712729883
 20
134.4387884745
 10
133.7116170907
 20
134.4753898271
 10
133.7104561918
 20
134.5056933336
  0
LINE
  5
245
100
AcDbEntity
  8
0
100
AcDbLine
 62
250
  6
CONTINUOUS
 10
133.2167762105
 20
133.8441360867
 11
133.2148913506
 21
133.9178249382
  0
LINE
  5
246
100
AcDbEntity
  8
0
100
AcDbLine
 62
250
  6
CONTINUOUS
 10
133.7148153428
 20
134.3482466485
 11
133.712729883
 21
134.4387884745
  0
LINE
  5
247
100
AcDbEntity
  8
0
100
AcDbLine
 62
250
  6
CONTINUOUS
 10
133.2184090004
 20
133.7608489497
 11
133.2167762105
 21
133.8441360867
  0
LINE
  5
248
100
AcDbEntity
  8
0
100
AcDbLine
 62
250
  6
CONTINUOUS
 10
133.7166999865
 20
134.2378018326
 11
133.7148153428
 21
134.3482466485
  0
LINE
  5
249
100
AcDbEntity
  8
0
100
AcDbLine
 62
250
  6
CONTINUOUS
 10
133.2204037234
 20
133.6230594027
 11
133.2184090004
 21
133.7608489497
  0
LINE
  5
24A
100
AcDbEntity
  8
0
100
AcDbLine
 62
250
  6
CONTINUOUS
 10
133.7197232566
 20
133.9771269078
 11
133.7166999865
 21
134.2378018326
  0
LINE
  5
24B
100
AcDbEntity
  8
0
100
AcDbLine
 62
250
  6
CONTINUOUS
 10
133.2223170076
 20
133.414177032
 11
133.2204037234
 21
133.6230594027
  0
LINE
  5
24C
100
AcDbEntity
  8
0
100
AcDbLine
 62
250
  6
CONTINUOUS
 10
133.7222408455
 20
133.592863251
 11
133.7197232566
 21
133.9771269078
  0
LINE
  5
24D
100
AcDbEntity
  8
0
100
AcDbLine
 62
250
  6
CONTINUOUS
 10
133.2234288683
 20
133.1266839724
 11
133.2223170076
 21
133.414177032
  0
LINE
  5
24E
100
AcDbEntity
  8
0
100
AcDbLine
 62
7
  6
CONTINUOUS
 10
133.0134662829
 20
136.0929866085
 11
133.0134662829
 21
90.3934443126
  0
LINE
  5
24F
100
AcDbEntity
  8
0
100
AcDbLine
 62
250
  6
CONTINUOUS
 10
133.7233688734
 20
132.9820311879
 11
133.7222408455
 21
133.592863251
  0
LINE
  5
250
100
AcDbEntity
  8
0
100
AcDbLine
 62
250
  6
CONTINUOUS
 10
133.1972768204
 20
124.7992240468
 11
133.2234288683
 21
133.1266839724
  0
LINE
  5
251
100
AcDbEntity
  8
0
100
AcDbLine
 62
250
  6
CONTINUOUS
 10
133.697200668
 20
124.7044553756
 11
133.7233688734
 21
132.9820311879
  0
LINE
  5
252
100
AcDbEntity
  8
0
100
AcDbLine
 62
250
  6
CONTINUOUS
 10
133.1068403929
 20
100.9144734195
 11
133.1972768204
 21
124.7992240468
  0
LINE
  5
253
100
AcDbEntity
  8
0
100
AcDbLine
 62
250
  6
CONTINUOUS
 10
133.6067642405
 20
100.7964572381
 11
133.697200668
 21
124.7044553756
  0
LINE
  5
254
100
AcDbEntity
  8
0
100
AcDbLine
 62
250
  6
CONTINUOUS
 10
133.06281474
 20
91.0538411924
 11
133.1068403929
 21
100.9144734195
  0
LINE
  5
255
100
AcDbEntity
  8
0
100
AcDbLine
 62
250
  6
CONTINUOUS
 10
133.5609872324
 20
90.5892363597
 11
133.6067642405
 21
100.7964572381
  0
LINE
  5
256
100
AcDbEntity
  8
0
100
AcDbLine
 62
250
  6
CONTINUOUS
 10
133.0610633299
 20
90.8914826804
 11
133.06281474
 21
91.0538411924
  0
LINE
  5
257
100
AcDbEntity
  8
0
100
AcDbLine
 62
250
  6
CONTINUOUS
 10
133.5581172445
 20
90.3335698504
 11
133.5609872324
 21
90.5892363597
  0
LINE
  5
258
100
AcDbEntity
  8
0
100
AcDbLine
 62
250
  6
CONTINUOUS
 10
133.0589505243
 20
90.7586777961
 11
133.0610633299
 21
90.8914826804
  0
LINE
  5
259
100
AcDbEntity
  8
0
100
AcDbLine
 62
250
  6
CONTINUOUS
 10
133.5556648414
 20
90.1897909046
 11
133.5581172445
 21
90.3335698504
  0
LINE
  5
25A
100
AcDbEntity
  8
0
100
AcDbLine
 62
250
  6
CONTINUOUS
 10
133.0574091681
 20
90.6864656282
 11
133.0589505243
 21
90.7586777961
  0
LWPOLYLINE
  5
25B
100
AcDbEntity
  8
0
100
AcDbPolyline
 62
250
  6
CONTINUOUS
 90
8
 70
0
 10
133.547995813
 20
89.9980310191
 10
133.549037031
 20
90.0053619381
 10
133.5500537676
 20
90.0178105302
 10
133.5510460227
 20
90.0351586731
 10
133.5520126182
 20
90.0570728344
 10
133.5529547323
 20
90.0833770081
 10
133.5538758993
 20
90.1142523092
 10
133.5556648414
 20
90.1897909046
  0
LWPOLYLINE
  5
25C
100
AcDbEntity
  8
0
100
AcDbPolyline
 62
250
  6
CONTINUOUS
 90
10
 70
0
 10
133.0480719654
 20
90.4973457865
 10
133.049113082
 20
90.5024877852
 10
133.0501297635
 20
90.5107383751
 10
133.05112201
 20
90.5220975561
 10
133.0520886733
 20
90.5365981086
 10
133.0530309016
 20
90.5542072523
 10
133.0539521393
 20
90.5748266463
 10
133.054857058
 20
90.5985303172
 10
133.0557409861
 20
90.6252442384
 10
133.0574091681
 20
90.6864656282
  0
LWPOLYLINE
  5
25D
100
AcDbEntity
  8
0
100
AcDbPolyline
 62
7
  6
CONTINUOUS
 90
10
 70
0
 43
0.3500000006
 10
162.834890625
 20
146.1959338989
 10
163.6920466919
 20
147.0530718384
 10
163.9063311768
 20
147.9102279053
 10
163.9063311768
 20
148.7673658447
 10
163.4777440796
 20
149.1959348145
 10
162.834890625
 20
149.1959348145
 10
162.4063216553
 20
148.7673658447
 10
162.4063216553
 20
147.9102279053
 10
162.834890625
 20
147.4816589355
 10
163.763468811
 20
147.4816589355
  0
LINE
  5
25E
100
AcDbEntity
  8
0
100
AcDbLine
 62
7
  6
CONTINUOUS
 10
133.5130856832
 20
89.8932154605
 11
191.5138468826
 21
89.8932154605
  0
LINE
  5
25F
100
AcDbEntity
  8
0
100
AcDbLine
 62
250
  6
CONTINUOUS
 10
133.547995813
 20
89.9980310191
 11
191.4789367528
 21
89.9980310191
  0
LINE
  5
260
100
AcDbEntity
  8
0
100
AcDbLine
 62
250
  6
CONTINUOUS
 10
133.0134662829
 20
90.3934443126
 11
133.0480719654
 21
90.4973457865
  0
LINE
  5
261
100
AcDbEntity
  8
0
100
AcDbLine
 62
250
  6
CONTINUOUS
 10
133.5130856832
 20
89.8932154605
 11
133.547995813
 21
89.9980310191
  0
LINE
  5
262
100
AcDbEntity
  8
0
100
AcDbLine
 62
7
  6
CONTINUOUS
 10
151.9602512429
 20
135.1095391239
 11
151.5541343197
 21
134.5056933336
  0
LINE
  5
263
100
AcDbEntity
  8
0
100
AcDbLine
 62
250
  6
CONTINUOUS
 10
133.5639584637
 20
91.1128760334
 11
191.4629741021
 21
91.1128760334
  0
LWPOLYLINE
  5
264
100
AcDbEntity
  8
0
100
AcDbPolyline
 62
250
  6
CONTINUOUS
 90
16
 70
0
 10
133.2232094876
 20
132.8847768429
 10
133.2267772092
 20
132.8758827974
 10
133.2356647121
 20
132.8670840572
 10
133.2497767755
 20
132.858474925
 10
133.2689621833
 20
132.8501476719
 10
133.2930153406
 20
132.84219155
 10
133.3216784735
 20
132.8346918353
 10
133.354644402
 20
132.8277289109
 10
133.3915598225
 20
132.8213774083
 10
133.4320290837
 20
132.8157054078
 10
133.4756184548
 20
132.8107737047
 10
133.5218607567
 20
132.8066351606
 10
133.5702603489
 20
132.8033341375
 10
133.6202984797
 20
132.8009060186
 10
133.6714388498
 20
132.7993768308
 10
133.7231333352
 20
132.7987629664
  0
LINE
  5
265
100
AcDbEntity
  8
0
100
AcDbLine
 62
250
  6
CONTINUOUS
 10
133.0898775408
 20
135.863566417
 11
133.0134662829
 21
136.0929866085
  0
LINE
  5
266
100
AcDbEntity
  8
0
100
AcDbLine
 62
250
  6
CONTINUOUS
 10
133.5898013883
 20
136.3628811844
 11
133.5130856832
 21
136.5932154605
  0
LINE
  5
267
100
AcDbEntity
  8
0
100
AcDbLine
 62
250
  6
CONTINUOUS
 10
133.8314628412
 20
136.3789636183
 11
134.5003475436
 21
134.5056933336
  0
LINE
  5
268
100
AcDbEntity
  8
0
100
AcDbLine
 62
250
  6
CONTINUOUS
 10
134.2063838163
 20
136.4045407772
 11
134.8844013014
 21
134.5056933336
  0
LINE
  5
269
100
AcDbEntity
  8
0
100
AcDbLine
 62
250
  6
CONTINUOUS
 10
133.8631422028
 20
134.6013099209
 11
133.8767631464
 21
134.5798951716
  0
LINE
  5
26A
100
AcDbEntity
  8
0
100
AcDbLine
 62
250
  6
CONTINUOUS
 10
151.9602512429
 20
135.1095391239
 11
152.1095548082
 21
134.5056933336
  0
LWPOLYLINE
  5
26B
100
AcDbEntity
  8
0
100
AcDbPolyline
 62
7
  6
CONTINUOUS
 90
2
 70
0
 43
0.3500000006
 10
204.426800354
 20
109.8503594971
 10
202.9267908325
 20
109.8503594971
  0
LINE
  5
26C
100
AcDbEntity
  8
0
100
AcDbLine
 62
250
  6
CONTINUOUS
 10
152.2680900456
 20
135.2612081883
 11
152.4548944637
 21
134.5056933336
  0
LWPOLYLINE
  5
26D
100
AcDbEntity
  8
0
100
AcDbPolyline
 62
7
  6
CONTINUOUS
 90
4
 70
0
 43
0.3500000006
 10
202.0696528931
 20
115.2789299927
 10
201.4267994385
 20
115.2789299927
 10
201.4267994385
 20
116.7789304504
 10
204.426800354
 20
115.9217834473
  0
LINE
  5
26E
100
AcDbEntity
  8
0
100
AcDbLine
 62
250
  6
CONTINUOUS
 10
172.7588425202
 20
135.2612081883
 11
172.5720381021
 21
134.5056933336
  0
LINE
  5
26F
100
AcDbEntity
  8
0
100
AcDbLine
 62
250
  6
CONTINUOUS
 10
173.0666813229
 20
135.1095391239
 11
172.9173777576
 21
134.5056933336
  0
LINE
  5
270
100
AcDbEntity
  8
0
100
AcDbLine
 62
250
  6
CONTINUOUS
 10
191.1501694194
 20
134.5798951716
 11
191.163790363
 21
134.6013099209
  0
LWPOLYLINE
  5
271
100
AcDbEntity
  8
0
100
AcDbPolyline
 62
7
  6
CONTINUOUS
 90
3
 70
0
 43
0.3500000006
 10
204.14109375
 20
114.2789296875
 10
204.3553782349
 20
114.2074985046
 10
204.6410848389
 20
114.0646452026
  0
LWPOLYLINE
  5
272
100
AcDbEntity
  8
0
100
AcDbPolyline
 62
7
  6
CONTINUOUS
 90
10
 70
0
 43
0.3500000006
 10
203.9267911377
 20
114.2074985046
 10
204.0696535034
 20
114.2789296875
 10
204.14109375
 20
114.2789296875
 10
204.2839379883
 20
114.1360763855
 10
204.2839379883
 20
114.0646452026
 10
204.2125158691
 20
113.9932140198
 10
204.14109375
 20
113.9932140198
 10
203.9982313843
 20
114.0646452026
 10
203.9267911377
 20
114.1360763855
 10
203.9267911377
 20
114.2074985046
  0
LINE
  5
273
100
AcDbEntity
  8
0
100
AcDbLine
 62
250
  6
CONTINUOUS
 10
191.5138468826
 20
136.5932154605
 11
191.4371311774
 21
136.3628811844
  0
LINE
  5
274
100
AcDbEntity
  8
0
100
AcDbLine
 62
250
  6
CONTINUOUS
 10
190.1425312644
 20
134.5056933336
 11
190.8205487495
 21
136.4045407772
  0
LINE
  5
275
100
AcDbEntity
  8
0
100
AcDbLine
 62
250
  6
CONTINUOUS
 10
190.5265850221
 20
134.5056933336
 11
191.1954697246
 21
136.3789636183
  0
LWPOLYLINE
  5
276
100
AcDbEntity
  8
0
100
AcDbPolyline
 62
250
  6
CONTINUOUS
 90
16
 70
0
 10
191.8037230782
 20
132.8847768429
 10
191.8001552778
 20
132.8758826855
 10
191.7912675861
 20
132.8670838547
 10
191.7771552604
 20
132.8584746555
 10
191.757969555
 20
132.8501473604
 10
191.7339161004
 20
132.8421912203
 10
191.7052526988
 20
132.8346915084
 10
191.6722865615
 20
132.8277286058
 10
191.635371016
 20
132.8213771402
 10
191.5949017194
 20
132.8157051858
 10
191.5513124171
 20
132.8107735341
 10
191.5050702948
 20
132.806635042
 10
191.4566709705
 20
132.8033340654
 10
191.4066331831
 20
132.8009059839
 10
191.3554932323
 20
132.7993768214
 10
191.3037992306
 20
132.7987629672
  0
LINE
  5
277
100
AcDbEntity
  8
0
100
AcDbLine
 62
250
  6
CONTINUOUS
 10
133.7231333352
 20
132.7987629672
 11
191.3037992306
 21
132.7987629672
  0
LINE
  5
278
100
AcDbEntity
  8
0
100
AcDbLine
 62
250
  6
CONTINUOUS
 10
191.4789367528
 20
89.9980310191
 11
191.5138468826
 21
89.8932154605
  0
LWPOLYLINE
  5
279
100
AcDbEntity
  8
0
100
AcDbPolyline
 62
250
  6
CONTINUOUS
 90
10
 70
0
 10
191.937055025
 20
135.863566417
 10
191.9368522267
 20
135.8628213571
 10
191.9366500152
 20
135.8618079761
 10
191.9364483903
 20
135.860526274
 10
191.936247279
 20
135.8589757605
 10
191.9360467544
 20
135.8571569259
 10
191.935847036
 20
135.8550712416
 10
191.9356481969
 20
135.8527191983
 10
191.9354501639
 20
135.8501003054
 10
191.8164002216
 20
134.0227304205
  0
LINE
  5
27A
100
AcDbEntity
  8
0
100
AcDbLine
 62
250
  6
CONTINUOUS
 10
192.0134662829
 20
136.0929866085
 11
191.937055025
 21
135.863566417
  0
LINE
  5
27B
100
AcDbEntity
  8
0
100
AcDbLine
 62
250
  6
CONTINUOUS
 10
191.316476374
 20
134.5056933336
 11
190.7337046473
 21
134.5056933336
  0
LINE
  5
27C
100
AcDbEntity
  8
0
100
AcDbLine
 62
7
  6
CONTINUOUS
 10
190.7337046473
 20
134.5056933336
 11
134.2932279185
 21
134.5056933336
  0
LINE
  5
27D
100
AcDbEntity
  8
0
100
AcDbLine
 62
250
  6
CONTINUOUS
 10
134.2932279185
 20
134.5056933336
 11
133.7104561918
 21
134.5056933336
  0
LINE
  5
27E
100
AcDbEntity
  8
0
100
AcDbLine
 62
7
  6
CONTINUOUS
 10
172.7588425202
 20
135.2612081883
 11
152.2680900456
 21
135.2612081883
  0
LINE
  5
27F
100
AcDbEntity
  8
0
100
AcDbLine
 62
7
  6
CONTINUOUS
 10
173.4727982461
 20
134.5056933336
 11
173.0666813229
 21
135.1095391239
  0
LINE
  5
280
100
AcDbEntity
  8
0
100
AcDbLine
 62
250
  6
CONTINUOUS
 10
191.9788606004
 20
90.4973457865
 11
192.0134662829
 21
90.3934443126
  0
LINE
  5
281
100
AcDbEntity
  8
0
100
AcDbLine
 62
250
  6
CONTINUOUS
 10
191.4353290896
 20
136.3301774759
 11
191.2363340604
 21
136.3301774759
  0
LINE
  5
282
100
AcDbEntity
  8
0
100
AcDbLine
 62
250
  6
CONTINUOUS
 10
133.7905985054
 20
136.3301774759
 11
133.5916034762
 21
136.3301774759
  0
LINE
  5
283
100
AcDbEntity
  8
0
100
AcDbLine
 62
250
  6
CONTINUOUS
 10
191.4371311774
 20
136.3628811844
 11
191.2266460425
 21
136.3628811844
  0
LINE
  5
284
100
AcDbEntity
  8
0
100
AcDbLine
 62
250
  6
CONTINUOUS
 10
133.8002865233
 20
136.3628811844
 11
133.5898013883
 21
136.3628811844
  0
LINE
  5
285
100
AcDbEntity
  8
0
100
AcDbLine
 62
7
  6
CONTINUOUS
 10
190.8205487495
 20
136.4045407772
 11
134.2063838163
 21
136.4045407772
  0
LINE
  5
286
100
AcDbEntity
  8
0
100
AcDbLine
 62
7
  6
CONTINUOUS
 10
133.5130856832
 20
136.5932154605
 11
191.5138468826
 21
136.5932154605
  0
LINE
  5
287
100
AcDbEntity
  8
0
100
AcDbLine
 62
7
  6
CONTINUOUS
 10
191.2363340604
 20
136.3301774759
 11
191.1749784997
 21
134.6188998287
  0
LINE
  5
288
100
AcDbEntity
  8
0
100
AcDbLine
 62
250
  6
CONTINUOUS
 10
191.4353290896
 20
136.3301774759
 11
191.316476374
 21
134.5056933336
  0
LWPOLYLINE
  5
289
100
AcDbEntity
  8
0
100
AcDbPolyline
 62
250
  6
CONTINUOUS
 90
9
 70
0
 10
191.4371311774
 20
136.3628811844
 10
191.4369283669
 20
136.3613935324
 10
191.4367261492
 20
136.3593663736
 10
191.4365245243
 20
136.3568008984
 10
191.4363234232
 20
136.3536991913
 10
191.4361229149
 20
136.3500626113
 10
191.4359232067
 20
136.3458908336
 10
191.4357243676
 20
136.3411844612
 10
191.4353290896
 20
136.3301774759
  0
LWPOLYLINE
  5
28A
100
AcDbEntity
  8
0
100
AcDbPolyline
 62
7
  6
CONTINUOUS
 90
10
 70
0
 43
0.3500000006
 10
201.4267994385
 20
112.2789290771
 10
202.0696528931
 20
111.6360756226
 10
202.9267908325
 20
111.2074975891
 10
203.9982313843
 20
111.2074975891
 10
204.426800354
 20
111.6360756226
 10
204.426800354
 20
112.2789290771
 10
203.9982313843
 20
112.7074980469
 10
203.1410934448
 20
112.7074980469
 10
202.7125063477
 20
112.2789290771
 10
202.7125063477
 20
111.3503599548
  0
LWPOLYLINE
  5
28B
100
AcDbEntity
  8
0
100
AcDbPolyline
 62
250
  6
CONTINUOUS
 90
8
 70
0
 10
191.9713596164
 20
90.619723347
 10
191.9723023666
 20
90.592223542
 10
191.9732981038
 20
90.5674827287
 10
191.974342132
 20
90.5456089723
 10
191.9754216735
 20
90.5275623883
 10
191.9765324691
 20
90.5136630153
 10
191.9776787781
 20
90.5035908147
 10
191.9788606004
 20
90.4973457865
  0
LWPOLYLINE
  5
28C
100
AcDbEntity
  8
0
100
AcDbPolyline
 62
250
  6
CONTINUOUS
 90
6
 70
0
 10
191.4733742469
 20
90.1030377213
 10
191.4744181369
 20
90.0705152267
 10
191.4754975994
 20
90.0433559212
 10
191.4766084113
 20
90.021985436
 10
191.4777547958
 20
90.0067526476
 10
191.4789367528
 20
89.9980310191
  0
LINE
  5
28D
100
AcDbEntity
  8
0
100
AcDbLine
 62
250
  6
CONTINUOUS
 10
191.9696176786
 20
90.6826882071
 11
191.9713596164
 21
90.619723347
  0
LINE
  5
28E
100
AcDbEntity
  8
0
100
AcDbLine
 62
250
  6
CONTINUOUS
 10
191.4714358279
 20
90.1818117973
 11
191.4733742469
 21
90.1030377213
  0
LINE
  5
28F
100
AcDbEntity
  8
0
100
AcDbLine
 62
250
  6
CONTINUOUS
 10
191.968068118
 20
90.7540737421
 11
191.9696176786
 21
90.6826882071
  0
LINE
  5
290
100
AcDbEntity
  8
0
100
AcDbLine
 62
250
  6
CONTINUOUS
 10
191.4696937764
 20
90.2760446498
 11
191.4714358279
 21
90.1818117973
  0
LINE
  5
291
100
AcDbEntity
  8
0
100
AcDbLine
 62
250
  6
CONTINUOUS
 10
191.9660374256
 20
90.8790466268
 11
191.968068118
 21
90.7540737421
  0
LINE
  5
292
100
AcDbEntity
  8
0
100
AcDbLine
 62
250
  6
CONTINUOUS
 10
191.4674320119
 20
90.4418619895
 11
191.4696937764
 21
90.2760446498
  0
LINE
  5
293
100
AcDbEntity
  8
0
100
AcDbLine
 62
250
  6
CONTINUOUS
 10
191.9639580597
 20
91.0729158922
 11
191.9660374256
 21
90.8790466268
  0
LINE
  5
294
100
AcDbEntity
  8
0
100
AcDbLine
 62
250
  6
CONTINUOUS
 10
191.4644825332
 20
90.7842901445
 11
191.4674320119
 21
90.4418619895
  0
LINE
  5
295
100
AcDbEntity
  8
0
100
AcDbLine
 62
250
  6
CONTINUOUS
 10
191.9274773953
 20
99.2066528104
 11
191.9639580597
 21
91.0729158922
  0
LINE
  5
296
100
AcDbEntity
  8
0
100
AcDbLine
 62
250
  6
CONTINUOUS
 10
191.3968532918
 20
106.4341121291
 11
191.4629741021
 21
91.1128760334
  0
LINE
  5
297
100
AcDbEntity
  8
0
100
AcDbLine
 62
250
  6
CONTINUOUS
 10
191.8703442408
 20
113.3370739016
 11
191.9274773953
 21
99.2066528104
  0
LINE
  5
298
100
AcDbEntity
  8
0
100
AcDbLine
 62
250
  6
CONTINUOUS
 10
191.4629741021
 20
91.1128760334
 11
191.4644825332
 21
90.7842901445
  0
LINE
  5
299
100
AcDbEntity
  8
0
100
AcDbLine
 62
7
  6
CONTINUOUS
 10
192.0134662829
 20
90.3934443126
 11
192.0134662829
 21
136.0929866085
  0
LINE
  5
29A
100
AcDbEntity
  8
0
100
AcDbLine
 62
250
  6
CONTINUOUS
 10
191.3036237521
 20
133.204603521
 11
191.3968532918
 21
106.4341121291
  0
LINE
  5
29B
100
AcDbEntity
  8
0
100
AcDbLine
 62
250
  6
CONTINUOUS
 10
191.8035476007
 20
133.1551995207
 11
191.8703442408
 21
113.3370739016
  0
LINE
  5
29C
100
AcDbEntity
  8
0
100
AcDbLine
 62
250
  6
CONTINUOUS
 10
191.3054545531
 20
133.7404619445
 11
191.3036237521
 21
133.204603521
  0
LINE
  5
29D
100
AcDbEntity
  8
0
100
AcDbLine
 62
250
  6
CONTINUOUS
 10
191.804540701
 20
133.402664661
 11
191.8035476007
 21
133.1551995207
  0
LINE
  5
29E
100
AcDbEntity
  8
0
100
AcDbLine
 62
250
  6
CONTINUOUS
 10
191.3084455244
 20
134.0994670458
 11
191.3054545531
 21
133.7404619445
  0
LINE
  5
29F
100
AcDbEntity
  8
0
100
AcDbLine
 62
250
  6
CONTINUOUS
 10
191.806418958
 20
133.6136065958
 11
191.804540701
 21
133.402664661
  0
LINE
  5
2A0
100
AcDbEntity
  8
0
100
AcDbLine
 62
250
  6
CONTINUOUS
 10
191.3107901045
 20
134.2737982007
 11
191.3084455244
 21
134.0994670458
  0
LINE
  5
2A1
100
AcDbEntity
  8
0
100
AcDbLine
 62
250
  6
CONTINUOUS
 10
191.8083693907
 20
133.7519128952
 11
191.806418958
 21
133.6136065958
  0
LINE
  5
2A2
100
AcDbEntity
  8
0
100
AcDbLine
 62
250
  6
CONTINUOUS
 10
191.3125223277
 20
134.3682833973
 11
191.3107901045
 21
134.2737982007
  0
LINE
  5
2A3
100
AcDbEntity
  8
0
100
AcDbLine
 62
250
  6
CONTINUOUS
 10
191.8098946127
 20
133.8321258612
 11
191.8083693907
 21
133.7519128952
  0
LWPOLYLINE
  5
2A4
100
AcDbEntity
  8
0
100
AcDbPolyline
 62
250
  6
CONTINUOUS
 90
4
 70
0
 10
191.316476374
 20
134.5056933336
 10
191.3154252803
 20
134.4785399048
 10
191.3144155395
 20
134.4463108904
 10
191.3125223277
 20
134.3682833973
  0
LWPOLYLINE
  5
2A5
100
AcDbEntity
  8
0
100
AcDbPolyline
 62
250
  6
CONTINUOUS
 90
7
 70
0
 10
191.8164002216
 20
134.0227304205
 10
191.8153492358
 20
134.0042293216
 10
191.8143395544
 20
133.982822212
 10
191.8133711775
 20
133.9585090916
 10
191.8124462871
 20
133.931278525
 10
191.8115627013
 20
133.9011419477
 10
191.8098946127
 20
133.8321258612
  0
LWPOLYLINE
  5
2A6
100
AcDbEntity
  8
0
100
AcDbPolyline
 62
250
  6
CONTINUOUS
 90
16
 70
0
 10
191.8164002216
 20
134.0227304205
 10
191.8134419816
 20
134.0730692196
 10
191.8050702034
 20
134.1228597415
 10
191.7913760591
 20
134.1715596053
 10
191.7725086982
 20
134.2186383093
 10
191.7486736264
 20
134.2635830031
 10
191.7201304694
 20
134.3059040752
 10
191.6871901376
 20
134.3451404997
 10
191.6502114459
 20
134.3808648463
 10
191.6095972134
 20
134.4126879345
 10
191.5657898548
 20
134.4402630913
 10
191.5192665738
 20
134.4632899147
 10
191.4705341797
 20
134.4815175436
 10
191.4201235387
 20
134.4947474054
 10
191.3685837885
 20
134.5028353741
 10
191.316476374
 20
134.5056933336
  0
LWPOLYLINE
  5
2A7
100
AcDbEntity
  8
0
100
AcDbPolyline
 62
250
  6
CONTINUOUS
 90
16
 70
0
 10
191.9352529372
 20
135.8472145628
 10
191.9322946472
 20
135.8975538047
 10
191.92392274
 20
135.9473446839
 10
191.9102284135
 20
135.9960448111
 10
191.8913608449
 20
136.043123679
 10
191.8675255651
 20
136.0880684414
 10
191.8389822199
 20
136.1303894994
 10
191.8060417419
 20
136.1696258351
 10
191.769062963
 20
136.2053500335
 10
191.728448706
 20
136.2371729387
 10
191.6846413958
 20
136.2647478928
 10
191.6381182407
 20
136.2877745123
 10
191.5893860333
 20
136.3060019602
 10
191.5389756306
 20
136.3192316788
 10
191.4874361703
 20
136.327319552
 10
191.4353290896
 20
136.3301774759
  0
LWPOLYLINE
  5
2A8
100
AcDbEntity
  8
0
100
AcDbPolyline
 62
250
  6
CONTINUOUS
 90
16
 70
0
 10
191.937055025
 20
135.863566417
 10
191.9342718734
 20
135.9157287585
 10
191.9260482794
 20
135.9673202706
 10
191.9124742354
 20
136.017776363
 10
191.8936982862
 20
136.0665448706
 10
191.8699259037
 20
136.1130920955
 10
191.8414172385
 20
136.156908648
 10
191.8084842727
 20
136.1975150216
 10
191.771487406
 20
136.2344668395
 10
191.7308315122
 20
136.2673597179
 10
191.6869615073
 20
136.2958336926
 10
191.6403574813
 20
136.3195771574
 10
191.5915294459
 20
136.3383302737
 10
191.5410117503
 20
136.3518878153
 10
191.4893572339
 20
136.3601014145
 10
191.4371311774
 20
136.3628811844
  0
LWPOLYLINE
  5
2A9
100
AcDbEntity
  8
0
100
AcDbPolyline
 62
250
  6
CONTINUOUS
 90
16
 70
0
 10
191.9788606004
 20
90.4973457865
 10
191.9760774437
 20
90.4451833975
 10
191.9678538363
 20
90.3935918467
 10
191.9542797732
 20
90.3431357255
 10
191.9355038019
 20
90.2943671993
 10
191.9117313968
 20
90.2478199659
 10
191.883222711
 20
90.2040034141
 10
191.8502897287
 20
90.1633970495
 10
191.8132928514
 20
90.1264452471
 10
191.7726369538
 20
90.0935523885
 10
191.7287669531
 20
90.0650784361
 10
191.6821629399
 20
90.041334994
 10
191.6333349243
 20
90.0225818983
 10
191.582817255
 20
90.0090243731
 10
191.5311627712
 20
90.0008107849
 10
191.4789367528
 20
89.9980310191
  0
LWPOLYLINE
  5
2AA
100
AcDbEntity
  8
0
100
AcDbPolyline
 62
7
  6
CONTINUOUS
 90
3
 70
0
 43
0.3500000006
 10
203.7839468994
 20
110.3503596497
 10
203.7839468994
 20
108.8503591919
 10
201.4267994385
 20
109.4932126465
  0
LWPOLYLINE
  5
2AB
100
AcDbEntity
  8
0
100
AcDbPolyline
 62
250
  6
CONTINUOUS
 90
16
 70
0
 10
191.9628979496
 20
91.240575796
 10
191.9593454006
 20
91.2273686438
 10
191.9504706895
 20
91.2143030825
 10
191.9363689508
 20
91.2015192037
 10
191.9171913636
 20
91.1891540792
 10
191.893143534
 20
91.177340293
 10
191.8644832929
 20
91.166204519
 10
191.831517925
 20
91.1558661601
 10
191.7946008799
 20
91.1464360707
 10
191.7541279903
 20
91.1380153685
 10
191.7105332085
 20
91.1306943461
 10
191.6642839658
 20
91.1245515054
 10
191.6158761736
 20
91.1196527174
 10
191.565828881
 20
91.1160505115
 10
191.5146787067
 20
91.1137835136
 10
191.4629741021
 20
91.1128760342
  0
LWPOLYLINE
  5
2AC
100
AcDbEntity
  8
0
100
AcDbPolyline
 62
7
  6
CONTINUOUS
 90
8
 70
0
 43
0.3500000006
 10
160.2634586792
 20
146.1959338989
 10
161.1206147461
 20
146.1959338989
 10
161.5491837158
 20
146.6245028687
 10
161.5491837158
 20
147.4816589355
 10
161.1206147461
 20
147.9102279053
 10
160.2634586792
 20
147.9102279053
 10
160.2634586792
 20
149.1959348145
 10
161.5491837158
 20
149.1959348145
  0
LINE
  5
2AD
100
AcDbEntity
  8
0
100
AcDbLine
 62
7
  6
CONTINUOUS
 10
191.2266460425
 20
136.3628811844
 11
191.1954697246
 21
136.3789636183
  0
LWPOLYLINE
  5
2AE
100
AcDbEntity
  8
0
100
AcDbPolyline
 62
250
  6
CONTINUOUS
 90
25
 70
0
 10
93.5887428
 20
134.0227304205
 10
93.528531864
 20
134.0042293216
 10
93.4706872575
 20
133.982822212
 10
93.4152089807
 20
133.9585090916
 10
93.3622220493
 20
133.931278525
 10
93.3116014475
 20
133.9011419477
 10
93.2629721274
 20
133.8681336655
 10
93.2160367188
 20
133.8321258612
 10
93.1710925918
 20
133.793246352
 10
93.1286568097
 20
133.7519128952
 10
93.0887465035
 20
133.708055997
 10
93.051344542
 20
133.6617451512
 10
93.0169165953
 20
133.6136065958
 10
92.9856223657
 20
133.5639998433
 10
92.9573021509
 20
133.5125653812
 10
92.9319425141
 20
133.4588509108
 10
92.9093113232
 20
133.402664661
 10
92.8896407104
 20
133.3441984029
 10
92.8736136356
 20
133.2835751506
 10
92.8611933696
 20
133.2204658328
 10
92.8524166417
 20
133.1551995207
 10
92.8480766001
 20
133.0888864429
 10
92.8484376276
 20
133.0218966754
 10
92.8532353413
 20
132.953860142
 10
92.8624697414
 20
132.8847768429
  0
LINE
  5
2AF
100
AcDbEntity
  8
0
100
AcDbLine
 62
7
  6
CONTINUOUS
 10
111.1786498928
 20
91.0031823696
 11
104.8786498928
 21
90.8932154605
  0
LINE
  5
2B0
100
AcDbEntity
  8
0
100
AcDbLine
 62
250
  6
CONTINUOUS
 10
111.1786498928
 20
91.5031062172
 11
104.8786498928
 21
91.3931393081
  0
LINE
  5
2B1
100
AcDbEntity
  8
0
100
AcDbLine
 62
7
  6
CONTINUOUS
 10
102.8786498928
 20
89.9980310191
 11
104.8786498928
 21
89.8932154605
  0
LINE
  5
2B2
100
AcDbEntity
  8
0
100
AcDbLine
 62
250
  6
CONTINUOUS
 10
102.8960916677
 20
90.4973457865
 11
104.8786498928
 21
90.3934443126
  0
LWPOLYLINE
  5
2B3
100
AcDbEntity
  8
0
100
AcDbPolyline
 62
7
  6
CONTINUOUS
 90
3
 70
0
 43
0.3500000006
 10
107.4823857422
 20
147.9672205811
 10
108.3395236816
 20
148.8243766479
 10
108.3395236816
 20
145.8243757324
  0
LWPOLYLINE
  5
2B4
100
AcDbEntity
  8
0
100
AcDbPolyline
 62
250
  6
CONTINUOUS
 90
4
 70
0
 10
101.5298852049
 20
91.1196527174
 10
101.517122337
 20
91.1160505115
 10
101.509433258
 20
91.1137835136
 10
101.506900423
 20
91.1128760342
  0
LINE
  5
2B5
100
AcDbEntity
  8
0
100
AcDbLine
 62
250
  6
CONTINUOUS
 10
101.5700319462
 20
91.1306943461
 11
101.5298852049
 21
91.1196527174
  0
LINE
  5
2B6
100
AcDbEntity
  8
0
100
AcDbLine
 62
250
  6
CONTINUOUS
 10
101.743426485
 20
91.177340293
 11
101.5700319462
 21
91.1306943461
  0
LINE
  5
2B7
100
AcDbEntity
  8
0
100
AcDbLine
 62
250
  6
CONTINUOUS
 10
101.9815920213
 20
91.240575796
 11
101.743426485
 21
91.177340293
  0
LINE
  5
2B8
100
AcDbEntity
  8
0
100
AcDbLine
 62
7
  6
CONTINUOUS
 10
111.8286498928
 20
91.4432154605
 11
111.5565865084
 21
91.4432154605
  0
LINE
  5
2B9
100
AcDbEntity
  8
0
100
AcDbLine
 62
7
  6
CONTINUOUS
 10
111.5286498928
 20
92.2432154605
 11
111.1786498928
 21
92.2432154605
  0
LINE
  5
2BA
100
AcDbEntity
  8
0
100
AcDbLine
 62
250
  6
CONTINUOUS
 10
112.3803951999
 20
92.8239973122
 11
112.5786498928
 21
92.8239973132
  0
LINE
  5
2BB
100
AcDbEntity
  8
0
100
AcDbLine
 62
7
  6
CONTINUOUS
 10
104.8786498928
 20
92.8742349087
 11
111.1786498928
 21
92.5440658992
  0
LINE
  5
2BC
100
AcDbEntity
  8
0
100
AcDbLine
 62
250
  6
CONTINUOUS
 10
112.0830131605
 20
93.1239858891
 11
105.4878461935
 21
93.1815410393
  0
LINE
  5
2BD
100
AcDbEntity
  8
0
100
AcDbLine
 62
7
  6
CONTINUOUS
 10
112.0830131605
 20
93.3239782737
 11
105.437873759
 21
93.3819695267
  0
LWPOLYLINE
  5
2BE
100
AcDbEntity
  8
0
100
AcDbPolyline
 62
250
  6
CONTINUOUS
 90
22
 70
0
 10
101.9815920213
 20
91.240575796
 10
101.9991204952
 20
91.1825023611
 10
102.0193650505
 20
91.1266157265
 10
102.0423256873
 20
91.0729158922
 10
102.0680077449
 20
91.0215290283
 10
102.096405884
 20
90.9723289648
 10
102.1275040867
 20
90.9249371912
 10
102.1614524789
 20
90.8790466268
 10
102.1981009347
 20
90.8349643523
 10
102.236983058
 20
90.7932330999
 10
102.2777907655
 20
90.7540737421
 10
102.3208321405
 20
90.7172654064
 10
102.366565037
 20
90.6826882071
 10
102.4151170508
 20
90.6500902089
 10
102.4663605861
 20
90.619723347
 10
102.5203707101
 20
90.592223542
 10
102.5774164556
 20
90.5674827287
 10
102.6372287898
 20
90.5456089723
 10
102.6990756812
 20
90.5275623883
 10
102.7627131194
 20
90.5136630153
 10
102.8283851149
 20
90.5035908147
 10
102.8960916677
 20
90.4973457865
  0
LWPOLYLINE
  5
2BF
100
AcDbEntity
  8
0
100
AcDbPolyline
 62
250
  6
CONTINUOUS
 90
13
 70
0
 10
92.8624697414
 20
132.8847768429
 10
93.4469882505
 20
129.603297019
 10
94.0521476128
 20
126.3312289285
 10
94.6779478283
 20
123.0685725716
 10
95.318104167
 20
119.8422096567
 10
95.9789013589
 20
116.6252584754
 10
96.6791935936
 20
113.3370739016
 10
97.4166159438
 20
109.9770778999
 10
98.1935333368
 20
106.5458485059
 10
99.035894744
 20
102.9644747004
 10
99.9523498223
 20
99.2066528104
 10
100.9342489147
 20
95.2986865089
 10
101.9815920213
 20
91.240575796
  0
LINE
  5
2C0
100
AcDbEntity
  8
0
100
AcDbLine
 62
250
  6
CONTINUOUS
 10
93.5887428
 20
134.0227304205
 11
93.5493009347
 21
134.1715596053
  0
LINE
  5
2C1
100
AcDbEntity
  8
0
100
AcDbLine
 62
250
  6
CONTINUOUS
 10
93.5493009347
 20
134.1715596053
 11
93.5253887118
 21
134.2635830031
  0
LINE
  5
2C2
100
AcDbEntity
  8
0
100
AcDbLine
 62
250
  6
CONTINUOUS
 10
93.5253887118
 20
134.2635830031
 11
93.5046086441
 21
134.3451404997
  0
LWPOLYLINE
  5
2C3
100
AcDbEntity
  8
0
100
AcDbPolyline
 62
250
  6
CONTINUOUS
 90
8
 70
0
 10
93.5046086441
 20
134.3451404997
 10
93.4878637535
 20
134.4126879345
 10
93.4812396733
 20
134.4402630913
 10
93.4758817223
 20
134.4632899147
 10
93.4718482719
 20
134.4815175436
 10
93.4691832631
 20
134.4947474054
 10
93.4679157291
 20
134.5028353741
 10
93.4680594807
 20
134.5056933336
  0
LINE
  5
2C4
100
AcDbEntity
  8
0
100
AcDbLine
 62
250
  6
CONTINUOUS
 10
104.8786498928
 20
94.0301787139
 11
105.1706748637
 21
92.8589305285
  0
LINE
  5
2C5
100
AcDbEntity
  8
0
100
AcDbLine
 62
7
  6
CONTINUOUS
 10
104.8786498928
 20
95.6248939469
 11
105.5735462381
 21
92.8378169345
  0
LINE
  5
2C6
100
AcDbEntity
  8
0
100
AcDbLine
 62
250
  6
CONTINUOUS
 10
100.5010518612
 20
135.863566417
 11
100.4933991196
 21
136.017776363
  0
LINE
  5
2C7
100
AcDbEntity
  8
0
100
AcDbLine
 62
250
  6
CONTINUOUS
 10
100.4933991196
 20
136.017776363
 11
100.4891465175
 21
136.1130920955
  0
LINE
  5
2C8
100
AcDbEntity
  8
0
100
AcDbLine
 62
250
  6
CONTINUOUS
 10
100.4891465175
 20
136.1130920955
 11
100.4857945671
 21
136.1975150216
  0
LWPOLYLINE
  5
2C9
100
AcDbEntity
  8
0
100
AcDbPolyline
 62
250
  6
CONTINUOUS
 90
8
 70
0
 10
100.4857945671
 20
136.1975150216
 10
100.4834895956
 20
136.2673597179
 10
100.4827630916
 20
136.2958336926
 10
100.4823322257
 20
136.3195771574
 10
100.4822017131
 20
136.3383302737
 10
100.4823729821
 20
136.3518878153
 10
100.4828441586
 20
136.3601014145
 10
100.4836100863
 20
136.3628811844
  0
LWPOLYLINE
  5
2CA
100
AcDbEntity
  8
0
100
AcDbPolyline
 62
7
  6
CONTINUOUS
 90
3
 70
0
 43
0.3500000006
 10
112.2681027832
 20
146.1100823364
 10
112.1966716003
 20
145.8957978516
 10
112.0538092346
 20
145.6100731201
  0
LWPOLYLINE
  5
2CB
100
AcDbEntity
  8
0
100
AcDbPolyline
 62
250
  6
CONTINUOUS
 90
7
 70
0
 10
102.8785294001
 20
90.0935523885
 10
102.8778028973
 20
90.0650784361
 10
102.8773720324
 20
90.041334994
 10
102.8772415205
 20
90.0225818983
 10
102.8774127898
 20
90.0090243731
 10
102.877883966
 20
90.0008107849
 10
102.8786498928
 20
89.9980310191
  0
LINE
  5
2CC
100
AcDbEntity
  8
0
100
AcDbLine
 62
250
  6
CONTINUOUS
 10
102.8808343693
 20
90.1633970495
 11
102.8785294001
 21
90.0935523885
  0
LINE
  5
2CD
100
AcDbEntity
  8
0
100
AcDbLine
 62
250
  6
CONTINUOUS
 10
102.8841863184
 20
90.2478199659
 11
102.8808343693
 21
90.1633970495
  0
LINE
  5
2CE
100
AcDbEntity
  8
0
100
AcDbLine
 62
250
  6
CONTINUOUS
 10
102.8908462779
 20
90.3935918467
 11
102.8841863184
 21
90.2478199659
  0
LINE
  5
2CF
100
AcDbEntity
  8
0
100
AcDbLine
 62
250
  6
CONTINUOUS
 10
102.8960916677
 20
90.4973457865
 11
102.8908462779
 21
90.3935918467
  0
LINE
  5
2D0
100
AcDbEntity
  8
0
100
AcDbLine
 62
7
  6
CONTINUOUS
 10
104.8786498928
 20
89.8932154605
 11
104.8786498928
 21
136.5932154605
  0
LINE
  5
2D1
100
AcDbEntity
  8
0
100
AcDbLine
 62
250
  6
CONTINUOUS
 10
100.3344559002
 20
136.0880684414
 11
100.3136758666
 21
136.1696258351
  0
LWPOLYLINE
  5
2D2
100
AcDbEntity
  8
0
100
AcDbPolyline
 62
250
  6
CONTINUOUS
 90
8
 70
0
 10
100.3136758666
 20
136.1696258351
 10
100.2969310662
 20
136.2371729387
 10
100.2903070389
 20
136.2647478928
 10
100.2849491395
 20
136.2877745123
 10
100.2809157334
 20
136.3060019602
 10
100.2782507579
 20
136.3192316788
 10
100.2769832434
 20
136.327319552
 10
100.2771269975
 20
136.3301774759
  0
LINE
  5
2D3
100
AcDbEntity
  8
0
100
AcDbLine
 62
250
  6
CONTINUOUS
 10
100.3978103168
 20
135.8472145628
 11
100.3583681767
 21
135.9960448111
  0
LINE
  5
2D4
100
AcDbEntity
  8
0
100
AcDbLine
 62
250
  6
CONTINUOUS
 10
100.3583681767
 20
135.9960448111
 11
100.3344559002
 21
136.0880684414
  0
LINE
  5
2D5
100
AcDbEntity
  8
0
100
AcDbLine
 62
7
  6
CONTINUOUS
 10
111.5565865084
 20
91.4432154605
 11
111.5286498928
 21
92.2432154605
  0
LINE
  5
2D6
100
AcDbEntity
  8
0
100
AcDbLine
 62
7
  6
CONTINUOUS
 10
111.5286498928
 20
134.2432154605
 11
111.5635706623
 21
135.2432154605
  0
LWPOLYLINE
  5
2D7
100
AcDbEntity
  8
0
100
AcDbPolyline
 62
250
  6
CONTINUOUS
 90
19
 70
0
 10
112.3803951999
 20
92.8239973122
 10
112.379149698
 20
92.8501398738
 10
112.3758571548
 20
92.8755891922
 10
112.3705175702
 20
92.9003452674
 10
112.3630661429
 20
92.9245198048
 10
112.3535676742
 20
92.9480010991
 10
112.3422165678
 20
92.9704540338
 10
112.3289937275
 20
92.991898581
 10
112.3139182495
 20
93.0123147686
 10
112.2972418263
 20
93.0313075643
 10
112.2790163829
 20
93.0488468562
 10
112.2591899943
 20
93.0649627561
 10
112.2378585774
 20
93.079350567
 10
112.2148853323
 20
93.0920862149
 10
112.1904070588
 20
93.1030937738
 10
112.1649300733
 20
93.1118407682
 10
112.1386231478
 20
93.1181497063
 10
112.1113175102
 20
93.12219808
 10
112.0830131605
 20
93.1239858891
  0
LWPOLYLINE
  5
2D8
100
AcDbEntity
  8
0
100
AcDbPolyline
 62
250
  6
CONTINUOUS
 90
5
 70
0
 10
112.0836519069
 20
93.2971792983
 10
112.0835481407
 20
93.3087503889
 10
112.0834053613
 20
93.3171604138
 10
112.0832260118
 20
93.322265489
 10
112.0830131605
 20
93.3239782737
  0
LINE
  5
2D9
100
AcDbEntity
  8
0
100
AcDbLine
 62
250
  6
CONTINUOUS
 10
112.0830131605
 20
133.3624450319
 11
112.0836518772
 21
133.2624559034
  0
LINE
  5
2DA
100
AcDbEntity
  8
0
100
AcDbLine
 62
250
  6
CONTINUOUS
 10
112.0837359978
 20
93.265396476
 11
112.0836519069
 21
93.2971792983
  0
LINE
  5
2DB
100
AcDbEntity
  8
0
100
AcDbLine
 62
7
  6
CONTINUOUS
 10
111.1786498928
 20
135.4832485515
 11
111.1786498928
 21
134.0432154605
  0
LINE
  5
2DC
100
AcDbEntity
  8
0
100
AcDbLine
 62
7
  6
CONTINUOUS
 10
111.1786498928
 20
92.5440658992
 11
111.1786498928
 21
91.0031823696
  0
LINE
  5
2DD
100
AcDbEntity
  8
0
100
AcDbLine
 62
250
  6
CONTINUOUS
 10
112.3803951999
 20
91.8478286857
 11
112.3803951999
 21
92.8239973122
  0
LINE
  5
2DE
100
AcDbEntity
  8
0
100
AcDbLine
 62
250
  6
CONTINUOUS
 10
112.3803951999
 20
133.6624336089
 11
112.3803951999
 21
134.6914701534
  0
LINE
  5
2DF
100
AcDbEntity
  8
0
100
AcDbLine
 62
7
  6
CONTINUOUS
 10
112.5786498928
 20
91.9932154605
 11
112.5786498928
 21
92.8239973122
  0
LINE
  5
2E0
100
AcDbEntity
  8
0
100
AcDbLine
 62
7
  6
CONTINUOUS
 10
112.5786498928
 20
133.6624336089
 11
112.5786498928
 21
134.4932154605
  0
LWPOLYLINE
  5
2E1
100
AcDbEntity
  8
0
100
AcDbPolyline
 62
250
  6
CONTINUOUS
 90
7
 70
0
 10
112.0836518772
 20
133.2624559034
 10
112.0837148691
 20
133.2037877059
 10
112.0836518961
 20
133.189252988
 10
112.0835481345
 20
133.1776813835
 10
112.083405359
 20
133.1692709243
 10
112.083226012
 20
133.1641655456
 10
112.0830131615
 20
133.1624526473
  0
LINE
  5
2E2
100
AcDbEntity
  8
0
100
AcDbLine
 62
250
  6
CONTINUOUS
 10
112.0835481386
 20
93.2005161438
 11
112.0837359978
 21
93.265396476
  0
LINE
  5
2E3
100
AcDbEntity
  8
0
100
AcDbLine
 62
250
  6
CONTINUOUS
 10
112.0830131605
 20
93.1239858891
 11
112.0835481386
 21
93.2005161438
  0
LWPOLYLINE
  5
2E4
100
AcDbEntity
  8
0
100
AcDbPolyline
 62
250
  6
CONTINUOUS
 90
19
 70
0
 10
112.0830131605
 20
133.3624450319
 10
112.1091443506
 20
133.3639186994
 10
112.1345643742
 20
133.3674333125
 10
112.1592732314
 20
133.3729888712
 10
112.1833820565
 20
133.3806511683
 10
112.2067797151
 20
133.390354411
 10
112.2291328046
 20
133.4019012214
 10
112.2504611179
 20
133.4153108619
 10
112.2707448621
 20
133.43056407
 10
112.2895912562
 20
133.4474056804
 10
112.3069706366
 20
133.4657834867
 10
112.3229126669
 20
133.4857496952
 10
112.3371135569
 20
133.5072057596
 10
112.3496480494
 20
133.5302891431
 10
112.3604414016
 20
133.5548623824
 10
112.3689655946
 20
133.5804145422
 10
112.3750446222
 20
133.6067753107
 10
112.3788544906
 20
133.6341149995
 10
112.3803951999
 20
133.6624336089
  0
LINE
  5
2E5
100
AcDbEntity
  8
0
100
AcDbLine
 62
7
  6
CONTINUOUS
 10
104.8786498928
 20
133.0995811216
 11
112.0830131605
 21
133.1624526473
  0
LINE
  5
2E6
100
AcDbEntity
  8
0
100
AcDbLine
 62
250
  6
CONTINUOUS
 10
104.8786498928
 20
133.2995735062
 11
112.0830131605
 21
133.3624450319
  0
LINE
  5
2E7
100
AcDbEntity
  8
0
100
AcDbLine
 62
250
  6
CONTINUOUS
 10
112.3803951999
 20
133.6624336089
 11
112.5786498928
 21
133.6624336089
  0
LWPOLYLINE
  5
2E8
100
AcDbEntity
  8
0
100
AcDbPolyline
 62
250
  6
CONTINUOUS
 90
3
 70
0
 10
92.3891265956
 20
132.8009059839
 10
92.381262718
 20
132.7993768214
 10
92.3786498928
 20
132.7987629672
  0
LINE
  5
2E9
100
AcDbEntity
  8
0
100
AcDbLine
 62
250
  6
CONTINUOUS
 10
92.4202149942
 20
132.806635042
 11
92.3891265956
 21
132.8009059839
  0
LINE
  5
2EA
100
AcDbEntity
  8
0
100
AcDbLine
 62
250
  6
CONTINUOUS
 10
92.6198278021
 20
132.8421912203
 11
92.4202149942
 21
132.806635042
  0
LINE
  5
2EB
100
AcDbEntity
  8
0
100
AcDbLine
 62
250
  6
CONTINUOUS
 10
92.8624697414
 20
132.8847768429
 11
92.6198278021
 21
132.8421912203
  0
LINE
  5
2EC
100
AcDbEntity
  8
0
100
AcDbLine
 62
7
  6
CONTINUOUS
 10
111.1786498928
 20
134.0432154605
 11
104.8786498928
 21
134.0432154605
  0
LINE
  5
2ED
100
AcDbEntity
  8
0
100
AcDbLine
 62
7
  6
CONTINUOUS
 10
111.1786498928
 20
134.2432154605
 11
111.5286498928
 21
134.2432154605
  0
LINE
  5
2EE
100
AcDbEntity
  8
0
100
AcDbLine
 62
7
  6
CONTINUOUS
 10
111.5635706623
 20
135.2432154605
 11
111.8286498928
 21
135.2432154605
  0
LINE
  5
2EF
100
AcDbEntity
  8
0
100
AcDbLine
 62
250
  6
CONTINUOUS
 10
104.8786498928
 20
135.0932916129
 11
111.1786498928
 21
134.9833247039
  0
LINE
  5
2F0
100
AcDbEntity
  8
0
100
AcDbLine
 62
7
  6
CONTINUOUS
 10
111.8286498928
 20
135.2432154605
 11
112.5786498928
 21
134.4932154605
  0
LINE
  5
2F1
100
AcDbEntity
  8
0
100
AcDbLine
 62
7
  6
CONTINUOUS
 10
112.5786498928
 20
91.9932154605
 11
111.8286498928
 21
91.4432154605
  0
LINE
  5
2F2
100
AcDbEntity
  8
0
100
AcDbLine
 62
250
  6
CONTINUOUS
 10
100.3978103168
 20
135.8472145628
 11
93.5887428
 21
134.0227304205
  0
LINE
  5
2F3
100
AcDbEntity
  8
0
100
AcDbLine
 62
7
  6
CONTINUOUS
 10
100.2771269975
 20
136.3301774759
 11
93.4680594807
 21
134.5056933336
  0
LWPOLYLINE
  5
2F4
100
AcDbEntity
  8
0
100
AcDbPolyline
 62
250
  6
CONTINUOUS
 90
10
 70
0
 10
100.5010518612
 20
135.863566417
 10
100.4894335551
 20
135.8628213571
 10
100.4778488617
 20
135.8618079761
 10
100.466297781
 20
135.860526274
 10
100.4547761223
 20
135.8589757605
 10
100.4432880763
 20
135.8571569259
 10
100.4318462156
 20
135.8550712416
 10
100.4204547308
 20
135.8527191983
 10
100.4091094312
 20
135.8501003054
 10
100.3978103168
 20
135.8472145628
  0
LINE
  5
2F5
100
AcDbEntity
  8
0
100
AcDbLine
 62
250
  6
CONTINUOUS
 10
104.8786498928
 20
136.0929866085
 11
100.5010518612
 21
135.863566417
  0
LINE
  5
2F6
100
AcDbEntity
  8
0
100
AcDbLine
 62
7
  6
CONTINUOUS
 10
104.8786498928
 20
136.5932154605
 11
100.4836100863
 21
136.3628811844
  0
LWPOLYLINE
  5
2F7
100
AcDbEntity
  8
0
100
AcDbPolyline
 62
7
  6
CONTINUOUS
 90
7
 70
0
 43
0.3500000006
 10
110.6966711426
 20
145.8243757324
 10
109.1966706848
 20
145.8243757324
 10
110.6966711426
 20
147.9672205811
 10
110.6966711426
 20
148.3957895508
 10
110.2681021729
 20
148.8243766479
 10
109.6252396545
 20
148.8243766479
 10
109.1966706848
 20
148.1815050659
  0
LWPOLYLINE
  5
2F8
100
AcDbEntity
  8
0
100
AcDbPolyline
 62
7
  6
CONTINUOUS
 90
8
 70
0
 43
0.3500000006
 10
113.2681030884
 20
145.8243757324
 10
114.1252410278
 20
145.8243757324
 10
114.5538099976
 20
146.2529447021
 10
114.5538099976
 20
147.1100826416
 10
114.1252410278
 20
147.5386516113
 10
113.2681030884
 20
147.5386516113
 10
113.2681030884
 20
148.8243766479
 10
114.5538099976
 20
148.8243766479
  0
LINE
  5
2F9
100
AcDbEntity
  8
0
100
AcDbLine
 62
7
  6
CONTINUOUS
 10
104.8786498928
 20
135.5932154605
 11
111.1786498928
 21
135.4832485515
  0
LWPOLYLINE
  5
2FA
100
AcDbEntity
  8
0
100
AcDbPolyline
 62
7
  6
CONTINUOUS
 90
10
 70
0
 43
0.3500000006
 10
112.1966716003
 20
146.3243668213
 10
112.2681027832
 20
146.1815044556
 10
112.2681027832
 20
146.1100823364
 10
112.1252404175
 20
145.9672199707
 10
112.0538092346
 20
145.9672199707
 10
111.9823871155
 20
146.0386602173
 10
111.9823871155
 20
146.1100823364
 10
112.0538092346
 20
146.2529447021
 10
112.1252404175
 20
146.3243668213
 10
112.1966716003
 20
146.3243668213
  0
ARC
  5
2FB
100
AcDbEntity
  8
0
100
AcDbCircle
 62
7
  6
CONTINUOUS
 10
584.9247017439
 20
218.8126386263
 40
500.0
100
AcDbArc
 50
189.9057377769
 51
194.7972601772
  0
ARC
  5
2FC
100
AcDbEntity
  8
0
100
AcDbCircle
 62
7
  6
CONTINUOUS
 10
93.8562880483
 20
133.0568045942
 40
1.5
100
AcDbArc
 50
105.0
 51
189.9057377769
  0
ARC
  5
2FD
100
AcDbEntity
  8
0
100
AcDbCircle
 62
7
  6
CONTINUOUS
 10
102.9571538271
 20
91.4959753212
 40
1.5
100
AcDbArc
 50
194.7972601772
 51
267.0
  0
ARC
  5
2FE
100
AcDbEntity
  8
0
100
AcDbCircle
 62
7
  6
CONTINUOUS
 10
100.5359460426
 20
135.3642516497
 40
1.0
100
AcDbArc
 50
93.0
 51
105.0
  0
ARC
  5
2FF
100
AcDbEntity
  8
0
100
AcDbCircle
 62
7
  6
CONTINUOUS
 10
112.0786498928
 20
92.8239973122
 40
0.5
100
AcDbArc
 50
0.0
 51
89.5
  0
ARC
  5
300
100
AcDbEntity
  8
0
100
AcDbCircle
 62
7
  6
CONTINUOUS
 10
112.0786498928
 20
133.6624336089
 40
0.5
100
AcDbArc
 50
270.5
 51
360.0
  0
ELLIPSE
  5
301
100
AcDbEntity
  8
0
100
AcDbEllipse
 62
7
  6
CONTINUOUS
 10
133.5135424469
 20
136.0925292875
 30
0.0
 11
-0.1582391023
 21
0.4751033573
 31
0.0
 40
0.9984778551
 41
-0.3210503505
 42
1.2488325878
  0
ELLIPSE
  5
302
100
AcDbEntity
  8
0
100
AcDbEllipse
 62
7
  6
CONTINUOUS
 10
133.5135424469
 20
90.3939016335
 30
0.0
 11
0.1582391023
 21
0.4751033573
 31
0.0
 40
0.9984778551
 41
-4.3904252414
 42
-2.8205423031
  0
ELLIPSE
  5
303
100
AcDbEntity
  8
0
100
AcDbEllipse
 62
7
  6
CONTINUOUS
 10
191.5133901189
 20
90.3939016335
 30
0.0
 11
-0.1582391023
 21
0.4751033573
 31
0.0
 40
0.9984778551
 41
-3.4626430041
 42
-1.8927600658
  0
ELLIPSE
  5
304
100
AcDbEntity
  8
0
100
AcDbEllipse
 62
7
  6
CONTINUOUS
 10
191.5133901189
 20
136.0925292875
 30
0.0
 11
0.1582391023
 21
0.4751033573
 31
0.0
 40
0.9984778551
 41
-1.2488325878
 42
0.3210503505
  0
ELLIPSE
  5
305
100
AcDbEntity
  8
0
100
AcDbEllipse
 62
7
  6
CONTINUOUS
 10
172.5891240943
 20
134.7126148787
 30
0.0
 11
0.4320475976
 21
0.4510748035
 31
0.0
 40
0.7226696982
 41
-0.1564299932
 42
0.6054624595
  0
ELLIPSE
  5
306
100
AcDbEntity
  8
0
100
AcDbEllipse
 62
7
  6
CONTINUOUS
 10
134.4170408752
 20
134.6523194673
 30
0.0
 11
0.5650436824
 21
0.0343128895
 31
0.0
 40
0.2522897366
 41
3.1353313102
 42
4.4761824416
  0
ELLIPSE
  5
307
100
AcDbEntity
  8
0
100
AcDbEllipse
 62
7
  6
CONTINUOUS
 10
190.6098916906
 20
134.6523194673
 30
0.0
 11
0.5650436824
 21
-0.0343128895
 31
0.0
 40
0.2522897366
 41
4.9485955192
 42
6.2894466506
  0
ELLIPSE
  5
308
100
AcDbEntity
  8
0
100
AcDbEllipse
 62
7
  6
CONTINUOUS
 10
190.6659052791
 20
136.3600211537
 30
0.0
 11
0.5352916972
 21
0.012943491
 31
0.0
 40
0.0795762632
 41
0.1445017925
 42
1.275799559
  0
ELLIPSE
  5
309
100
AcDbEntity
  8
0
100
AcDbEllipse
 62
7
  6
CONTINUOUS
 10
152.4378084715
 20
134.7126148787
 30
0.0
 11
-0.4320475976
 21
0.4510748035
 31
0.0
 40
0.7226696982
 41
-0.6054624595
 42
0.1564299932
  0
ELLIPSE
  5
30A
100
AcDbEntity
  8
0
100
AcDbEllipse
 62
7
  6
CONTINUOUS
 10
190.7047056107
 20
135.3642516497
 30
0.0
 11
0.5219959958
 21
0.9986006811
 31
0.0
 40
0.1013104369
 41
-0.2088910646
 42
0.0005484457
  0
ELLIPSE
  5
30B
100
AcDbEntity
  8
0
100
AcDbEllipse
 62
7
  6
CONTINUOUS
 10
134.3222269551
 20
135.3642516497
 30
0.0
 11
-0.5219959958
 21
0.9986006811
 31
0.0
 40
0.1013104369
 41
-0.0005484457
 42
0.2088910646
  0
ELLIPSE
  5
30C
100
AcDbEntity
  8
0
100
AcDbEllipse
 62
7
  6
CONTINUOUS
 10
134.3610272867
 20
136.3600211537
 30
0.0
 11
0.5352916972
 21
-0.012943491
 31
0.0
 40
0.0795762632
 41
1.8657930946
 42
2.9970908611
  0
ENDSEC
  0
SECTION
  2
OBJECTS
  0
DICTIONARY
  5
C
100
AcDbDictionary
280
0
281
1
  3
ACAD_GROUP
350
D
  3
ACAD_MLINESTYLE
350
17
  3
ACAD_LAYOUT
350
1A
  3
ACAD_PLOTSETTINGS
350
19
  3
ACAD_PLOTSTYLENAME
350
E
  0
DICTIONARY
  5
D
102
{ACAD_REACTORS
330
C
102
}
100
AcDbDictionary
280
0
281
1
  0
ACDBDICTIONARYWDFLT
  5
E
102
{ACAD_REACTORS
330
C
102
}
100
AcDbDictionary
281
1
  3
Normal
350
F
100
AcDbDictionaryWithDefault
340
F
  0
DICTIONARY
  5
17
102
{ACAD_REACTORS
330
C
102
}
100
AcDbDictionary
280
0
281
1
  3
Standard
350
18
  0
DICTIONARY
  5
19
102
{ACAD_REACTORS
330
C
102
}
100
AcDbDictionary
281
1
  0
DICTIONARY
  5
1A
102
{ACAD_REACTORS
330
C
102
}
100
AcDbDictionary
281
1
  3
Model
350
30D
  3
Layout1
350
30E
  0
ACDBPLACEHOLDER
  5
F
102
{ACAD_REACTORS
330
E
102
}
  0
MLINESTYLE
  5
18
102
{ACAD_REACTORS
330
17
102
}
100
AcDbMlineStyle
  2
STANDARD
 70
0
  3

 62
256
 51
90.0
 52
90.0
 71
2
 49
0.5
 62
256
  6
BYLAYER
 49
-0.5
 62
256
  6
BYLAYER
  0
LAYOUT
  5
30D
102
{ACAD_REACTORS
330
1A
102
}
100
AcDbPlotSettings
  1

  2
none_device
  4
ISO_A4_(297.00_x_210.00_MM)
  6

 40
0.0
 41
0.0
 42
0.0
 43
0.0
 44
297.0
 45
210.0
 46
0.0
 47
0.0
 48
0.0
 49
0.0
140
0.0
141
0.0
142
1.0
143
1.0
 70
1024
 72
1
 73
0
 74
0
  7

 75
0
147
1.0
148
0.0
149
0.0
100
AcDbLayout
  1
Model
 70
0
 71
0
 10
0.0
 20
0.0
 11
297.0
 21
210.0
 12
0.0
 22
0.0
 32
0.0
 14
0.0
 24
0.0
 34
0.0
 15
0.0
 25
0.0
 35
0.0
146
0.0
 13
0.0
 23
0.0
 33
0.0
 16
1.0
 26
0.0
 36
0.0
 17
0.0
 27
1.0
 37
0.0
 76
0
330
20F
345
0
346
0
  0
LAYOUT
  5
30E
102
{ACAD_REACTORS
330
1A
102
}
100
AcDbPlotSettings
  1

  2
none_device
  4
ISO_A4_(297.00_x_210.00_MM)
  6

 40
0.0
 41
0.0
 42
0.0
 43
0.0
 44
297.0
 45
210.0
 46
0.0
 47
0.0
 48
0.0
 49
0.0
140
0.0
141
0.0
142
1.0
143
1.0
 70
0
 72
1
 73
0
 74
0
  7

 75
0
147
1.0
148
0.0
149
0.0
100
AcDbLayout
  1
Layout1
 70
0
 71
1
 10
0.0
 20
0.0
 11
297.0
 21
210.0
 12
0.0
 22
0.0
 32
0.0
 14
0.0
 24
0.0
 34
0.0
 15
0.0
 25
0.0
 35
0.0
146
0.0
 13
0.0
 23
0.0
 33
0.0
 16
1.0
 26
0.0
 36
0.0
 17
0.0
 27
1.0
 37
0.0
 76
0
330
210
345
0
346
0
  0
ENDSEC
  0
EOF
