  0
SECTION
  2
HEADER
  9
$ACADVER
  1
AC1024
  9
$DWGCODEPAGE
  3
ANSI_1252
  9
$EXTMAX
 10
297.0
 20
210.0
 30
0.0
  9
$EXTMIN
 10
0.0
 20
0.0
 30
0.0
  9
$LIMMIN
 10
0.0
 20
0.0
  9
$LIMMAX
 10
297.0
 20
210.0
  9
$VIEWCTR
 10
148.5
 20
105.0
  9
$VIEWSIZE
 40
210.0
  9
$CLAYER
  8
0
  9
$LTSCALE
 40
16.335
  9
$CELTYPE
  6
BYLAYER
  9
$DIMSCALE
 40
1.0
  9
$DIMASZ
 40
3.0
  9
$DIMEXO
 40
0.5
  9
$DIMDLI
 40
11.286
  9
$DIMEXE
 40
1.5
  9
$DIMCEN
 40
2.673
  9
$DIMLFAC
 40
1.0
  9
$DIMBLK
  1
_FILLED
  9
$DIMALT
 70
0
  9
$DIMALTF
 40
0.0393700787
  9
$DIMTXT
 40
3.0
  9
$DIMTOL
 70
1
  9
$DIMLIM
 70
0
  9
$DIMTFAC
 40
1.0
  9
$DIMTP
 40
0.01
  9
$DIMTM
 40
0.01
  9
$DIMGAP
 40
0.625
  9
$DIMDSEP
 70
44
  9
$AUNITS
 70
0
  9
$PDMODE
 70
3
  9
$PDSIZE
 40
3.0
  9
$HANDSEED
  5
39F
  9
$TILEMODE
 70
1
  9
$MEASUREMENT
 70
1
  9
$INSUNITS
 70
4
  0
ENDSEC
  0
SECTION
  2
CLASSES
  0
CLASS
  1
ACDBDICTIONARYWDFLT
  2
AcDbDictionaryWithDefault
  3
AutoCAD 2000
 90
0
 91
1
280
0
281
0
  0
CLASS
  1
ACDBPLACEHOLDER
  2
AcDbPlaceHolder
  3
AutoCAD 2000
 90
0
 91
1
280
0
281
0
  0
CLASS
  1
LAYOUT
  2
AcDbLayout
  3
AutoCAD 2000
 90
0
 91
0
280
0
281
0
  0
ENDSEC
  0
SECTION
  2
TABLES
  0
TABLE
  2
VPORT
  5
8
100
AcDbSymbolTable
 70
2
  0
VPORT
  5
1F4
100
AcDbSymbolTableRecord
100
AcDbViewportTableRecord
  2
*ACTIVE
 70
0
 10
0.0
 20
0.0
 11
1.0
 21
1.0
 12
148.5
 22
105.0
 13
0.0
 23
0.0
 14
1.0
 24
1.0
 15
0.0
 25
0.0
 16
0.0
 26
0.0
 36
1.0
 17
0.0
 27
0.0
 37
0.0
 40
210.0
 41
1.4142857143
 42
50.0
 43
0.0
 44
0.0
 50
0.0
 51
0.0
 71
0
 72
100
 73
1
 74
1
 75
0
 76
0
 77
0
 78
0
  0
ENDTAB
  0
TABLE
  2
LTYPE
  5
5
100
AcDbSymbolTable
 70
6
  0
LTYPE
  5
14
100
AcDbSymbolTableRecord
100
AcDbLinetypeTableRecord
  2
BYBLOCK
 70
0
  3

 72
65
 73
0
 40
0.0
  0
LTYPE
  5
15
100
AcDbSymbolTableRecord
100
AcDbLinetypeTableRecord
  2
BYLAYER
 70
0
  3

 72
65
 73
0
 40
0.0
  0
LTYPE
  5
16
100
AcDbSymbolTableRecord
100
AcDbLinetypeTableRecord
  2
CONTINUOUS
 70
64
  3
Solid line
 72
65
 73
0
 40
0.0
  0
LTYPE
  5
1F5
100
AcDbSymbolTableRecord
100
AcDbLinetypeTableRecord
  2
CENTER
 70
64
  3
____ _ ____ _ ____ _ ____ _ ____ _ ____ _ ____
 72
65
 73
4
 40
0.6
 49
0.375
 74
0
 49
-0.075
 74
0
 49
0.075
 74
0
 49
-0.075
 74
0
  0
LTYPE
  5
1F6
100
AcDbSymbolTableRecord
100
AcDbLinetypeTableRecord
  2
HIDDEN
 70
64
  3
- - - - - - - - - - - - - - - - - - - -
 72
65
 73
2
 40
0.2
 49
0.1
 74
0
 49
-0.1
 74
0
  0
LTYPE
  5
1F7
100
AcDbSymbolTableRecord
100
AcDbLinetypeTableRecord
  2
PHANTOM
 70
64
  3
_____ _ _ _____ _ _ _____ _ _ _____
 72
65
 73
6
 40
0.8
 49
0.45
 74
0
 49
-0.05
 74
0
 49
0.1
 74
0
 49
-0.05
 74
0
 49
0.1
 74
0
 49
-0.05
 74
0
  0
LTYPE
  5
1F8
100
AcDbSymbolTableRecord
100
AcDbLinetypeTableRecord
  2
DOT
 70
64
  3
. . . . . . . . . . . . . . . . . . . .
 72
65
 73
2
 40
0.2
 49
0.1
 74
0
 49
-0.1
 74
0
  0
LTYPE
  5
1F9
100
AcDbSymbolTableRecord
100
AcDbLinetypeTableRecord
  2
DASHED
 70
64
  3
- - - - - - - - - - - - - - - - - - - -
 72
65
 73
2
 40
0.2
 49
0.1
 74
0
 49
-0.1
 74
0
  0
ENDTAB
  0
TABLE
  2
LAYER
  5
2
100
AcDbSymbolTable
 70
36
  0
LAYER
  5
10
100
AcDbSymbolTableRecord
100
AcDbLayerTableRecord
  2
0
 70
0
 62
7
  6
CONTINUOUS
370
-3
390
F
  0
LAYER
  5
1FA
100
AcDbSymbolTableRecord
100
AcDbLayerTableRecord
  2
DEFAULT_1
 70
0
 62
7
  6
CENTER
370
-3
390
F
  0
LAYER
  5
1FB
100
AcDbSymbolTableRecord
100
AcDbLayerTableRecord
  2
DEFAULT_2
 70
0
 62
7
  6
HIDDEN
370
-3
390
F
  0
LAYER
  5
1FC
100
AcDbSymbolTableRecord
100
AcDbLayerTableRecord
  2
DEFAULT_3
 70
0
 62
7
  6
PHANTOM
370
-3
390
F
  0
LAYER
  5
1FD
100
AcDbSymbolTableRecord
100
AcDbLayerTableRecord
  2
ASSI
 70
0
 62
7
  6
CONTINUOUS
370
-3
390
F
  0
LAYER
  5
1FE
100
AcDbSymbolTableRecord
100
AcDbLayerTableRecord
  2
COORDINATE
 70
0
 62
7
  6
CONTINUOUS
370
-3
390
F
  0
LAYER
  5
1FF
100
AcDbSymbolTableRecord
100
AcDbLayerTableRecord
  2
COORD_ORIGINE
 70
0
 62
7
  6
CONTINUOUS
370
-3
390
F
  0
LAYER
  5
200
100
AcDbSymbolTableRecord
100
AcDbLayerTableRecord
  2
COSMETICHE
 70
0
 62
7
  6
CONTINUOUS
370
-3
390
F
  0
LAYER
  5
201
100
AcDbSymbolTableRecord
100
AcDbLayerTableRecord
  2
CURVE
 70
0
 62
7
  6
CONTINUOUS
370
-3
390
F
  0
LAYER
  5
202
100
AcDbSymbolTableRecord
100
AcDbLayerTableRecord
  2
DRAFT
 70
0
 62
7
  6
CONTINUOUS
370
-3
390
F
  0
LAYER
  5
203
100
AcDbSymbolTableRecord
100
AcDbLayerTableRecord
  2
IMPORT
 70
0
 62
7
  6
CONTINUOUS
370
-3
390
F
  0
LAYER
  5
204
100
AcDbSymbolTableRecord
100
AcDbLayerTableRecord
  2
INTF_1
 70
0
 62
7
  6
CONTINUOUS
370
-3
390
F
  0
LAYER
  5
205
100
AcDbSymbolTableRecord
100
AcDbLayerTableRecord
  2
INTF_11
 70
0
 62
7
  6
CONTINUOUS
370
-3
390
F
  0
LAYER
  5
206
100
AcDbSymbolTableRecord
100
AcDbLayerTableRecord
  2
INTF_8
 70
0
 62
7
  6
CONTINUOUS
370
-3
390
F
  0
LAYER
  5
207
100
AcDbSymbolTableRecord
100
AcDbLayerTableRecord
  2
NOTE
 70
0
 62
7
  6
CONTINUOUS
370
-3
390
F
  0
LAYER
  5
208
100
AcDbSymbolTableRecord
100
AcDbLayerTableRecord
  2
PIANI
 70
0
 62
7
  6
CONTINUOUS
370
-3
390
F
  0
LAYER
  5
209
100
AcDbSymbolTableRecord
100
AcDbLayerTableRecord
  2
PIANI_ORIGINE
 70
0
 62
7
  6
CONTINUOUS
370
-3
390
F
  0
LAYER
  5
20A
100
AcDbSymbolTableRecord
100
AcDbLayerTableRecord
  2
PUNTI
 70
0
 62
7
  6
CONTINUOUS
370
-3
390
F
  0
LAYER
  5
20B
100
AcDbSymbolTableRecord
100
AcDbLayerTableRecord
  2
RACCORDO
 70
0
 62
7
  6
CONTINUOUS
370
-3
390
F
  0
LAYER
  5
20C
100
AcDbSymbolTableRecord
100
AcDbLayerTableRecord
  2
RGB____0____0____0__
 70
0
 62
7
  6
CONTINUOUS
370
-3
390
F
  0
LAYER
  5
20D
100
AcDbSymbolTableRecord
100
AcDbLayerTableRecord
  2
SMUSSO
 70
0
 62
7
  6
CONTINUOUS
370
-3
390
F
  0
LAYER
  5
20E
100
AcDbSymbolTableRecord
100
AcDbLayerTableRecord
  2
SNAPLINE
 70
0
 62
7
  6
CONTINUOUS
370
-3
390
F
  0
LAYER
  5
20F
100
AcDbSymbolTableRecord
100
AcDbLayerTableRecord
  2
SUPERFICI
 70
0
 62
7
  6
CONTINUOUS
370
-3
390
F
  0
LAYER
  5
210
100
AcDbSymbolTableRecord
100
AcDbLayerTableRecord
  2
TRASH
 70
0
 62
7
  6
CONTINUOUS
370
-3
390
F
  0
ENDTAB
  0
TABLE
  2
STYLE
  5
3
100
AcDbSymbolTable
 70
1
  0
STYLE
  5
11
100
AcDbSymbolTableRecord
100
AcDbTextStyleTableRecord
  2
STANDARD
 70
0
 40
0.0
 41
0.8
 50
0.0
 71
0
 42
0.2
  3
txt
  4

  0
STYLE
  5
211
100
AcDbSymbolTableRecord
100
AcDbTextStyleTableRecord
  2
TEXTSTYLE_1
 70
0
 40
0.0
 41
0.8
 50
0.0
 71
0
 42
0.2
  3
gdt
  4

  0
ENDTAB
  0
TABLE
  2
VIEW
  5
6
100
AcDbSymbolTable
 70
0
  0
ENDTAB
  0
TABLE
  2
UCS
  5
7
100
AcDbSymbolTable
 70
0
  0
ENDTAB
  0
TABLE
  2
APPID
  5
9
100
AcDbSymbolTable
 70
1
  0
APPID
  5
212
100
AcDbSymbolTableRecord
100
AcDbRegAppTableRecord
  2
ACAD
 70
0
  0
ENDTAB
  0
TABLE
  2
BLOCK_RECORD
  5
1
100
AcDbSymbolTable
 70
0
  0
BLOCK_RECORD
  5
213
100
AcDbSymbolTableRecord
100
AcDbBlockTableRecord
  2
*Model_Space
  0
BLOCK_RECORD
  5
214
100
AcDbSymbolTableRecord
100
AcDbBlockTableRecord
  2
*Paper_Space
  0
BLOCK_RECORD
  5
215
100
AcDbSymbolTableRecord
100
AcDbBlockTableRecord
  2
_FILLED
  0
BLOCK_RECORD
  5
216
100
AcDbSymbolTableRecord
100
AcDbBlockTableRecord
  2
*D0
  0
BLOCK_RECORD
  5
217
100
AcDbSymbolTableRecord
100
AcDbBlockTableRecord
  2
*D1
  0
BLOCK_RECORD
  5
218
100
AcDbSymbolTableRecord
100
AcDbBlockTableRecord
  2
*D2
  0
BLOCK_RECORD
  5
219
100
AcDbSymbolTableRecord
100
AcDbBlockTableRecord
  2
*D3
  0
ENDTAB
  0
TABLE
  2
DIMSTYLE
  5
A
100
AcDbSymbolTable
 70
1
100
AcDbDimStyleTable
 71
0
  0
DIMSTYLE
105
21A
100
AcDbSymbolTableRecord
100
AcDbDimStyleTableRecord
  2
STANDARD
 70
0
  3

  4

 40
1.0
 41
3.0
 42
0.5
 43
0.38
 44
1.5
 45
0.0
 46
0.0
 47
0.01
 48
0.01
140
3.0
141
0.09
142
0.0
143
25.4
144
1.0
145
0.0
146
1.0
147
0.625
 71
1
 72
0
 73
0
 74
0
 75
0
 76
0
 77
1
 78
8
 79
2
170
0
171
1
172
0
173
0
174
0
175
0
176
0
177
0
178
0
270
2
179
2
271
2
272
2
273
2
274
2
275
0
280
0
281
0
282
0
283
1
284
8
285
0
286
0
287
3
288
0
340
11
278
44
341
215
342
215
343
215
344
215
  0
DIMSTYLE
105
21B
100
AcDbSymbolTableRecord
100
AcDbDimStyleTableRecord
  2
DIMSTYLE_1
 70
0
  3

  4

 40
1.0
 41
3.0
 42
0.5
 43
0.38
 44
1.5
 45
0.0
 46
0.0
 47
0.0
 48
0.0
140
3.0
141
0.09
142
0.0
143
25.4
144
1.0
145
0.0
146
1.0
147
0.75
 71
0
 72
0
 73
0
 74
0
 75
0
 76
0
 77
1
 78
8
 79
2
170
0
171
1
172
0
173
0
174
0
175
0
176
0
177
0
178
0
270
2
179
2
271
2
272
2
273
2
274
2
275
0
280
0
281
0
282
0
283
1
284
8
285
0
286
0
287
3
288
0
340
11
278
44
341
215
342
215
343
215
344
215
  0
ENDTAB
  0
ENDSEC
  0
SECTION
  2
BLOCKS
  0
BLOCK
  5
20
100
AcDbEntity
  8
0
100
AcDbBlockBegin
  2
*Model_Space
 70
0
 10
0.0
 20
0.0
 30
0.0
  3
*Model_Space
  1

  0
ENDBLK
  5
21
100
AcDbEntity
  8
0
100
AcDbBlockEnd
  0
BLOCK
  5
1C
100
AcDbEntity
  8
0
100
AcDbBlockBegin
  2
*Paper_Space
 70
0
 10
0.0
 20
0.0
 30
0.0
  3
*Paper_Space
  1

  0
ENDBLK
  5
1D
100
AcDbEntity
  8
0
100
AcDbBlockEnd
  0
BLOCK
  5
21C
100
AcDbEntity
  8
0
100
AcDbBlockBegin
  2
_FILLED
 70
64
 10
0.0
 20
0.0
  3
_FILLED
  1

  0
SOLID
  5
21D
100
AcDbEntity
  8
0
  6
BYBLOCK
 62
0
100
AcDbTrace
 10
0.0
 20
0.0
 11
-1.0
 21
0.3166666667
 12
-1.0
 22
-0.3166666667
 13
-1.0
 23
-0.3166666667
  0
ENDBLK
  5
21E
100
AcDbEntity
  8
0
  6
BYBLOCK
 62
0
100
AcDbBlockEnd
  0
BLOCK
  5
21F
100
AcDbEntity
  8
0
100
AcDbBlockBegin
 62
7
  6
CONTINUOUS
  2
*D0
 70
65
 10
0.0
 20
0.0
  3
*D0
  1

  0
LINE
  5
220
100
AcDbEntity
  8
0
100
AcDbLine
 62
7
  6
CONTINUOUS
 10
-11.15
 20
22.3997711479
 11
-11.15
 21
35.0
  0
LINE
  5
221
100
AcDbEntity
  8
0
100
AcDbLine
 62
7
  6
CONTINUOUS
 10
11.15
 20
22.3997711479
 11
11.15
 21
35.0
  0
LINE
  5
222
100
AcDbEntity
  8
0
100
AcDbLine
 62
7
  6
CONTINUOUS
 10
-11.15
 20
33.5
 11
0.0
 21
33.5
  0
LINE
  5
223
100
AcDbEntity
  8
0
100
AcDbLine
 62
7
  6
CONTINUOUS
 10
11.15
 20
33.5
 11
0.0
 21
33.5
  0
INSERT
  5
224
100
AcDbEntity
  8
0
100
AcDbBlockReference
 62
7
  6
CONTINUOUS
  2
_FILLED
 10
-11.15
 20
33.5
 41
3.0
 42
3.0
 43
3.0
 50
180.0
  0
INSERT
  5
225
100
AcDbEntity
  8
0
100
AcDbBlockReference
 62
7
  6
CONTINUOUS
  2
_FILLED
 10
11.15
 20
33.5
 41
3.0
 42
3.0
 43
3.0
  0
ENDBLK
  5
226
100
AcDbEntity
  8
0
  6
BYBLOCK
 62
0
100
AcDbBlockEnd
  0
BLOCK
  5
227
100
AcDbEntity
  8
0
100
AcDbBlockBegin
 62
7
  6
CONTINUOUS
  2
*D1
 70
65
 10
0.0
 20
0.0
  3
*D1
  1

  0
LINE
  5
228
100
AcDbEntity
  8
0
100
AcDbLine
 62
7
  6
CONTINUOUS
 10
4.1748576866
 20
23.5
 11
22.65
 21
23.5
  0
LINE
  5
229
100
AcDbEntity
  8
0
100
AcDbLine
 62
7
  6
CONTINUOUS
 10
4.1748580323
 20
-23.5
 11
22.65
 21
-23.5
  0
LINE
  5
22A
100
AcDbEntity
  8
0
100
AcDbLine
 62
7
  6
CONTINUOUS
 10
21.15
 20
23.5
 11
21.15
 21
0.0
  0
LINE
  5
22B
100
AcDbEntity
  8
0
100
AcDbLine
 62
7
  6
CONTINUOUS
 10
21.15
 20
-23.5
 11
21.15
 21
0.0
  0
INSERT
  5
22C
100
AcDbEntity
  8
0
100
AcDbBlockReference
 62
7
  6
CONTINUOUS
  2
_FILLED
 10
21.15
 20
23.5
 41
3.0
 42
3.0
 43
3.0
 50
90.0
  0
INSERT
  5
22D
100
AcDbEntity
  8
0
100
AcDbBlockReference
 62
7
  6
CONTINUOUS
  2
_FILLED
 10
21.15
 20
-23.5
 41
3.0
 42
3.0
 43
3.0
 50
270.0
  0
ENDBLK
  5
22E
100
AcDbEntity
  8
0
  6
BYBLOCK
 62
0
100
AcDbBlockEnd
  0
BLOCK
  5
22F
100
AcDbEntity
  8
0
100
AcDbBlockBegin
 62
7
  6
CONTINUOUS
  2
*D2
 70
65
 10
0.0
 20
0.0
  3
*D2
  1

  0
LINE
  5
230
100
AcDbEntity
  8
0
100
AcDbLine
 62
7
  6
CONTINUOUS
 10
-21.343336024
 20
13.1604929148
 11
-21.343336024
 21
35.0
  0
LINE
  5
231
100
AcDbEntity
  8
0
100
AcDbLine
 62
7
  6
CONTINUOUS
 10
-46.343336024
 20
22.3997711479
 11
-46.343336024
 21
35.0
  0
LINE
  5
232
100
AcDbEntity
  8
0
100
AcDbLine
 62
7
  6
CONTINUOUS
 10
-21.343336024
 20
33.5
 11
-33.843336024
 21
33.5
  0
LINE
  5
233
100
AcDbEntity
  8
0
100
AcDbLine
 62
7
  6
CONTINUOUS
 10
-46.343336024
 20
33.5
 11
-33.843336024
 21
33.5
  0
INSERT
  5
234
100
AcDbEntity
  8
0
100
AcDbBlockReference
 62
7
  6
CONTINUOUS
  2
_FILLED
 10
-21.343336024
 20
33.5
 41
3.0
 42
3.0
 43
3.0
  0
INSERT
  5
235
100
AcDbEntity
  8
0
100
AcDbBlockReference
 62
7
  6
CONTINUOUS
  2
_FILLED
 10
-46.343336024
 20
33.5
 41
3.0
 42
3.0
 43
3.0
 50
180.0
  0
ENDBLK
  5
236
100
AcDbEntity
  8
0
  6
BYBLOCK
 62
0
100
AcDbBlockEnd
  0
BLOCK
  5
237
100
AcDbEntity
  8
0
100
AcDbBlockBegin
 62
7
  6
CONTINUOUS
  2
*D3
 70
65
 10
0.0
 20
0.0
  3
*D3
  1

  0
LINE
  5
238
100
AcDbEntity
  8
0
100
AcDbLine
 62
7
  6
CONTINUOUS
 10
-21.343336024
 20
13.1604929148
 11
-21.343336024
 21
43.0
  0
LINE
  5
239
100
AcDbEntity
  8
0
100
AcDbLine
 62
7
  6
CONTINUOUS
 10
-55.843336024
 20
0.5
 11
-55.843336024
 21
43.0
  0
LINE
  5
23A
100
AcDbEntity
  8
0
100
AcDbLine
 62
7
  6
CONTINUOUS
 10
-21.343336024
 20
41.5
 11
-38.593336024
 21
41.5
  0
LINE
  5
23B
100
AcDbEntity
  8
0
100
AcDbLine
 62
7
  6
CONTINUOUS
 10
-55.843336024
 20
41.5
 11
-38.593336024
 21
41.5
  0
INSERT
  5
23C
100
AcDbEntity
  8
0
100
AcDbBlockReference
 62
7
  6
CONTINUOUS
  2
_FILLED
 10
-21.343336024
 20
41.5
 41
3.0
 42
3.0
 43
3.0
  0
INSERT
  5
23D
100
AcDbEntity
  8
0
100
AcDbBlockReference
 62
7
  6
CONTINUOUS
  2
_FILLED
 10
-55.843336024
 20
41.5
 41
3.0
 42
3.0
 43
3.0
 50
180.0
  0
ENDBLK
  5
23E
100
AcDbEntity
  8
0
  6
BYBLOCK
 62
0
100
AcDbBlockEnd
  0
ENDSEC
  0
SECTION
  2
ENTITIES
  0
DIMENSION
  5
23F
100
AcDbEntity
  8
0
100
AcDbDimension
 62
7
  6
CONTINUOUS
  2
*D0
 10
11.15
 20
33.5
 11
-4.2857142857
 21
33.5
 70
160
 71
2
 72
2
 41
0.9
 42
22.3
  3
DIMSTYLE_1
100
AcDbAlignedDimension
 13
-11.15
 23
21.8997711479
 14
11.15
 24
21.8997711479
100
AcDbRotatedDimension
  0
DIMENSION
  5
240
100
AcDbEntity
  8
0
100
AcDbDimension
 62
7
  6
CONTINUOUS
  2
*D1
 10
21.15
 20
-23.5
 11
21.15
 21
-2.3571428571
 70
160
 71
2
 72
2
 41
0.9
 42
47.0
  3
DIMSTYLE_1
100
AcDbAlignedDimension
 13
3.6748576866
 23
23.5
 14
3.6748580323
 24
-23.5
 50
270.0
100
AcDbRotatedDimension
  0
DIMENSION
  5
241
100
AcDbEntity
  8
0
100
AcDbDimension
 62
7
  6
CONTINUOUS
  2
*D2
 10
-46.343336024
 20
33.5
 11
-36.093336024
 21
33.5
 70
160
 71
2
 72
2
 41
0.9
 42
25.0
  3
DIMSTYLE_1
100
AcDbAlignedDimension
 13
-21.343336024
 23
12.6604929148
 14
-46.343336024
 24
21.8997711479
 50
180.0
100
AcDbRotatedDimension
  0
DIMENSION
  5
242
100
AcDbEntity
  8
0
100
AcDbDimension
 62
7
  6
CONTINUOUS
  2
*D3
 10
-55.843336024
 20
41.5
 11
-42.7719074525
 21
41.5
 70
160
 71
2
 72
2
 41
0.9
 42
34.5
  3
DIMSTYLE_1
100
AcDbAlignedDimension
 13
-21.343336024
 23
12.6604929148
 14
-55.843336024
 24
0.0
 50
180.0
100
AcDbRotatedDimension
  0
LWPOLYLINE
  5
243
100
AcDbEntity
  8
0
100
AcDbPolyline
 62
7
  6
CONTINUOUS
 90
5
 70
0
 43
0.3500000006
 10
3.0000000658
 20
35.9642860107
 10
3.357142951
 20
36.1785704956
 10
3.357142951
 20
36.8214284821
 10
3.0000000658
 20
37.2500019836
 10
2.1428571696
 20
37.2500019836
  0
LWPOLYLINE
  5
244
100
AcDbEntity
  8
0
100
AcDbPolyline
 62
250
  6
CONTINUOUS
 90
16
 70
0
 10
-11.0004589101
 20
20.9972959167
 10
-10.9968791436
 20
20.9994689314
 10
-10.9879813308
 20
21.0016186628
 10
-10.9738608069
 20
21.0037220776
 10
-10.9546688652
 20
21.005756639
 10
-10.9306111366
 20
21.0077005477
 10
-10.9019453861
 20
21.009532976
 10
-10.868978751
 20
21.0112342904
 10
-10.8320644502
 20
21.0127862623
 10
-10.7915979997
 20
21.014172263
 10
-10.7480129745
 20
21.0153774425
 10
-10.7017763638
 20
21.0163888878
 10
-10.6533835666
 20
21.0171957618
 10
-10.6033530845
 20
21.0177894192
 10
-10.5522209659
 20
21.0181634993
 10
-10.5005350625
 20
21.018313994
  0
LWPOLYLINE
  5
245
100
AcDbEntity
  8
0
100
AcDbPolyline
 62
250
  6
CONTINUOUS
 90
16
 70
0
 10
10.5087981167
 20
-21.9749071372
 10
10.5610250031
 20
-21.97212728
 10
10.6126802316
 20
-21.9639134406
 10
10.6631985021
 20
-21.9503555394
 10
10.7120269743
 20
-21.931601975
 10
10.7586312804
 20
-21.9078580123
 10
10.8025013793
 20
-21.8793835478
 10
10.8431571925
 20
-21.8464902344
 10
10.8801538308
 20
-21.8095380733
 10
10.9130864355
 20
-21.7689315022
 10
10.941594647
 20
-21.7251149336
 10
10.9653665353
 20
-21.6785678925
 10
10.9841419991
 20
-21.6297997904
 10
10.9977156235
 20
-21.5793443309
 10
11.0059389237
 20
-21.5277536674
 10
11.0087219643
 20
-21.4755923698
  0
LWPOLYLINE
  5
246
100
AcDbEntity
  8
0
100
AcDbPolyline
 62
7
  6
CONTINUOUS
 90
10
 70
0
 10
3.6748580323
 20
-23.5
 10
3.7400551039
 20
-23.4978734945
 10
3.8045704643
 20
-23.4915696219
 10
3.8684041133
 20
-23.481088382
 10
3.9319096656
 20
-23.4663229765
 10
3.9947335065
 20
-23.4473802038
 10
4.0558147925
 20
-23.4245804589
 10
4.1147999091
 20
-23.3980305401
 10
4.1720424706
 20
-23.3676236491
 10
4.2275424773
 20
-23.3333597858
  0
LINE
  5
247
100
AcDbEntity
  8
0
100
AcDbLine
 62
7
  6
CONTINUOUS
 10
3.6748580323
 20
-23.5
 11
-3.6748580323
 21
-23.5
  0
LINE
  5
248
100
AcDbEntity
  8
0
100
AcDbLine
 62
7
  6
CONTINUOUS
 10
3.4698202597
 20
-22.5
 11
-3.4698202597
 21
-22.5
  0
LINE
  5
249
100
AcDbEntity
  8
0
100
AcDbLine
 62
7
  6
CONTINUOUS
 10
10.6503805997
 20
-22.4
 11
3.3
 21
-22.4
  0
LINE
  5
24A
100
AcDbEntity
  8
0
100
AcDbLine
 62
7
  6
CONTINUOUS
 10
-3.3
 20
-22.4
 11
-10.6503805997
 21
-22.4
  0
LWPOLYLINE
  5
24B
100
AcDbEntity
  8
0
100
AcDbPolyline
 62
250
  6
CONTINUOUS
 90
16
 70
0
 10
-11.0004589101
 20
-20.9972959167
 10
-10.9968794369
 20
-20.9994689572
 10
-10.9879818724
 20
-21.0016187146
 10
-10.9738615497
 20
-21.0037221553
 10
-10.9546697613
 20
-21.005756742
 10
-10.9306121379
 20
-21.007700675
 10
-10.9019464456
 20
-21.009533126
 10
-10.8689798232
 20
-21.0112344612
 10
-10.8320654925
 20
-21.0127864516
 10
-10.7915989726
 20
-21.0141724684
 10
-10.7480138429
 20
-21.0153776611
 10
-10.701777097
 20
-21.0163891165
 10
-10.6533841395
 20
-21.0171959974
 10
-10.6033534777
 20
-21.0177896584
 10
-10.552221166
 20
-21.0181637387
 10
-10.5005350625
 20
-21.0183142301
  0
LWPOLYLINE
  5
24C
100
AcDbEntity
  8
0
100
AcDbPolyline
 62
250
  6
CONTINUOUS
 90
15
 70
0
 10
10.5522211666
 20
-21.0181637394
 10
10.6033534788
 20
-21.0177896594
 10
10.6533841411
 20
-21.0171959985
 10
10.701777099
 20
-21.0163891176
 10
10.7480138452
 20
-21.015377662
 10
10.7915989752
 20
-21.0141724692
 10
10.8320654952
 20
-21.0127864523
 10
10.868979826
 20
-21.0112344618
 10
10.9019464483
 20
-21.0095331264
 10
10.9306121405
 20
-21.0077006753
 10
10.9546697635
 20
-21.0057567422
 10
10.9738615515
 20
-21.0037221554
 10
10.9879818737
 20
-21.0016187147
 10
10.9968794376
 20
-20.9994689572
 10
11.0004589101
 20
-20.9972959167
  0
LINE
  5
24D
100
AcDbEntity
  8
0
100
AcDbLine
 62
250
  6
CONTINUOUS
 10
10.5087981167
 20
-21.9749071372
 11
-10.5087981167
 21
-21.9749071372
  0
LINE
  5
24E
100
AcDbEntity
  8
0
100
AcDbLine
 62
250
  6
CONTINUOUS
 10
10.5522211666
 20
-21.0181637394
 11
-10.5005350625
 21
-21.0183142309
  0
LWPOLYLINE
  5
24F
100
AcDbEntity
  8
0
100
AcDbPolyline
 62
7
  6
CONTINUOUS
 90
10
 70
0
 10
-4.2275424773
 20
-23.3333597858
 10
-4.1720424706
 20
-23.3676236491
 10
-4.1147999091
 20
-23.3980305401
 10
-4.0558147925
 20
-23.4245804589
 10
-3.9947335065
 20
-23.4473802038
 10
-3.9319096656
 20
-23.4663229765
 10
-3.8684041133
 20
-23.481088382
 10
-3.8045704643
 20
-23.4915696219
 10
-3.7400551039
 20
-23.4978734945
 10
-3.6748580323
 20
-23.5
  0
LINE
  5
250
100
AcDbEntity
  8
0
100
AcDbLine
 62
7
  6
CONTINUOUS
 10
-3.2333672024
 20
22.5
 11
-3.3
 21
22.4
  0
LINE
  5
251
100
AcDbEntity
  8
0
100
AcDbLine
 62
7
  6
CONTINUOUS
 10
-3.3
 20
-22.4
 11
-3.2333672024
 21
-22.5
  0
LWPOLYLINE
  5
252
100
AcDbEntity
  8
0
100
AcDbPolyline
 62
250
  6
CONTINUOUS
 90
16
 70
0
 10
-11.0087219643
 20
-21.4755923698
 10
-11.0059389623
 20
-21.5277533032
 10
-10.9977157646
 20
-21.5793436708
 10
-10.9841422864
 20
-21.6297989096
 10
-10.9653669917
 20
-21.6785668706
 10
-10.9415952756
 20
-21.7251138478
 10
-10.9130872219
 20
-21.7689304222
 10
-10.8801547429
 20
-21.8095370623
 10
-10.843158184
 20
-21.8464893433
 10
-10.8025023985
 20
-21.8793828084
 10
-10.7586322667
 20
-21.9078574436
 10
-10.7120278628
 20
-21.9316015798
 10
-10.6631992385
 20
-21.9503553003
 10
-10.6126807679
 20
-21.9639133265
 10
-10.5610252917
 20
-21.9721272495
 10
-10.5087981166
 20
-21.974907137
  0
LWPOLYLINE
  5
253
100
AcDbEntity
  8
0
100
AcDbPolyline
 62
250
  6
CONTINUOUS
 90
16
 70
0
 10
-11.0087219643
 20
21.4755923698
 10
-11.0059388076
 20
21.5277547588
 10
-10.9977152003
 20
21.5793463095
 10
-10.9841411372
 20
21.6298024308
 10
-10.9653651658
 20
21.6785709568
 10
-10.9415927608
 20
21.7251181902
 10
-10.913084075
 20
21.768934742
 10
-10.8801510927
 20
21.8095411066
 10
-10.8431542155
 20
21.8464929089
 10
-10.8024983179
 20
21.8793857675
 10
-10.7586283172
 20
21.90785972
 10
-10.712024304
 20
21.931603162
 10
-10.6631962884
 20
21.9503562578
 10
-10.612678619
 20
21.9639137831
 10
-10.5610241352
 20
21.9721273713
 10
-10.5087981167
 20
21.9749071372
  0
LWPOLYLINE
  5
254
100
AcDbEntity
  8
0
100
AcDbPolyline
 62
250
  6
CONTINUOUS
 90
7
 70
0
 10
-11.0046627389
 20
21.4041254633
 10
-11.0052891369
 20
21.4238228917
 10
-11.0059457953
 20
21.4406561357
 10
-11.0066187988
 20
21.4542838409
 10
-11.0073035089
 20
21.4645922227
 10
-11.0080045641
 20
21.4716950656
 10
-11.0087219643
 20
21.4755923698
  0
LINE
  5
255
100
AcDbEntity
  8
0
100
AcDbLine
 62
250
  6
CONTINUOUS
 10
-11.0035024636
 20
21.3560260411
 11
-11.0046627389
 21
21.4041254633
  0
LINE
  5
256
100
AcDbEntity
  8
0
100
AcDbLine
 62
250
  6
CONTINUOUS
 10
-11.0024980441
 20
21.2979562724
 11
-11.0035024636
 21
21.3560260411
  0
LINE
  5
257
100
AcDbEntity
  8
0
100
AcDbLine
 62
250
  6
CONTINUOUS
 10
-11.0013312402
 20
21.1949860367
 11
-11.0024980441
 21
21.2979562724
  0
LINE
  5
258
100
AcDbEntity
  8
0
100
AcDbLine
 62
250
  6
CONTINUOUS
 10
-10.5030519894
 20
21.6796926689
 11
-10.5047341778
 21
21.8316431047
  0
LINE
  5
259
100
AcDbEntity
  8
0
100
AcDbLine
 62
250
  6
CONTINUOUS
 10
-11.0006377707
 20
21.0790132523
 11
-11.0013312402
 21
21.1949860367
  0
LINE
  5
25A
100
AcDbEntity
  8
0
100
AcDbLine
 62
250
  6
CONTINUOUS
 10
-10.5011186535
 20
21.3380089963
 11
-10.5030519894
 21
21.6796926689
  0
LINE
  5
25B
100
AcDbEntity
  8
0
100
AcDbLine
 62
250
  6
CONTINUOUS
 10
-10.5005350625
 20
21.0183142309
 11
-10.5011186535
 21
21.3380089963
  0
LINE
  5
25C
100
AcDbEntity
  8
0
100
AcDbLine
 62
7
  6
CONTINUOUS
 10
-11.15
 20
-21.8997711479
 11
-11.15
 21
21.8997711479
  0
LWPOLYLINE
  5
25D
100
AcDbEntity
  8
0
100
AcDbPolyline
 62
250
  6
CONTINUOUS
 90
9
 70
0
 10
-10.9974142989
 20
-16.3324771154
 10
-10.99513084
 20
-11.6670364005
 10
-10.9936085333
 20
-7.0009737718
 10
-10.9928473781
 20
-2.3338756638
 10
-10.9928473752
 20
2.3338443579
 10
-10.9936085267
 20
7.0009455965
 10
-10.9951308334
 20
11.6670144863
 10
-10.9974142946
 20
16.3324645931
 10
-11.0006377707
 20
21.0790132523
  0
LWPOLYLINE
  5
25E
100
AcDbEntity
  8
0
100
AcDbPolyline
 62
250
  6
CONTINUOUS
 90
9
 70
0
 10
-10.497490446
 20
-16.349481053
 10
-10.4952069837
 20
-11.6792204116
 10
-10.4936846755
 20
-7.0079400855
 10
-10.4929235215
 20
-2.3360479917
 10
-10.4929235217
 20
2.3360479976
 10
-10.4936846759
 20
7.0079400908
 10
-10.4952069841
 20
11.6792204157
 10
-10.4974904463
 20
16.3494810554
 10
-10.5005350625
 20
21.0183142309
  0
LINE
  5
25F
100
AcDbEntity
  8
0
100
AcDbLine
 62
250
  6
CONTINUOUS
 10
-11.00081144
 20
-21.1184484404
 11
-10.9974142989
 21
-16.3324771154
  0
LINE
  5
260
100
AcDbEntity
  8
0
100
AcDbLine
 62
250
  6
CONTINUOUS
 10
-10.5017441538
 20
-21.4854586496
 11
-10.497490446
 21
-16.349481053
  0
LINE
  5
261
100
AcDbEntity
  8
0
100
AcDbLine
 62
250
  6
CONTINUOUS
 10
-11.0016694038
 20
-21.2310600855
 11
-11.00081144
 21
-21.1184484404
  0
LINE
  5
262
100
AcDbEntity
  8
0
100
AcDbLine
 62
250
  6
CONTINUOUS
 10
-10.5035748986
 20
-21.7355556626
 11
-10.5017441538
 21
-21.4854586496
  0
LINE
  5
263
100
AcDbEntity
  8
0
100
AcDbLine
 62
250
  6
CONTINUOUS
 10
-10.5047341778
 20
-21.8316431047
 11
-10.5035748986
 21
-21.7355556626
  0
LINE
  5
264
100
AcDbEntity
  8
0
100
AcDbLine
 62
250
  6
CONTINUOUS
 10
-11.0024980441
 20
-21.2979562723
 11
-11.0016694038
 21
-21.2310600855
  0
LINE
  5
265
100
AcDbEntity
  8
0
100
AcDbLine
 62
250
  6
CONTINUOUS
 10
-11.0035024636
 20
-21.3560260412
 11
-11.0024980441
 21
-21.2979562723
  0
LWPOLYLINE
  5
266
100
AcDbEntity
  8
0
100
AcDbPolyline
 62
250
  6
CONTINUOUS
 90
5
 70
0
 10
-10.5060157159
 20
21.9047687004
 10
-10.5066888073
 20
21.9320760821
 10
-10.5073747238
 20
21.952953371
 10
-10.5080778269
 20
21.9672621499
 10
-10.5087981167
 20
21.9749071372
  0
LINE
  5
267
100
AcDbEntity
  8
0
100
AcDbLine
 62
250
  6
CONTINUOUS
 10
-10.5047341778
 20
21.8316431047
 11
-10.5060157159
 21
21.9047687004
  0
LWPOLYLINE
  5
268
100
AcDbEntity
  8
0
100
AcDbPolyline
 62
7
  6
CONTINUOUS
 90
3
 70
0
 43
0.3500000006
 10
1.1428571477
 20
34.535712204
 10
1.0714285848
 20
34.3214277191
 10
0.9285714591
 20
34.0357120514
  0
LWPOLYLINE
  5
269
100
AcDbEntity
  8
0
100
AcDbPolyline
 62
250
  6
CONTINUOUS
 90
6
 70
0
 10
-10.5087981167
 20
-21.9749071372
 10
-10.5080778269
 20
-21.9672621499
 10
-10.5073747238
 20
-21.952953371
 10
-10.5066888073
 20
-21.9320760821
 10
-10.5060157159
 20
-21.9047687004
 10
-10.5047341778
 20
-21.8316431047
  0
LWPOLYLINE
  5
26A
100
AcDbEntity
  8
0
100
AcDbPolyline
 62
250
  6
CONTINUOUS
 90
8
 70
0
 10
-11.0087219643
 20
-21.4755923698
 10
-11.0080045641
 20
-21.4716950654
 10
-11.0073035089
 20
-21.4645922224
 10
-11.0066187988
 20
-21.4542838406
 10
-11.0059457953
 20
-21.4406561355
 10
-11.0052891369
 20
-21.4238228918
 10
-11.0046627389
 20
-21.4041254635
 10
-11.0035024636
 20
-21.3560260412
  0
LINE
  5
26B
100
AcDbEntity
  8
0
100
AcDbLine
 62
7
  6
CONTINUOUS
 10
-3.3848722771
 20
22.4
 11
-3.3633443637
 21
22.5
  0
LWPOLYLINE
  5
26C
100
AcDbEntity
  8
RACCORDO
100
AcDbPolyline
 62
250
  6
CONTINUOUS
 90
43
 70
0
 10
0.0
 20
-7.9607718536
 10
-0.1329220035
 20
-7.9557484266
 10
-0.2648579937
 20
-7.9407411955
 10
-0.3950638482
 20
-7.9158871426
 10
-0.5228002185
 20
-7.8813816898
 10
-0.6473715419
 20
-7.8374676976
 10
-0.7681267653
 20
-7.7844249296
 10
-0.8843925894
 20
-7.7225985819
 10
-0.9955539737
 20
-7.6523668201
 10
-1.1010791562
 20
-7.5741054773
 10
-1.2003889374
 20
-7.4882761269
 10
-1.2929552587
 20
-7.3953690491
 10
-1.3783506808
 20
-7.2958301573
 10
-1.4561103172
 20
-7.1901986431
 10
-1.5257922191
 20
-7.0790718814
 10
-1.5870371092
 20
-6.9630086275
 10
-1.639498634
 20
-6.8426304299
 10
-1.682863243
 20
-6.7186160987
 10
-1.7168782171
 20
-6.5916400989
 10
-1.7413422317
 20
-6.4623758769
 10
-1.7560933532
 20
-6.3315705421
 10
-1.7610320949
 20
-6.2000321991
 10
-1.756131785
 20
-6.0684970456
 10
-1.7414207883
 20
-5.937698822
 10
-1.7169987438
 20
-5.8084419742
 10
-1.6830286483
 20
-5.6814745555
 10
-1.6397122892
 20
-5.5574682288
 10
-1.5872992761
 20
-5.4370903857
 10
-1.526101836
 20
-5.3210193574
 10
-1.4564657285
 20
-5.2098776439
 10
-1.3787458165
 20
-5.1042205686
 10
-1.2933818626
 20
-5.0046461816
 10
-1.2008378455
 20
-4.9116958265
 10
-1.1015376939
 20
-4.8258156603
 10
-0.9960065129
 20
-4.7474971453
 10
-0.8848241172
 20
-4.6772057397
 10
-0.7685246937
 20
-4.6153216718
 10
-0.6477234052
 20
-4.5622251373
 10
-0.5230940582
 20
-4.5182633415
 10
-0.3952918834
 20
-4.4837190254
 10
-0.2650147989
 20
-4.4588363945
 10
-0.1330023245
 20
-4.4438113948
 10
0.0
 20
-4.4387818054
  0
LWPOLYLINE
  5
26D
100
AcDbEntity
  8
RACCORDO
100
AcDbPolyline
 62
250
  6
CONTINUOUS
 90
43
 70
0
 10
0.0
 20
-8.2657198624
 10
-0.1562051447
 20
-8.259607001
 10
-0.3097694264
 20
-8.2422148894
 10
-0.4606928449
 20
-8.2135435083
 10
-0.609832147
 20
-8.1732571609
 10
-0.756330586
 20
-8.121691467
 10
-0.8976179217
 20
-8.0598533684
 10
-1.0335142741
 20
-7.9876065274
 10
-1.1641995231
 20
-7.9050871504
 10
-1.2876430677
 20
-7.8137109989
 10
-1.4037285211
 20
-7.7133676759
 10
-1.5125722702
 20
-7.6041674258
 10
-1.6124928743
 20
-7.4878569913
 10
-1.7033759374
 20
-7.3643241339
 10
-1.7853358557
 20
-7.2336809521
 10
-1.8570343775
 20
-7.098010733
 10
-1.9183231769
 20
-6.957212886
 10
-1.9693505798
 20
-6.8113879037
 10
-2.0092233126
 20
-6.662920751
 10
-2.0377529777
 20
-6.511726362
 10
-2.0551279727
 20
-6.3578897654
 10
-2.061020217
 20
-6.2040511289
 10
-2.0552112592
 20
-6.0502110899
 10
-2.0379195507
 20
-5.89636904
 10
-2.0094723648
 20
-5.7451633387
 10
-1.9696821764
 20
-5.5966794948
 10
-1.9187365108
 20
-5.4508320814
 10
-1.8575252171
 20
-5.3100031035
 10
-1.7859012682
 20
-5.1742926903
 10
-1.7040116913
 20
-5.0436008228
 10
-1.6131874168
 20
-4.9200093174
 10
-1.5133137125
 20
-4.8036284803
 10
-1.4045053107
 20
-4.6943481205
 10
-1.2884373389
 20
-4.5939193275
 10
-1.164990708
 20
-4.5024502843
 10
-1.0342845072
 20
-4.4198329093
 10
-0.8983511315
 20
-4.3474939028
 10
-0.7570178603
 20
-4.2855711843
 10
-0.6104574141
 20
-4.2339269093
 10
-0.4612203494
 20
-4.1935741303
 10
-0.3101568515
 20
-4.1648505458
 10
-0.156416735
 20
-4.1474184975
 10
0.0
 20
-4.1412779953
  0
LINE
  5
26E
100
AcDbEntity
  8
0
100
AcDbLine
 62
7
  6
CONTINUOUS
 10
-3.3848722771
 20
-22.4
 11
-3.3633443637
 21
-22.5
  0
LINE
  5
26F
100
AcDbEntity
  8
0
100
AcDbLine
 62
7
  6
CONTINUOUS
 10
-3.4698202597
 20
-22.4
 11
-3.4698202597
 21
-22.5
  0
LINE
  5
270
100
AcDbEntity
  8
0
100
AcDbLine
 62
7
  6
CONTINUOUS
 10
-3.4698202597
 20
22.4
 11
-3.4698202597
 21
22.5
  0
LINE
  5
271
100
AcDbEntity
  8
0
100
AcDbLine
 62
250
  6
CONTINUOUS
 10
-11.15
 20
-21.8997711479
 11
-11.0087219643
 21
-21.4755923698
  0
LWPOLYLINE
  5
272
100
AcDbEntity
  8
RACCORDO
100
AcDbPolyline
 62
250
  6
CONTINUOUS
 90
43
 70
0
 10
0.0
 20
-4.4387818054
 10
0.1329385402
 20
-4.4438065647
 10
0.2648895664
 20
-4.4588173361
 10
0.3951085592
 20
-4.4836768088
 10
0.5228556644
 20
-4.5181892023
 10
0.6474351896
 20
-4.5621111698
 10
0.7681963493
 20
-4.6151624609
 10
0.8844656418
 20
-4.6769974818
 10
0.9956279804
 20
-4.747237623
 10
1.1011521966
 20
-4.8255067002
 10
1.2004590079
 20
-4.9113427677
 10
1.2930204958
 20
-5.0042552428
 10
1.3784101401
 20
-5.1037982749
 10
1.4561630033
 20
-5.2094324023
 10
1.5258373247
 20
-5.3205601716
 10
1.5870748875
 20
-5.4366235856
 10
1.6395292619
 20
-5.5570012054
 10
1.682886784
 20
-5.6810141385
 10
1.716895381
 20
-5.8079887609
 10
1.7413534711
 20
-5.9372519295
 10
1.7560987847
 20
-6.0680563583
 10
1.7610321044
 20
-6.1995942978
 10
1.7561263742
 20
-6.3311298375
 10
1.7414095743
 20
-6.4619289504
 10
1.716981609
 20
-6.5911868525
 10
1.6830051324
 20
-6.7181556765
 10
1.6396816724
 20
-6.8421634448
 10
1.5872614875
 20
-6.9625419088
 10
1.5260566935
 20
-7.0786128143
 10
1.4564129723
 20
-7.1897535553
 10
1.3786862474
 20
-7.2954080486
 10
1.2933164714
 20
-7.3949783195
 10
1.2007675714
 20
-7.4879232957
 10
1.101464392
 20
-7.57379676
 10
0.995932169
 20
-7.652107557
 10
0.8847506429
 20
-7.7223905911
 10
0.7684546197
 20
-7.784265973
 10
0.6476592144
 20
-7.8373539573
 10
0.5230380377
 20
-7.8813077375
 10
0.3952466307
 20
-7.9158450555
 10
0.264982798
 20
-7.9407222047
 10
0.1329855409
 20
-7.9557436161
 10
0.0
 20
-7.9607718536
  0
LWPOLYLINE
  5
273
100
AcDbEntity
  8
RACCORDO
100
AcDbPolyline
 62
250
  6
CONTINUOUS
 90
43
 70
0
 10
0.0
 20
-4.1412779953
 10
0.1562188776
 20
-4.1473924739
 10
0.309794793
 20
-4.1647872625
 10
0.4607277461
 20
-4.1934623511
 10
0.6098744894
 20
-4.2337537462
 10
0.7563782704
 20
-4.2853254015
 10
0.8976688316
 20
-4.3471692202
 10
1.0335660503
 20
-4.419421289
 10
1.1642500491
 20
-4.5019454465
 10
1.287690938
 20
-4.5933252237
 10
1.4037721808
 20
-4.6936706324
 10
1.5126103138
 20
-4.8028715596
 10
1.6125250559
 20
-4.9191813569
 10
1.7034020524
 20
-5.0427117684
 10
1.785355658
 20
-5.1733509349
 10
1.8570486558
 20
-5.3090168224
 10
1.9183330557
 20
-5.4498098795
 10
1.9693568477
 20
-5.5956295473
 10
2.0092267849
 20
-5.7440923143
 10
2.0377547496
 20
-5.8952834989
 10
2.0551288594
 20
-6.0491177007
 10
2.0610202203
 20
-6.2029553787
 10
2.0552103844
 20
-6.3567963458
 10
2.0379177995
 20
-6.5106407599
 10
2.0094689149
 20
-6.6618496584
 10
1.9696759226
 20
-6.8103379197
 10
1.9187266307
 20
-6.9561907021
 10
1.8575109126
 20
-7.0970245248
 10
1.7858814038
 20
-7.2327393188
 10
1.7039854687
 20
-7.3634352507
 10
1.6131550749
 20
-7.4870292449
 10
1.5132754501
 20
-7.6034107545
 10
1.4044613664
 20
-7.7126904663
 10
1.2883891079
 20
-7.8131171936
 10
1.1649397218
 20
-7.9045826237
 10
1.0342321609
 20
-7.9871952219
 10
0.8982995668
 20
-8.0595289887
 10
0.756969453
 20
-8.1214459527
 10
0.610414306
 20
-8.1730842166
 10
0.4611847271
 20
-8.2134318947
 10
0.3101309166
 20
-8.2421517195
 10
0.1564026743
 20
-8.2595810356
 10
0.0
 20
-8.2657198624
  0
LINE
  5
274
100
AcDbEntity
  8
0
100
AcDbLine
 62
250
  6
CONTINUOUS
 10
-11.0087219643
 20
21.4755923698
 11
-11.15
 21
21.8997711479
  0
LINE
  5
275
100
AcDbEntity
  8
0
100
AcDbLine
 62
250
  6
CONTINUOUS
 10
-10.6503805997
 20
-22.4
 11
-10.5087981167
 21
-21.9749071372
  0
LINE
  5
276
100
AcDbEntity
  8
0
100
AcDbLine
 62
250
  6
CONTINUOUS
 10
-10.5087981167
 20
21.9749071372
 11
-10.6503805997
 21
22.4
  0
LINE
  5
277
100
AcDbEntity
  8
0
100
AcDbLine
 62
250
  6
CONTINUOUS
 10
-0.5044178173
 20
7.8742437441
 11
-0.5044178173
 21
4.5257562559
  0
LINE
  5
278
100
AcDbEntity
  8
0
100
AcDbLine
 62
250
  6
CONTINUOUS
 10
-0.5044178173
 20
-4.5257562559
 11
-0.5044178173
 21
-7.8742437441
  0
LINE
  5
279
100
AcDbEntity
  8
0
100
AcDbLine
 62
7
  6
CONTINUOUS
 10
-0.094367311
 20
-7.9460703023
 11
-0.094367311
 21
-4.4539296977
  0
LINE
  5
27A
100
AcDbEntity
  8
0
100
AcDbLine
 62
7
  6
CONTINUOUS
 10
-0.094367311
 20
4.4539296977
 11
-0.094367311
 21
7.9460703023
  0
LINE
  5
27B
100
AcDbEntity
  8
0
100
AcDbLine
 62
7
  6
CONTINUOUS
 10
0.094367311
 20
7.9460703023
 11
0.094367311
 21
4.4539296977
  0
LINE
  5
27C
100
AcDbEntity
  8
0
100
AcDbLine
 62
7
  6
CONTINUOUS
 10
0.094367311
 20
-4.4539296977
 11
0.094367311
 21
-7.9460703023
  0
LINE
  5
27D
100
AcDbEntity
  8
0
100
AcDbLine
 62
7
  6
CONTINUOUS
 10
3.4151277229
 20
22.4
 11
3.4366556363
 21
22.5
  0
LWPOLYLINE
  5
27E
100
AcDbEntity
  8
0
100
AcDbPolyline
 62
7
  6
CONTINUOUS
 90
2
 70
0
 43
0.3500000006
 10
20.3999994278
 20
-1.3571429443
 10
18.900000103
 20
-1.3571429443
  0
LWPOLYLINE
  5
27F
100
AcDbEntity
  8
0
100
AcDbPolyline
 62
7
  6
CONTINUOUS
 90
4
 70
0
 43
0.3500000006
 10
18.0428576317
 20
-0.0000003204
 10
17.3999996452
 20
-0.0000003204
 10
17.3999996452
 20
1.5000001373
 10
20.3999994278
 20
0.642857666
  0
LINE
  5
280
100
AcDbEntity
  8
0
100
AcDbLine
 62
7
  6
CONTINUOUS
 10
3.4151277229
 20
-22.4
 11
3.4366556363
 21
-22.5
  0
LINE
  5
281
100
AcDbEntity
  8
0
100
AcDbLine
 62
250
  6
CONTINUOUS
 10
0.5044178173
 20
-7.8742437441
 11
0.5044178173
 21
-4.5257562559
  0
LINE
  5
282
100
AcDbEntity
  8
0
100
AcDbLine
 62
250
  6
CONTINUOUS
 10
0.5044178173
 20
4.5257562559
 11
0.5044178173
 21
7.8742437441
  0
LINE
  5
283
100
AcDbEntity
  8
0
100
AcDbLine
 62
7
  6
CONTINUOUS
 10
-3.4151277229
 20
-22.4
 11
-3.4366556363
 21
-22.5
  0
LINE
  5
284
100
AcDbEntity
  8
0
100
AcDbLine
 62
7
  6
CONTINUOUS
 10
-3.4151277229
 20
22.4
 11
-3.4366556363
 21
22.5
  0
LINE
  5
285
100
AcDbEntity
  8
0
100
AcDbLine
 62
7
  6
CONTINUOUS
 10
3.4698202597
 20
22.5
 11
3.4698202597
 21
22.4
  0
LINE
  5
286
100
AcDbEntity
  8
0
100
AcDbLine
 62
7
  6
CONTINUOUS
 10
3.4698202597
 20
-22.5
 11
3.4698202597
 21
-22.4
  0
LINE
  5
287
100
AcDbEntity
  8
0
100
AcDbLine
 62
250
  6
CONTINUOUS
 10
10.5087981167
 20
21.9749071372
 11
10.6503805997
 21
22.4
  0
LINE
  5
288
100
AcDbEntity
  8
0
100
AcDbLine
 62
250
  6
CONTINUOUS
 10
11.0087219643
 20
21.4755923698
 11
11.15
 21
21.8997711479
  0
LINE
  5
289
100
AcDbEntity
  8
0
100
AcDbLine
 62
250
  6
CONTINUOUS
 10
10.6503805997
 20
-22.4
 11
10.5087981167
 21
-21.9749071372
  0
LINE
  5
28A
100
AcDbEntity
  8
0
100
AcDbLine
 62
250
  6
CONTINUOUS
 10
11.15
 20
-21.8997711479
 11
11.0087219643
 21
-21.4755923698
  0
LWPOLYLINE
  5
28B
100
AcDbEntity
  8
RACCORDO
100
AcDbPolyline
 62
250
  6
CONTINUOUS
 90
43
 70
0
 10
0.0
 20
4.4387818054
 10
-0.1329385402
 20
4.4438065647
 10
-0.2648895664
 20
4.4588173361
 10
-0.3951085592
 20
4.4836768088
 10
-0.5228556644
 20
4.5181892023
 10
-0.6474351896
 20
4.5621111699
 10
-0.7681963493
 20
4.6151624609
 10
-0.8844656418
 20
4.6769974818
 10
-0.9956279804
 20
4.747237623
 10
-1.1011521966
 20
4.8255067002
 10
-1.2004590079
 20
4.9113427677
 10
-1.2930204958
 20
5.0042552428
 10
-1.3784101401
 20
5.1037982749
 10
-1.4561630033
 20
5.2094324023
 10
-1.5258373247
 20
5.3205601716
 10
-1.5870748875
 20
5.4366235857
 10
-1.6395292619
 20
5.5570012054
 10
-1.682886784
 20
5.6810141385
 10
-1.716895381
 20
5.8079887609
 10
-1.7413534711
 20
5.9372519295
 10
-1.7560987847
 20
6.0680563583
 10
-1.7610321044
 20
6.1995942978
 10
-1.7561263742
 20
6.3311298375
 10
-1.7414095743
 20
6.4619289504
 10
-1.716981609
 20
6.5911868525
 10
-1.6830051324
 20
6.7181556766
 10
-1.6396816724
 20
6.8421634448
 10
-1.5872614875
 20
6.9625419088
 10
-1.5260566935
 20
7.0786128143
 10
-1.4564129723
 20
7.1897535553
 10
-1.3786862474
 20
7.2954080486
 10
-1.2933164714
 20
7.3949783195
 10
-1.2007675714
 20
7.4879232957
 10
-1.101464392
 20
7.5737967601
 10
-0.995932169
 20
7.652107557
 10
-0.8847506429
 20
7.7223905911
 10
-0.7684546197
 20
7.784265973
 10
-0.6476592144
 20
7.8373539573
 10
-0.5230380377
 20
7.8813077375
 10
-0.3952466307
 20
7.9158450555
 10
-0.264982798
 20
7.9407222047
 10
-0.1329855409
 20
7.9557436161
 10
0.0
 20
7.9607718536
  0
LWPOLYLINE
  5
28C
100
AcDbEntity
  8
RACCORDO
100
AcDbPolyline
 62
250
  6
CONTINUOUS
 90
43
 70
0
 10
0.0
 20
4.1412779953
 10
-0.1562188777
 20
4.1473924739
 10
-0.309794793
 20
4.1647872625
 10
-0.4607277461
 20
4.1934623511
 10
-0.6098744894
 20
4.2337537462
 10
-0.7563782705
 20
4.2853254015
 10
-0.8976688316
 20
4.3471692202
 10
-1.0335660503
 20
4.419421289
 10
-1.1642500491
 20
4.5019454465
 10
-1.287690938
 20
4.5933252237
 10
-1.4037721808
 20
4.6936706324
 10
-1.5126103138
 20
4.8028715596
 10
-1.6125250559
 20
4.9191813569
 10
-1.7034020524
 20
5.0427117684
 10
-1.785355658
 20
5.1733509349
 10
-1.8570486558
 20
5.3090168224
 10
-1.9183330557
 20
5.4498098795
 10
-1.9693568477
 20
5.5956295473
 10
-2.0092267849
 20
5.7440923143
 10
-2.0377547496
 20
5.895283499
 10
-2.0551288594
 20
6.0491177007
 10
-2.0610202203
 20
6.2029553787
 10
-2.0552103844
 20
6.3567963458
 10
-2.0379177995
 20
6.5106407599
 10
-2.0094689149
 20
6.6618496585
 10
-1.9696759226
 20
6.8103379197
 10
-1.9187266307
 20
6.9561907022
 10
-1.8575109126
 20
7.0970245248
 10
-1.7858814038
 20
7.2327393188
 10
-1.7039854687
 20
7.3634352507
 10
-1.6131550749
 20
7.4870292449
 10
-1.5132754501
 20
7.6034107545
 10
-1.4044613664
 20
7.7126904663
 10
-1.2883891079
 20
7.8131171936
 10
-1.1649397218
 20
7.9045826237
 10
-1.0342321609
 20
7.9871952219
 10
-0.8982995668
 20
8.0595289887
 10
-0.756969453
 20
8.1214459527
 10
-0.610414306
 20
8.1730842166
 10
-0.4611847271
 20
8.2134318947
 10
-0.3101309166
 20
8.2421517195
 10
-0.1564026743
 20
8.2595810356
 10
0.0
 20
8.2657198624
  0
LWPOLYLINE
  5
28D
100
AcDbEntity
  8
0
100
AcDbPolyline
 62
250
  6
CONTINUOUS
 90
7
 70
0
 10
11.0087219643
 20
-21.4755923698
 10
11.0080031927
 20
-21.4716789126
 10
11.0073010341
 20
-21.4645568007
 10
11.0066154888
 20
-21.4542260342
 10
11.0059419622
 20
-21.4405716186
 10
11.0052850488
 20
-21.4237085484
 10
11.0046585314
 20
-21.403981807
  0
LWPOLYLINE
  5
28E
100
AcDbEntity
  8
0
100
AcDbPolyline
 62
250
  6
CONTINUOUS
 90
5
 70
0
 10
10.5087981167
 20
-21.9749071372
 10
10.5080778549
 20
-21.9672631277
 10
10.5073747357
 20
-21.9529558612
 10
10.5066887591
 20
-21.9320798744
 10
10.5060155151
 20
-21.9047715709
  0
LINE
  5
28F
100
AcDbEntity
  8
0
100
AcDbLine
 62
7
  6
CONTINUOUS
 10
3.3848722771
 20
-22.4
 11
3.3633443637
 21
-22.5
  0
LWPOLYLINE
  5
290
100
AcDbEntity
  8
RACCORDO
100
AcDbPolyline
 62
250
  6
CONTINUOUS
 90
43
 70
0
 10
0.0
 20
7.9607718536
 10
0.1329220035
 20
7.9557484266
 10
0.2648579937
 20
7.9407411955
 10
0.3950638482
 20
7.9158871426
 10
0.5228002184
 20
7.8813816898
 10
0.6473715419
 20
7.8374676976
 10
0.7681267653
 20
7.7844249296
 10
0.8843925894
 20
7.7225985819
 10
0.9955539737
 20
7.6523668201
 10
1.1010791562
 20
7.5741054773
 10
1.2003889374
 20
7.4882761269
 10
1.2929552587
 20
7.3953690491
 10
1.3783506808
 20
7.2958301573
 10
1.4561103172
 20
7.1901986431
 10
1.5257922191
 20
7.0790718814
 10
1.5870371092
 20
6.9630086275
 10
1.639498634
 20
6.84263043
 10
1.682863243
 20
6.7186160987
 10
1.7168782171
 20
6.5916400989
 10
1.7413422317
 20
6.4623758769
 10
1.7560933532
 20
6.3315705421
 10
1.7610320949
 20
6.2000321991
 10
1.756131785
 20
6.0684970456
 10
1.7414207883
 20
5.937698822
 10
1.7169987438
 20
5.8084419742
 10
1.6830286483
 20
5.6814745555
 10
1.6397122892
 20
5.5574682288
 10
1.5872992761
 20
5.4370903857
 10
1.526101836
 20
5.3210193574
 10
1.4564657285
 20
5.2098776439
 10
1.3787458165
 20
5.1042205686
 10
1.2933818626
 20
5.0046461817
 10
1.2008378455
 20
4.9116958265
 10
1.1015376939
 20
4.8258156603
 10
0.9960065129
 20
4.7474971453
 10
0.8848241172
 20
4.6772057397
 10
0.7685246937
 20
4.6153216718
 10
0.6477234052
 20
4.5622251374
 10
0.5230940582
 20
4.5182633415
 10
0.3952918834
 20
4.4837190255
 10
0.2650147989
 20
4.4588363945
 10
0.1330023245
 20
4.4438113948
 10
0.0
 20
4.4387818054
  0
LWPOLYLINE
  5
291
100
AcDbEntity
  8
RACCORDO
100
AcDbPolyline
 62
250
  6
CONTINUOUS
 90
43
 70
0
 10
0.0
 20
8.2657198624
 10
0.1562051447
 20
8.259607001
 10
0.3097694264
 20
8.2422148894
 10
0.4606928449
 20
8.2135435083
 10
0.609832147
 20
8.1732571609
 10
0.756330586
 20
8.121691467
 10
0.8976179217
 20
8.0598533684
 10
1.0335142741
 20
7.9876065274
 10
1.1641995231
 20
7.9050871504
 10
1.2876430677
 20
7.8137109989
 10
1.4037285211
 20
7.713367676
 10
1.5125722701
 20
7.6041674258
 10
1.6124928743
 20
7.4878569913
 10
1.7033759374
 20
7.3643241339
 10
1.7853358557
 20
7.2336809521
 10
1.8570343775
 20
7.098010733
 10
1.9183231769
 20
6.957212886
 10
1.9693505798
 20
6.8113879038
 10
2.0092233126
 20
6.662920751
 10
2.0377529777
 20
6.511726362
 10
2.0551279727
 20
6.3578897654
 10
2.061020217
 20
6.2040511289
 10
2.0552112592
 20
6.0502110899
 10
2.0379195507
 20
5.8963690401
 10
2.0094723648
 20
5.7451633387
 10
1.9696821764
 20
5.5966794948
 10
1.9187365108
 20
5.4508320814
 10
1.8575252171
 20
5.3100031035
 10
1.7859012682
 20
5.1742926903
 10
1.7040116913
 20
5.0436008228
 10
1.6131874168
 20
4.9200093174
 10
1.5133137125
 20
4.8036284803
 10
1.4045053107
 20
4.6943481205
 10
1.2884373389
 20
4.5939193275
 10
1.164990708
 20
4.5024502843
 10
1.0342845072
 20
4.4198329093
 10
0.8983511315
 20
4.3474939028
 10
0.7570178603
 20
4.2855711843
 10
0.6104574141
 20
4.2339269093
 10
0.4612203494
 20
4.1935741303
 10
0.3101568515
 20
4.1648505458
 10
0.156416735
 20
4.1474184975
 10
0.0
 20
4.1412779953
  0
LINE
  5
292
100
AcDbEntity
  8
0
100
AcDbLine
 62
7
  6
CONTINUOUS
 10
3.3848722771
 20
22.4
 11
3.3633443637
 21
22.5
  0
LWPOLYLINE
  5
293
100
AcDbEntity
  8
0
100
AcDbPolyline
 62
250
  6
CONTINUOUS
 90
3
 70
0
 10
11.0046585314
 20
-21.403981807
 10
11.0034984168
 20
-21.3558303735
 10
11.0029751375
 20
-21.3279645393
  0
LINE
  5
294
100
AcDbEntity
  8
0
100
AcDbLine
 62
250
  6
CONTINUOUS
 10
10.5060155151
 20
-21.9047715709
 11
10.5047336849
 21
-21.8316424864
  0
LINE
  5
295
100
AcDbEntity
  8
0
100
AcDbLine
 62
250
  6
CONTINUOUS
 10
10.5047336849
 20
-21.8316424864
 11
10.5030519635
 21
-21.6797292088
  0
LINE
  5
296
100
AcDbEntity
  8
0
100
AcDbLine
 62
250
  6
CONTINUOUS
 10
10.5030519635
 20
-21.6797292088
 11
10.5014061262
 21
-21.4132060252
  0
LWPOLYLINE
  5
297
100
AcDbEntity
  8
0
100
AcDbPolyline
 62
250
  6
CONTINUOUS
 90
3
 70
0
 10
10.5014061262
 20
-21.4132060252
 10
10.5005963741
 20
-21.1000229542
 10
10.5005350625
 20
-21.0183142309
  0
LWPOLYLINE
  5
298
100
AcDbEntity
  8
0
100
AcDbPolyline
 62
250
  6
CONTINUOUS
 90
9
 70
0
 10
10.5005350625
 20
-21.0183142309
 10
10.4974904462
 20
-16.3494810548
 10
10.495206984
 20
-11.6792204146
 10
10.4936846758
 20
-7.0079400892
 10
10.4929235217
 20
-2.3360479955
 10
10.4929235216
 20
2.3360479943
 10
10.4936846757
 20
7.0079400882
 10
10.4952069839
 20
11.6792204138
 10
10.4974904462
 20
16.3494810544
  0
LINE
  5
299
100
AcDbEntity
  8
0
100
AcDbLine
 62
250
  6
CONTINUOUS
 10
10.4974904462
 20
16.3494810544
 11
10.5011186198
 21
21.3380251343
  0
LINE
  5
29A
100
AcDbEntity
  8
0
100
AcDbLine
 62
250
  6
CONTINUOUS
 10
10.5011186198
 20
21.3380251343
 11
10.5025715154
 21
21.6191453064
  0
LINE
  5
29B
100
AcDbEntity
  8
0
100
AcDbLine
 62
250
  6
CONTINUOUS
 10
10.5025715154
 20
21.6191453064
 11
10.5041390272
 21
21.786331002
  0
LWPOLYLINE
  5
29C
100
AcDbEntity
  8
0
100
AcDbPolyline
 62
250
  6
CONTINUOUS
 90
7
 70
0
 10
10.5041390272
 20
21.786331002
 10
10.5053594138
 20
21.8712144185
 10
10.5060155151
 20
21.9047715709
 10
10.5066887591
 20
21.9320798744
 10
10.5073747357
 20
21.9529558612
 10
10.5080778549
 20
21.9672631277
 10
10.5087981167
 20
21.9749071372
  0
LWPOLYLINE
  5
29D
100
AcDbEntity
  8
0
100
AcDbPolyline
 62
250
  6
CONTINUOUS
 90
9
 70
0
 10
11.0029751375
 20
21.3279645394
 10
11.0040632761
 20
21.3813379257
 10
11.0046585314
 20
21.4039818068
 10
11.0052850488
 20
21.4237085483
 10
11.0059419622
 20
21.4405716188
 10
11.0066154888
 20
21.4542260345
 10
11.0073010341
 20
21.464556801
 10
11.0080031927
 20
21.4716789127
 10
11.0087219643
 20
21.4755923698
  0
LINE
  5
29E
100
AcDbEntity
  8
0
100
AcDbLine
 62
250
  6
CONTINUOUS
 10
11.0029751375
 20
-21.3279645393
 11
11.0020549485
 21
-21.2650621527
  0
LINE
  5
29F
100
AcDbEntity
  8
0
100
AcDbLine
 62
250
  6
CONTINUOUS
 10
11.0020549485
 20
-21.2650621527
 11
11.0010408709
 21
-21.1568159642
  0
LINE
  5
2A0
100
AcDbEntity
  8
0
100
AcDbLine
 62
250
  6
CONTINUOUS
 10
11.0010408709
 20
-21.1568159642
 11
11.0005196528
 21
-21.0384725278
  0
LWPOLYLINE
  5
2A1
100
AcDbEntity
  8
0
100
AcDbPolyline
 62
250
  6
CONTINUOUS
 90
9
 70
0
 10
11.0005196528
 20
-21.0384725278
 10
10.9974142958
 20
-16.3324664701
 10
10.9951308352
 20
-11.6670185434
 10
10.9936085283
 20
-7.0009521365
 10
10.9928473752
 20
-2.3338547134
 10
10.9928473758
 20
2.3338611899
 10
10.9936085296
 20
7.0009579653
 10
10.9951308365
 20
11.667023077
 10
10.9974142967
 20
16.3324690607
  0
LINE
  5
2A2
100
AcDbEntity
  8
0
100
AcDbLine
 62
7
  6
CONTINUOUS
 10
11.15
 20
21.8997711479
 11
11.15
 21
-21.8997711479
  0
LINE
  5
2A3
100
AcDbEntity
  8
0
100
AcDbLine
 62
250
  6
CONTINUOUS
 10
10.9974142967
 20
16.3324690607
 11
11.0008096574
 21
21.1180991804
  0
LINE
  5
2A4
100
AcDbEntity
  8
0
100
AcDbLine
 62
250
  6
CONTINUOUS
 10
11.0008096574
 20
21.1180991804
 11
11.0016659628
 21
21.2307227352
  0
LWPOLYLINE
  5
2A5
100
AcDbEntity
  8
0
100
AcDbPolyline
 62
250
  6
CONTINUOUS
 90
3
 70
0
 10
11.0016659628
 20
21.2307227352
 10
11.002494253
 20
21.297692487
 10
11.0029751375
 20
21.3279645394
  0
LINE
  5
2A6
100
AcDbEntity
  8
0
100
AcDbLine
 62
7
  6
CONTINUOUS
 10
3.3
 20
-22.4
 11
3.2333672024
 21
-22.5
  0
LINE
  5
2A7
100
AcDbEntity
  8
0
100
AcDbLine
 62
7
  6
CONTINUOUS
 10
3.2333672024
 20
22.5
 11
3.3
 21
22.4
  0
LWPOLYLINE
  5
2A8
100
AcDbEntity
  8
0
100
AcDbPolyline
 62
7
  6
CONTINUOUS
 90
10
 70
0
 43
0.3500000006
 10
1.0714285848
 20
34.7500012207
 10
1.1428571477
 20
34.6071433868
 10
1.1428571477
 20
34.535712204
 10
1.0000000219
 20
34.392858902
 10
0.9285714591
 20
34.392858902
 10
0.8571428254
 20
34.464285553
 10
0.8571428254
 20
34.535712204
 10
0.9285714591
 20
34.6785700378
 10
1.0000000219
 20
34.7500012207
 10
1.0714285848
 20
34.7500012207
  0
LWPOLYLINE
  5
2A9
100
AcDbEntity
  8
0
100
AcDbPolyline
 62
7
  6
CONTINUOUS
 90
3
 70
0
 43
0.3500000006
 10
19.7571437073
 20
-0.8571427917
 10
19.7571437073
 20
-2.3571432495
 10
17.3999996452
 20
-1.7142852631
  0
LINE
  5
2AA
100
AcDbEntity
  8
0
100
AcDbLine
 62
250
  6
CONTINUOUS
 10
-10.5005350625
 20
21.0183142309
 11
10.5005350625
 21
21.0183142309
  0
LINE
  5
2AB
100
AcDbEntity
  8
0
100
AcDbLine
 62
250
  6
CONTINUOUS
 10
-10.5087981167
 20
21.9749071372
 11
10.5087981167
 21
21.9749071372
  0
LINE
  5
2AC
100
AcDbEntity
  8
0
100
AcDbLine
 62
7
  6
CONTINUOUS
 10
-10.6503805997
 20
22.4
 11
-3.3
 21
22.4
  0
LINE
  5
2AD
100
AcDbEntity
  8
0
100
AcDbLine
 62
7
  6
CONTINUOUS
 10
3.3
 20
22.4
 11
10.6503805997
 21
22.4
  0
LINE
  5
2AE
100
AcDbEntity
  8
0
100
AcDbLine
 62
7
  6
CONTINUOUS
 10
3.4698202597
 20
22.5
 11
-3.4698202597
 21
22.5
  0
LWPOLYLINE
  5
2AF
100
AcDbEntity
  8
0
100
AcDbPolyline
 62
250
  6
CONTINUOUS
 90
16
 70
0
 10
10.5005350626
 20
21.0183132877
 10
10.5522203681
 20
21.0181627949
 10
10.6033519099
 20
21.0177887256
 10
10.6533818551
 20
21.0171950877
 10
10.7017741735
 20
21.0163882415
 10
10.7480103807
 20
21.0153768319
 10
10.7915950934
 20
21.0141716957
 10
10.8320613367
 20
21.0127857448
 10
10.8689755479
 20
21.0112338287
 10
10.9019422211
 20
21.0095325749
 10
10.9306081453
 20
21.0077002109
 10
10.9546661883
 20
21.0057563691
 10
10.9738585879
 20
21.0037218762
 10
10.987979713
 20
21.00161853
 10
10.9968782673
 20
20.9994688662
 10
11.00045891
 20
20.9972959167
  0
LWPOLYLINE
  5
2B0
100
AcDbEntity
  8
0
100
AcDbPolyline
 62
250
  6
CONTINUOUS
 90
16
 70
0
 10
10.5087981167
 20
21.9749071372
 10
10.5610241351
 20
21.9721273713
 10
10.6126786189
 20
21.9639137831
 10
10.6631962883
 20
21.9503562579
 10
10.7120243038
 20
21.9316031621
 10
10.7586283171
 20
21.90785972
 10
10.8024983178
 20
21.8793857676
 10
10.8431542153
 20
21.846492909
 10
10.8801510926
 20
21.8095411067
 10
10.9130840749
 20
21.7689347421
 10
10.9415927608
 20
21.7251181903
 10
10.9653651658
 20
21.6785709569
 10
10.9841411372
 20
21.6298024308
 10
10.9977152003
 20
21.5793463095
 10
11.0059388076
 20
21.5277547588
 10
11.0087219643
 20
21.4755923698
  0
LWPOLYLINE
  5
2B1
100
AcDbEntity
  8
0
100
AcDbPolyline
 62
7
  6
CONTINUOUS
 90
10
 70
0
 10
4.2275424291
 20
23.333359818
 10
4.1722080815
 20
23.3675587919
 10
4.1150553962
 20
23.3979286253
 10
4.0560843734
 20
23.4244693181
 10
3.9948955855
 20
23.447303149
 10
3.9318884601
 20
23.4663078394
 10
3.8682612792
 20
23.4811165533
 10
3.8044134704
 20
23.4916070121
 10
3.7399456062
 20
23.4979014943
 10
3.6748576866
 20
23.5
  0
LWPOLYLINE
  5
2B2
100
AcDbEntity
  8
0
100
AcDbPolyline
 62
7
  6
CONTINUOUS
 90
10
 70
0
 10
-3.6748576866
 20
23.5
 10
-3.7399456062
 20
23.4979014943
 10
-3.8044134704
 20
23.4916070121
 10
-3.8682612792
 20
23.4811165533
 10
-3.9318884601
 20
23.4663078394
 10
-3.9948955855
 20
23.447303149
 10
-4.0560843734
 20
23.4244693181
 10
-4.1150553962
 20
23.3979286253
 10
-4.1722080815
 20
23.3675587919
 10
-4.2275424291
 20
23.333359818
  0
LINE
  5
2B3
100
AcDbEntity
  8
0
100
AcDbLine
 62
7
  6
CONTINUOUS
 10
3.6748576866
 20
23.5
 11
-3.6748576866
 21
23.5
  0
LWPOLYLINE
  5
2B4
100
AcDbEntity
  8
0
100
AcDbPolyline
 62
7
  6
CONTINUOUS
 90
7
 70
0
 43
0.3500000006
 10
-0.4285714127
 20
34.2500010681
 10
-1.9285714102
 20
34.2500010681
 10
-0.4285714127
 20
36.3928549805
 10
-0.4285714127
 20
36.8214284821
 10
-0.8571428254
 20
37.2500019836
 10
-1.5000000329
 20
37.2500019836
 10
-1.9285714102
 20
36.6071439972
  0
LWPOLYLINE
  5
2B5
100
AcDbEntity
  8
0
100
AcDbPolyline
 62
7
  6
CONTINUOUS
 90
6
 70
0
 43
0.3500000006
 10
2.1428571696
 20
34.2500010681
 10
3.2142856836
 20
34.2500010681
 10
3.4285713015
 20
34.464285553
 10
3.4285713015
 20
35.5357125092
 10
3.0000000658
 20
35.9642860107
 10
2.5714285469
 20
35.9642860107
  0
LWPOLYLINE
  5
2B6
100
AcDbEntity
  8
0
100
AcDbPolyline
 62
7
  6
CONTINUOUS
 90
7
 70
0
 43
0.3500000006
 10
-2.7857141647
 20
34.2500010681
 10
-4.2857143393
 20
34.2500010681
 10
-2.7857141647
 20
36.3928549805
 10
-2.7857141647
 20
36.8214284821
 10
-3.2142856836
 20
37.2500019836
 10
-3.8571428204
 20
37.2500019836
 10
-4.2857143393
 20
36.6071439972
  0
LWPOLYLINE
  5
2B7
100
AcDbEntity
  8
0
100
AcDbPolyline
 62
7
  6
CONTINUOUS
 90
5
 70
0
 43
0.3500000006
 10
-41.9147639923
 20
43.9642839203
 10
-41.5576216736
 20
44.178572937
 10
-41.5576216736
 20
44.8214263916
 10
-41.9147639923
 20
45.2499998932
 10
-42.7719064636
 20
45.2499998932
  0
LINE
  5
2B8
100
AcDbEntity
  8
0
100
AcDbLine
 62
7
  6
CONTINUOUS
 10
-46.343336024
 20
-23.5
 11
-42.343336024
 21
-23.4301797403
  0
LINE
  5
2B9
100
AcDbEntity
  8
0
100
AcDbLine
 62
250
  6
CONTINUOUS
 10
-46.343336024
 20
-23.3333596575
 11
-42.343336024
 21
-23.2631073618
  0
LWPOLYLINE
  5
2BA
100
AcDbEntity
  8
0
100
AcDbPolyline
 62
250
  6
CONTINUOUS
 90
8
 70
0
 10
-54.4545910439
 20
21.9749071372
 10
-54.455356972
 20
21.9721273713
 10
-54.4558281491
 20
21.9639137831
 10
-54.4559994188
 20
21.9503562579
 10
-54.4558689069
 20
21.9316031621
 10
-54.4554380416
 20
21.90785972
 10
-54.4547115384
 20
21.8793857676
 10
-54.4524065686
 20
21.8095411067
  0
LINE
  5
2BB
100
AcDbEntity
  8
0
100
AcDbLine
 62
7
  6
CONTINUOUS
 10
-42.343336024
 20
-23.0998904748
 11
-43.664556
 21
-23.1272645048
  0
LINE
  5
2BC
100
AcDbEntity
  8
0
100
AcDbLine
 62
7
  6
CONTINUOUS
 10
-43.664556
 20
-23.1272645048
 11
-44.9979198154
 21
-23.1539170037
  0
LINE
  5
2BD
100
AcDbEntity
  8
0
100
AcDbLine
 62
7
  6
CONTINUOUS
 10
-44.9979198154
 20
-23.1539170037
 11
-46.343336024
 21
-23.1799085617
  0
LINE
  5
2BE
100
AcDbEntity
  8
RACCORDO
100
AcDbLine
 62
7
  6
CONTINUOUS
 10
-38.1704988807
 20
-21.1271628567
 11
-42.343336024
 21
-21.2
  0
LINE
  5
2BF
100
AcDbEntity
  8
0
100
AcDbLine
 62
7
  6
CONTINUOUS
 10
-44.1076646765
 20
-22.6434802059
 11
-46.343336024
 21
-22.663166622
  0
LINE
  5
2C0
100
AcDbEntity
  8
0
100
AcDbLine
 62
7
  6
CONTINUOUS
 10
-42.343336024
 20
-22.6298666026
 11
-44.1076646765
 21
-22.6434802059
  0
LINE
  5
2C1
100
AcDbEntity
  8
0
100
AcDbLine
 62
7
  6
CONTINUOUS
 10
-40.1938405401
 20
-22.2
 11
-40.743336024
 21
-22.2
  0
LINE
  5
2C2
100
AcDbEntity
  8
0
100
AcDbLine
 62
7
  6
CONTINUOUS
 10
-46.343336024
 20
-22.4
 11
-54.4545910439
 21
-21.9749071372
  0
LINE
  5
2C3
100
AcDbEntity
  8
0
100
AcDbLine
 62
250
  6
CONTINUOUS
 10
-46.343336024
 20
-21.8997711479
 11
-54.437149269
 21
-21.4755923698
  0
LWPOLYLINE
  5
2C4
100
AcDbEntity
  8
0
100
AcDbPolyline
 62
250
  6
CONTINUOUS
 90
19
 70
0
 10
-54.437149269
 20
-21.4755923698
 10
-54.4783276687
 20
-21.4716789126
 10
-54.5185543029
 20
-21.4645568007
 10
-54.5578291717
 20
-21.4542260342
 10
-54.5964154807
 20
-21.4405716186
 10
-54.6340500243
 20
-21.4237085484
 10
-54.6699431854
 20
-21.403981807
 10
-54.7040453347
 20
-21.3813379258
 10
-54.7364061016
 20
-21.3558303735
 10
-54.7663847567
 20
-21.3279645393
 10
-54.7939346074
 20
-21.2976924869
 10
-54.8191023463
 20
-21.2650621527
 10
-54.8413873228
 20
-21.230722735
 10
-54.860734451
 20
-21.1946238913
 10
-54.8771988166
 20
-21.1568159642
 10
-54.8904450263
 20
-21.1180991804
 10
-54.9003612822
 20
-21.0787402824
 10
-54.9070593821
 20
-21.0384725278
 10
-54.910539326
 20
-20.9972959167
  0
LWPOLYLINE
  5
2C5
100
AcDbEntity
  8
0
100
AcDbPolyline
 62
250
  6
CONTINUOUS
 90
7
 70
0
 10
-54.4545910439
 20
-21.9749071372
 10
-54.4553569718
 20
-21.97212728
 10
-54.4558281394
 20
-21.9639134406
 10
-54.4559993918
 20
-21.9503555394
 10
-54.455868856
 20
-21.931601975
 10
-54.4554379626
 20
-21.9078580123
 10
-54.45471143
 20
-21.8793835478
  0
LINE
  5
2C6
100
AcDbEntity
  8
0
100
AcDbLine
 62
250
  6
CONTINUOUS
 10
-55.4013711473
 20
-21.0183142305
 11
-55.3986964794
 21
-21.0181637394
  0
LINE
  5
2C7
100
AcDbEntity
  8
0
100
AcDbLine
 62
250
  6
CONTINUOUS
 10
-55.3986964794
 20
-21.0181637394
 11
-55.0628122999
 21
-21.0037221554
  0
LWPOLYLINE
  5
2C8
100
AcDbEntity
  8
0
100
AcDbPolyline
 62
250
  6
CONTINUOUS
 90
3
 70
0
 10
-55.0628122999
 20
-21.0037221554
 10
-54.9621251293
 20
-20.9994689572
 10
-54.910539326
 20
-20.9972959167
  0
LWPOLYLINE
  5
2C9
100
AcDbEntity
  8
0
100
AcDbPolyline
 62
250
  6
CONTINUOUS
 90
19
 70
0
 10
-54.910539326
 20
20.9972959167
 10
-54.9070593819
 20
21.0384725278
 10
-54.900361282
 20
21.0787402824
 10
-54.8904450261
 20
21.1180991804
 10
-54.8771988165
 20
21.1568159642
 10
-54.860734451
 20
21.1946238914
 10
-54.841387323
 20
21.2307227352
 10
-54.8191023465
 20
21.2650621528
 10
-54.7939346074
 20
21.297692487
 10
-54.7663847567
 20
21.3279645394
 10
-54.7364061015
 20
21.3558303734
 10
-54.7040453346
 20
21.3813379257
 10
-54.6699431853
 20
21.4039818068
 10
-54.6340500243
 20
21.4237085483
 10
-54.5964154808
 20
21.4405716188
 10
-54.5578291718
 20
21.4542260345
 10
-54.518554303
 20
21.464556801
 10
-54.4783276687
 20
21.4716789127
 10
-54.437149269
 20
21.4755923698
  0
LWPOLYLINE
  5
2CA
100
AcDbEntity
  8
RACCORDO
100
AcDbPolyline
 62
250
  6
CONTINUOUS
 90
5
 70
0
 10
-35.95549143
 20
-18.7202918204
 10
-36.0035857283
 20
-18.7332307263
 10
-36.0533773226
 20
-18.7427429936
 10
-36.1043410197
 20
-18.7487338663
 10
-36.1559301643
 20
-18.7511433681
  0
LWPOLYLINE
  5
2CB
100
AcDbEntity
  8
RACCORDO
100
AcDbPolyline
 62
250
  6
CONTINUOUS
 90
13
 70
0
 10
-36.1559301643
 20
-17.3012794428
 10
-36.0914698188
 20
-17.2979779463
 10
-36.0282342833
 20
-17.2895297001
 10
-35.967281678
 20
-17.2760761089
 10
-35.909631881
 20
-17.2578423198
 10
-35.8562495519
 20
-17.2351334806
 10
-35.8080279675
 20
-17.2083296542
 10
-35.7657739523
 20
-17.177879398
 10
-35.730194443
 20
-17.1442922623
 10
-35.7018847136
 20
-17.1081303138
 10
-35.6813183475
 20
-17.0699986735
 10
-35.6688393394
 20
-17.0305353823
 10
-35.6646563675
 20
-16.9904007571
  0
LINE
  5
2CC
100
AcDbEntity
  8
RACCORDO
100
AcDbLine
 62
250
  6
CONTINUOUS
 10
-36.1559301643
 20
-17.3012794428
 11
-46.343336024
 21
-17.3594295691
  0
LWPOLYLINE
  5
2CD
100
AcDbEntity
  8
0
100
AcDbPolyline
 62
250
  6
CONTINUOUS
 90
10
 70
0
 10
-54.910539326
 20
-20.9972959167
 10
-55.0849651628
 20
-16.3324664701
 10
-55.2157845339
 20
-11.6670185434
 10
-55.3029974395
 20
-7.0009521365
 10
-55.3466038708
 20
-2.3338547134
 10
-55.3466038364
 20
2.3338611899
 10
-55.3029973622
 20
7.0009579653
 10
-55.2157844567
 20
11.667023077
 10
-55.0849651113
 20
16.3324690607
 10
-54.910539326
 20
20.9972959167
  0
LWPOLYLINE
  5
2CE
100
AcDbEntity
  8
RACCORDO
100
AcDbPolyline
 62
250
  6
CONTINUOUS
 90
10
 70
0
 10
-36.1559307403
 20
18.7511438638
 10
-36.1092934686
 20
18.7744660178
 10
-36.0630195475
 20
18.7925382903
 10
-36.0179617916
 20
18.8052281416
 10
-35.9750939922
 20
18.8126339934
 10
-35.9350426114
 20
18.8146641583
 10
-35.898058981
 20
18.8110208175
 10
-35.8646260999
 20
18.8017466278
 10
-35.8354718919
 20
18.7872292082
 10
-35.8111031614
 20
18.7677668151
  0
LINE
  5
2CF
100
AcDbEntity
  8
RACCORDO
100
AcDbLine
 62
7
  6
CONTINUOUS
 10
-35.1733825707
 20
-15.6803116332
 11
-23.8346098207
 21
-15.4823926186
  0
LWPOLYLINE
  5
2D0
100
AcDbEntity
  8
RACCORDO
100
AcDbPolyline
 62
250
  6
CONTINUOUS
 90
13
 70
0
 10
-36.1557110565
 20
-16.2210569166
 10
-36.0912723991
 20
-16.2206211579
 10
-36.0280609451
 20
-16.219510048
 10
-35.967133793
 20
-16.2177421673
 10
-35.9095098402
 20
-16.2153470794
 10
-35.8561527443
 20
-16.2123648364
 10
-35.8079548071
 20
-16.208845309
 10
-35.765722053
 20
-16.2048473533
 10
-35.7301607491
 20
-16.2004378257
 10
-35.7018655945
 20
-16.1956904652
 10
-35.6813097752
 20
-16.1906846604
 10
-35.6688370504
 20
-16.1855041215
 10
-35.664656004
 20
-16.1802354808
  0
LINE
  5
2D1
100
AcDbEntity
  8
RACCORDO
100
AcDbLine
 62
250
  6
CONTINUOUS
 10
-36.1483966236
 20
-16.0577188407
 11
-46.343336024
 21
-16.119659166
  0
LINE
  5
2D2
100
AcDbEntity
  8
RACCORDO
100
AcDbLine
 62
250
  6
CONTINUOUS
 10
-36.1483969529
 20
-16.0577188366
 11
-35.7611784227
 21
-16.1059471687
  0
LWPOLYLINE
  5
2D3
100
AcDbEntity
  8
RACCORDO
100
AcDbPolyline
 62
250
  6
CONTINUOUS
 90
4
 70
0
 10
-35.7611784227
 20
-16.1059471687
 10
-35.6773862501
 20
-16.1166648637
 10
-35.6650148477
 20
-16.1183288268
 10
-35.6608792184
 20
-16.1189784393
  0
LINE
  5
2D4
100
AcDbEntity
  8
0
100
AcDbLine
 62
250
  6
CONTINUOUS
 10
-54.444802016
 20
21.6298024308
 11
-54.437149269
 21
21.4755923698
  0
LINE
  5
2D5
100
AcDbEntity
  8
0
100
AcDbLine
 62
250
  6
CONTINUOUS
 10
-54.4490546189
 20
21.7251181903
 11
-54.444802016
 21
21.6298024308
  0
LINE
  5
2D6
100
AcDbEntity
  8
0
100
AcDbLine
 62
250
  6
CONTINUOUS
 10
-54.4524065686
 20
21.8095411067
 11
-54.4490546189
 21
21.7251181903
  0
LINE
  5
2D7
100
AcDbEntity
  8
0
100
AcDbLine
 62
250
  6
CONTINUOUS
 10
-54.45471143
 20
-21.8793835478
 11
-54.4524064095
 21
-21.8095380733
  0
LINE
  5
2D8
100
AcDbEntity
  8
0
100
AcDbLine
 62
250
  6
CONTINUOUS
 10
-54.4524064095
 20
-21.8095380733
 11
-54.4490544382
 21
-21.7251149336
  0
LINE
  5
2D9
100
AcDbEntity
  8
0
100
AcDbLine
 62
250
  6
CONTINUOUS
 10
-54.4490544382
 20
-21.7251149336
 11
-54.4423945404
 21
-21.5793443309
  0
LINE
  5
2DA
100
AcDbEntity
  8
0
100
AcDbLine
 62
250
  6
CONTINUOUS
 10
-54.4423945404
 20
-21.5793443309
 11
-54.437149269
 21
-21.4755923698
  0
LINE
  5
2DB
100
AcDbEntity
  8
DRAFT
100
AcDbLine
 62
7
  6
CONTINUOUS
 10
-23.1356893778
 20
-13.0391177004
 11
-21.6276352371
 21
-12.9600839318
  0
LINE
  5
2DC
100
AcDbEntity
  8
RACCORDO
100
AcDbLine
 62
250
  6
CONTINUOUS
 10
-35.1733825707
 20
-15.1803877856
 11
-23.8346098207
 21
-14.982468771
  0
LINE
  5
2DD
100
AcDbEntity
  8
RACCORDO
100
AcDbLine
 62
250
  6
CONTINUOUS
 10
-23.343336024
 20
-14.982468771
 11
-23.8346098207
 21
-14.982468771
  0
LINE
  5
2DE
100
AcDbEntity
  8
0
100
AcDbLine
 62
7
  6
CONTINUOUS
 10
-23.343336024
 20
-14.2177375209
 11
-23.143336024
 21
-14.2177375209
  0
LINE
  5
2DF
100
AcDbEntity
  8
0
100
AcDbLine
 62
7
  6
CONTINUOUS
 10
-23.343336024
 20
-13.9
 11
-23.143336024
 21
-13.9
  0
LWPOLYLINE
  5
2E0
100
AcDbEntity
  8
0
100
AcDbPolyline
 62
7
  6
CONTINUOUS
 90
3
 70
0
 43
0.3500000006
 10
-37.5576227188
 20
42.5357146454
 10
-37.6290493698
 20
42.3214301605
 10
-37.7719072037
 20
42.0357144928
  0
LINE
  5
2E1
100
AcDbEntity
  8
0
100
AcDbLine
 62
7
  6
CONTINUOUS
 10
-23.343336024
 20
-12.893211
 11
-23.143336024
 21
-12.893211
  0
LINE
  5
2E2
100
AcDbEntity
  8
0
100
AcDbLine
 62
7
  6
CONTINUOUS
 10
-23.343336024
 20
-11.8822600513
 11
-23.143336024
 21
-11.8822600513
  0
LINE
  5
2E3
100
AcDbEntity
  8
0
100
AcDbLine
 62
7
  6
CONTINUOUS
 10
-23.343336024
 20
-11.7999676142
 11
-23.143336024
 21
-11.7999676142
  0
LINE
  5
2E4
100
AcDbEntity
  8
0
100
AcDbLine
 62
7
  6
CONTINUOUS
 10
-23.343336024
 20
-10.3025503981
 11
-23.143336024
 21
-10.3025503981
  0
LINE
  5
2E5
100
AcDbEntity
  8
RACCORDO
100
AcDbLine
 62
250
  6
CONTINUOUS
 10
-21.343336024
 20
-10.3
 11
-23.143336024
 21
-10.3
  0
LINE
  5
2E6
100
AcDbEntity
  8
0
100
AcDbLine
 62
7
  6
CONTINUOUS
 10
-46.343336024
 20
-23.5
 11
-46.343336024
 21
23.5
  0
LINE
  5
2E7
100
AcDbEntity
  8
0
100
AcDbLine
 62
7
  6
CONTINUOUS
 10
-23.343336024
 20
-8.4584702029
 11
-23.143336024
 21
-8.4584702029
  0
LINE
  5
2E8
100
AcDbEntity
  8
RACCORDO
100
AcDbLine
 62
250
  6
CONTINUOUS
 10
-21.343336024
 20
-8.2
 11
-23.143336024
 21
-8.2
  0
LINE
  5
2E9
100
AcDbEntity
  8
0
100
AcDbLine
 62
7
  6
CONTINUOUS
 10
-23.343336024
 20
-6.9817812422
 11
-23.143336024
 21
-6.9817812422
  0
LINE
  5
2EA
100
AcDbEntity
  8
0
100
AcDbLine
 62
7
  6
CONTINUOUS
 10
-23.343336024
 20
-6.8191575609
 11
-23.143336024
 21
-6.8191575609
  0
LINE
  5
2EB
100
AcDbEntity
  8
0
100
AcDbLine
 62
7
  6
CONTINUOUS
 10
-23.343336024
 20
-6.8000000018
 11
-23.143336024
 21
-6.8000000018
  0
LINE
  5
2EC
100
AcDbEntity
  8
0
100
AcDbLine
 62
7
  6
CONTINUOUS
 10
-42.343336024
 20
-21.2
 11
-42.343336024
 21
-23.4301797403
  0
LINE
  5
2ED
100
AcDbEntity
  8
0
100
AcDbLine
 62
7
  6
CONTINUOUS
 10
-42.343336024
 20
21.2
 11
-42.343336024
 21
23.4301797403
  0
LINE
  5
2EE
100
AcDbEntity
  8
0
100
AcDbLine
 62
7
  6
CONTINUOUS
 10
-23.2975658827
 20
-5.386919
 11
-23.143336024
 21
-5.386919
  0
LINE
  5
2EF
100
AcDbEntity
  8
0
100
AcDbLine
 62
7
  6
CONTINUOUS
 10
-23.343336024
 20
-5.124731
 11
-23.143336024
 21
-5.124731
  0
LINE
  5
2F0
100
AcDbEntity
  8
0
100
AcDbLine
 62
7
  6
CONTINUOUS
 10
-23.343336024
 20
-5.0
 11
-23.143336024
 21
-5.0
  0
LINE
  5
2F1
100
AcDbEntity
  8
0
100
AcDbLine
 62
7
  6
CONTINUOUS
 10
-23.343336024
 20
-4.106382966
 11
-23.143336024
 21
-4.106382966
  0
LINE
  5
2F2
100
AcDbEntity
  8
0
100
AcDbLine
 62
7
  6
CONTINUOUS
 10
-23.343336024
 20
-4.0
 11
-23.143336024
 21
-4.0
  0
LINE
  5
2F3
100
AcDbEntity
  8
0
100
AcDbLine
 62
7
  6
CONTINUOUS
 10
-23.343336024
 20
-3.952436
 11
-23.143336024
 21
-3.952436
  0
LINE
  5
2F4
100
AcDbEntity
  8
DRAFT
100
AcDbLine
 62
7
  6
CONTINUOUS
 10
-23.1538032152
 20
-5.4599329936
 11
-21.6276352371
 21
-5.5399160681
  0
LINE
  5
2F5
100
AcDbEntity
  8
0
100
AcDbLine
 62
7
  6
CONTINUOUS
 10
-40.743336024
 20
22.2
 11
-40.743336024
 21
21.1720718961
  0
LINE
  5
2F6
100
AcDbEntity
  8
0
100
AcDbLine
 62
7
  6
CONTINUOUS
 10
-40.743336024
 20
-22.2
 11
-40.743336024
 21
-21.1720718961
  0
LINE
  5
2F7
100
AcDbEntity
  8
0
100
AcDbLine
 62
7
  6
CONTINUOUS
 10
-23.343336024
 20
-3.5
 11
-23.143336024
 21
-3.5
  0
LINE
  5
2F8
100
AcDbEntity
  8
0
100
AcDbLine
 62
7
  6
CONTINUOUS
 10
-23.343336024
 20
-2.5
 11
-23.143336024
 21
-2.5
  0
LINE
  5
2F9
100
AcDbEntity
  8
0
100
AcDbLine
 62
7
  6
CONTINUOUS
 10
-23.343336024
 20
-2.27041
 11
-23.143336024
 21
-2.27041
  0
LWPOLYLINE
  5
2FA
100
AcDbEntity
  8
0
100
AcDbPolyline
 62
7
  6
CONTINUOUS
 90
2
 70
0
 43
0.3500000006
 10
-39.6290522461
 20
42.2499989777
 10
-39.6290522461
 20
43.7499994354
  0
LINE
  5
2FB
100
AcDbEntity
  8
ASSI
100
AcDbLine
 62
7
  6
CONTINUOUS
 10
-23.343336024
 20
-0.675916
 11
-23.143336024
 21
-0.675916
  0
LINE
  5
2FC
100
AcDbEntity
  8
ASSI
100
AcDbLine
 62
7
  6
CONTINUOUS
 10
-23.343336024
 20
1.487287
 11
-23.143336024
 21
1.487287
  0
LWPOLYLINE
  5
2FD
100
AcDbEntity
  8
RACCORDO
100
AcDbPolyline
 62
250
  6
CONTINUOUS
 90
7
 70
0
 10
-36.1483966237
 20
16.0577188408
 10
-36.1506470142
 20
16.0846179799
 10
-36.1524846908
 20
16.1116536197
 10
-36.1539097842
 20
16.1388207065
 10
-36.1549224254
 20
16.1661140288
 10
-36.1555227456
 20
16.1935282163
 10
-36.1557108763
 20
16.2210577396
  0
LINE
  5
2FE
100
AcDbEntity
  8
RACCORDO
100
AcDbLine
 62
250
  6
CONTINUOUS
 10
-35.1733825707
 20
-15.1803877856
 11
-35.1714224022
 21
-15.3097530907
  0
LINE
  5
2FF
100
AcDbEntity
  8
RACCORDO
100
AcDbLine
 62
250
  6
CONTINUOUS
 10
-35.1714224022
 20
-15.3097530907
 11
-35.1701902115
 21
-15.4303057631
  0
LWPOLYLINE
  5
300
100
AcDbEntity
  8
RACCORDO
100
AcDbPolyline
 62
250
  6
CONTINUOUS
 90
7
 70
0
 10
-35.169769938
 20
15.5338335799
 10
-35.1698754579
 20
15.5769500403
 10
-35.1701902121
 20
15.6132838361
 10
-35.1707088171
 20
15.6422135297
 10
-35.1714224029
 20
15.6632443195
 10
-35.1723187645
 20
15.6760165038
 10
-35.1733825707
 20
15.6803116332
  0
LWPOLYLINE
  5
301
100
AcDbEntity
  8
RACCORDO
100
AcDbPolyline
 62
250
  6
CONTINUOUS
 90
8
 70
0
 10
-35.1701902115
 20
-15.4303057631
 10
-35.169769938
 20
-15.533833505
 10
-35.1698754576
 20
-15.5769499794
 10
-35.1701902115
 20
-15.613283792
 10
-35.1707088164
 20
-15.6422135021
 10
-35.1714224022
 20
-15.663244306
 10
-35.172318764
 20
-15.6760165001
 10
-35.1733825707
 20
-15.6803116332
  0
LINE
  5
302
100
AcDbEntity
  8
RACCORDO
100
AcDbLine
 62
250
  6
CONTINUOUS
 10
-36.1559301643
 20
17.3012794429
 11
-36.1559301643
 21
18.7511428355
  0
LINE
  5
303
100
AcDbEntity
  8
RACCORDO
100
AcDbLine
 62
7
  6
CONTINUOUS
 10
-35.6646563675
 20
-18.4142135624
 11
-35.6646563675
 21
-16.1802354808
  0
LINE
  5
304
100
AcDbEntity
  8
RACCORDO
100
AcDbLine
 62
7
  6
CONTINUOUS
 10
-35.6646563675
 20
16.1802354808
 11
-35.6646563675
 21
18.4142135624
  0
LINE
  5
305
100
AcDbEntity
  8
RACCORDO
100
AcDbLine
 62
250
  6
CONTINUOUS
 10
-36.1557108763
 20
16.2210577396
 11
-36.1559301643
 21
17.3012794432
  0
LINE
  5
306
100
AcDbEntity
  8
RACCORDO
100
AcDbLine
 62
250
  6
CONTINUOUS
 10
-36.1559301643
 20
-18.7511649742
 11
-36.1557108763
 21
-16.2210577396
  0
LINE
  5
307
100
AcDbEntity
  8
RACCORDO
100
AcDbLine
 62
250
  6
CONTINUOUS
 10
-35.1701902109
 20
15.4303058486
 11
-35.169769938
 21
15.5338335799
  0
LWPOLYLINE
  5
308
100
AcDbEntity
  8
RACCORDO
100
AcDbPolyline
 62
250
  6
CONTINUOUS
 90
7
 70
0
 10
-36.1557108763
 20
-16.2210577396
 10
-36.1555271789
 20
-16.1936229945
 10
-36.1549294816
 20
-16.1662658012
 10
-36.153917681
 20
-16.1389915611
 10
-36.1524916738
 20
-16.1118055602
 10
-36.150651356
 20
-16.0847129687
 10
-36.1483966237
 20
-16.0577188408
  0
LINE
  5
309
100
AcDbEntity
  8
RACCORDO
100
AcDbLine
 62
250
  6
CONTINUOUS
 10
-35.1714224015
 20
15.3097531522
 11
-35.1701902109
 21
15.4303058486
  0
LINE
  5
30A
100
AcDbEntity
  8
RACCORDO
100
AcDbLine
 62
250
  6
CONTINUOUS
 10
-35.1733825707
 20
15.1803877856
 11
-35.1714224015
 21
15.3097531522
  0
LINE
  5
30B
100
AcDbEntity
  8
ASSI
100
AcDbLine
 62
7
  6
CONTINUOUS
 10
-23.343336024
 20
2.5177437787
 11
-23.143336024
 21
2.5177437787
  0
LINE
  5
30C
100
AcDbEntity
  8
0
100
AcDbLine
 62
7
  6
CONTINUOUS
 10
-23.343336024
 20
3.3737374823
 11
-23.143336024
 21
3.3737374823
  0
LWPOLYLINE
  5
30D
100
AcDbEntity
  8
RACCORDO
100
AcDbPolyline
 62
250
  6
CONTINUOUS
 90
12
 70
0
 10
-35.6646563675
 20
-18.4142127482
 10
-35.6673441901
 20
-18.4491068875
 10
-35.6753706662
 20
-18.4835999495
 10
-35.6886376058
 20
-18.517322921
 10
-35.706982698
 20
-18.5499036444
 10
-35.7302026716
 20
-18.5810102816
 10
-35.7580749434
 20
-18.6103484508
 10
-35.7903236022
 20
-18.6376142211
 10
-35.8265969619
 20
-18.6624985544
 10
-35.8665031543
 20
-18.6847273295
 10
-35.9096233311
 20
-18.7040627874
 10
-35.95549143
 20
-18.7202918204
  0
LWPOLYLINE
  5
30E
100
AcDbEntity
  8
RACCORDO
100
AcDbPolyline
 62
250
  6
CONTINUOUS
 90
22
 70
0
 10
-36.1483966236
 20
-16.0577188407
 10
-36.1337889518
 20
-15.9728473925
 10
-36.1129468034
 20
-15.8911187265
 10
-36.0858701786
 20
-15.8125328427
 10
-36.0518057031
 20
-15.7363768831
 10
-36.0115067511
 20
-15.6633637056
 10
-35.9672334454
 20
-15.5956318843
 10
-35.9189145042
 20
-15.5337637834
 10
-35.8666212093
 20
-15.4771770387
 10
-35.812827529
 20
-15.4262631317
 10
-35.757820935
 20
-15.38141799
 10
-35.7013139554
 20
-15.3422456859
 10
-35.6449181436
 20
-15.3079499182
 10
-35.5888905782
 20
-15.278608124
 10
-35.5329741804
 20
-15.2541428662
 10
-35.4780092669
 20
-15.2335255326
 10
-35.4241462773
 20
-15.216716324
 10
-35.371234772
 20
-15.2037550396
 10
-35.319663749
 20
-15.193732465
 10
-35.269562874
 20
-15.1863455288
 10
-35.2208024813
 20
-15.1818973023
 10
-35.1733825707
 20
-15.1803877856
  0
LINE
  5
30F
100
AcDbEntity
  8
DRAFT
100
AcDbLine
 62
7
  6
CONTINUOUS
 10
-23.143336024
 20
5.4604815559
 11
-21.6276352371
 21
5.5399160682
  0
LINE
  5
310
100
AcDbEntity
  8
0
100
AcDbLine
 62
7
  6
CONTINUOUS
 10
-23.343336024
 20
4.1597765663
 11
-23.143336024
 21
4.159777
  0
LINE
  5
311
100
AcDbEntity
  8
0
100
AcDbLine
 62
7
  6
CONTINUOUS
 10
-23.343336024
 20
4.759488
 11
-23.143336024
 21
4.759488
  0
LINE
  5
312
100
AcDbEntity
  8
0
100
AcDbLine
 62
7
  6
CONTINUOUS
 10
-23.343336024
 20
4.7765341371
 11
-23.143336024
 21
4.7765341371
  0
LINE
  5
313
100
AcDbEntity
  8
0
100
AcDbLine
 62
7
  6
CONTINUOUS
 10
-23.343336024
 20
5.7141149612
 11
-23.143336024
 21
5.714115
  0
LINE
  5
314
100
AcDbEntity
  8
0
100
AcDbLine
 62
7
  6
CONTINUOUS
 10
-23.343336024
 20
5.8522
 11
-23.143336024
 21
5.8522
  0
LINE
  5
315
100
AcDbEntity
  8
0
100
AcDbLine
 62
7
  6
CONTINUOUS
 10
-23.343336024
 20
5.932961
 11
-23.143336024
 21
5.932961
  0
LINE
  5
316
100
AcDbEntity
  8
0
100
AcDbLine
 62
7
  6
CONTINUOUS
 10
-23.343336024
 20
7.2128694404
 11
-23.143336024
 21
7.2128694404
  0
LINE
  5
317
100
AcDbEntity
  8
0
100
AcDbLine
 62
7
  6
CONTINUOUS
 10
-23.343336024
 20
7.7978903981
 11
-23.143336024
 21
7.7978903981
  0
LINE
  5
318
100
AcDbEntity
  8
0
100
AcDbLine
 62
7
  6
CONTINUOUS
 10
-23.343336024
 20
8.0043760685
 11
-23.143336024
 21
8.0043760685
  0
LINE
  5
319
100
AcDbEntity
  8
RACCORDO
100
AcDbLine
 62
250
  6
CONTINUOUS
 10
-21.343336024
 20
8.2
 11
-23.143336024
 21
8.2
  0
LINE
  5
31A
100
AcDbEntity
  8
0
100
AcDbLine
 62
7
  6
CONTINUOUS
 10
-23.343336024
 20
8.5837013299
 11
-23.143336024
 21
8.5837013299
  0
LINE
  5
31B
100
AcDbEntity
  8
0
100
AcDbLine
 62
7
  6
CONTINUOUS
 10
-23.343336024
 20
8.6934582383
 11
-23.143336024
 21
8.6934582383
  0
LINE
  5
31C
100
AcDbEntity
  8
0
100
AcDbLine
 62
7
  6
CONTINUOUS
 10
-23.343336024
 20
8.8966705288
 11
-23.143336024
 21
8.8966705288
  0
LINE
  5
31D
100
AcDbEntity
  8
0
100
AcDbLine
 62
7
  6
CONTINUOUS
 10
-23.343336024
 20
9.0810280707
 11
-23.143336024
 21
9.0810280707
  0
LINE
  5
31E
100
AcDbEntity
  8
0
100
AcDbLine
 62
7
  6
CONTINUOUS
 10
-23.343336024
 20
9.7325643836
 11
-23.143336024
 21
9.7325643836
  0
LINE
  5
31F
100
AcDbEntity
  8
0
100
AcDbLine
 62
7
  6
CONTINUOUS
 10
-23.343336024
 20
9.8687375679
 11
-23.143336024
 21
9.8687375679
  0
LINE
  5
320
100
AcDbEntity
  8
RACCORDO
100
AcDbLine
 62
250
  6
CONTINUOUS
 10
-21.343336024
 20
10.3
 11
-23.143336024
 21
10.3
  0
LINE
  5
321
100
AcDbEntity
  8
0
100
AcDbLine
 62
7
  6
CONTINUOUS
 10
-23.343336024
 20
10.8617543277
 11
-23.143336024
 21
10.8617543277
  0
LINE
  5
322
100
AcDbEntity
  8
0
100
AcDbLine
 62
7
  6
CONTINUOUS
 10
-23.343336024
 20
11.5009171828
 11
-23.143336024
 21
11.5009171828
  0
LINE
  5
323
100
AcDbEntity
  8
0
100
AcDbLine
 62
7
  6
CONTINUOUS
 10
-23.343336024
 20
11.7269777914
 11
-23.143336024
 21
11.7269777914
  0
LINE
  5
324
100
AcDbEntity
  8
0
100
AcDbLine
 62
7
  6
CONTINUOUS
 10
-23.343336024
 20
11.9003694564
 11
-23.143336024
 21
11.9003694564
  0
LINE
  5
325
100
AcDbEntity
  8
0
100
AcDbLine
 62
7
  6
CONTINUOUS
 10
-23.343336024
 20
12.5321671908
 11
-23.143336024
 21
12.5321671908
  0
LINE
  5
326
100
AcDbEntity
  8
0
100
AcDbLine
 62
7
  6
CONTINUOUS
 10
-23.343336024
 20
12.6948548864
 11
-23.143336024
 21
12.6948548864
  0
LINE
  5
327
100
AcDbEntity
  8
0
100
AcDbLine
 62
7
  6
CONTINUOUS
 10
-23.343336024
 20
12.905465032
 11
-23.143336024
 21
12.905465032
  0
LINE
  5
328
100
AcDbEntity
  8
0
100
AcDbLine
 62
7
  6
CONTINUOUS
 10
-23.343336024
 20
12.9965253895
 11
-23.143336024
 21
12.9965253895
  0
LINE
  5
329
100
AcDbEntity
  8
DRAFT
100
AcDbLine
 62
7
  6
CONTINUOUS
 10
-23.1410973516
 20
13.0394011203
 11
-21.6276352371
 21
12.9600839319
  0
LINE
  5
32A
100
AcDbEntity
  8
RACCORDO
100
AcDbLine
 62
250
  6
CONTINUOUS
 10
-23.8326496522
 20
-15.1118340761
 11
-23.8346098207
 21
-14.982468771
  0
LINE
  5
32B
100
AcDbEntity
  8
RACCORDO
100
AcDbLine
 62
250
  6
CONTINUOUS
 10
-23.8314174615
 20
-15.2323867486
 11
-23.8326496522
 21
-15.1118340761
  0
LWPOLYLINE
  5
32C
100
AcDbEntity
  8
RACCORDO
100
AcDbPolyline
 62
250
  6
CONTINUOUS
 90
7
 70
0
 10
-23.830997188
 20
15.3359144905
 10
-23.8311027076
 20
15.3790309648
 10
-23.8314174615
 20
15.4153647775
 10
-23.8319360664
 20
15.4442944876
 10
-23.8326496522
 20
15.4653252915
 10
-23.833546014
 20
15.4780974855
 10
-23.8346098207
 20
15.4823926186
  0
LINE
  5
32D
100
AcDbEntity
  8
RACCORDO
100
AcDbLine
 62
250
  6
CONTINUOUS
 10
-23.8346098207
 20
14.9824687711
 11
-23.8346098207
 21
-14.982468771
  0
LINE
  5
32E
100
AcDbEntity
  8
RACCORDO
100
AcDbLine
 62
7
  6
CONTINUOUS
 10
-23.343336024
 20
14.9824687711
 11
-23.343336024
 21
-14.982468771
  0
LINE
  5
32F
100
AcDbEntity
  8
RACCORDO
100
AcDbLine
 62
250
  6
CONTINUOUS
 10
-23.1538032132
 20
-5.4599329937
 11
-23.153802789
 21
-6.8000000018
  0
LINE
  5
330
100
AcDbEntity
  8
RACCORDO
100
AcDbLine
 62
250
  6
CONTINUOUS
 10
-23.1538030222
 20
7.2128694404
 11
-23.1538032084
 21
5.932961
  0
LINE
  5
331
100
AcDbEntity
  8
RACCORDO
100
AcDbLine
 62
250
  6
CONTINUOUS
 10
-23.1538032152
 20
9.8708113896
 11
-23.1538032152
 21
9.7325643836
  0
LINE
  5
332
100
AcDbEntity
  8
RACCORDO
100
AcDbLine
 62
250
  6
CONTINUOUS
 10
-23.1538032152
 20
8.6934582383
 11
-23.1538032152
 21
8.5837013299
  0
LINE
  5
333
100
AcDbEntity
  8
RACCORDO
100
AcDbLine
 62
250
  6
CONTINUOUS
 10
-23.1538032066
 20
12.9965253895
 11
-23.153803206
 21
12.905465032
  0
LINE
  5
334
100
AcDbEntity
  8
RACCORDO
100
AcDbLine
 62
250
  6
CONTINUOUS
 10
-23.1538026226
 20
11.5009171828
 11
-23.1538033714
 21
10.8618331201
  0
LINE
  5
335
100
AcDbEntity
  8
RACCORDO
100
AcDbLine
 62
250
  6
CONTINUOUS
 10
-23.1538031621
 20
-11.8822600513
 11
-23.1538031759
 21
-12.893211
  0
LINE
  5
336
100
AcDbEntity
  8
ASSI
100
AcDbLine
 62
7
  6
CONTINUOUS
 10
-23.143336024
 20
14.369462
 11
-23.143336024
 21
14.254183
  0
LINE
  5
337
100
AcDbEntity
  8
0
100
AcDbLine
 62
7
  6
CONTINUOUS
 10
-23.143336024
 20
14.254183
 11
-23.143336024
 21
12.996684707
  0
LINE
  5
338
100
AcDbEntity
  8
0
100
AcDbLine
 62
7
  6
CONTINUOUS
 10
-23.143336024
 20
12.905465032
 11
-23.143336024
 21
11.5009171828
  0
LINE
  5
339
100
AcDbEntity
  8
0
100
AcDbLine
 62
7
  6
CONTINUOUS
 10
-23.143336024
 20
10.8618331172
 11
-23.143336024
 21
9.8687375679
  0
LINE
  5
33A
100
AcDbEntity
  8
0
100
AcDbLine
 62
7
  6
CONTINUOUS
 10
-23.143336024
 20
9.7325643836
 11
-23.143336024
 21
8.6934582383
  0
LINE
  5
33B
100
AcDbEntity
  8
0
100
AcDbLine
 62
7
  6
CONTINUOUS
 10
-23.143336024
 20
8.5837013299
 11
-23.143336024
 21
7.2128694404
  0
LINE
  5
33C
100
AcDbEntity
  8
0
100
AcDbLine
 62
7
  6
CONTINUOUS
 10
-23.143336024
 20
5.932961
 11
-23.143336024
 21
2.5177437787
  0
LINE
  5
33D
100
AcDbEntity
  8
ASSI
100
AcDbLine
 62
7
  6
CONTINUOUS
 10
-23.143336024
 20
2.5177437787
 11
-23.143336024
 21
-0.675916
  0
LINE
  5
33E
100
AcDbEntity
  8
0
100
AcDbLine
 62
7
  6
CONTINUOUS
 10
-23.143336024
 20
-0.67222
 11
-23.143336024
 21
-2.27041
  0
LINE
  5
33F
100
AcDbEntity
  8
0
100
AcDbLine
 62
7
  6
CONTINUOUS
 10
-23.143336024
 20
-2.5
 11
-23.143336024
 21
-3.5
  0
LINE
  5
340
100
AcDbEntity
  8
0
100
AcDbLine
 62
7
  6
CONTINUOUS
 10
-23.143336024
 20
-3.952436
 11
-23.143336024
 21
-5.386919
  0
LINE
  5
341
100
AcDbEntity
  8
0
100
AcDbLine
 62
7
  6
CONTINUOUS
 10
-23.143336024
 20
-6.8000000018
 11
-23.143336024
 21
-11.8822600513
  0
LINE
  5
342
100
AcDbEntity
  8
0
100
AcDbLine
 62
7
  6
CONTINUOUS
 10
-23.143336024
 20
-12.893211
 11
-23.143336024
 21
-14.2177375209
  0
LINE
  5
343
100
AcDbEntity
  8
RACCORDO
100
AcDbLine
 62
250
  6
CONTINUOUS
 10
-23.8314174615
 20
15.2323867486
 11
-23.830997188
 21
15.3359144905
  0
LINE
  5
344
100
AcDbEntity
  8
RACCORDO
100
AcDbLine
 62
250
  6
CONTINUOUS
 10
-23.8326496522
 20
15.1118340761
 11
-23.8314174615
 21
15.2323867486
  0
LINE
  5
345
100
AcDbEntity
  8
RACCORDO
100
AcDbLine
 62
250
  6
CONTINUOUS
 10
-23.8346098207
 20
14.9824687711
 11
-23.8326496522
 21
15.1118340761
  0
LINE
  5
346
100
AcDbEntity
  8
RACCORDO
100
AcDbLine
 62
250
  6
CONTINUOUS
 10
-36.1559301643
 20
-18.7511649742
 11
-38.4951385135
 21
-21.1328294646
  0
LINE
  5
347
100
AcDbEntity
  8
0
100
AcDbLine
 62
7
  6
CONTINUOUS
 10
-38.6994065256
 20
-21.6560705017
 11
-38.1704988807
 21
-21.1271628567
  0
LINE
  5
348
100
AcDbEntity
  8
RACCORDO
100
AcDbLine
 62
7
  6
CONTINUOUS
 10
-38.1704988807
 20
-21.1271628567
 11
-35.8111029769
 21
-18.767766953
  0
LWPOLYLINE
  5
349
100
AcDbEntity
  8
RACCORDO
100
AcDbPolyline
 62
250
  6
CONTINUOUS
 90
3
 70
0
 10
-35.6773933927
 20
16.1166651051
 10
-35.6650212475
 20
16.1183286275
 10
-35.6608845245
 20
16.118977787
  0
LINE
  5
34A
100
AcDbEntity
  8
RACCORDO
100
AcDbLine
 62
250
  6
CONTINUOUS
 10
-35.8031161187
 20
16.1006668987
 11
-35.6773933927
 21
16.1166651051
  0
LINE
  5
34B
100
AcDbEntity
  8
RACCORDO
100
AcDbLine
 62
250
  6
CONTINUOUS
 10
-36.1483971838
 20
16.0577188423
 11
-35.8031161187
 21
16.1006668987
  0
LINE
  5
34C
100
AcDbEntity
  8
0
100
AcDbLine
 62
7
  6
CONTINUOUS
 10
-23.143336024
 20
13.9874560899
 11
-23.343336024
 21
13.9874560899
  0
LINE
  5
34D
100
AcDbEntity
  8
0
100
AcDbLine
 62
7
  6
CONTINUOUS
 10
-23.343336024
 20
14.119097
 11
-23.143336024
 21
14.119097
  0
LINE
  5
34E
100
AcDbEntity
  8
0
100
AcDbLine
 62
7
  6
CONTINUOUS
 10
-23.343336024
 20
14.254183
 11
-23.143336024
 21
14.254183
  0
LINE
  5
34F
100
AcDbEntity
  8
ASSI
100
AcDbLine
 62
7
  6
CONTINUOUS
 10
-23.343336024
 20
14.369462
 11
-23.143336024
 21
14.369462
  0
LINE
  5
350
100
AcDbEntity
  8
RACCORDO
100
AcDbLine
 62
250
  6
CONTINUOUS
 10
-23.343336024
 20
14.9824687711
 11
-23.8346098207
 21
14.9824687711
  0
LINE
  5
351
100
AcDbEntity
  8
RACCORDO
100
AcDbLine
 62
250
  6
CONTINUOUS
 10
-23.8346098207
 20
14.9824687711
 11
-35.1733825707
 21
15.1803877856
  0
LINE
  5
352
100
AcDbEntity
  8
RACCORDO
100
AcDbLine
 62
7
  6
CONTINUOUS
 10
-23.8346098207
 20
15.4823926186
 11
-35.1733825707
 21
15.6803116332
  0
LWPOLYLINE
  5
353
100
AcDbEntity
  8
RACCORDO
100
AcDbPolyline
 62
250
  6
CONTINUOUS
 90
22
 70
0
 10
-35.1733825707
 20
15.1803877856
 10
-35.2221561593
 20
15.1821577902
 10
-35.2716101429
 20
15.1867219843
 10
-35.3217445213
 20
15.194080368
 10
-35.3724445378
 20
15.2039267036
 10
-35.4238249492
 20
15.2165672288
 10
-35.4762300261
 20
15.2329206565
 10
-35.5300046642
 20
15.2529199874
 10
-35.5848039678
 20
15.2766322208
 10
-35.6399375206
 20
15.3051770666
 10
-35.6957241824
 20
15.3386438959
 10
-35.7518450933
 20
15.3769433376
 10
-35.8066532573
 20
15.4209269885
 10
-35.860390835
 20
15.4708731918
 10
-35.9128156657
 20
15.5265036042
 10
-35.9615542707
 20
15.5878347932
 10
-36.0066833266
 20
15.6555334864
 10
-36.0481261568
 20
15.7289329562
 10
-36.0832792524
 20
15.806049588
 10
-36.1112747773
 20
15.8862221769
 10
-36.1329805677
 20
15.9701119278
 10
-36.1483966236
 20
16.0577188407
  0
LINE
  5
354
100
AcDbEntity
  8
0
100
AcDbLine
 62
7
  6
CONTINUOUS
 10
-38.6994065256
 20
21.6560705017
 11
-38.1704988807
 21
21.1271628567
  0
LINE
  5
355
100
AcDbEntity
  8
RACCORDO
100
AcDbLine
 62
7
  6
CONTINUOUS
 10
-38.1704988807
 20
21.1271628567
 11
-35.8111029769
 21
18.767766953
  0
LINE
  5
356
100
AcDbEntity
  8
RACCORDO
100
AcDbLine
 62
250
  6
CONTINUOUS
 10
-38.4951381395
 20
21.1328294581
 11
-36.1559301643
 21
18.7511428355
  0
LINE
  5
357
100
AcDbEntity
  8
RACCORDO
100
AcDbLine
 62
250
  6
CONTINUOUS
 10
-21.6276349804
 20
12.9600839184
 11
-21.6276350375
 21
5.5399160786
  0
LINE
  5
358
100
AcDbEntity
  8
RACCORDO
100
AcDbLine
 62
250
  6
CONTINUOUS
 10
-21.6276349804
 20
-5.5399160816
 11
-21.6276350375
 21
-12.9600839214
  0
LINE
  5
359
100
AcDbEntity
  8
RACCORDO
100
AcDbLine
 62
7
  6
CONTINUOUS
 10
-21.343336024
 20
12.6600961622
 11
-21.343336024
 21
5.8398420956
  0
LINE
  5
35A
100
AcDbEntity
  8
RACCORDO
100
AcDbLine
 62
7
  6
CONTINUOUS
 10
-21.343336024
 20
-5.8399038378
 11
-21.343336024
 21
-12.6601579044
  0
LWPOLYLINE
  5
35B
100
AcDbEntity
  8
RACCORDO
100
AcDbPolyline
 62
250
  6
CONTINUOUS
 90
10
 70
0
 10
-35.8111031599
 20
-18.7677667289
 10
-35.8354718676
 20
-18.7872291018
 10
-35.8646260268
 20
-18.8017465172
 10
-35.8980588367
 20
-18.8110207207
 10
-35.9350423561
 20
-18.8146640975
 10
-35.9750936079
 20
-18.8126339954
 10
-36.0179613463
 20
-18.8052282077
 10
-36.0630191579
 20
-18.7925383798
 10
-36.1092932365
 20
-18.7744660652
 10
-36.1559307663
 20
-18.7511437746
  0
LINE
  5
35C
100
AcDbEntity
  8
RACCORDO
100
AcDbLine
 62
250
  6
CONTINUOUS
 10
-36.1559301643
 20
17.3012794429
 11
-46.343336024
 21
17.3594295692
  0
LINE
  5
35D
100
AcDbEntity
  8
RACCORDO
100
AcDbLine
 62
250
  6
CONTINUOUS
 10
-36.1483966236
 20
16.0577188407
 11
-46.343336024
 21
16.119659166
  0
LWPOLYLINE
  5
35E
100
AcDbEntity
  8
RACCORDO
100
AcDbPolyline
 62
250
  6
CONTINUOUS
 90
13
 70
0
 10
-36.1557116918
 20
16.2210540121
 10
-36.0912757854
 20
16.2206184757
 10
-36.0280669308
 20
16.219507613
 10
-35.9671420908
 20
16.2177399997
 10
-35.9095200353
 20
16.2153451932
 10
-35.8561643059
 20
16.2123632393
 10
-35.8079671039
 20
16.2088440021
 10
-35.7657343708
 20
16.2048463296
 10
-35.7301723119
 20
16.2004370698
 10
-35.701875587
 20
16.1956899537
 10
-35.6813173668
 20
16.1906843615
 10
-35.6688414209
 20
16.1855039955
 10
-35.6646563688
 20
16.1802354808
  0
LWPOLYLINE
  5
35F
100
AcDbEntity
  8
RACCORDO
100
AcDbPolyline
 62
250
  6
CONTINUOUS
 90
13
 70
0
 10
-36.1559301643
 20
17.3012794428
 10
-36.0914709689
 20
17.2979780645
 10
-36.0282363627
 20
17.2895300892
 10
-35.9672844307
 20
17.2760768745
 10
-35.9096350626
 20
17.2578435286
 10
-35.8562528875
 20
17.2351351449
 10
-35.8080311329
 20
17.2083316969
 10
-35.7657766783
 20
17.1778816789
 10
-35.730196554
 20
17.1442946014
 10
-35.7018861111
 20
17.1081324668
 10
-35.6813190589
 20
17.0700003652
 10
-35.6688395393
 20
17.0305363489
 10
-35.6646563675
 20
16.9904007572
  0
LWPOLYLINE
  5
360
100
AcDbEntity
  8
RACCORDO
100
AcDbPolyline
 62
250
  6
CONTINUOUS
 90
8
 70
0
 10
-23.8346098207
 20
-15.4823926186
 10
-23.833546014
 20
-15.4780974855
 10
-23.8326496522
 20
-15.4653252914
 10
-23.8319360664
 20
-15.4442944876
 10
-23.8314174615
 20
-15.4153647775
 10
-23.8311027076
 20
-15.3790309648
 10
-23.830997188
 20
-15.3359144904
 10
-23.8314174615
 20
-15.2323867486
  0
LWPOLYLINE
  5
361
100
AcDbEntity
  8
RACCORDO
100
AcDbPolyline
 62
250
  6
CONTINUOUS
 90
5
 70
0
 10
-36.1559301643
 20
18.7511435409
 10
-36.1043409991
 20
18.7487340373
 10
-36.0533772872
 20
18.7427431608
 10
-36.0035856841
 20
18.7332308887
 10
-35.9554913839
 20
18.7202919786
  0
LWPOLYLINE
  5
362
100
AcDbEntity
  8
RACCORDO
100
AcDbPolyline
 62
250
  6
CONTINUOUS
 90
12
 70
0
 10
-35.9554913839
 20
18.7202919786
 10
-35.9096232886
 20
18.7040629428
 10
-35.8665031161
 20
18.6847274827
 10
-35.8265969277
 20
18.6624987053
 10
-35.7903235726
 20
18.6376143704
 10
-35.7580749192
 20
18.6103485995
 10
-35.7302026529
 20
18.5810104307
 10
-35.7069826848
 20
18.549903795
 10
-35.6886375977
 20
18.5173230745
 10
-35.6753706623
 20
18.4836001072
 10
-35.6673441891
 20
18.4491070507
 10
-35.6646563675
 20
18.4142129179
  0
LINE
  5
363
100
AcDbEntity
  8
0
100
AcDbLine
 62
7
  6
CONTINUOUS
 10
-38.6994065256
 20
-21.6560705017
 11
-40.1938405401
 21
-22.2
  0
LINE
  5
364
100
AcDbEntity
  8
RACCORDO
100
AcDbLine
 62
7
  6
CONTINUOUS
 10
-38.1704988807
 20
21.1271628567
 11
-42.343336024
 21
21.2
  0
LWPOLYLINE
  5
365
100
AcDbEntity
  8
0
100
AcDbPolyline
 62
250
  6
CONTINUOUS
 90
4
 70
0
 10
-55.4013486574
 20
21.0183132877
 10
-55.3986741854
 20
21.0181627949
 10
-55.3906761177
 20
21.0177887256
 10
-54.910539326
 20
20.9972959167
  0
LINE
  5
366
100
AcDbEntity
  8
0
100
AcDbLine
 62
7
  6
CONTINUOUS
 10
-38.6994065256
 20
21.6560705017
 11
-40.1938405401
 21
22.2
  0
LWPOLYLINE
  5
367
100
AcDbEntity
  8
0
100
AcDbPolyline
 62
7
  6
CONTINUOUS
 90
10
 70
0
 43
0.3500000006
 10
-37.6290493698
 20
42.7499991302
 10
-37.5576227188
 20
42.6071412964
 10
-37.5576227188
 20
42.5357146454
 10
-37.7004782867
 20
42.3928568115
 10
-37.7719072037
 20
42.3928568115
 10
-37.8433361206
 20
42.4642834625
 10
-37.8433361206
 20
42.5357146454
 10
-37.7719072037
 20
42.6785724792
 10
-37.7004782867
 20
42.7499991302
 10
-37.6290493698
 20
42.7499991302
  0
LINE
  5
368
100
AcDbEntity
  8
0
100
AcDbLine
 62
250
  6
CONTINUOUS
 10
-54.437149269
 20
21.4755923698
 11
-46.343336024
 21
21.8997711479
  0
LINE
  5
369
100
AcDbEntity
  8
0
100
AcDbLine
 62
7
  6
CONTINUOUS
 10
-54.4545910439
 20
21.9749071372
 11
-46.343336024
 21
22.4
  0
LINE
  5
36A
100
AcDbEntity
  8
0
100
AcDbLine
 62
7
  6
CONTINUOUS
 10
-40.1938405401
 20
22.2
 11
-40.743336024
 21
22.2
  0
LINE
  5
36B
100
AcDbEntity
  8
0
100
AcDbLine
 62
7
  6
CONTINUOUS
 10
-42.343336024
 20
22.6298666026
 11
-43.664556
 21
22.6398908175
  0
LINE
  5
36C
100
AcDbEntity
  8
0
100
AcDbLine
 62
7
  6
CONTINUOUS
 10
-43.664556
 20
22.6398908175
 11
-44.9979198154
 21
22.651011599
  0
LINE
  5
36D
100
AcDbEntity
  8
0
100
AcDbLine
 62
7
  6
CONTINUOUS
 10
-44.9979198154
 20
22.651011599
 11
-46.343336024
 21
22.663166622
  0
LINE
  5
36E
100
AcDbEntity
  8
0
100
AcDbLine
 62
7
  6
CONTINUOUS
 10
-46.343336024
 20
23.5
 11
-42.343336024
 21
23.4301797403
  0
LINE
  5
36F
100
AcDbEntity
  8
0
100
AcDbLine
 62
250
  6
CONTINUOUS
 10
-46.343336024
 20
23.3333596575
 11
-42.343336024
 21
23.2631073618
  0
LINE
  5
370
100
AcDbEntity
  8
0
100
AcDbLine
 62
7
  6
CONTINUOUS
 10
-44.1076646765
 20
23.136227616
 11
-46.343336024
 21
23.1799085618
  0
LINE
  5
371
100
AcDbEntity
  8
0
100
AcDbLine
 62
7
  6
CONTINUOUS
 10
-42.343336024
 20
23.0998904748
 11
-44.1076646765
 21
23.136227616
  0
LWPOLYLINE
  5
372
100
AcDbEntity
  8
0
100
AcDbPolyline
 62
7
  6
CONTINUOUS
 90
8
 70
0
 43
0.3500000006
 10
-33.7361926575
 20
34.2500010681
 10
-32.8790501862
 20
34.2500010681
 10
-32.4504789505
 20
34.6785700378
 10
-32.4504789505
 20
35.5357125092
 10
-32.8790501862
 20
35.9642860107
 10
-33.7361926575
 20
35.9642860107
 10
-33.7361926575
 20
37.2500019836
 10
-32.4504789505
 20
37.2500019836
  0
LWPOLYLINE
  5
373
100
AcDbEntity
  8
0
100
AcDbPolyline
 62
7
  6
CONTINUOUS
 90
7
 70
0
 43
0.3500000006
 10
-34.5933351288
 20
34.2500010681
 10
-36.0933355865
 20
34.2500010681
 10
-34.5933351288
 20
36.3928549805
 10
-34.5933351288
 20
36.8214284821
 10
-35.0219063644
 20
37.2500019836
 10
-35.6647643509
 20
37.2500019836
 10
-36.0933355865
 20
36.6071439972
  0
LWPOLYLINE
  5
374
100
AcDbEntity
  8
0
100
AcDbPolyline
 62
7
  6
CONTINUOUS
 90
6
 70
0
 43
0.3500000006
 10
-42.7719064636
 20
42.2499989777
 10
-41.7004795074
 20
42.2499989777
 10
-41.4861950226
 20
42.4642834625
 10
-41.4861950226
 20
43.5357149506
 10
-41.9147639923
 20
43.9642839203
 10
-42.3433374939
 20
43.9642839203
  0
LWPOLYLINE
  5
375
100
AcDbEntity
  8
0
100
AcDbPolyline
 62
7
  6
CONTINUOUS
 90
8
 70
0
 43
0.3500000006
 10
-36.5576224136
 20
42.2499989777
 10
-35.7004799423
 20
42.2499989777
 10
-35.2719064407
 20
42.6785724792
 10
-35.2719064407
 20
43.5357149506
 10
-35.7004799423
 20
43.9642839203
 10
-36.5576224136
 20
43.9642839203
 10
-36.5576224136
 20
45.2499998932
 10
-35.2719064407
 20
45.2499998932
  0
LWPOLYLINE
  5
376
100
AcDbEntity
  8
0
100
AcDbPolyline
 62
7
  6
CONTINUOUS
 90
3
 70
0
 43
0.3500000006
 10
-39.1290520935
 20
42.8928569641
 10
-40.6290525513
 20
42.8928569641
 10
-39.9861945648
 20
45.2499998932
  0
ARC
  5
377
100
AcDbEntity
  8
0
100
AcDbCircle
 62
7
  6
CONTINUOUS
 10
11.25
 20
0.0
 40
28.0
100
AcDbArc
 50
125.9627651514
 51
126.8614238325
  0
ARC
  5
378
100
AcDbEntity
  8
0
100
AcDbCircle
 62
7
  6
CONTINUOUS
 10
11.25
 20
0.0
 40
28.0
100
AcDbArc
 50
123.5572117218
 51
124.1210936517
  0
ARC
  5
379
100
AcDbEntity
  8
0
100
AcDbCircle
 62
7
  6
CONTINUOUS
 10
-11.25
 20
0.0
 40
28.0
100
AcDbArc
 50
55.8789063483
 51
56.4427882782
  0
ARC
  5
37A
100
AcDbEntity
  8
0
100
AcDbCircle
 62
7
  6
CONTINUOUS
 10
-11.25
 20
0.0
 40
28.0
100
AcDbArc
 50
53.1385761675
 51
54.0372348486
  0
ARC
  5
37B
100
AcDbEntity
  8
0
100
AcDbCircle
 62
7
  6
CONTINUOUS
 10
-11.25
 20
0.0
 40
28.0
100
AcDbArc
 50
305.9627651514
 51
306.8614238325
  0
ARC
  5
37C
100
AcDbEntity
  8
0
100
AcDbCircle
 62
7
  6
CONTINUOUS
 10
-11.25
 20
0.0
 40
28.0
100
AcDbArc
 50
303.5572118401
 51
304.1210936517
  0
ARC
  5
37D
100
AcDbEntity
  8
0
100
AcDbCircle
 62
7
  6
CONTINUOUS
 10
11.25
 20
0.0
 40
28.0
100
AcDbArc
 50
235.8789063483
 51
236.4427881599
  0
ARC
  5
37E
100
AcDbEntity
  8
0
100
AcDbCircle
 62
7
  6
CONTINUOUS
 10
11.25
 20
0.0
 40
28.0
100
AcDbArc
 50
233.1385761675
 51
234.0372348486
  0
ARC
  5
37F
100
AcDbEntity
  8
0
100
AcDbCircle
 62
7
  6
CONTINUOUS
 10
-1.8661298413
 20
5.65
 40
1.8
100
AcDbArc
 50
349.8685857136
 51
10.1315571997
  0
ARC
  5
380
100
AcDbEntity
  8
0
100
AcDbCircle
 62
7
  6
CONTINUOUS
 10
1.8661298413
 20
5.65
 40
1.8
100
AcDbArc
 50
169.8685857324
 51
190.1315571839
  0
ARC
  5
381
100
AcDbEntity
  8
0
100
AcDbCircle
 62
7
  6
CONTINUOUS
 10
1.8661298413
 20
-5.65
 40
1.8
100
AcDbArc
 50
169.8685857136
 51
190.1315571997
  0
ARC
  5
382
100
AcDbEntity
  8
0
100
AcDbCircle
 62
7
  6
CONTINUOUS
 10
-1.8661298413
 20
-5.65
 40
1.8
100
AcDbArc
 50
349.8685857324
 51
10.1315571839
  0
CIRCLE
  5
383
100
AcDbEntity
  8
0
100
AcDbCircle
 62
7
  6
CONTINUOUS
 10
0.0
 20
6.2
 40
1.75
  0
CIRCLE
  5
384
100
AcDbEntity
  8
0
100
AcDbCircle
 62
7
  6
CONTINUOUS
 10
0.0
 20
-6.2
 40
1.75
  0
ARC
  5
385
100
AcDbEntity
  8
0
100
AcDbCircle
 62
7
  6
CONTINUOUS
 10
-4.95
 20
23.1
 40
0.5
100
AcDbArc
 50
240.887577224
 51
9.196281579
  0
ARC
  5
386
100
AcDbEntity
  8
0
100
AcDbCircle
 62
7
  6
CONTINUOUS
 10
4.95
 20
23.1
 40
0.5
100
AcDbArc
 50
170.803718421
 51
299.112422776
  0
ARC
  5
387
100
AcDbEntity
  8
0
100
AcDbCircle
 62
7
  6
CONTINUOUS
 10
4.95
 20
-23.1
 40
0.5
100
AcDbArc
 50
60.887577224
 51
189.196281579
  0
ARC
  5
388
100
AcDbEntity
  8
0
100
AcDbCircle
 62
7
  6
CONTINUOUS
 10
-4.95
 20
-23.1
 40
0.5
100
AcDbArc
 50
350.803718421
 51
119.112422776
  0
ARC
  5
389
100
AcDbEntity
  8
0
100
AcDbCircle
 62
7
  6
CONTINUOUS
 10
-54.4022550876
 20
-20.9762776024
 40
1.0
100
AcDbArc
 50
182.4092313014
 51
267.0
  0
ARC
  5
38A
100
AcDbEntity
  8
RACCORDO
100
AcDbCircle
 62
7
  6
CONTINUOUS
 10
-36.1646563675
 20
-18.4142135624
 40
0.5
100
AcDbArc
 50
315.0
 51
360.0
  0
ARC
  5
38B
100
AcDbEntity
  8
RACCORDO
100
AcDbCircle
 62
7
  6
CONTINUOUS
 10
-23.843336024
 20
-14.982468771
 40
0.5
100
AcDbArc
 50
271.0
 51
360.0
  0
ARC
  5
38C
100
AcDbEntity
  8
RACCORDO
100
AcDbCircle
 62
7
  6
CONTINUOUS
 10
-35.1646563675
 20
-16.1802354808
 40
0.5
100
AcDbArc
 50
91.0
 51
180.0
  0
ARC
  5
38D
100
AcDbEntity
  8
RACCORDO
100
AcDbCircle
 62
7
  6
CONTINUOUS
 10
-21.643336024
 20
-5.8395049286
 40
0.3
100
AcDbArc
 50
0.0
 51
87.0
  0
ARC
  5
38E
100
AcDbEntity
  8
RACCORDO
100
AcDbCircle
 62
7
  6
CONTINUOUS
 10
-21.643336024
 20
-12.6604950714
 40
0.3
100
AcDbArc
 50
273.0
 51
360.0
  0
ARC
  5
38F
100
AcDbEntity
  8
RACCORDO
100
AcDbCircle
 62
7
  6
CONTINUOUS
 10
-23.143336024
 20
-5.2602070867
 40
0.2
100
AcDbArc
 50
180.0
 51
267.0
  0
ARC
  5
390
100
AcDbEntity
  8
0
100
AcDbCircle
 62
7
  6
CONTINUOUS
 10
-54.4022550876
 20
20.9762776025
 40
1.0
100
AcDbArc
 50
93.0
 51
177.5907686986
  0
ARC
  5
391
100
AcDbEntity
  8
RACCORDO
100
AcDbCircle
 62
7
  6
CONTINUOUS
 10
-36.1646563675
 20
18.4142135624
 40
0.5
100
AcDbArc
 50
0.0
 51
45.0
  0
ARC
  5
392
100
AcDbEntity
  8
RACCORDO
100
AcDbCircle
 62
7
  6
CONTINUOUS
 10
-23.843336024
 20
14.9824687711
 40
0.5
100
AcDbArc
 50
0.0
 51
89.0
  0
ARC
  5
393
100
AcDbEntity
  8
RACCORDO
100
AcDbCircle
 62
7
  6
CONTINUOUS
 10
-35.1646563675
 20
16.1802354808
 40
0.5
100
AcDbArc
 50
180.0
 51
269.0
  0
ARC
  5
394
100
AcDbEntity
  8
RACCORDO
100
AcDbCircle
 62
7
  6
CONTINUOUS
 10
-21.643336024
 20
12.6604950714
 40
0.3
100
AcDbArc
 50
0.0
 51
87.0
  0
ARC
  5
395
100
AcDbEntity
  8
RACCORDO
100
AcDbCircle
 62
7
  6
CONTINUOUS
 10
-21.643336024
 20
5.8395049286
 40
0.3
100
AcDbArc
 50
273.0
 51
360.0
  0
ARC
  5
396
100
AcDbEntity
  8
RACCORDO
100
AcDbCircle
 62
7
  6
CONTINUOUS
 10
444.156663976
 20
0.0
 40
500.0
100
AcDbArc
 50
180.4745609278
 51
180.9472248731
  0
ARC
  5
397
100
AcDbEntity
  8
RACCORDO
100
AcDbCircle
 62
7
  6
CONTINUOUS
 10
444.156663976
 20
0.0
 40
500.0
100
AcDbArc
 50
179.0527751269
 51
179.5254390722
  0
ARC
  5
398
100
AcDbEntity
  8
0
100
AcDbCircle
 62
7
  6
CONTINUOUS
 10
444.156663976
 20
0.0
 40
500.0
100
AcDbArc
 50
177.5907686986
 51
182.4092313014
  0
ELLIPSE
  5
399
100
AcDbEntity
  8
0
100
AcDbEllipse
 62
7
  6
CONTINUOUS
 10
-10.649923836
 20
21.899313827
 30
0.0
 11
-0.1582391023
 21
0.4751033573
 31
0.0
 40
0.9984778551
 41
-0.3210503505
 42
1.2488325878
  0
ELLIPSE
  5
39A
100
AcDbEntity
  8
0
100
AcDbEllipse
 62
7
  6
CONTINUOUS
 10
-10.649923836
 20
-21.899313827
 30
0.0
 11
0.1582391023
 21
0.4751033573
 31
0.0
 40
0.9984778551
 41
-4.3904252414
 42
-2.8205423031
  0
ELLIPSE
  5
39B
100
AcDbEntity
  8
0
100
AcDbEllipse
 62
7
  6
CONTINUOUS
 10
10.649923836
 20
21.899313827
 30
0.0
 11
0.1582391023
 21
0.4751033573
 31
0.0
 40
0.9984778551
 41
-1.2488325878
 42
0.3210503505
  0
ELLIPSE
  5
39C
100
AcDbEntity
  8
0
100
AcDbEllipse
 62
7
  6
CONTINUOUS
 10
10.649923836
 20
-21.899313827
 30
0.0
 11
-0.1582391023
 21
0.4751033573
 31
0.0
 40
0.9984778551
 41
-3.4626430041
 42
-1.8927600658
  0
ENDSEC
  0
SECTION
  2
OBJECTS
  0
DICTIONARY
  5
C
100
AcDbDictionary
280
0
281
1
  3
ACAD_GROUP
350
D
  3
ACAD_MLINESTYLE
350
17
  3
ACAD_LAYOUT
350
1A
  3
ACAD_PLOTSETTINGS
350
19
  3
ACAD_PLOTSTYLENAME
350
E
  0
DICTIONARY
  5
D
102
{ACAD_REACTORS
330
C
102
}
100
AcDbDictionary
280
0
281
1
  0
ACDBDICTIONARYWDFLT
  5
E
102
{ACAD_REACTORS
330
C
102
}
100
AcDbDictionary
281
1
  3
Normal
350
F
100
AcDbDictionaryWithDefault
340
F
  0
DICTIONARY
  5
17
102
{ACAD_REACTORS
330
C
102
}
100
AcDbDictionary
280
0
281
1
  3
Standard
350
18
  0
DICTIONARY
  5
19
102
{ACAD_REACTORS
330
C
102
}
100
AcDbDictionary
281
1
  0
DICTIONARY
  5
1A
102
{ACAD_REACTORS
330
C
102
}
100
AcDbDictionary
281
1
  3
Model
350
39D
  3
Layout1
350
39E
  0
ACDBPLACEHOLDER
  5
F
102
{ACAD_REACTORS
330
E
102
}
  0
MLINESTYLE
  5
18
102
{ACAD_REACTORS
330
17
102
}
100
AcDbMlineStyle
  2
STANDARD
 70
0
  3

 62
256
 51
90.0
 52
90.0
 71
2
 49
0.5
 62
256
  6
BYLAYER
 49
-0.5
 62
256
  6
BYLAYER
  0
LAYOUT
  5
39D
102
{ACAD_REACTORS
330
1A
102
}
100
AcDbPlotSettings
  1

  2
none_device
  4
ISO_A4_(297.00_x_210.00_MM)
  6

 40
0.0
 41
0.0
 42
0.0
 43
0.0
 44
297.0
 45
210.0
 46
0.0
 47
0.0
 48
0.0
 49
0.0
140
0.0
141
0.0
142
1.0
143
1.0
 70
1024
 72
1
 73
0
 74
0
  7

 75
0
147
1.0
148
0.0
149
0.0
100
AcDbLayout
  1
Model
 70
0
 71
0
 10
0.0
 20
0.0
 11
297.0
 21
210.0
 12
0.0
 22
0.0
 32
0.0
 14
0.0
 24
0.0
 34
0.0
 15
0.0
 25
0.0
 35
0.0
146
0.0
 13
0.0
 23
0.0
 33
0.0
 16
1.0
 26
0.0
 36
0.0
 17
0.0
 27
1.0
 37
0.0
 76
0
330
213
345
0
346
0
  0
LAYOUT
  5
39E
102
{ACAD_REACTORS
330
1A
102
}
100
AcDbPlotSettings
  1

  2
none_device
  4
ISO_A4_(297.00_x_210.00_MM)
  6

 40
0.0
 41
0.0
 42
0.0
 43
0.0
 44
297.0
 45
210.0
 46
0.0
 47
0.0
 48
0.0
 49
0.0
140
0.0
141
0.0
142
1.0
143
1.0
 70
0
 72
1
 73
0
 74
0
  7

 75
0
147
1.0
148
0.0
149
0.0
100
AcDbLayout
  1
Layout1
 70
0
 71
1
 10
0.0
 20
0.0
 11
297.0
 21
210.0
 12
0.0
 22
0.0
 32
0.0
 14
0.0
 24
0.0
 34
0.0
 15
0.0
 25
0.0
 35
0.0
146
0.0
 13
0.0
 23
0.0
 33
0.0
 16
1.0
 26
0.0
 36
0.0
 17
0.0
 27
1.0
 37
0.0
 76
0
330
214
345
0
346
0
  0
ENDSEC
  0
EOF
