0
SECTION
2
HEADER
9
$ACADVER
1
AC1015
9
$DWGCODEPAGE
3
ANSI_1252
9
$EXTMAX
10
297.0000000000
20
210.0000000000
30
0.0000000000
9
$EXTMIN
10
0.0000000000
20
0.0000000000
30
0.0000000000
9
$LIMMIN
10
0.0000000000
20
0.0000000000
9
$LIMMAX
10
297.0000000000
20
210.0000000000
9
$VIEWCTR
10
148.5000000000
20
105.0000000000
9
$VIEWSIZE
40
210.0000000000
9
$CLAYER
8
0
9
$LTSCALE
40
16.3350000000
9
$CELTYPE
6
BYLAYER
9
$DIMSCALE
40
1
9
$DIMASZ
40
3.0000000000
9
$DIMEXO
40
1.8562500000
9
$DIMDLI
40
11.2860000000
9
$DIMEXE
40
5.3460000000
9
$DIMCEN
40
2.6730000000
9
$DIMLFAC
40
1.0000000000
9
$DIMBLK
1
_FILLED
9
$DIMTXT
40
3.0000000000
9
$DIMTOL
70
1
9
$DIMLIM
70
0
9
$DIMTFAC
40
1.0000000000
9
$DIMTP
40
0.0100000000
9
$DIMTM
40
0.0100000000
9
$PDMODE
70
3
9
$PDSIZE
40
3.0000000000
9
$HANDSEED
5
417
9
$MEASUREMENT
70
1
9
$INSUNITS
70
4
0
ENDSEC
0
SECTION
2
CLASSES
0
CLASS
1
ACDBDICTIONARYWDFLT
2
AcDbDictionaryWithDefault
3
AutoCAD 2000
90
0
280
0
281
0
0
CLASS
1
ACDBPLACEHOLDER
2
AcDbPlaceHolder
3
AutoCAD 2000
90
0
280
0
281
0
0
CLASS
1
LAYOUT
2
AcDbLayout
3
AutoCAD 2000
90
0
280
0
281
0
0
ENDSEC
0
SECTION
2
TABLES
0
TABLE
2
VPORT
5
8
100
AcDbSymbolTable
70
2
0
VPORT
5
1F4
100
AcDbSymbolTableRecord
100
AcDbViewportTableRecord
2
*ACTIVE
70
0
10
0.0
20
0.0
11
1.0
21
1.0
12
148.5000000000
22
105.0000000000
13
0.0
23
0.0
14
1.0
24
1.0
15
0.0
25
0.0
16
0.0
26
0.0
36
1.0
17
0.0
27
0.0
37
0.0
40
210.0000000000
41
1.4142857143
42
50.0
43
0.0
44
0.0
50
0.0
51
0.0
71
0
72
100
73
1
74
1
75
0
76
0
77
0
78
0
0
ENDTAB
0
TABLE
2
LTYPE
5
5
100
AcDbSymbolTable
70
6
0
LTYPE
5
14
100
AcDbSymbolTableRecord
100
AcDbLinetypeTableRecord
2
BYBLOCK
70
0
3

72
65
73
0
40
0.0
0
LTYPE
5
15
100
AcDbSymbolTableRecord
100
AcDbLinetypeTableRecord
2
BYLAYER
70
0
3

72
65
73
0
40
0.0
0
LTYPE
5
16
100
AcDbSymbolTableRecord
100
AcDbLinetypeTableRecord
2
CONTINUOUS
70
64
3
Solid line
72
65
73
0
40
0
0
LTYPE
5
1F5
100
AcDbSymbolTableRecord
100
AcDbLinetypeTableRecord
2
CENTER
70
64
3
____ _ ____ _ ____ _ ____ _ ____ _ ____ _ ____
72
65
73
4
40
0.6
49
0.375
74
0
49
-0.075
74
0
49
0.075
74
0
49
-0.075
74
0
0
LTYPE
5
1F6
100
AcDbSymbolTableRecord
100
AcDbLinetypeTableRecord
2
HIDDEN
70
64
3
- - - - - - - - - - - - - - - - - - - -
72
65
73
2
40
0.2
49
0.1
74
0
49
-0.1
74
0
0
LTYPE
5
1F7
100
AcDbSymbolTableRecord
100
AcDbLinetypeTableRecord
2
PHANTOM
70
64
3
_____ _ _ _____ _ _ _____ _ _ _____
72
65
73
6
40
0.8
49
0.45
74
0
49
-0.05
74
0
49
0.1
74
0
49
-0.05
74
0
49
0.1
74
0
49
-0.05
74
0
0
LTYPE
5
1F8
100
AcDbSymbolTableRecord
100
AcDbLinetypeTableRecord
2
DOT
70
64
3
. . . . . . . . . . . . . . . . . . . .
72
65
73
2
40
0.2
49
0.1
74
0
49
-0.1
74
0
0
LTYPE
5
1F9
100
AcDbSymbolTableRecord
100
AcDbLinetypeTableRecord
2
DASHED
70
64
3
- - - - - - - - - - - - - - - - - - - -
72
65
73
2
40
0.2
49
0.1
74
0
49
-0.1
74
0
0
ENDTAB
0
TABLE
2
LAYER
5
2
100
AcDbSymbolTable
70
36
0
LAYER
5
10
100
AcDbSymbolTableRecord
100
AcDbLayerTableRecord
2
0
70
0
62
7
6
CONTINUOUS
370
-3
390
F
0
LAYER
5
1FA
100
AcDbSymbolTableRecord
100
AcDbLayerTableRecord
2
DEFAULT_1
70
0
62
7
6
CENTER
370
-3
390
F
0
LAYER
5
1FB
100
AcDbSymbolTableRecord
100
AcDbLayerTableRecord
2
DEFAULT_2
70
0
62
8
6
HIDDEN
370
-3
390
F
0
LAYER
5
1FC
100
AcDbSymbolTableRecord
100
AcDbLayerTableRecord
2
DEFAULT_3
70
0
62
7
6
PHANTOM
370
-3
390
F
0
LAYER
5
1FD
100
AcDbSymbolTableRecord
100
AcDbLayerTableRecord
2
ASSI
70
0
62
7
6
CONTINUOUS
370
-3
390
F
0
LAYER
5
1FE
100
AcDbSymbolTableRecord
100
AcDbLayerTableRecord
2
COORDINATE
70
0
62
7
6
CONTINUOUS
370
-3
390
F
0
LAYER
5
1FF
100
AcDbSymbolTableRecord
100
AcDbLayerTableRecord
2
COORD_ORIGINE
70
0
62
7
6
CONTINUOUS
370
-3
390
F
0
LAYER
5
200
100
AcDbSymbolTableRecord
100
AcDbLayerTableRecord
2
CURVE
70
0
62
7
6
CONTINUOUS
370
-3
390
F
0
LAYER
5
201
100
AcDbSymbolTableRecord
100
AcDbLayerTableRecord
2
DRAFT
70
0
62
7
6
CONTINUOUS
370
-3
390
F
0
LAYER
5
202
100
AcDbSymbolTableRecord
100
AcDbLayerTableRecord
2
IMPORT_FEATURES
70
0
62
7
6
CONTINUOUS
370
-3
390
F
0
LAYER
5
203
100
AcDbSymbolTableRecord
100
AcDbLayerTableRecord
2
INTF_1
70
0
62
7
6
CONTINUOUS
370
-3
390
F
0
LAYER
5
204
100
AcDbSymbolTableRecord
100
AcDbLayerTableRecord
2
NOTE
70
0
62
7
6
CONTINUOUS
370
-3
390
F
0
LAYER
5
205
100
AcDbSymbolTableRecord
100
AcDbLayerTableRecord
2
PIANI
70
0
62
7
6
CONTINUOUS
370
-3
390
F
0
LAYER
5
206
100
AcDbSymbolTableRecord
100
AcDbLayerTableRecord
2
PIANI_ORIGINE
70
0
62
7
6
CONTINUOUS
370
-3
390
F
0
LAYER
5
207
100
AcDbSymbolTableRecord
100
AcDbLayerTableRecord
2
PUNTI
70
0
62
7
6
CONTINUOUS
370
-3
390
F
0
LAYER
5
208
100
AcDbSymbolTableRecord
100
AcDbLayerTableRecord
2
RACCORDO
70
0
62
7
6
CONTINUOUS
370
-3
390
F
0
LAYER
5
209
100
AcDbSymbolTableRecord
100
AcDbLayerTableRecord
2
RGB____0____0____0__
70
0
62
7
6
CONTINUOUS
370
-3
390
F
0
LAYER
5
20A
100
AcDbSymbolTableRecord
100
AcDbLayerTableRecord
2
SMUSSO
70
0
62
7
6
CONTINUOUS
370
-3
390
F
0
LAYER
5
20B
100
AcDbSymbolTableRecord
100
AcDbLayerTableRecord
2
SNAPLINE
70
0
62
7
6
CONTINUOUS
370
-3
390
F
0
LAYER
5
20C
100
AcDbSymbolTableRecord
100
AcDbLayerTableRecord
2
SUPERFICI
70
0
62
7
6
CONTINUOUS
370
-3
390
F
0
LAYER
5
20D
100
AcDbSymbolTableRecord
100
AcDbLayerTableRecord
2
TRASH
70
0
62
7
6
CONTINUOUS
370
-3
390
F
0
ENDTAB
0
TABLE
2
STYLE
5
3
100
AcDbSymbolTable
70
1
0
STYLE
5
11
100
AcDbSymbolTableRecord
100
AcDbTextStyleTableRecord
2
STANDARD
70
0
40
0.0
41
0.8000000000
50
0.0
71
0
42
0.2
3
txt
4

0
ENDTAB
0
TABLE
2
VIEW
5
6
100
AcDbSymbolTable
70
0
0
ENDTAB
0
TABLE
2
UCS
5
7
100
AcDbSymbolTable
70
0
0
ENDTAB
0
TABLE
2
APPID
5
9
100
AcDbSymbolTable
70
1
0
APPID
5
20E
100
AcDbSymbolTableRecord
100
AcDbRegAppTableRecord
2
ACAD
70
0
0
ENDTAB
0
TABLE
2
BLOCK_RECORD
5
1
100
AcDbSymbolTable
70
0
0
BLOCK_RECORD
5
1F
100
AcDbSymbolTableRecord
100
AcDbBlockTableRecord
2
*MODEL_SPACE
0
BLOCK_RECORD
5
1B
100
AcDbSymbolTableRecord
100
AcDbBlockTableRecord
2
*PAPER_SPACE
0
BLOCK_RECORD
5
20F
100
AcDbSymbolTableRecord
100
AcDbBlockTableRecord
2
_FILLED
0
BLOCK_RECORD
5
210
100
AcDbSymbolTableRecord
100
AcDbBlockTableRecord
2
*D0
0
BLOCK_RECORD
5
211
100
AcDbSymbolTableRecord
100
AcDbBlockTableRecord
2
*D1
0
BLOCK_RECORD
5
212
100
AcDbSymbolTableRecord
100
AcDbBlockTableRecord
2
*D2
0
BLOCK_RECORD
5
213
100
AcDbSymbolTableRecord
100
AcDbBlockTableRecord
2
*D3
0
ENDTAB
0
TABLE
2
DIMSTYLE
5
A
100
AcDbSymbolTable
70
1
100
AcDbDimStyleTable
71
0
0
DIMSTYLE
105
214
100
AcDbSymbolTableRecord
100
AcDbDimStyleTableRecord
2
STANDARD
70
0
3

4

40
1.0
41
3.0000000000
42
0.0625
43
0.38
44
0.18
45
0.0
46
0.0
47
0.0100000000
48
0.0100000000
140
3.0000000000
141
0.09
142
0.0
143
25.4
144
1.0000000000
145
0.0
146
1.0000000000
147
0.09
71
1
72
0
73
0
74
0
75
0
76
0
77
1
78
8
170
0
171
2
172
0
173
0
174
0
175
0
176
0
177
0
178
0
270
2
271
2
272
2
273
2
274
2
275
0
280
0
281
0
282
0
283
1
284
8
285
0
286
0
287
3
288
0
340
11
341
20F
342
20F
343
20F
344
20F
0
ENDTAB
0
ENDSEC
0
SECTION
2
BLOCKS
0
BLOCK
5
20
100
AcDbEntity
8
0
100
AcDbBlockBegin
2
*MODEL_SPACE
70
0
10
0.0
20
0.0
30
0.0
3
*MODEL_SPACE
1

0
ENDBLK
5
21
100
AcDbEntity
8
0
100
AcDbBlockEnd
0
BLOCK
5
1C
100
AcDbEntity
8
0
100
AcDbBlockBegin
2
*PAPER_SPACE
70
0
10
0.0
20
0.0
30
0.0
3
*PAPER_SPACE
1

0
ENDBLK
5
1D
100
AcDbEntity
8
0
100
AcDbBlockEnd
0
BLOCK
5
215
100
AcDbEntity
8
0
100
AcDbBlockBegin
62
2
6
CONTINUOUS
2
*D0
70
65
10
0.0000000000
20
0.0000000000
3
*D0
1

0
TEXT
5
216
100
AcDbEntity
8
0
100
AcDbText
62
2
6
CONTINUOUS
10
18.4000000000
20
-2.3571428571
7
STANDARD
40
3.0000000000
1
47
50
90.0000000000
41
0.7857142857
72
0
100
AcDbText
0
LINE
5
217
100
AcDbEntity
8
0
100
AcDbLine
62
2
6
CONTINUOUS
10
4.1748576640
20
23.5000000000
11
20.6500000000
21
23.5000000000
0
LINE
5
218
100
AcDbEntity
8
0
100
AcDbLine
62
2
6
CONTINUOUS
10
4.1748577666
20
-23.5000000000
11
20.6500000000
21
-23.5000000000
0
LINE
5
219
100
AcDbEntity
8
0
100
AcDbLine
62
2
6
CONTINUOUS
10
19.1500000000
20
23.5000000000
11
19.1500000000
21
0.0000000000
0
LINE
5
21A
100
AcDbEntity
8
0
100
AcDbLine
62
2
6
CONTINUOUS
10
19.1500000000
20
-23.5000000000
11
19.1500000000
21
0.0000000000
0
INSERT
5
21B
100
AcDbEntity
8
0
100
AcDbBlockReference
62
2
6
CONTINUOUS
2
_FILLED
10
19.1500000000
20
23.5000000000
41
  3.000000
42
  3.000000
43
  3.000000
50
 90.000000
0
INSERT
5
21C
100
AcDbEntity
8
0
100
AcDbBlockReference
62
2
6
CONTINUOUS
2
_FILLED
10
19.1500000000
20
-23.5000000000
41
  3.000000
42
  3.000000
43
  3.000000
50
270.000000
0
ENDBLK
5
21D
100
AcDbEntity
8
0
6
BYBLOCK
62
0
100
AcDbBlockEnd
0
BLOCK
5
21E
100
AcDbEntity
8
0
100
AcDbBlockBegin
62
2
6
CONTINUOUS
2
*D1
70
65
10
0.0000000000
20
0.0000000000
3
*D1
1

0
TEXT
5
21F
100
AcDbEntity
8
0
100
AcDbText
62
2
6
CONTINUOUS
10
-4.2857142857
20
32.2500000000
7
STANDARD
40
3.0000000000
1
22,3
41
0.7142857143
72
0
100
AcDbText
0
LINE
5
220
100
AcDbEntity
8
0
100
AcDbLine
62
2
6
CONTINUOUS
10
11.1500000000
20
22.3997711479
11
11.1500000000
21
33.0000000000
0
LINE
5
221
100
AcDbEntity
8
0
100
AcDbLine
62
2
6
CONTINUOUS
10
-11.1500000000
20
22.3997711479
11
-11.1500000000
21
33.0000000000
0
LINE
5
222
100
AcDbEntity
8
0
100
AcDbLine
62
2
6
CONTINUOUS
10
11.1500000000
20
31.5000000000
11
0.0000000000
21
31.5000000000
0
LINE
5
223
100
AcDbEntity
8
0
100
AcDbLine
62
2
6
CONTINUOUS
10
-11.1500000000
20
31.5000000000
11
0.0000000000
21
31.5000000000
0
INSERT
5
224
100
AcDbEntity
8
0
100
AcDbBlockReference
62
2
6
CONTINUOUS
2
_FILLED
10
11.1500000000
20
31.5000000000
41
  3.000000
42
  3.000000
43
  3.000000
0
INSERT
5
225
100
AcDbEntity
8
0
100
AcDbBlockReference
62
2
6
CONTINUOUS
2
_FILLED
10
-11.1500000000
20
31.5000000000
41
  3.000000
42
  3.000000
43
  3.000000
50
180.000000
0
ENDBLK
5
226
100
AcDbEntity
8
0
6
BYBLOCK
62
0
100
AcDbBlockEnd
0
BLOCK
5
227
100
AcDbEntity
8
0
100
AcDbBlockBegin
62
2
6
CONTINUOUS
2
*D2
70
65
10
0.0000000000
20
0.0000000000
3
*D2
1

0
TEXT
5
228
100
AcDbEntity
8
0
100
AcDbText
62
2
6
CONTINUOUS
10
-40.5633275365
20
32.2500000000
7
STANDARD
40
3.0000000000
1
33,6
41
0.6964285714
72
0
100
AcDbText
0
LINE
5
229
100
AcDbEntity
8
0
100
AcDbLine
62
2
6
CONTINUOUS
10
-19.5847561079
20
5.7086513684
11
-19.5847561079
21
33.0000000000
0
LINE
5
22A
100
AcDbEntity
8
0
100
AcDbLine
62
2
6
CONTINUOUS
10
-53.1847561079
20
22.3997711479
11
-53.1847561079
21
33.0000000000
0
LINE
5
22B
100
AcDbEntity
8
0
100
AcDbLine
62
2
6
CONTINUOUS
10
-19.5847561079
20
31.5000000000
11
-36.3847561079
21
31.5000000000
0
LINE
5
22C
100
AcDbEntity
8
0
100
AcDbLine
62
2
6
CONTINUOUS
10
-53.1847561079
20
31.5000000000
11
-36.3847561079
21
31.5000000000
0
INSERT
5
22D
100
AcDbEntity
8
0
100
AcDbBlockReference
62
2
6
CONTINUOUS
2
_FILLED
10
-19.5847561079
20
31.5000000000
41
  3.000000
42
  3.000000
43
  3.000000
0
INSERT
5
22E
100
AcDbEntity
8
0
100
AcDbBlockReference
62
2
6
CONTINUOUS
2
_FILLED
10
-53.1847561079
20
31.5000000000
41
  3.000000
42
  3.000000
43
  3.000000
50
180.000000
0
ENDBLK
5
22F
100
AcDbEntity
8
0
6
BYBLOCK
62
0
100
AcDbBlockEnd
0
BLOCK
5
230
100
AcDbEntity
8
0
100
AcDbBlockBegin
62
2
6
CONTINUOUS
2
*D3
70
65
10
0.0000000000
20
0.0000000000
3
*D3
1

0
TEXT
5
231
100
AcDbEntity
8
0
100
AcDbText
62
2
6
CONTINUOUS
10
-45.0990418222
20
42.2500000000
7
STANDARD
40
3.0000000000
1
43,1
41
0.6607142857
72
0
100
AcDbText
0
LINE
5
232
100
AcDbEntity
8
0
100
AcDbLine
62
2
6
CONTINUOUS
10
-19.5847561079
20
5.7086513684
11
-19.5847561079
21
43.0000000000
0
LINE
5
233
100
AcDbEntity
8
0
100
AcDbLine
62
2
6
CONTINUOUS
10
-62.6847561079
20
0.5000000000
11
-62.6847561079
21
43.0000000000
0
LINE
5
234
100
AcDbEntity
8
0
100
AcDbLine
62
2
6
CONTINUOUS
10
-19.5847561079
20
41.5000000000
11
-41.1347561079
21
41.5000000000
0
LINE
5
235
100
AcDbEntity
8
0
100
AcDbLine
62
2
6
CONTINUOUS
10
-62.6847561079
20
41.5000000000
11
-41.1347561079
21
41.5000000000
0
INSERT
5
236
100
AcDbEntity
8
0
100
AcDbBlockReference
62
2
6
CONTINUOUS
2
_FILLED
10
-19.5847561079
20
41.5000000000
41
  3.000000
42
  3.000000
43
  3.000000
0
INSERT
5
237
100
AcDbEntity
8
0
100
AcDbBlockReference
62
2
6
CONTINUOUS
2
_FILLED
10
-62.6847561079
20
41.5000000000
41
  3.000000
42
  3.000000
43
  3.000000
50
180.000000
0
ENDBLK
5
238
100
AcDbEntity
8
0
6
BYBLOCK
62
0
100
AcDbBlockEnd
0
BLOCK
5
239
100
AcDbEntity
8
0
100
AcDbBlockBegin
2
_FILLED
70
64
10
0.0000000000
20
0.0000000000
3
_FILLED
1

0
SOLID
5
23A
100
AcDbEntity
8
0
6
BYBLOCK
62
0
100
AcDbTrace
10
0.0000000000
20
0.0000000000
11
-1.0000000000
21
0.3166666667
12
-1.0000000000
22
-0.3166666667
13
-1.0000000000
23
-0.3166666667
0
ENDBLK
5
23B
100
AcDbEntity
8
0
6
BYBLOCK
62
0
100
AcDbBlockEnd
0
ENDSEC
0
SECTION
2
ENTITIES
0
DIMENSION
5
23C
100
AcDbEntity
8
0
100
AcDbDimension
62
2
6
CONTINUOUS
2
*D0
10
19.1500000000
20
-23.5000000000
11
16.9000000000
21
0.0000000000
70
160
3
DIMSTYLE_1
100
AcDbAlignedDimension
13
4.1748576640
23
23.5000000000
14
4.1748577666
24
-23.5000000000
50
270.000000
100
AcDbRotatedDimension
0
DIMENSION
5
23D
100
AcDbEntity
8
0
100
AcDbDimension
62
2
6
CONTINUOUS
2
*D1
10
-11.1500000000
20
31.5000000000
11
0.0000000000
21
33.7500000000
70
160
3
DIMSTYLE_1
100
AcDbAlignedDimension
13
11.1500000000
23
22.3997711479
14
-11.1500000000
24
22.3997711479
50
180.000000
100
AcDbRotatedDimension
0
DIMENSION
5
23E
100
AcDbEntity
8
0
100
AcDbDimension
62
2
6
CONTINUOUS
2
*D2
10
-53.1847561079
20
31.5000000000
11
-36.3847561079
21
33.7500000000
70
160
3
DIMSTYLE_1
100
AcDbAlignedDimension
13
-19.5847561079
23
5.7086513684
14
-53.1847561079
24
22.3997711479
50
180.000000
100
AcDbRotatedDimension
0
DIMENSION
5
23F
100
AcDbEntity
8
0
100
AcDbDimension
62
2
6
CONTINUOUS
2
*D3
10
-62.6847561079
20
41.5000000000
11
-41.1347561079
21
43.7500000000
70
160
3
DIMSTYLE_1
100
AcDbAlignedDimension
13
-19.5847561079
23
5.7086513684
14
-62.6847561079
24
0.5000000000
50
180.000000
100
AcDbRotatedDimension
0
LINE
5
240
100
AcDbEntity
8
0
100
AcDbLine
62
7
6
CONTINUOUS
10
3.6748577666
20
-23.5000000000
11
-3.6748577666
21
-23.5000000000
0
LINE
5
241
100
AcDbEntity
8
0
100
AcDbLine
62
7
6
CONTINUOUS
10
3.4698202597
20
-22.5000000000
11
-3.4698202597
21
-22.5000000000
0
LINE
5
242
100
AcDbEntity
8
0
100
AcDbLine
62
7
6
CONTINUOUS
10
10.6503805997
20
-22.4000000000
11
3.3000000000
21
-22.4000000000
0
LINE
5
243
100
AcDbEntity
8
0
100
AcDbLine
62
7
6
CONTINUOUS
10
-3.3000000000
20
-22.4000000000
11
-10.6503805997
21
-22.4000000000
0
LINE
5
244
100
AcDbEntity
8
0
100
AcDbLine
62
9
6
CONTINUOUS
10
10.5087981167
20
-21.9749071372
11
-10.5087981167
21
-21.9749071372
0
LINE
5
245
100
AcDbEntity
8
0
100
AcDbLine
62
9
6
CONTINUOUS
10
10.5005350625
20
-21.0183142309
11
-10.5005350625
21
-21.0183142309
0
LINE
5
246
100
AcDbEntity
8
0
100
AcDbLine
62
7
6
CONTINUOUS
10
-3.2333672024
20
22.5000000000
11
-3.3000000000
21
22.4000000000
0
LINE
5
247
100
AcDbEntity
8
0
100
AcDbLine
62
7
6
CONTINUOUS
10
-3.3000000000
20
-22.4000000000
11
-3.2333672024
21
-22.5000000000
0
LINE
5
248
100
AcDbEntity
8
0
100
AcDbLine
62
7
6
CONTINUOUS
10
-11.1500000000
20
-21.8997711479
11
-11.1500000000
21
21.8997711479
0
LINE
5
249
100
AcDbEntity
8
0
100
AcDbLine
62
7
6
CONTINUOUS
10
-3.3848722771
20
22.4000000000
11
-3.3633443637
21
22.5000000000
0
LINE
5
24A
100
AcDbEntity
8
0
100
AcDbLine
62
7
6
CONTINUOUS
10
-3.3848722771
20
-22.4000000000
11
-3.3633443637
21
-22.5000000000
0
LINE
5
24B
100
AcDbEntity
8
0
100
AcDbLine
62
9
6
CONTINUOUS
10
-6.6500000000
20
5.2052052052
11
-6.6500000000
21
-3.8038038038
0
LINE
5
24C
100
AcDbEntity
8
0
100
AcDbLine
62
7
6
CONTINUOUS
10
-6.1500000000
20
4.7000000000
11
-6.1500000000
21
-3.3000000000
0
LINE
5
24D
100
AcDbEntity
8
0
100
AcDbLine
62
7
6
CONTINUOUS
10
-5.7000000000
20
2.3000000000
11
-5.7000000000
21
0.6000000000
0
LINE
5
24E
100
AcDbEntity
8
0
100
AcDbLine
62
7
6
CONTINUOUS
10
-4.9750000000
20
4.2000000000
11
-4.9750000000
21
2.3000000000
0
LINE
5
24F
100
AcDbEntity
8
0
100
AcDbLine
62
7
6
CONTINUOUS
10
-4.9750000000
20
0.6000000000
11
-4.9750000000
21
-2.7500000000
0
LINE
5
250
100
AcDbEntity
8
0
100
AcDbLine
62
9
6
CONTINUOUS
10
-2.8000000000
20
-6.6066066066
11
2.8000000000
21
-6.6066066066
0
LINE
5
251
100
AcDbEntity
8
0
100
AcDbLine
62
7
6
CONTINUOUS
10
-2.3000000000
20
-6.1000000000
11
2.3000000000
21
-6.1000000000
0
LINE
5
252
100
AcDbEntity
8
0
100
AcDbLine
62
9
6
CONTINUOUS
10
-3.8500000000
20
-5.4054054054
11
-2.8000000000
21
-5.4054054054
0
LINE
5
253
100
AcDbEntity
8
0
100
AcDbLine
62
9
6
CONTINUOUS
10
2.8000000000
20
-5.4054054054
11
3.8500000000
21
-5.4054054054
0
LINE
5
254
100
AcDbEntity
8
0
100
AcDbLine
62
7
6
CONTINUOUS
10
-2.0400000000
20
-5.2500000000
11
2.0400000000
21
-5.2500000000
0
LINE
5
255
100
AcDbEntity
8
0
100
AcDbLine
62
7
6
CONTINUOUS
10
-4.7800000000
20
4.2000000000
11
-4.7800000000
21
0.7000000000
0
LINE
5
256
100
AcDbEntity
8
0
100
AcDbLine
62
7
6
CONTINUOUS
10
-4.2800000000
20
4.2000000000
11
-4.2800000000
21
0.7000000000
0
LINE
5
257
100
AcDbEntity
8
0
100
AcDbLine
62
9
6
CONTINUOUS
10
-3.8500000000
20
-3.8038038038
11
-3.8500000000
21
-5.4054054054
0
LINE
5
258
100
AcDbEntity
8
0
100
AcDbLine
62
7
6
CONTINUOUS
10
-3.7600000000
20
4.2000000000
11
-3.7600000000
21
0.7000000000
0
LINE
5
259
100
AcDbEntity
8
0
100
AcDbLine
62
7
6
CONTINUOUS
10
-3.4698202597
20
-22.4000000000
11
-3.4698202597
21
-22.5000000000
0
LINE
5
25A
100
AcDbEntity
8
0
100
AcDbLine
62
7
6
CONTINUOUS
10
-3.4698202597
20
22.4000000000
11
-3.4698202597
21
22.5000000000
0
LINE
5
25B
100
AcDbEntity
8
0
100
AcDbLine
62
7
6
CONTINUOUS
10
-3.3500000000
20
-3.3000000000
11
-3.3500000000
21
-4.9000000000
0
LINE
5
25C
100
AcDbEntity
8
0
100
AcDbLine
62
7
6
CONTINUOUS
10
-3.3000000000
20
-2.7500000000
11
-3.3000000000
21
-4.3500000000
0
LINE
5
25D
100
AcDbEntity
8
0
100
AcDbLine
62
7
6
CONTINUOUS
10
-3.2600000000
20
4.2000000000
11
-3.2600000000
21
0.7000000000
0
LINE
5
25E
100
AcDbEntity
8
0
100
AcDbLine
62
9
6
CONTINUOUS
10
-11.1500000000
20
-21.8997711479
11
-11.0087219643
21
-21.4755923698
0
LINE
5
25F
100
AcDbEntity
8
0
100
AcDbLine
62
7
6
CONTINUOUS
10
-3.3500000000
20
-4.9000000000
11
-2.3000000000
21
-4.9000000000
0
LINE
5
260
100
AcDbEntity
8
0
100
AcDbLine
62
7
6
CONTINUOUS
10
2.3000000000
20
-4.9000000000
11
3.3500000000
21
-4.9000000000
0
LINE
5
261
100
AcDbEntity
8
0
100
AcDbLine
62
7
6
CONTINUOUS
10
-3.3000000000
20
-4.3500000000
11
-2.0400000000
21
-4.3500000000
0
LINE
5
262
100
AcDbEntity
8
0
100
AcDbLine
62
7
6
CONTINUOUS
10
2.0400000000
20
-4.3500000000
11
3.3000000000
21
-4.3500000000
0
LINE
5
263
100
AcDbEntity
8
0
100
AcDbLine
62
9
6
CONTINUOUS
10
-6.6500000000
20
-3.8038038038
11
-3.8500000000
21
-3.8038038038
0
LINE
5
264
100
AcDbEntity
8
0
100
AcDbLine
62
9
6
CONTINUOUS
10
3.8500000000
20
-3.8038038038
11
6.6500000000
21
-3.8038038038
0
LINE
5
265
100
AcDbEntity
8
0
100
AcDbLine
62
7
6
CONTINUOUS
10
-6.1500000000
20
-3.3000000000
11
-3.3500000000
21
-3.3000000000
0
LINE
5
266
100
AcDbEntity
8
0
100
AcDbLine
62
7
6
CONTINUOUS
10
3.3500000000
20
-3.3000000000
11
6.1500000000
21
-3.3000000000
0
LINE
5
267
100
AcDbEntity
8
0
100
AcDbLine
62
9
6
CONTINUOUS
10
-11.0087219643
20
21.4755923698
11
-11.1500000000
21
21.8997711479
0
LINE
5
268
100
AcDbEntity
8
0
100
AcDbLine
62
9
6
CONTINUOUS
10
-2.8000000000
20
-5.4054054054
11
-2.8000000000
21
-6.6066066066
0
LINE
5
269
100
AcDbEntity
8
0
100
AcDbLine
62
7
6
CONTINUOUS
10
-2.7400000000
20
4.2000000000
11
-2.7400000000
21
0.7000000000
0
LINE
5
26A
100
AcDbEntity
8
0
100
AcDbLine
62
7
6
CONTINUOUS
10
-2.7150000000
20
4.2000000000
11
-2.7150000000
21
0.7000000000
0
LINE
5
26B
100
AcDbEntity
8
0
100
AcDbLine
62
7
6
CONTINUOUS
10
-2.3000000000
20
-4.9000000000
11
-2.3000000000
21
-6.1000404052
0
LINE
5
26C
100
AcDbEntity
8
0
100
AcDbLine
62
7
6
CONTINUOUS
10
-2.2650000000
20
4.2000000000
11
-2.2650000000
21
0.7000000000
0
LINE
5
26D
100
AcDbEntity
8
0
100
AcDbLine
62
7
6
CONTINUOUS
10
-2.2400000000
20
4.2000000000
11
-2.2400000000
21
0.7000000000
0
LINE
5
26E
100
AcDbEntity
8
0
100
AcDbLine
62
7
6
CONTINUOUS
10
-2.0400000000
20
-4.3500000000
11
-2.0400000000
21
-5.2500000000
0
LINE
5
26F
100
AcDbEntity
8
0
100
AcDbLine
62
7
6
CONTINUOUS
10
-1.7200000000
20
4.2000000000
11
-1.7200000000
21
0.7000000000
0
LINE
5
270
100
AcDbEntity
8
0
100
AcDbLine
62
7
6
CONTINUOUS
10
-1.7150000000
20
4.2000000000
11
-1.7150000000
21
0.7000000000
0
LINE
5
271
100
AcDbEntity
8
0
100
AcDbLine
62
9
6
CONTINUOUS
10
-10.6503805997
20
-22.4000000000
11
-10.5087981167
21
-21.9749071372
0
LINE
5
272
100
AcDbEntity
8
0
100
AcDbLine
62
7
6
CONTINUOUS
10
-3.3000000000
20
-3.2000000000
11
3.3000000000
21
-3.2000000000
0
LINE
5
273
100
AcDbEntity
8
0
100
AcDbLine
62
7
6
CONTINUOUS
10
-4.9750000000
20
-2.7500000000
11
-3.3000000000
21
-2.7500000000
0
LINE
5
274
100
AcDbEntity
8
0
100
AcDbLine
62
7
6
CONTINUOUS
10
3.3000000000
20
-2.7500000000
11
4.9750000000
21
-2.7500000000
0
LINE
5
275
100
AcDbEntity
8
0
100
AcDbLine
62
9
6
CONTINUOUS
10
-10.5087981167
20
21.9749071372
11
-10.6503805997
21
22.4000000000
0
LINE
5
276
100
AcDbEntity
8
0
100
AcDbLine
62
7
6
CONTINUOUS
10
-1.2650000000
20
4.2000000000
11
-1.2650000000
21
0.7000000000
0
LINE
5
277
100
AcDbEntity
8
0
100
AcDbLine
62
7
6
CONTINUOUS
10
-1.2200000000
20
4.2000000000
11
-1.2200000000
21
0.7000000000
0
LINE
5
278
100
AcDbEntity
8
0
100
AcDbLine
62
7
6
CONTINUOUS
10
-0.7150000000
20
4.2000000000
11
-0.7150000000
21
0.7000000000
0
LINE
5
279
100
AcDbEntity
8
0
100
AcDbLine
62
7
6
CONTINUOUS
10
-0.2650000000
20
4.2000000000
11
-0.2650000000
21
0.7000000000
0
LINE
5
27A
100
AcDbEntity
8
0
100
AcDbLine
62
7
6
CONTINUOUS
10
-0.2000000000
20
4.2000000000
11
-0.2000000000
21
0.7000000000
0
LINE
5
27B
100
AcDbEntity
8
0
100
AcDbLine
62
7
6
CONTINUOUS
10
3.4151277229
20
22.4000000000
11
3.4334085063
21
22.4849166520
0
LINE
5
27C
100
AcDbEntity
8
0
100
AcDbLine
62
7
6
CONTINUOUS
10
3.4151277229
20
-22.4000000000
11
3.4334085063
21
-22.4849166520
0
LINE
5
27D
100
AcDbEntity
8
0
100
AcDbLine
62
7
6
CONTINUOUS
10
0.2850000000
20
4.2000000000
11
0.2850000000
21
0.7000000000
0
LINE
5
27E
100
AcDbEntity
8
0
100
AcDbLine
62
7
6
CONTINUOUS
10
0.7350000000
20
4.2000000000
11
0.7350000000
21
0.7000000000
0
LINE
5
27F
100
AcDbEntity
8
0
100
AcDbLine
62
7
6
CONTINUOUS
10
0.8200000000
20
4.2000000000
11
0.8200000000
21
0.7000000000
0
LINE
5
280
100
AcDbEntity
8
0
100
AcDbLine
62
7
6
CONTINUOUS
10
1.2850000000
20
4.2000000000
11
1.2850000000
21
0.7000000000
0
LINE
5
281
100
AcDbEntity
8
0
100
AcDbLine
62
7
6
CONTINUOUS
10
1.7350000000
20
4.2000000000
11
1.7350000000
21
0.7000000000
0
LINE
5
282
100
AcDbEntity
8
0
100
AcDbLine
62
7
6
CONTINUOUS
10
1.8400000000
20
4.2000000000
11
1.8400000000
21
0.7000000000
0
LINE
5
283
100
AcDbEntity
8
0
100
AcDbLine
62
7
6
CONTINUOUS
10
-3.4151277229
20
-22.4000000000
11
-3.4334085063
21
-22.4849166520
0
LINE
5
284
100
AcDbEntity
8
0
100
AcDbLine
62
7
6
CONTINUOUS
10
-5.7000000000
20
0.6000000000
11
-4.9750000000
21
0.6000000000
0
LINE
5
285
100
AcDbEntity
8
0
100
AcDbLine
62
7
6
CONTINUOUS
10
4.9750000000
20
0.6000000000
11
5.7000000000
21
0.6000000000
0
LINE
5
286
100
AcDbEntity
8
0
100
AcDbLine
62
7
6
CONTINUOUS
10
-4.7800000000
20
0.7000000000
11
-4.2800000000
21
0.7000000000
0
LINE
5
287
100
AcDbEntity
8
0
100
AcDbLine
62
7
6
CONTINUOUS
10
-3.7600000000
20
0.7000000000
11
-3.2600000000
21
0.7000000000
0
LINE
5
288
100
AcDbEntity
8
0
100
AcDbLine
62
7
6
CONTINUOUS
10
-2.7400000000
20
0.7000000000
11
-2.2400000000
21
0.7000000000
0
LINE
5
289
100
AcDbEntity
8
0
100
AcDbLine
62
7
6
CONTINUOUS
10
-1.7200000000
20
0.7000000000
11
-1.2200000000
21
0.7000000000
0
LINE
5
28A
100
AcDbEntity
8
0
100
AcDbLine
62
7
6
CONTINUOUS
10
-0.7150000000
20
0.7000000000
11
-0.2000000000
21
0.7000000000
0
LINE
5
28B
100
AcDbEntity
8
0
100
AcDbLine
62
7
6
CONTINUOUS
10
0.2850000000
20
0.7000000000
11
0.8200000000
21
0.7000000000
0
LINE
5
28C
100
AcDbEntity
8
0
100
AcDbLine
62
7
6
CONTINUOUS
10
1.2850000000
20
0.7000000000
11
1.8400000000
21
0.7000000000
0
LINE
5
28D
100
AcDbEntity
8
0
100
AcDbLine
62
7
6
CONTINUOUS
10
2.2850000000
20
0.7000000000
11
2.8600000000
21
0.7000000000
0
LINE
5
28E
100
AcDbEntity
8
0
100
AcDbLine
62
7
6
CONTINUOUS
10
3.3800000000
20
0.7000000000
11
3.8800000000
21
0.7000000000
0
LINE
5
28F
100
AcDbEntity
8
0
100
AcDbLine
62
7
6
CONTINUOUS
10
4.4000000000
20
0.7000000000
11
4.9000000000
21
0.7000000000
0
LINE
5
290
100
AcDbEntity
8
0
100
AcDbLine
62
7
6
CONTINUOUS
10
-3.4151277229
20
22.4000000000
11
-3.4334085063
21
22.4849166520
0
LINE
5
291
100
AcDbEntity
8
0
100
AcDbLine
62
7
6
CONTINUOUS
10
2.0400000000
20
-5.2500000000
11
2.0400000000
21
-4.3500000000
0
LINE
5
292
100
AcDbEntity
8
0
100
AcDbLine
62
7
6
CONTINUOUS
10
2.2850000000
20
4.2000000000
11
2.2850000000
21
0.7000000000
0
LINE
5
293
100
AcDbEntity
8
0
100
AcDbLine
62
7
6
CONTINUOUS
10
2.3000000000
20
-4.9000000000
11
2.3000000000
21
-6.1000404052
0
LINE
5
294
100
AcDbEntity
8
0
100
AcDbLine
62
7
6
CONTINUOUS
10
2.7350000000
20
4.2000000000
11
2.7350000000
21
0.7000000000
0
LINE
5
295
100
AcDbEntity
8
0
100
AcDbLine
62
9
6
CONTINUOUS
10
2.8000000000
20
-6.6066066066
11
2.8000000000
21
-5.4054054054
0
LINE
5
296
100
AcDbEntity
8
0
100
AcDbLine
62
7
6
CONTINUOUS
10
2.8600000000
20
4.2000000000
11
2.8600000000
21
0.7000000000
0
LINE
5
297
100
AcDbEntity
8
0
100
AcDbLine
62
7
6
CONTINUOUS
10
3.3000000000
20
-4.3500000000
11
3.3000000000
21
-2.7500000000
0
LINE
5
298
100
AcDbEntity
8
0
100
AcDbLine
62
7
6
CONTINUOUS
10
3.3500000000
20
-3.3000000000
11
3.3500000000
21
-4.9000000000
0
LINE
5
299
100
AcDbEntity
8
0
100
AcDbLine
62
7
6
CONTINUOUS
10
3.3800000000
20
4.2000000000
11
3.3800000000
21
0.7000000000
0
LINE
5
29A
100
AcDbEntity
8
0
100
AcDbLine
62
7
6
CONTINUOUS
10
3.4698202597
20
22.5000000000
11
3.4698202597
21
22.4000000000
0
LINE
5
29B
100
AcDbEntity
8
0
100
AcDbLine
62
7
6
CONTINUOUS
10
3.4698202597
20
-22.5000000000
11
3.4698202597
21
-22.4000000000
0
LINE
5
29C
100
AcDbEntity
8
0
100
AcDbLine
62
9
6
CONTINUOUS
10
10.5087981167
20
21.9749071372
11
10.6503805997
21
22.4000000000
0
LINE
5
29D
100
AcDbEntity
8
0
100
AcDbLine
62
9
6
CONTINUOUS
10
11.0087219643
20
21.4755923698
11
11.1500000000
21
21.8997711479
0
LINE
5
29E
100
AcDbEntity
8
0
100
AcDbLine
62
7
6
CONTINUOUS
10
5.7000000000
20
2.3000000000
11
4.9750000000
21
2.3000000000
0
LINE
5
29F
100
AcDbEntity
8
0
100
AcDbLine
62
7
6
CONTINUOUS
10
-4.9750000000
20
2.3000000000
11
-5.7000000000
21
2.3000000000
0
LINE
5
2A0
100
AcDbEntity
8
0
100
AcDbLine
62
9
6
CONTINUOUS
10
10.6503805997
20
-22.4000000000
11
10.5087981167
21
-21.9749071372
0
LINE
5
2A1
100
AcDbEntity
8
0
100
AcDbLine
62
9
6
CONTINUOUS
10
11.1500000000
20
-21.8997711479
11
11.0087219643
21
-21.4755923698
0
LINE
5
2A2
100
AcDbEntity
8
0
100
AcDbLine
62
9
6
CONTINUOUS
10
3.8500000000
20
-5.4054054054
11
3.8500000000
21
-3.8038038038
0
LINE
5
2A3
100
AcDbEntity
8
0
100
AcDbLine
62
7
6
CONTINUOUS
10
3.8800000000
20
4.2000000000
11
3.8800000000
21
0.7000000000
0
LINE
5
2A4
100
AcDbEntity
8
0
100
AcDbLine
62
7
6
CONTINUOUS
10
4.4000000000
20
4.2000000000
11
4.4000000000
21
0.7000000000
0
LINE
5
2A5
100
AcDbEntity
8
0
100
AcDbLine
62
7
6
CONTINUOUS
10
4.9000000000
20
4.2000000000
11
4.9000000000
21
0.7000000000
0
LINE
5
2A6
100
AcDbEntity
8
0
100
AcDbLine
62
7
6
CONTINUOUS
10
4.9750000000
20
-2.7500000000
11
4.9750000000
21
0.6000000000
0
LINE
5
2A7
100
AcDbEntity
8
0
100
AcDbLine
62
7
6
CONTINUOUS
10
4.9750000000
20
2.3000000000
11
4.9750000000
21
4.2000000000
0
LINE
5
2A8
100
AcDbEntity
8
0
100
AcDbLine
62
9
6
CONTINUOUS
10
-2.7150000000
20
3.7769999865
11
-2.2650000000
21
3.7769999865
0
LINE
5
2A9
100
AcDbEntity
8
0
100
AcDbLine
62
9
6
CONTINUOUS
10
-1.7150000000
20
3.7769999865
11
-1.2650000000
21
3.7769999865
0
LINE
5
2AA
100
AcDbEntity
8
0
100
AcDbLine
62
9
6
CONTINUOUS
10
-0.7150000000
20
3.7769999865
11
-0.2650000000
21
3.7769999865
0
LINE
5
2AB
100
AcDbEntity
8
0
100
AcDbLine
62
9
6
CONTINUOUS
10
0.2850000000
20
3.7769999865
11
0.7350000000
21
3.7769999865
0
LINE
5
2AC
100
AcDbEntity
8
0
100
AcDbLine
62
9
6
CONTINUOUS
10
1.2850000000
20
3.7769999865
11
1.7350000000
21
3.7769999865
0
LINE
5
2AD
100
AcDbEntity
8
0
100
AcDbLine
62
9
6
CONTINUOUS
10
2.2850000000
20
3.7769999865
11
2.7350000000
21
3.7769999865
0
LINE
5
2AE
100
AcDbEntity
8
0
100
AcDbLine
62
7
6
CONTINUOUS
10
4.9750000000
20
4.2000000000
11
-4.9750000000
21
4.2000000000
0
LINE
5
2AF
100
AcDbEntity
8
0
100
AcDbLine
62
7
6
CONTINUOUS
10
6.1500000000
20
4.7000000000
11
-6.1500000000
21
4.7000000000
0
LINE
5
2B0
100
AcDbEntity
8
0
100
AcDbLine
62
9
6
CONTINUOUS
10
6.6500000000
20
5.2052052052
11
-6.6500000000
21
5.2052052052
0
LINE
5
2B1
100
AcDbEntity
8
0
100
AcDbLine
62
7
6
CONTINUOUS
10
5.7000000000
20
0.6000000000
11
5.7000000000
21
2.3000000000
0
LINE
5
2B2
100
AcDbEntity
8
0
100
AcDbLine
62
7
6
CONTINUOUS
10
6.1500000000
20
-3.3000000000
11
6.1500000000
21
4.7000000000
0
LINE
5
2B3
100
AcDbEntity
8
0
100
AcDbLine
62
9
6
CONTINUOUS
10
6.6500000000
20
-3.8038038038
11
6.6500000000
21
5.2052052052
0
LINE
5
2B4
100
AcDbEntity
8
0
100
AcDbLine
62
7
6
CONTINUOUS
10
3.3848722771
20
-22.4000000000
11
3.3633443637
21
-22.5000000000
0
LINE
5
2B5
100
AcDbEntity
8
0
100
AcDbLine
62
7
6
CONTINUOUS
10
3.3848722771
20
22.4000000000
11
3.3633443637
21
22.5000000000
0
LINE
5
2B6
100
AcDbEntity
8
0
100
AcDbLine
62
7
6
CONTINUOUS
10
11.1500000000
20
21.8997711479
11
11.1500000000
21
-21.8997711479
0
LINE
5
2B7
100
AcDbEntity
8
0
100
AcDbLine
62
7
6
CONTINUOUS
10
3.3000000000
20
-22.4000000000
11
3.2333672024
21
-22.5000000000
0
LINE
5
2B8
100
AcDbEntity
8
0
100
AcDbLine
62
7
6
CONTINUOUS
10
3.2333672024
20
22.5000000000
11
3.3000000000
21
22.4000000000
0
LINE
5
2B9
100
AcDbEntity
8
0
100
AcDbLine
62
9
6
CONTINUOUS
10
-10.5005350625
20
21.0183142309
11
10.5005350625
21
21.0183142309
0
LINE
5
2BA
100
AcDbEntity
8
0
100
AcDbLine
62
9
6
CONTINUOUS
10
-10.5087981167
20
21.9749071372
11
10.5087981167
21
21.9749071372
0
LINE
5
2BB
100
AcDbEntity
8
0
100
AcDbLine
62
7
6
CONTINUOUS
10
-10.6503805997
20
22.4000000000
11
-3.3000000000
21
22.4000000000
0
LINE
5
2BC
100
AcDbEntity
8
0
100
AcDbLine
62
7
6
CONTINUOUS
10
3.3000000000
20
22.4000000000
11
10.6503805997
21
22.4000000000
0
LINE
5
2BD
100
AcDbEntity
8
0
100
AcDbLine
62
7
6
CONTINUOUS
10
3.4698202597
20
22.5000000000
11
-3.4698202597
21
22.5000000000
0
LINE
5
2BE
100
AcDbEntity
8
0
100
AcDbLine
62
7
6
CONTINUOUS
10
3.6748576640
20
23.5000000000
11
-3.6748576640
21
23.5000000000
0
LINE
5
2BF
100
AcDbEntity
8
0
100
AcDbLine
62
7
6
CONTINUOUS
10
-53.1847561079
20
-23.5000000000
11
-49.1847561079
21
-23.4301797403
0
LINE
5
2C0
100
AcDbEntity
8
0
100
AcDbLine
62
7
6
CONTINUOUS
10
-45.2139013100
20
-21.1306884717
11
-48.9882465892
21
-21.1965699136
0
LINE
5
2C1
100
AcDbEntity
8
0
100
AcDbLine
62
7
6
CONTINUOUS
10
-47.0352606240
20
-22.2000000000
11
-47.5847561079
21
-22.2000000000
0
LINE
5
2C2
100
AcDbEntity
8
0
100
AcDbLine
62
7
6
CONTINUOUS
10
-53.1847561079
20
-22.4000000000
11
-61.2960111278
21
-21.9749071372
0
LINE
5
2C3
100
AcDbEntity
8
0
100
AcDbLine
62
9
6
CONTINUOUS
10
-53.1847561079
20
-21.8997711479
11
-61.2785693529
21
-21.4755923698
0
LINE
5
2C4
100
AcDbEntity
8
0
100
AcDbLine
62
9
6
CONTINUOUS
10
-62.2427912332
20
-21.0183142305
11
-61.7519594100
21
-20.9972959167
0
LINE
5
2C5
100
AcDbEntity
8
0
100
AcDbLine
62
7
6
CONTINUOUS
10
-43.4230150429
20
-19.8160983575
11
-20.0760299047
21
-19.4085752160
0
LINE
5
2C6
100
AcDbEntity
8
CURVE
100
AcDbLine
62
2
6
CONTINUOUS
10
-50.9842075974
20
15.6633530038
11
-50.7825892931
21
15.8649713081
0
LINE
5
2C7
100
AcDbEntity
8
CURVE
100
AcDbLine
62
2
6
CONTINUOUS
10
-50.9842075974
20
15.2433315757
11
-50.7825892931
21
15.4449498800
0
LINE
5
2C8
100
AcDbEntity
8
CURVE
100
AcDbLine
62
2
6
CONTINUOUS
10
-50.9842075974
20
14.8233101477
11
-50.7825892931
21
15.0249284520
0
LINE
5
2C9
100
AcDbEntity
8
CURVE
100
AcDbLine
62
2
6
CONTINUOUS
10
-50.2104852224
20
15.5970325227
11
-50.0088669180
21
15.7986508270
0
LINE
5
2CA
100
AcDbEntity
8
CURVE
100
AcDbLine
62
2
6
CONTINUOUS
10
-50.7439111288
20
14.6435851882
11
-50.5044161147
21
14.8830802023
0
LINE
5
2CB
100
AcDbEntity
8
CURVE
100
AcDbLine
62
2
6
CONTINUOUS
10
-50.2104852224
20
15.1770110947
11
-50.0088669180
21
15.3786293990
0
LINE
5
2CC
100
AcDbEntity
8
CURVE
100
AcDbLine
62
2
6
CONTINUOUS
10
-50.9050982033
20
14.0623766857
11
-50.7221573020
21
14.2453175870
0
LINE
5
2CD
100
AcDbEntity
8
CURVE
100
AcDbLine
62
2
6
CONTINUOUS
10
-50.3238897008
20
14.6435851882
11
-50.0088669180
21
14.9586079710
0
LINE
5
2CE
100
AcDbEntity
8
CURVE
100
AcDbLine
62
2
6
CONTINUOUS
10
-49.3863744122
20
15.5811004768
11
-49.1847561079
21
15.7827187811
0
LINE
5
2CF
100
AcDbEntity
8
CURVE
100
AcDbLine
62
9
6
CONTINUOUS
10
-48.7009590332
20
13.3642856121
11
-48.4867386002
21
13.5785715818
0
LINE
5
2D0
100
AcDbEntity
8
CURVE
100
AcDbLine
62
2
6
CONTINUOUS
10
-50.5907384903
20
13.9567149707
11
-50.4123757909
21
14.1350776701
0
LINE
5
2D1
100
AcDbEntity
8
CURVE
100
AcDbLine
62
2
6
CONTINUOUS
10
-49.9038682728
20
14.6435851882
11
-49.6643732587
21
14.8830802023
0
LINE
5
2D2
100
AcDbEntity
8
CURVE
100
AcDbLine
62
2
6
CONTINUOUS
10
-49.3863744122
20
15.1610790488
11
-49.1847561079
21
15.3626973531
0
LINE
5
2D3
100
AcDbEntity
8
CURVE
100
AcDbLine
62
2
6
CONTINUOUS
10
-50.2763787773
20
13.8510532557
11
-50.1025942798
21
14.0248377532
0
LINE
5
2D4
100
AcDbEntity
8
CURVE
100
AcDbLine
62
2
6
CONTINUOUS
10
-49.4838468448
20
14.6435851882
11
-49.1847561079
21
14.9426759251
0
LINE
5
2D5
100
AcDbEntity
8
CURVE
100
AcDbLine
62
2
6
CONTINUOUS
10
-50.8799216549
20
12.8274889500
11
-50.4962310600
21
13.2111795450
0
LINE
5
2D6
100
AcDbEntity
8
CURVE
100
AcDbLine
62
2
6
CONTINUOUS
10
-49.9620190643
20
13.7453915407
11
-49.7928127687
21
13.9145978363
0
LINE
5
2D7
100
AcDbEntity
8
CURVE
100
AcDbLine
62
2
6
CONTINUOUS
10
-50.9842075974
20
12.3031815796
11
-50.7825892931
21
12.5047998839
0
LINE
5
2D8
100
AcDbEntity
8
CURVE
100
AcDbLine
62
2
6
CONTINUOUS
10
-50.2306939026
20
13.0566952743
11
-49.8696332808
21
13.4177558962
0
LINE
5
2D9
100
AcDbEntity
8
CURVE
100
AcDbLine
62
2
6
CONTINUOUS
10
-49.6476593513
20
13.6397298257
11
-49.4830312576
21
13.8043579194
0
LINE
5
2DA
100
AcDbEntity
8
CURVE
100
AcDbLine
62
2
6
CONTINUOUS
10
-50.9842075974
20
11.8831601515
11
-50.7825892931
21
12.0847784559
0
LINE
5
2DB
100
AcDbEntity
8
CURVE
100
AcDbLine
62
2
6
CONTINUOUS
10
-49.5814661503
20
13.2859015986
11
-49.1847561079
21
13.6826116410
0
LINE
5
2DC
100
AcDbEntity
8
CURVE
100
AcDbLine
62
2
6
CONTINUOUS
10
-50.9842075974
20
11.4631387235
11
-50.7825892931
21
11.6647570278
0
LINE
5
2DD
100
AcDbEntity
8
CURVE
100
AcDbLine
62
2
6
CONTINUOUS
10
-50.2104852224
20
12.2368610985
11
-50.0088669180
21
12.4384794028
0
LINE
5
2DE
100
AcDbEntity
8
CURVE
100
AcDbLine
62
2
6
CONTINUOUS
10
-50.6912305809
20
11.3360943119
11
-50.4517366256
21
11.5755882673
0
LINE
5
2DF
100
AcDbEntity
8
CURVE
100
AcDbLine
62
2
6
CONTINUOUS
10
-50.2104852224
20
11.8168396705
11
-50.0088669180
21
12.0184579748
0
LINE
5
2E0
100
AcDbEntity
8
CURVE
100
AcDbLine
62
9
6
CONTINUOUS
10
-49.1847561079
20
13.4259579198
11
-50.9842075974
21
12.7906713657
0
LINE
5
2E1
100
AcDbEntity
8
CURVE
100
AcDbLine
62
9
6
CONTINUOUS
10
-50.9842075974
20
13.0503037553
11
-49.4241771166
21
13.5646135967
0
LINE
5
2E2
100
AcDbEntity
8
0
100
AcDbLine
62
7
6
CONTINUOUS
10
-19.5847561079
20
-16.5740120000
11
-19.4847561079
21
-16.5740120000
0
LINE
5
2E3
100
AcDbEntity
8
0
100
AcDbLine
62
9
6
CONTINUOUS
10
-19.5847561079
20
-15.9176243207
11
-20.0760299047
21
-15.9176243194
0
LINE
5
2E4
100
AcDbEntity
8
0
100
AcDbLine
62
7
6
CONTINUOUS
10
-19.5847561079
20
-15.4240120000
11
-19.4847561079
21
-15.4240120000
0
LINE
5
2E5
100
AcDbEntity
8
CURVE
100
AcDbLine
62
9
6
CONTINUOUS
10
-48.0582977343
20
12.1857142091
11
-47.8440772566
21
12.4000000000
0
LINE
5
2E6
100
AcDbEntity
8
CURVE
100
AcDbLine
62
9
6
CONTINUOUS
10
-48.7009590332
20
11.1142857909
11
-48.4867386002
21
11.3285714030
0
LINE
5
2E7
100
AcDbEntity
8
CURVE
100
AcDbLine
62
2
6
CONTINUOUS
10
-50.9842075974
20
10.6230958675
11
-50.7728320242
21
10.8344714406
0
LINE
5
2E8
100
AcDbEntity
8
CURVE
100
AcDbLine
62
2
6
CONTINUOUS
10
-50.2712091529
20
11.3360943119
11
-50.0088669180
21
11.5984365468
0
LINE
5
2E9
100
AcDbEntity
8
CURVE
100
AcDbLine
62
2
6
CONTINUOUS
10
-49.3863744122
20
12.2209290526
11
-49.1847561079
21
12.4225473569
0
LINE
5
2EA
100
AcDbEntity
8
CURVE
100
AcDbLine
62
2
6
CONTINUOUS
10
-50.5811079176
20
10.6061741192
11
-50.3528105962
21
10.8344714406
0
LINE
5
2EB
100
AcDbEntity
8
CURVE
100
AcDbLine
62
2
6
CONTINUOUS
10
-49.8511877249
20
11.3360943119
11
-49.6116937695
21
11.5755882673
0
LINE
5
2EC
100
AcDbEntity
8
CURVE
100
AcDbLine
62
2
6
CONTINUOUS
10
-49.3863744122
20
11.8009076246
11
-49.1847561079
21
12.0025259289
0
LINE
5
2ED
100
AcDbEntity
8
CURVE
100
AcDbLine
62
2
6
CONTINUOUS
10
-50.1625318012
20
10.6047288076
11
-49.9327891682
21
10.8344714406
0
LINE
5
2EE
100
AcDbEntity
8
CURVE
100
AcDbLine
62
2
6
CONTINUOUS
10
-49.4311662968
20
11.3360943119
11
-49.1847561079
21
11.5825045009
0
LINE
5
2EF
100
AcDbEntity
8
CURVE
100
AcDbLine
62
2
6
CONTINUOUS
10
-50.9472391808
20
9.4000000000
11
-50.1520446767
21
10.1951945040
0
LINE
5
2F0
100
AcDbEntity
8
CURVE
100
AcDbLine
62
2
6
CONTINUOUS
10
-49.7439556848
20
10.6032834960
11
-49.5127677401
21
10.8344714406
0
LINE
5
2F1
100
AcDbEntity
8
CURVE
100
AcDbLine
62
2
6
CONTINUOUS
10
-50.5272177527
20
9.4000000000
11
-50.2964363849
21
9.6307813679
0
LINE
5
2F2
100
AcDbEntity
8
CURVE
100
AcDbLine
62
2
6
CONTINUOUS
10
-49.6726076585
20
10.2546100942
11
-49.1847561079
21
10.7424616448
0
LINE
5
2F3
100
AcDbEntity
8
CURVE
100
AcDbLine
62
2
6
CONTINUOUS
10
-50.1071963247
20
9.4000000000
11
-49.8778802494
21
9.6293160753
0
LINE
5
2F4
100
AcDbEntity
8
CURVE
100
AcDbLine
62
2
6
CONTINUOUS
10
-49.6871748967
20
9.4000000000
11
-49.4593241140
21
9.6278507826
0
LINE
5
2F5
100
AcDbEntity
8
CURVE
100
AcDbLine
62
9
6
CONTINUOUS
10
-48.7009590332
20
12.1857142091
11
-48.4867386002
21
12.3642856717
0
LINE
5
2F6
100
AcDbEntity
8
CURVE
100
AcDbLine
62
9
6
CONTINUOUS
10
-49.1847561079
20
10.5722789998
11
-50.6288488399
21
9.6319450864
0
LINE
5
2F7
100
AcDbEntity
8
CURVE
100
AcDbLine
62
9
6
CONTINUOUS
10
-50.9842075974
20
9.6546266319
11
-49.5249867980
21
10.6025274130
0
LINE
5
2F8
100
AcDbEntity
8
0
100
AcDbLine
62
7
6
CONTINUOUS
10
-53.1847561079
20
-23.5000000000
11
-53.1847561079
21
23.5000000000
0
LINE
5
2F9
100
AcDbEntity
8
CURVE
100
AcDbLine
62
9
6
CONTINUOUS
10
-47.8440772566
20
10.7928571045
11
-48.0582977343
21
10.5785714030
0
LINE
5
2FA
100
AcDbEntity
8
CURVE
100
AcDbLine
62
9
6
CONTINUOUS
10
-48.4867386002
20
10.0428571492
11
-48.7009590332
21
9.8285714477
0
LINE
5
2FB
100
AcDbEntity
8
CURVE
100
AcDbLine
62
9
6
CONTINUOUS
10
-47.4156363683
20
9.5071428619
11
-47.2014159130
21
9.7214285746
0
LINE
5
2FC
100
AcDbEntity
8
CURVE
100
AcDbLine
62
2
6
CONTINUOUS
10
-49.2671534687
20
9.4000000000
11
-49.1847561079
21
9.4823973607
0
LINE
5
2FD
100
AcDbEntity
8
CURVE
100
AcDbLine
62
9
6
CONTINUOUS
10
-48.2725181673
20
10.1500000000
11
-48.4867386002
21
10.0428571492
0
LINE
5
2FE
100
AcDbEntity
8
CURVE
100
AcDbLine
62
9
6
CONTINUOUS
10
-47.6298568236
20
9.4000000000
11
-47.4156363683
21
9.5071428619
0
LINE
5
2FF
100
AcDbEntity
8
CURVE
100
AcDbLine
62
9
6
CONTINUOUS
10
-50.9842075974
20
9.4000000000
11
-50.9842075974
21
9.6546266319
0
LINE
5
300
100
AcDbEntity
8
CURVE
100
AcDbLine
62
9
6
CONTINUOUS
10
-50.9842075974
20
10.6075659919
11
-50.9842075974
21
10.8344714406
0
LINE
5
301
100
AcDbEntity
8
CURVE
100
AcDbLine
62
9
6
CONTINUOUS
10
-50.9842075974
20
11.3360943119
11
-50.9842075974
21
12.5789472959
0
LINE
5
302
100
AcDbEntity
8
CURVE
100
AcDbLine
62
9
6
CONTINUOUS
10
-50.9842075974
20
12.7906713657
11
-50.9842075974
21
13.0503037553
0
LINE
5
303
100
AcDbEntity
8
CURVE
100
AcDbLine
62
9
6
CONTINUOUS
10
-50.9842075974
20
14.0889667159
11
-50.9842075974
21
14.3385717089
0
LINE
5
304
100
AcDbEntity
8
CURVE
100
AcDbLine
62
9
6
CONTINUOUS
10
-50.9842075974
20
14.6435851882
11
-50.9842075974
21
15.8864222909
0
LINE
5
305
100
AcDbEntity
8
CURVE
100
AcDbLine
62
9
6
CONTINUOUS
10
-50.7825892931
20
15.8864222909
11
-50.7825892931
21
14.8830802023
0
LINE
5
306
100
AcDbEntity
8
CURVE
100
AcDbLine
62
9
6
CONTINUOUS
10
-50.7825892931
20
12.5789472959
11
-50.7825892931
21
11.5755882673
0
LINE
5
307
100
AcDbEntity
8
CURVE
100
AcDbLine
62
9
6
CONTINUOUS
10
-50.2104852224
20
11.5755882673
11
-50.2104852224
21
12.5108836018
0
LINE
5
308
100
AcDbEntity
8
CURVE
100
AcDbLine
62
9
6
CONTINUOUS
10
-50.2104852224
20
14.8830802023
11
-50.2104852224
21
15.8184083580
0
LINE
5
309
100
AcDbEntity
8
CURVE
100
AcDbLine
62
9
6
CONTINUOUS
10
-50.0088669180
20
15.8184083580
11
-50.0088669180
21
14.8830802023
0
LINE
5
30A
100
AcDbEntity
8
CURVE
100
AcDbLine
62
9
6
CONTINUOUS
10
-50.0088669180
20
12.5108836018
11
-50.0088669180
21
11.5755882673
0
LINE
5
30B
100
AcDbEntity
8
CURVE
100
AcDbLine
62
9
6
CONTINUOUS
10
-49.3863744122
20
11.5755882673
11
-49.3863744122
21
12.5865131048
0
LINE
5
30C
100
AcDbEntity
8
CURVE
100
AcDbLine
62
9
6
CONTINUOUS
10
-49.3863744122
20
14.8830802023
11
-49.3863744122
21
15.8940378610
0
LINE
5
30D
100
AcDbEntity
8
CURVE
100
AcDbLine
62
9
6
CONTINUOUS
10
-49.1847561079
20
15.8940378610
11
-49.1847561079
21
14.6435851882
0
LINE
5
30E
100
AcDbEntity
8
CURVE
100
AcDbLine
62
9
6
CONTINUOUS
10
-49.1847561079
20
13.6982126959
11
-49.1847561079
21
13.4259579198
0
LINE
5
30F
100
AcDbEntity
8
CURVE
100
AcDbLine
62
9
6
CONTINUOUS
10
-49.1847561079
20
12.5865131048
11
-49.1847561079
21
11.3360943119
0
LINE
5
310
100
AcDbEntity
8
CURVE
100
AcDbLine
62
9
6
CONTINUOUS
10
-49.1847561079
20
10.8344714406
11
-49.1847561079
21
10.5722789998
0
LINE
5
311
100
AcDbEntity
8
CURVE
100
AcDbLine
62
9
6
CONTINUOUS
10
-49.1847561079
20
9.6268895676
11
-49.1847561079
21
9.4000000000
0
LINE
5
312
100
AcDbEntity
8
0
100
AcDbLine
62
7
6
CONTINUOUS
10
-49.1847561079
20
-21.3965394526
11
-49.1847561079
21
-23.4301797403
0
LINE
5
313
100
AcDbEntity
8
0
100
AcDbLine
62
7
6
CONTINUOUS
10
-49.1847561079
20
21.3965394526
11
-49.1847561079
21
23.4301797403
0
LINE
5
314
100
AcDbEntity
8
CURVE
100
AcDbLine
62
9
6
CONTINUOUS
10
-48.7009590332
20
9.8285714477
11
-48.7009590332
21
9.7214285746
0
LINE
5
315
100
AcDbEntity
8
CURVE
100
AcDbLine
62
9
6
CONTINUOUS
10
-48.7009590332
20
10.7928571045
11
-48.7009590332
21
11.1142857909
0
LINE
5
316
100
AcDbEntity
8
CURVE
100
AcDbLine
62
9
6
CONTINUOUS
10
-48.7009590332
20
11.7571428061
11
-48.7009590332
21
12.1857142091
0
LINE
5
317
100
AcDbEntity
8
CURVE
100
AcDbLine
62
9
6
CONTINUOUS
10
-48.7009590332
20
13.0428571939
11
-48.7009590332
21
13.3642856121
0
LINE
5
318
100
AcDbEntity
8
CURVE
100
AcDbLine
62
9
6
CONTINUOUS
10
-48.0582977343
20
11.9714285970
11
-48.0582977343
21
12.1857142091
0
LINE
5
319
100
AcDbEntity
8
CURVE
100
AcDbLine
62
9
6
CONTINUOUS
10
-47.8440772566
20
11.2571429253
11
-47.8440772566
21
10.7928571045
0
LINE
5
31A
100
AcDbEntity
8
0
100
AcDbLine
62
7
6
CONTINUOUS
10
-47.5847561079
20
22.2000000000
11
-47.5847561079
21
21.1720718961
0
LINE
5
31B
100
AcDbEntity
8
0
100
AcDbLine
62
7
6
CONTINUOUS
10
-47.5847561079
20
-22.2000000000
11
-47.5847561079
21
-21.1720718961
0
LINE
5
31C
100
AcDbEntity
8
CURVE
100
AcDbLine
62
9
6
CONTINUOUS
10
-47.2014159130
20
12.2928571939
11
-47.2014159130
21
11.7571428061
0
LINE
5
31D
100
AcDbEntity
8
CURVE
100
AcDbLine
62
9
6
CONTINUOUS
10
-47.2014159130
20
9.7214285746
11
-47.2014159130
21
9.8285714477
0
LINE
5
31E
100
AcDbEntity
8
CURVE
100
AcDbLine
62
9
6
CONTINUOUS
10
-47.2014159130
20
12.8285715818
11
-47.2014159130
21
13.5785715818
0
LINE
5
31F
100
AcDbEntity
8
0
100
AcDbLine
62
7
6
CONTINUOUS
10
-20.0760299047
20
-5.1915009248
11
-40.3207181654
21
-4.8381285768
0
LINE
5
320
100
AcDbEntity
8
0
100
AcDbLine
62
7
6
CONTINUOUS
10
-19.5847561079
20
-4.7000000000
11
-40.3207208237
21
-4.3380523895
0
LINE
5
321
100
AcDbEntity
8
0
100
AcDbLine
62
7
6
CONTINUOUS
10
-35.5847561079
20
-2.4000000000
11
-33.0847561079
21
-2.4000000000
0
LINE
5
322
100
AcDbEntity
8
0
100
AcDbLine
62
7
6
CONTINUOUS
10
-30.5847561079
20
-2.4000000000
11
-28.0847561079
21
-2.4000000000
0
LINE
5
323
100
AcDbEntity
8
0
100
AcDbLine
62
7
6
CONTINUOUS
10
-25.5847561079
20
-2.4000000000
11
-23.0847561079
21
-2.4000000000
0
LINE
5
324
100
AcDbEntity
8
0
100
AcDbLine
62
9
6
CONTINUOUS
10
-35.5847561079
20
-2.0000000000
11
-33.0847561079
21
-2.0000000000
0
LINE
5
325
100
AcDbEntity
8
0
100
AcDbLine
62
9
6
CONTINUOUS
10
-30.5847561079
20
-2.0000000000
11
-28.0847561079
21
-2.0000000000
0
LINE
5
326
100
AcDbEntity
8
0
100
AcDbLine
62
9
6
CONTINUOUS
10
-25.5847561079
20
-2.0000000000
11
-23.0847561079
21
-2.0000000000
0
LINE
5
327
100
AcDbEntity
8
0
100
AcDbLine
62
9
6
CONTINUOUS
10
-42.6760299047
20
6.5858330989
11
-42.6760299047
21
16.0558086086
0
LINE
5
328
100
AcDbEntity
8
0
100
AcDbLine
62
9
6
CONTINUOUS
10
-42.6760299047
20
17.2994419902
11
-42.6760299047
21
19.6564027110
0
LINE
5
329
100
AcDbEntity
8
0
100
AcDbLine
62
7
6
CONTINUOUS
10
-42.1847561079
20
6.5858330989
11
-42.1847561079
21
19.3031358358
0
LINE
5
32A
100
AcDbEntity
8
0
100
AcDbLine
62
7
6
CONTINUOUS
10
-19.5847561079
20
-1.2000000000
11
-40.3207208237
21
-1.5619476105
0
LINE
5
32B
100
AcDbEntity
8
0
100
AcDbLine
62
7
6
CONTINUOUS
10
-20.0760299047
20
-0.7084990752
11
-40.3207181654
21
-1.0618714232
0
LINE
5
32C
100
AcDbEntity
8
0
100
AcDbLine
62
7
6
CONTINUOUS
10
-19.5847561079
20
0.0049440000
11
-19.4847561079
21
0.0049440000
0
LINE
5
32D
100
AcDbEntity
8
0
100
AcDbLine
62
9
6
CONTINUOUS
10
-40.3207181654
20
-4.8381285768
11
-40.3207208237
21
-4.3380523895
0
LINE
5
32E
100
AcDbEntity
8
0
100
AcDbLine
62
9
6
CONTINUOUS
10
-40.3207181654
20
-1.0618714232
11
-40.3207208237
21
-1.5619476105
0
LINE
5
32F
100
AcDbEntity
8
CURVE
100
AcDbLine
6
CONTINUOUS
10
-34.4029476271
20
0.6000000000
11
-33.1847561079
21
0.6000000000
0
LINE
5
330
100
AcDbEntity
8
CURVE
100
AcDbLine
6
CONTINUOUS
10
-30.9256868671
20
0.6000000000
11
-30.3165911711
21
0.6000000000
0
LINE
5
331
100
AcDbEntity
8
CURVE
100
AcDbLine
6
CONTINUOUS
10
-29.4029476271
20
0.6000000000
11
-28.1847561079
21
0.6000000000
0
LINE
5
332
100
AcDbEntity
8
0
100
AcDbLine
62
7
6
CONTINUOUS
10
-19.5847561079
20
2.0550410000
11
-19.4847561079
21
2.0550410000
0
LINE
5
333
100
AcDbEntity
8
CURVE
100
AcDbLine
62
9
6
CONTINUOUS
10
-48.7009590332
20
9.7214285746
11
-48.4867386002
21
9.5071428619
0
LINE
5
334
100
AcDbEntity
8
CURVE
100
AcDbLine
62
9
6
CONTINUOUS
10
-48.4867386002
20
10.5785714030
11
-48.7009590332
21
10.7928571045
0
LINE
5
335
100
AcDbEntity
8
CURVE
100
AcDbLine
62
9
6
CONTINUOUS
10
-48.1654079061
20
12.3642856717
11
-48.0582977343
21
12.1857142091
0
LINE
5
336
100
AcDbEntity
8
0
100
AcDbLine
62
7
6
CONTINUOUS
10
-36.8347561079
20
-4.3989001300
11
-36.8347561079
21
-1.5010998700
0
LINE
5
337
100
AcDbEntity
8
CURVE
100
AcDbLine
6
CONTINUOUS
10
-30.7734130067
20
2.5000000000
11
-30.1643171836
21
2.5000000000
0
LINE
5
338
100
AcDbEntity
8
CURVE
100
AcDbLine
6
CONTINUOUS
10
-24.5461257915
20
2.5000000000
11
-23.7847561079
21
2.5000000000
0
LINE
5
339
100
AcDbEntity
8
CURVE
100
AcDbLine
62
9
6
CONTINUOUS
10
-47.2014159130
20
9.8285714477
11
-47.4156363683
21
10.0428571492
0
LINE
5
33A
100
AcDbEntity
8
CURVE
100
AcDbLine
62
9
6
CONTINUOUS
10
-47.6298568236
20
11.2214285970
11
-47.2014159130
21
10.7928571045
0
LINE
5
33B
100
AcDbEntity
8
CURVE
100
AcDbLine
62
9
6
CONTINUOUS
10
-47.3085261406
20
12.4000000000
11
-47.2014159130
21
12.2928571939
0
LINE
5
33C
100
AcDbEntity
8
0
100
AcDbLine
62
7
6
CONTINUOUS
10
-35.5847561079
20
-2.0000000000
11
-35.8428629526
21
-1.4837863106
0
LINE
5
33D
100
AcDbEntity
8
0
100
AcDbLine
62
7
6
CONTINUOUS
10
-36.3847561079
20
-4.4067549092
11
-36.3847561079
21
-1.4932450908
0
LINE
5
33E
100
AcDbEntity
8
0
100
AcDbLine
62
7
6
CONTINUOUS
10
-35.5847561079
20
-2.0000000000
11
-35.5847561079
21
-2.4000000000
0
LINE
5
33F
100
AcDbEntity
8
CURVE
100
AcDbLine
6
CONTINUOUS
10
-31.0779607276
20
2.2285714164
11
-30.7734130067
21
2.5000000000
0
LINE
5
340
100
AcDbEntity
8
0
100
AcDbLine
62
9
6
CONTINUOUS
10
-19.5847561079
20
5.2086513684
11
-20.0760299047
21
5.2086513684
0
LINE
5
341
100
AcDbEntity
8
0
100
AcDbLine
62
9
6
CONTINUOUS
10
-42.6760299047
20
6.5858330989
11
-42.1847561079
21
6.5858330989
0
LINE
5
342
100
AcDbEntity
8
0
100
AcDbLine
62
9
6
CONTINUOUS
10
-20.0760299047
20
5.2086513684
11
-41.6934823111
21
5.5859854038
0
LINE
5
343
100
AcDbEntity
8
0
100
AcDbLine
62
7
6
CONTINUOUS
10
-20.0760299047
20
5.7085752160
11
-41.6934823111
21
6.0859092514
0
LINE
5
344
100
AcDbEntity
8
CURVE
100
AcDbLine
62
9
6
CONTINUOUS
10
-48.4867386002
20
9.5071428619
11
-48.2725181673
21
9.4000000000
0
LINE
5
345
100
AcDbEntity
8
CURVE
100
AcDbLine
62
9
6
CONTINUOUS
10
-47.4156363683
20
10.0428571492
11
-47.6298568236
21
10.1500000000
0
LINE
5
346
100
AcDbEntity
8
CURVE
100
AcDbLine
62
9
6
CONTINUOUS
10
-48.3796283391
20
12.8285715818
11
-48.7009590332
21
13.0428571939
0
LINE
5
347
100
AcDbEntity
8
CURVE
100
AcDbLine
62
9
6
CONTINUOUS
10
-48.7009590332
20
14.4357143879
11
-48.2725181673
21
14.0071428061
0
LINE
5
348
100
AcDbEntity
8
CURVE
100
AcDbLine
6
CONTINUOUS
10
-33.7938518675
20
0.6000000000
11
-33.7938518675
21
2.5000000000
0
LINE
5
349
100
AcDbEntity
8
0
100
AcDbLine
62
7
6
CONTINUOUS
10
-33.0847561079
20
-2.0000000000
11
-33.0847561079
21
-2.4000000000
0
LINE
5
34A
100
AcDbEntity
8
0
100
AcDbLine
62
7
6
CONTINUOUS
10
-32.8000933931
20
-1.4306745704
11
-33.0847561079
21
-2.0000000000
0
LINE
5
34B
100
AcDbEntity
8
CURVE
100
AcDbLine
6
CONTINUOUS
10
-30.3165911711
20
0.6000000000
11
-30.0120433231
21
0.8714285553
0
LINE
5
34C
100
AcDbEntity
8
CURVE
100
AcDbLine
62
9
6
CONTINUOUS
10
-48.2725181673
20
13.5785715818
11
-47.2014159130
21
12.8285715818
0
LINE
5
34D
100
AcDbEntity
8
CURVE
100
AcDbLine
6
CONTINUOUS
10
-30.0120433231
20
1.1428571105
11
-31.0779607276
21
1.9571428329
0
LINE
5
34E
100
AcDbEntity
8
CURVE
100
AcDbLine
6
CONTINUOUS
10
-31.0779607276
20
0.7357143343
11
-30.9256868671
21
0.6000000000
0
LINE
5
34F
100
AcDbEntity
8
0
100
AcDbLine
62
7
6
CONTINUOUS
10
-30.5847561079
20
-2.0000000000
11
-30.8861230610
21
-1.3972660939
0
LINE
5
350
100
AcDbEntity
8
0
100
AcDbLine
62
7
6
CONTINUOUS
10
-32.2847561079
20
-4.4783206754
11
-32.2847561079
21
-1.4216793246
0
LINE
5
351
100
AcDbEntity
8
0
100
AcDbLine
62
7
6
CONTINUOUS
10
-31.3847561079
20
-4.4940302338
11
-31.3847561079
21
-1.4059697662
0
LINE
5
352
100
AcDbEntity
8
CURVE
100
AcDbLine
6
CONTINUOUS
10
-31.0779607276
20
1.9571428329
11
-31.0779607276
21
2.2285714164
0
LINE
5
353
100
AcDbEntity
8
0
100
AcDbLine
62
7
6
CONTINUOUS
10
-30.5847561079
20
-2.0000000000
11
-30.5847561079
21
-2.4000000000
0
LINE
5
354
100
AcDbEntity
8
CURVE
100
AcDbLine
6
CONTINUOUS
10
-25.1552214875
20
1.1428571105
11
-25.7643171836
21
0.6000000000
0
LINE
5
355
100
AcDbEntity
8
CURVE
100
AcDbLine
62
9
6
CONTINUOUS
10
-48.2725181673
20
9.4000000000
11
-47.6298568236
21
9.4000000000
0
LINE
5
356
100
AcDbEntity
8
CURVE
100
AcDbLine
62
9
6
CONTINUOUS
10
-49.1847561079
20
9.4000000000
11
-50.9842075974
21
9.4000000000
0
LINE
5
357
100
AcDbEntity
8
CURVE
100
AcDbLine
62
9
6
CONTINUOUS
10
-50.6288488399
20
9.6268895676
11
-49.1847561079
21
9.6268895676
0
LINE
5
358
100
AcDbEntity
8
CURVE
100
AcDbLine
62
9
6
CONTINUOUS
10
-47.6298568236
20
10.1500000000
11
-48.2725181673
21
10.1500000000
0
LINE
5
359
100
AcDbEntity
8
CURVE
100
AcDbLine
62
9
6
CONTINUOUS
10
-48.0582977343
20
10.5785714030
11
-48.4867386002
21
10.5785714030
0
LINE
5
35A
100
AcDbEntity
8
CURVE
100
AcDbLine
62
9
6
CONTINUOUS
10
-49.5249867980
20
10.6075659919
11
-50.9842075974
21
10.6075659919
0
LINE
5
35B
100
AcDbEntity
8
CURVE
100
AcDbLine
62
9
6
CONTINUOUS
10
-50.9842075974
20
10.8344714406
11
-49.1847561079
21
10.8344714406
0
LINE
5
35C
100
AcDbEntity
8
CURVE
100
AcDbLine
62
9
6
CONTINUOUS
10
-48.0582977343
20
11.3285714030
11
-47.6298568236
21
11.2214285970
0
LINE
5
35D
100
AcDbEntity
8
CURVE
100
AcDbLine
62
9
6
CONTINUOUS
10
-49.4241771166
20
13.5696680568
11
-50.9842075974
21
14.0889667159
0
LINE
5
35E
100
AcDbEntity
8
CURVE
100
AcDbLine
62
9
6
CONTINUOUS
10
-50.9842075974
20
14.3385717089
11
-49.1847561079
21
13.6982126959
0
LINE
5
35F
100
AcDbEntity
8
CURVE
100
AcDbLine
6
CONTINUOUS
10
-30.1643171836
20
2.5000000000
11
-30.0120433231
21
2.3642857082
0
LINE
5
360
100
AcDbEntity
8
CURVE
100
AcDbLine
6
CONTINUOUS
10
-30.0120433231
20
0.8714285553
11
-30.0120433231
21
1.1428571105
0
LINE
5
361
100
AcDbEntity
8
CURVE
100
AcDbLine
6
CONTINUOUS
10
-28.7938518675
20
0.6000000000
11
-28.7938518675
21
2.5000000000
0
LINE
5
362
100
AcDbEntity
8
0
100
AcDbLine
62
7
6
CONTINUOUS
10
-28.0847561079
20
-2.0000000000
11
-28.0847561079
21
-2.4000000000
0
LINE
5
363
100
AcDbEntity
8
0
100
AcDbLine
62
7
6
CONTINUOUS
10
-27.7560715285
20
-1.3426308412
11
-28.0847561079
21
-2.0000000000
0
LINE
5
364
100
AcDbEntity
8
0
100
AcDbLine
62
7
6
CONTINUOUS
10
-43.9057731052
20
-20.0210169973
11
-45.5408266096
21
-21.6560705017
0
LINE
5
365
100
AcDbEntity
8
CURVE
100
AcDbLine
62
9
6
CONTINUOUS
10
-48.4867386002
20
11.3285714030
11
-48.0582977343
21
11.3285714030
0
LINE
5
366
100
AcDbEntity
8
CURVE
100
AcDbLine
62
9
6
CONTINUOUS
10
-49.1847561079
20
11.3360943119
11
-50.9842075974
21
11.3360943119
0
LINE
5
367
100
AcDbEntity
8
CURVE
100
AcDbLine
62
9
6
CONTINUOUS
10
-50.7825892931
20
11.5755882673
11
-50.2104852224
21
11.5755882673
0
LINE
5
368
100
AcDbEntity
8
CURVE
100
AcDbLine
62
9
6
CONTINUOUS
10
-50.0088669180
20
11.5755882673
11
-49.3863744122
21
11.5755882673
0
LINE
5
369
100
AcDbEntity
8
CURVE
100
AcDbLine
62
9
6
CONTINUOUS
10
-48.4867386002
20
12.3642856717
11
-48.1654079061
21
12.3642856717
0
LINE
5
36A
100
AcDbEntity
8
CURVE
100
AcDbLine
62
9
6
CONTINUOUS
10
-47.8440772566
20
12.4000000000
11
-47.3085261406
21
12.4000000000
0
LINE
5
36B
100
AcDbEntity
8
CURVE
100
AcDbLine
62
9
6
CONTINUOUS
10
-50.2104852224
20
12.5108836018
11
-50.0088669180
21
12.5108836018
0
LINE
5
36C
100
AcDbEntity
8
CURVE
100
AcDbLine
62
9
6
CONTINUOUS
10
-50.9842075974
20
12.5789472959
11
-50.7825892931
21
12.5789472959
0
LINE
5
36D
100
AcDbEntity
8
CURVE
100
AcDbLine
62
9
6
CONTINUOUS
10
-49.3863744122
20
12.5865131048
11
-49.1847561079
21
12.5865131048
0
LINE
5
36E
100
AcDbEntity
8
0
100
AcDbLine
62
7
6
CONTINUOUS
10
-45.5408266096
20
21.6560705017
11
-43.9057731052
21
20.0210169973
0
LINE
5
36F
100
AcDbEntity
8
0
100
AcDbLine
62
7
6
CONTINUOUS
10
-25.5847561079
20
-2.0000000000
11
-25.9293831693
21
-1.3107458773
0
LINE
5
370
100
AcDbEntity
8
0
100
AcDbLine
62
7
6
CONTINUOUS
10
-27.2847561079
20
-4.5655960001
11
-27.2847561079
21
-1.3344039999
0
LINE
5
371
100
AcDbEntity
8
0
100
AcDbLine
62
7
6
CONTINUOUS
10
-26.3847561079
20
-4.5813055585
11
-26.3847561079
21
-1.3186944415
0
LINE
5
372
100
AcDbEntity
8
CURVE
100
AcDbLine
62
9
6
CONTINUOUS
10
-48.4867386002
20
13.5785715818
11
-48.2725181673
21
13.5785715818
0
LINE
5
373
100
AcDbEntity
8
CURVE
100
AcDbLine
62
9
6
CONTINUOUS
10
-47.2014159130
20
14.4357143879
11
-48.7009590332
21
14.4357143879
0
LINE
5
374
100
AcDbEntity
8
CURVE
100
AcDbLine
62
9
6
CONTINUOUS
10
-49.1847561079
20
14.6435851882
11
-50.9842075974
21
14.6435851882
0
LINE
5
375
100
AcDbEntity
8
CURVE
100
AcDbLine
62
9
6
CONTINUOUS
10
-50.7825892931
20
14.8830802023
11
-50.2104852224
21
14.8830802023
0
LINE
5
376
100
AcDbEntity
8
CURVE
100
AcDbLine
62
9
6
CONTINUOUS
10
-50.0088669180
20
14.8830802023
11
-49.3863744122
21
14.8830802023
0
LINE
5
377
100
AcDbEntity
8
CURVE
100
AcDbLine
6
CONTINUOUS
10
-25.7643171836
20
0.6000000000
11
-25.7643171836
21
2.5000000000
0
LINE
5
378
100
AcDbEntity
8
0
100
AcDbLine
62
7
6
CONTINUOUS
10
-25.5847561079
20
-2.0000000000
11
-25.5847561079
21
-2.4000000000
0
LINE
5
379
100
AcDbEntity
8
CURVE
100
AcDbLine
6
CONTINUOUS
10
-23.7847561079
20
2.5000000000
11
-23.7847561079
21
0.6000000000
0
LINE
5
37A
100
AcDbEntity
8
0
100
AcDbLine
62
7
6
CONTINUOUS
10
-22.7120496640
20
-1.2545871121
11
-23.0847561079
21
-2.0000000000
0
LINE
5
37B
100
AcDbEntity
8
CURVE
100
AcDbLine
62
9
6
CONTINUOUS
10
-50.2104852224
20
15.8184083580
11
-50.0088669180
21
15.8184083580
0
LINE
5
37C
100
AcDbEntity
8
CURVE
100
AcDbLine
62
9
6
CONTINUOUS
10
-50.9842075974
20
15.8864222909
11
-50.7825892931
21
15.8864222909
0
LINE
5
37D
100
AcDbEntity
8
CURVE
100
AcDbLine
62
9
6
CONTINUOUS
10
-49.3863744122
20
15.8940378610
11
-49.1847561079
21
15.8940378610
0
LINE
5
37E
100
AcDbEntity
8
0
100
AcDbLine
62
9
6
CONTINUOUS
10
-42.6760299047
20
16.0558086086
11
-42.1847561079
21
16.0558086086
0
LINE
5
37F
100
AcDbEntity
8
0
100
AcDbLine
62
7
6
CONTINUOUS
10
-23.0847561079
20
-2.0000000000
11
-23.0847561079
21
-2.4000000000
0
LINE
5
380
100
AcDbEntity
8
0
100
AcDbLine
62
7
6
CONTINUOUS
10
-22.2847561079
20
-4.6528713247
11
-22.2847561079
21
-1.2471286753
0
LINE
5
381
100
AcDbEntity
8
0
100
AcDbLine
62
7
6
CONTINUOUS
10
-21.8347561079
20
-4.6607261039
11
-21.8347561079
21
-1.2392738961
0
LINE
5
382
100
AcDbEntity
8
0
100
AcDbLine
62
7
6
CONTINUOUS
10
-45.5408266096
20
-21.6560705017
11
-47.0352606240
21
-22.2000000000
0
LINE
5
383
100
AcDbEntity
8
0
100
AcDbLine
62
7
6
CONTINUOUS
10
-45.5408266096
20
21.6560705017
11
-47.0352606240
21
22.2000000000
0
LINE
5
384
100
AcDbEntity
8
0
100
AcDbLine
62
7
6
CONTINUOUS
10
-20.9847561079
20
-4.6755629091
11
-20.9847561079
21
-1.2244370909
0
LINE
5
385
100
AcDbEntity
8
0
100
AcDbLine
62
9
6
CONTINUOUS
10
-20.0760299047
20
5.2086513684
11
-20.0760299047
21
-0.7084990752
0
LINE
5
386
100
AcDbEntity
8
0
100
AcDbLine
62
9
6
CONTINUOUS
10
-20.0760299047
20
-5.1915009248
11
-20.0760299047
21
-15.9176243207
0
LINE
5
387
100
AcDbEntity
8
0
100
AcDbLine
62
9
6
CONTINUOUS
10
-20.0760299047
20
-17.1696860043
11
-20.0760299047
21
-19.2597703307
0
LINE
5
388
100
AcDbEntity
8
0
100
AcDbLine
62
7
6
CONTINUOUS
10
-19.5847561079
20
-18.9086513684
11
-19.5847561079
21
5.2086513684
0
LINE
5
389
100
AcDbEntity
8
0
100
AcDbLine
62
7
6
CONTINUOUS
10
-43.4230150429
20
19.8160983575
11
-42.6760299047
21
19.8030596834
0
LINE
5
38A
100
AcDbEntity
8
0
100
AcDbLine
62
7
6
CONTINUOUS
10
-48.9882465892
20
21.1965699136
11
-45.2139013100
21
21.1306884717
0
LINE
5
38B
100
AcDbEntity
8
0
100
AcDbLine
62
9
6
CONTINUOUS
10
-43.4230150429
20
19.6695125202
11
-42.6760299047
21
19.6564027110
0
LINE
5
38C
100
AcDbEntity
8
0
100
AcDbLine
62
9
6
CONTINUOUS
10
-62.2427691776
20
21.0183133038
11
-61.7519594100
21
20.9972959167
0
LINE
5
38D
100
AcDbEntity
8
0
100
AcDbLine
62
7
6
CONTINUOUS
10
-19.4847561079
20
2.0550410000
11
-19.4847561079
21
0.0049440000
0
LINE
5
38E
100
AcDbEntity
8
0
100
AcDbLine
62
7
6
CONTINUOUS
10
-19.4847561079
20
-15.4240120000
11
-19.4847561079
21
-16.5740120000
0
LINE
5
38F
100
AcDbEntity
8
0
100
AcDbLine
62
9
6
CONTINUOUS
10
-61.2785693529
20
21.4755923698
11
-53.1847561079
21
21.8997711479
0
LINE
5
390
100
AcDbEntity
8
0
100
AcDbLine
62
7
6
CONTINUOUS
10
-61.2960111278
20
21.9749071372
11
-53.1847561079
21
22.4000000000
0
LINE
5
391
100
AcDbEntity
8
0
100
AcDbLine
62
7
6
CONTINUOUS
10
-47.0352606240
20
22.2000000000
11
-47.5847561079
21
22.2000000000
0
LINE
5
392
100
AcDbEntity
8
0
100
AcDbLine
62
7
6
CONTINUOUS
10
-53.1847561079
20
23.5000000000
11
-49.1847561079
21
23.4301797403
0
ARC
5
393
100
AcDbEntity
8
0
100
AcDbCircle
62
7
6
CONTINUOUS
10
11.2500000000
20
0.0000000000
40
28.0000000000
100
AcDbArc
50
125.9627651514
51
126.8614238325
0
ARC
5
394
100
AcDbEntity
8
0
100
AcDbCircle
62
7
6
CONTINUOUS
10
-4.9500000000
20
23.1000000000
40
0.5000000000
100
AcDbArc
50
240.8875772240
51
9.1962815790
0
ARC
5
395
100
AcDbEntity
8
0
100
AcDbCircle
62
7
6
CONTINUOUS
10
11.2500000000
20
0.0000000000
40
28.0000000000
100
AcDbArc
50
123.5572117410
51
124.1210936517
0
ARC
5
396
100
AcDbEntity
8
0
100
AcDbCircle
62
7
6
CONTINUOUS
10
-11.2500000000
20
0.0000000000
40
28.0000000000
100
AcDbArc
50
55.8789063483
51
56.4427882590
0
ARC
5
397
100
AcDbEntity
8
0
100
AcDbCircle
62
7
6
CONTINUOUS
10
4.9500000000
20
23.1000000000
40
0.5000000000
100
AcDbArc
50
170.8037184210
51
299.1124227760
0
ARC
5
398
100
AcDbEntity
8
0
100
AcDbCircle
62
7
6
CONTINUOUS
10
-11.2500000000
20
0.0000000000
40
28.0000000000
100
AcDbArc
50
53.1385761675
51
54.0372348486
0
ARC
5
399
100
AcDbEntity
8
0
100
AcDbCircle
62
7
6
CONTINUOUS
10
-11.2500000000
20
0.0000000000
40
28.0000000000
100
AcDbArc
50
305.9627651514
51
306.8614238325
0
ARC
5
39A
100
AcDbEntity
8
0
100
AcDbCircle
62
7
6
CONTINUOUS
10
4.9500000000
20
-23.1000000000
40
0.5000000000
100
AcDbArc
50
60.8875772240
51
189.1962815790
0
ARC
5
39B
100
AcDbEntity
8
0
100
AcDbCircle
62
7
6
CONTINUOUS
10
-11.2500000000
20
0.0000000000
40
28.0000000000
100
AcDbArc
50
303.5572119323
51
304.1210936517
0
ARC
5
39C
100
AcDbEntity
8
0
100
AcDbCircle
62
7
6
CONTINUOUS
10
11.2500000000
20
0.0000000000
40
28.0000000000
100
AcDbArc
50
235.8789063483
51
236.4427880677
0
ARC
5
39D
100
AcDbEntity
8
0
100
AcDbCircle
62
7
6
CONTINUOUS
10
-4.9500000000
20
-23.1000000000
40
0.5000000000
100
AcDbArc
50
350.8037184210
51
119.1124227760
0
ARC
5
39E
100
AcDbEntity
8
0
100
AcDbCircle
62
7
6
CONTINUOUS
10
11.2500000000
20
0.0000000000
40
28.0000000000
100
AcDbArc
50
233.1385761675
51
234.0372348486
0
ARC
5
39F
100
AcDbEntity
8
0
100
AcDbCircle
62
7
6
CONTINUOUS
10
-34.3347561079
20
-2.8000000000
40
1.7500000000
100
AcDbArc
50
289.0906752750
51
37.6855336254
0
ARC
5
3A0
100
AcDbEntity
8
0
100
AcDbCircle
62
7
6
CONTINUOUS
10
-34.3347561079
20
-2.8000000000
40
1.7500000000
100
AcDbArc
50
142.3144663746
51
248.8252712181
0
ARC
5
3A1
100
AcDbEntity
8
0
100
AcDbCircle
62
7
6
CONTINUOUS
10
-29.3347561079
20
-2.8000000000
40
1.7500000000
100
AcDbArc
50
277.5583399106
51
37.6855336254
0
ARC
5
3A2
100
AcDbEntity
8
0
100
AcDbCircle
62
7
6
CONTINUOUS
10
-29.3347561079
20
-2.8000000000
40
1.7500000000
100
AcDbArc
50
142.3144663746
51
260.4276278514
0
ARC
5
3A3
100
AcDbEntity
8
0
100
AcDbCircle
62
7
6
CONTINUOUS
10
-24.3347561079
20
-2.8000000000
40
1.7500000000
100
AcDbArc
50
142.3144663746
51
37.6855336254
0
ARC
5
3A4
100
AcDbEntity
8
0
100
AcDbCircle
62
7
6
CONTINUOUS
10
-61.2436751716
20
-20.9762776025
40
1.0000000000
100
AcDbArc
50
182.4092313014
51
267.0000000000
0
ARC
5
3A5
100
AcDbEntity
8
0
100
AcDbCircle
62
7
6
CONTINUOUS
10
-61.2436751716
20
20.9762776025
40
1.0000000000
100
AcDbArc
50
93.0000000000
51
177.5907686986
0
ARC
5
3A6
100
AcDbEntity
8
0
100
AcDbCircle
62
7
6
CONTINUOUS
10
437.3152438921
20
0.0000000000
40
500.0000000000
100
AcDbArc
50
177.5907686986
51
182.4092313014
0
ARC
5
3A7
100
AcDbEntity
8
0
100
AcDbCircle
62
7
6
CONTINUOUS
10
-48.9847561079
20
-21.3965394526
40
0.2000000000
100
AcDbArc
50
91.0000000000
51
180.0000000000
0
ARC
5
3A8
100
AcDbEntity
8
0
100
AcDbCircle
62
7
6
CONTINUOUS
10
-48.9847561079
20
21.3965394526
40
0.2000000000
100
AcDbArc
50
180.0000000000
51
269.0000000000
0
ARC
5
3A9
100
AcDbEntity
8
0
100
AcDbCircle
62
7
6
CONTINUOUS
10
-20.0847561079
20
5.2086513684
40
0.5000000000
100
AcDbArc
50
0.0000000000
51
89.0000000000
0
ARC
5
3AA
100
AcDbEntity
8
0
100
AcDbCircle
62
7
6
CONTINUOUS
10
-41.6847561079
20
6.5858330989
40
0.5000000000
100
AcDbArc
50
180.0000000000
51
269.0000000000
0
ARC
5
3AB
100
AcDbEntity
8
0
100
AcDbCircle
62
7
6
CONTINUOUS
10
-42.6847561079
20
19.3031358358
40
0.5000000000
100
AcDbArc
50
0.0000000000
51
89.0000000000
0
ARC
5
3AC
100
AcDbEntity
8
0
100
AcDbCircle
62
7
6
CONTINUOUS
10
-43.4107983584
20
20.5159917441
40
0.7000000000
100
AcDbArc
50
225.0000000000
51
269.0000000000
0
ARC
5
3AD
100
AcDbEntity
8
0
100
AcDbCircle
62
7
6
CONTINUOUS
10
-45.2226275132
20
20.6307646241
40
0.5000000000
100
AcDbArc
50
45.0000000000
51
89.0000000000
0
ARC
5
3AE
100
AcDbEntity
8
0
100
AcDbCircle
62
7
6
CONTINUOUS
10
-20.0847561079
20
-18.9086513684
40
0.5000000000
100
AcDbArc
50
271.0000000000
51
360.0000000000
0
ARC
5
3AF
100
AcDbEntity
8
0
100
AcDbCircle
62
7
6
CONTINUOUS
10
-43.4107983584
20
-20.5159917441
40
0.7000000000
100
AcDbArc
50
91.0000000000
51
135.0000000000
0
ARC
5
3B0
100
AcDbEntity
8
0
100
AcDbCircle
62
7
6
CONTINUOUS
10
-45.2226275132
20
-20.6307646241
40
0.5000000000
100
AcDbArc
50
271.0000000000
51
315.0000000000
0
ARC
5
3B1
100
AcDbEntity
8
0
100
AcDbCircle
62
7
6
CONTINUOUS
10
-40.2964922791
20
-2.9500000000
40
1.3882638288
100
AcDbArc
50
91.0000000000
51
269.0000000000
0
SPLINE
5
3B2
100
AcDbEntity
8
0
100
AcDbSpline
62
7
6
CONTINUOUS
70
0
71
3
72
10
73
6
74
4
42
0.0000001000
43
0.0000001000
44
0.0000000001
12
-0.5846646811
22
0.0000000000
32
0.0000000000
13
-0.4872211172
23
-0.3231847339
33
0.0000000000
40
0.0000000000
40
0.0000000000
40
0.0000000000
40
0.0000000000
40
0.3324081770
40
0.6679000849
40
1.0000000000
40
1.0000000000
40
1.0000000000
40
1.0000000000
10
-3.6748576640
20
23.5000000000
30
0.0000000000
10
-3.7396401042
20
23.5000000000
30
0.0000000000
10
-3.8701698793
20
23.4872630147
30
0.0000000000
10
-4.0578522507
20
23.4306561784
30
0.0000000000
10
-4.1736070731
20
23.3691363536
30
0.0000000000
10
-4.2275424370
20
23.3333598127
30
0.0000000000
11
-3.6748576640
21
23.5000000000
31
0.0000000000
11
-3.8682849634
21
23.4811118836
31
0.0000000000
11
-4.0560794707
21
23.4244713402
31
0.0000000000
11
-4.2275424370
21
23.3333598127
31
0.0000000000
0
SPLINE
5
3B3
100
AcDbEntity
8
0
100
AcDbSpline
62
7
6
CONTINUOUS
70
0
71
3
72
10
73
6
74
4
42
0.0000001000
43
0.0000001000
44
0.0000000001
12
-0.4872211172
22
0.3231847339
32
0.0000000000
13
-0.5846646811
23
0.0000000000
33
0.0000000000
40
0.0000000000
40
0.0000000000
40
0.0000000000
40
0.0000000000
40
0.3320999151
40
0.6675918230
40
1.0000000000
40
1.0000000000
40
1.0000000000
40
1.0000000000
10
4.2275424370
20
23.3333598127
30
0.0000000000
10
4.1736070731
20
23.3691363536
30
0.0000000000
10
4.0578522507
20
23.4306561784
30
0.0000000000
10
3.8701698793
20
23.4872630147
30
0.0000000000
10
3.7396401042
20
23.5000000000
30
0.0000000000
10
3.6748576640
20
23.5000000000
30
0.0000000000
11
4.2275424370
21
23.3333598127
31
0.0000000000
11
4.0560794707
21
23.4244713402
31
0.0000000000
11
3.8682849634
21
23.4811118836
31
0.0000000000
11
3.6748576640
21
23.5000000000
31
0.0000000000
0
SPLINE
5
3B4
100
AcDbEntity
8
0
100
AcDbSpline
62
7
6
CONTINUOUS
70
0
71
3
72
10
73
6
74
4
42
0.0000001000
43
0.0000001000
44
0.0000000001
12
0.5846646711
22
0.0000000000
32
0.0000000000
13
0.4872211089
23
0.3231847284
33
0.0000000000
40
0.0000000000
40
0.0000000000
40
0.0000000000
40
0.0000000000
40
0.3320970604
40
0.6676052029
40
1.0000000000
40
1.0000000000
40
1.0000000000
40
1.0000000000
10
3.6748577666
20
-23.5000000000
30
0.0000000000
10
3.7395795728
20
-23.5000000000
30
0.0000000000
10
3.8700508992
20
-23.4872807201
30
0.0000000000
10
4.0577435501
20
-23.4307074389
30
0.0000000000
10
4.1735592609
20
-23.3691680683
30
0.0000000000
10
4.2275425147
20
-23.3333597609
30
0.0000000000
11
3.6748577666
21
-23.5000000000
31
0.0000000000
11
3.8681057469
21
-23.4811472046
31
0.0000000000
11
4.0559194138
21
-23.4245373373
31
0.0000000000
11
4.2275425147
21
-23.3333597609
31
0.0000000000
0
SPLINE
5
3B5
100
AcDbEntity
8
0
100
AcDbSpline
62
7
6
CONTINUOUS
70
0
71
3
72
10
73
6
74
4
42
0.0000001000
43
0.0000001000
44
0.0000000001
12
0.4872211089
22
-0.3231847284
32
0.0000000000
13
0.5846646711
23
-0.0000000000
33
0.0000000000
40
0.0000000000
40
0.0000000000
40
0.0000000000
40
0.0000000000
40
0.3323947971
40
0.6679029396
40
1.0000000000
40
1.0000000000
40
1.0000000000
40
1.0000000000
10
-4.2275425147
20
-23.3333597609
30
0.0000000000
10
-4.1735592609
20
-23.3691680683
30
0.0000000000
10
-4.0577435501
20
-23.4307074389
30
0.0000000000
10
-3.8700508992
20
-23.4872807201
30
0.0000000000
10
-3.7395795728
20
-23.5000000000
30
0.0000000000
10
-3.6748577666
20
-23.5000000000
30
0.0000000000
11
-4.2275425147
21
-23.3333597609
31
0.0000000000
11
-4.0559194138
21
-23.4245373373
31
0.0000000000
11
-3.8681057469
21
-23.4811472046
31
0.0000000000
11
-3.6748577666
21
-23.5000000000
31
0.0000000000
0
SPLINE
5
3B6
100
AcDbEntity
8
0
100
AcDbSpline
62
7
6
CONTINUOUS
70
0
71
3
72
15
73
11
74
9
42
0.0000001000
43
0.0000001000
44
0.0000000001
12
0.0000000000
22
-0.7840504605
32
0.0000000000
13
-0.7840504605
23
0.0000000000
33
0.0000000000
40
0.0000000000
40
0.0000000000
40
0.0000000000
40
0.0000000000
40
0.1250035856
40
0.2500003382
40
0.3749971738
40
0.4999931596
40
0.6249941993
40
0.7499962985
40
0.8749988330
40
1.0000000000
40
1.0000000000
40
1.0000000000
40
1.0000000000
10
11.1500000000
20
-21.8997711479
30
0.0000000000
10
11.1500000000
20
-21.9324408542
30
0.0000000000
10
11.1435720625
20
-21.9979588343
30
0.0000000000
10
11.1150028885
20
-22.0923353736
30
0.0000000000
10
11.0685863853
20
-22.1793736183
30
0.0000000000
10
11.0060858443
20
-22.2556795570
30
0.0000000000
10
10.9298940235
20
-22.3183228818
30
0.0000000000
10
10.8429223671
20
-22.3648787971
30
0.0000000000
10
10.7485697898
20
-22.3935479377
30
0.0000000000
10
10.6830496739
20
-22.4000000000
30
0.0000000000
10
10.6503805997
20
-22.4000000000
30
0.0000000000
11
11.1500000000
21
-21.8997711479
31
0.0000000000
11
11.1404171274
21
-21.9973106575
31
0.0000000000
11
11.1120282390
21
-22.0911126206
31
0.0000000000
11
11.0659057104
21
-22.1775849419
31
0.0000000000
11
11.0038050670
21
-22.2534013616
31
0.0000000000
11
10.9280978412
21
-22.3156413172
31
0.0000000000
11
10.8416923200
21
-22.3618976126
31
0.0000000000
11
10.7479148288
21
-22.3903828363
31
0.0000000000
11
10.6503805997
21
-22.4000000000
31
0.0000000000
0
SPLINE
5
3B7
100
AcDbEntity
8
0
100
AcDbSpline
62
7
6
CONTINUOUS
70
0
71
3
72
15
73
11
74
9
42
0.0000001000
43
0.0000001000
44
0.0000000001
12
0.7840504604
22
0.0000000000
32
0.0000000000
13
0.0000000000
23
-0.7840504604
33
0.0000000000
40
0.0000000000
40
0.0000000000
40
0.0000000000
40
0.0000000000
40
0.1250026133
40
0.2500082844
40
0.3750136098
40
0.5000160060
40
0.6250106349
40
0.7500042447
40
0.8749978606
40
1.0000000000
40
1.0000000000
40
1.0000000000
40
1.0000000000
10
10.6503805997
20
22.4000000000
30
0.0000000000
10
10.6830500519
20
22.4000000000
30
0.0000000000
10
10.7485713718
20
22.3935477443
30
0.0000000000
10
10.8429258085
20
22.3648775487
30
0.0000000000
10
10.9298988298
20
22.3183198083
30
0.0000000000
10
11.0060904776
20
22.2556749149
30
0.0000000000
10
11.0685894502
20
22.1793688070
30
0.0000000000
10
11.1150041327
20
22.0923319310
30
0.0000000000
10
11.1435722551
20
21.9979572524
30
0.0000000000
10
11.1500000000
20
21.9324404763
30
0.0000000000
10
11.1500000000
20
21.8997711479
30
0.0000000000
11
10.6503805997
21
22.4000000000
31
0.0000000000
11
10.7479159463
21
22.3903826137
31
0.0000000000
11
10.8416956551
21
22.3618962291
31
0.0000000000
11
10.9281029540
21
22.3156378952
31
0.0000000000
11
11.0038101683
21
22.2533962508
31
0.0000000000
11
11.0659091235
21
22.1775798235
31
0.0000000000
11
11.1120296181
21
22.0911092838
31
0.0000000000
11
11.1404173492
21
21.9973095399
31
0.0000000000
11
11.1500000000
21
21.8997711479
31
0.0000000000
0
SPLINE
5
3B8
100
AcDbEntity
8
0
100
AcDbSpline
62
7
6
CONTINUOUS
70
0
71
3
72
15
73
11
74
9
42
0.0000001000
43
0.0000001000
44
0.0000000001
12
-0.7840504604
22
0.0000000000
32
0.0000000000
13
0.0000000000
23
0.7840504604
33
0.0000000000
40
0.0000000000
40
0.0000000000
40
0.0000000000
40
0.0000000000
40
0.1250026133
40
0.2500082844
40
0.3750136098
40
0.5000160060
40
0.6250106349
40
0.7500042447
40
0.8749978606
40
1.0000000000
40
1.0000000000
40
1.0000000000
40
1.0000000000
10
-10.6503805997
20
-22.4000000000
30
0.0000000000
10
-10.6830500519
20
-22.4000000000
30
0.0000000000
10
-10.7485713718
20
-22.3935477443
30
0.0000000000
10
-10.8429258085
20
-22.3648775487
30
0.0000000000
10
-10.9298988298
20
-22.3183198083
30
0.0000000000
10
-11.0060904776
20
-22.2556749149
30
0.0000000000
10
-11.0685894502
20
-22.1793688070
30
0.0000000000
10
-11.1150041327
20
-22.0923319310
30
0.0000000000
10
-11.1435722551
20
-21.9979572524
30
0.0000000000
10
-11.1500000000
20
-21.9324404762
30
0.0000000000
10
-11.1500000000
20
-21.8997711479
30
0.0000000000
11
-10.6503805997
21
-22.4000000000
31
0.0000000000
11
-10.7479159463
21
-22.3903826137
31
0.0000000000
11
-10.8416956551
21
-22.3618962291
31
0.0000000000
11
-10.9281029540
21
-22.3156378952
31
0.0000000000
11
-11.0038101683
21
-22.2533962508
31
0.0000000000
11
-11.0659091235
21
-22.1775798235
31
0.0000000000
11
-11.1120296181
21
-22.0911092838
31
0.0000000000
11
-11.1404173492
21
-21.9973095399
31
0.0000000000
11
-11.1500000000
21
-21.8997711479
31
0.0000000000
0
SPLINE
5
3B9
100
AcDbEntity
8
0
100
AcDbSpline
62
7
6
CONTINUOUS
70
0
71
3
72
15
73
11
74
9
42
0.0000001000
43
0.0000001000
44
0.0000000001
12
0.0000000000
22
0.7840504605
32
0.0000000000
13
0.7840504605
23
0.0000000000
33
0.0000000000
40
0.0000000000
40
0.0000000000
40
0.0000000000
40
0.0000000000
40
0.1250035856
40
0.2500003382
40
0.3749971738
40
0.4999931596
40
0.6249941993
40
0.7499962985
40
0.8749988330
40
1.0000000000
40
1.0000000000
40
1.0000000000
40
1.0000000000
10
-11.1500000000
20
21.8997711479
30
0.0000000000
10
-11.1500000000
20
21.9324408542
30
0.0000000000
10
-11.1435720625
20
21.9979588343
30
0.0000000000
10
-11.1150028885
20
22.0923353736
30
0.0000000000
10
-11.0685863853
20
22.1793736183
30
0.0000000000
10
-11.0060858443
20
22.2556795571
30
0.0000000000
10
-10.9298940235
20
22.3183228818
30
0.0000000000
10
-10.8429223671
20
22.3648787971
30
0.0000000000
10
-10.7485697898
20
22.3935479377
30
0.0000000000
10
-10.6830496739
20
22.4000000000
30
0.0000000000
10
-10.6503805997
20
22.4000000000
30
0.0000000000
11
-11.1500000000
21
21.8997711479
31
0.0000000000
11
-11.1404171274
21
21.9973106575
31
0.0000000000
11
-11.1120282390
21
22.0911126206
31
0.0000000000
11
-11.0659057104
21
22.1775849419
31
0.0000000000
11
-11.0038050670
21
22.2534013617
31
0.0000000000
11
-10.9280978412
21
22.3156413172
31
0.0000000000
11
-10.8416923200
21
22.3618976126
31
0.0000000000
11
-10.7479148288
21
22.3903828363
31
0.0000000000
11
-10.6503805997
21
22.4000000000
31
0.0000000000
0
SPLINE
5
3BA
100
AcDbEntity
8
0
100
AcDbSpline
62
7
6
CONTINUOUS
70
0
71
3
72
14
73
10
74
8
42
0.0000001000
43
0.0000001000
44
0.0000000001
12
-0.4784885843
22
-0.5260216100
32
0.0000000000
13
-0.5026114509
23
-0.5028335587
33
0.0000000000
40
0.0000000000
40
0.0000000000
40
0.0000000000
40
0.0000000000
40
0.0400126124
40
0.1412245550
40
0.2813751410
40
0.4463273204
40
0.6264325620
40
0.8136669796
40
1.0000000000
40
1.0000000000
40
1.0000000000
40
1.0000000000
10
-2.3000000000
20
-4.9000000000
30
0.0000000000
10
-2.3063818594
20
-4.9070158329
30
0.0000000000
10
-2.3292097887
20
-4.9314899093
30
0.0000000000
10
-2.3761820691
20
-4.9788332550
30
0.0000000000
10
-2.4436824190
20
-5.0474976832
30
0.0000000000
10
-2.5246832055
20
-5.1291149347
30
0.0000000000
10
-2.6136053870
20
-5.2185878845
30
0.0000000000
10
-2.7062283207
20
-5.3115274401
30
0.0000000000
10
-2.7687822968
20
-5.3741739068
30
0.0000000000
10
-2.8000000000
20
-5.4054054054
30
0.0000000000
11
-2.3000000000
21
-4.9000000000
31
0.0000000000
11
-2.3193773920
21
-4.9208269666
31
0.0000000000
11
-2.3696473402
21
-4.9723127994
31
0.0000000000
11
-2.4396144551
21
-5.0432560145
31
0.0000000000
11
-2.5221626151
21
-5.1265564978
31
0.0000000000
11
-2.6124349894
21
-5.2173692380
31
0.0000000000
11
-2.7063943202
21
-5.3116635246
31
0.0000000000
11
-2.8000000000
21
-5.4054054054
31
0.0000000000
0
SPLINE
5
3BB
100
AcDbEntity
8
0
100
AcDbSpline
62
9
6
CONTINUOUS
70
0
71
3
72
13
73
9
74
7
42
0.0000001000
43
0.0000001000
44
0.0000000001
12
-0.1576584633
22
0.9435991544
32
0.0000000000
13
-0.0003511227
23
0.9566793779
33
0.0000000000
40
0.0000000000
40
0.0000000000
40
0.0000000000
40
0.0000000000
40
0.0448233898
40
0.1498225033
40
0.3086294756
40
0.5117243922
40
0.7469283740
40
1.0000000000
40
1.0000000000
40
1.0000000000
40
1.0000000000
10
10.5087981167
20
-21.9749071372
30
0.0000000000
10
10.5064425211
20
-21.9608086996
30
0.0000000000
10
10.5072284209
20
-21.9127254437
30
0.0000000000
10
10.5036924130
20
-21.8145846744
30
0.0000000000
10
10.5030905134
20
-21.6655676863
30
0.0000000000
10
10.5015010875
20
-21.4752101910
30
0.0000000000
10
10.5008151312
20
-21.2547203781
30
0.0000000000
10
10.5005646823
20
-21.0990170328
30
0.0000000000
10
10.5005350625
20
-21.0183142309
30
0.0000000000
11
10.5087981167
21
-21.9749071372
31
0.0000000000
11
10.5066887822
21
-21.9320774319
31
0.0000000000
11
10.5047338308
21
-21.8316459638
31
0.0000000000
11
10.5030519449
21
-21.6797279079
31
0.0000000000
11
10.5017436919
21
-21.4854355808
31
0.0000000000
11
10.5008871565
21
-21.2604223969
31
0.0000000000
11
10.5005350625
21
-21.0183142309
31
0.0000000000
0
SPLINE
5
3BC
100
AcDbEntity
8
0
100
AcDbSpline
62
9
6
CONTINUOUS
70
0
71
3
72
13
73
9
74
7
42
0.0000001000
43
0.0000001000
44
0.0000000001
12
-0.1515510170
22
0.4538339143
32
0.0000000000
13
-0.0003507750
23
0.4784692357
33
0.0000000000
40
0.0000000000
40
0.0000000000
40
0.0000000000
40
0.0000000000
40
0.0448312305
40
0.1499084338
40
0.3088541801
40
0.5121619630
40
0.7476022504
40
1.0000000000
40
1.0000000000
40
1.0000000000
40
1.0000000000
10
11.0087219643
20
-21.4755923698
30
0.0000000000
10
11.0064572248
20
-21.4688103922
30
0.0000000000
10
11.0070598653
20
-21.4443370483
30
0.0000000000
10
11.0036694552
20
-21.3955977724
30
0.0000000000
10
11.0029922090
20
-21.3208314651
30
0.0000000000
10
11.0014302771
20
-21.2256089323
30
0.0000000000
10
11.0007358996
20
-21.1153478128
30
0.0000000000
10
11.0004884217
20
-21.0375507695
30
0.0000000000
10
11.0004589101
20
-20.9972959167
30
0.0000000000
11
11.0087219643
21
-21.4755923698
31
0.0000000000
11
11.0066166007
21
-21.4542455707
31
0.0000000000
11
11.0046592521
21
-21.4040074642
31
0.0000000000
11
11.0029753137
21
-21.3279754394
31
0.0000000000
11
11.0016657915
21
-21.2307077085
31
0.0000000000
11
11.0008094528
21
-21.1180599987
31
0.0000000000
11
11.0004589101
21
-20.9972959167
31
0.0000000000
0
SPLINE
5
3BD
100
AcDbEntity
8
0
100
AcDbSpline
62
9
6
CONTINUOUS
70
0
71
3
72
12
73
8
74
6
42
0.0000001000
43
0.0000001000
44
0.0000000001
12
0.7813571081
22
0.0007128060
32
0.0000000000
13
0.0007145503
23
0.7813571065
33
0.0000000000
40
0.0000000000
40
0.0000000000
40
0.0000000000
40
0.0000000000
40
0.2000881370
40
0.4001764314
40
0.6002089278
40
0.8001504626
40
1.0000000000
40
1.0000000000
40
1.0000000000
40
1.0000000000
10
10.5087981167
20
-21.9749071372
30
0.0000000000
10
10.5609115461
20
-21.9748595959
30
0.0000000000
10
10.6658542748
20
-21.9582166878
30
0.0000000000
10
10.8073216848
20
-21.8860917768
30
0.0000000000
10
10.9197688116
20
-21.7737936503
30
0.0000000000
10
10.9920030679
20
-21.6324880671
30
0.0000000000
10
11.0086743634
20
-21.5276436553
30
0.0000000000
10
11.0087219643
20
-21.4755923698
30
0.0000000000
11
10.5087981167
21
-21.9749071372
31
0.0000000000
11
10.6631986439
21
-21.9503554931
31
0.0000000000
11
10.8025015766
21
-21.8793834041
31
0.0000000000
11
10.9130865885
21
-21.7689312913
31
0.0000000000
11
10.9841420552
21
-21.6297996177
31
0.0000000000
11
11.0087219643
21
-21.4755923698
31
0.0000000000
0
SPLINE
5
3BE
100
AcDbEntity
8
0
100
AcDbSpline
62
9
6
CONTINUOUS
70
0
71
3
72
10
73
6
74
4
42
0.0000001000
43
0.0000001000
44
0.0000000001
12
-0.0308408175
22
42.0366204979
32
0.0000000000
13
0.0308408153
23
42.0366204979
33
0.0000000000
40
0.0000000000
40
0.0000000000
40
0.0000000000
40
0.0000000000
40
0.3332896860
40
0.6667103140
40
1.0000000000
40
1.0000000000
40
1.0000000000
40
1.0000000000
10
10.5005350625
20
-21.0183142309
30
0.0000000000
10
10.4971087537
20
-16.3481902158
30
0.0000000000
10
10.4925427187
20
-7.0061055530
30
0.0000000000
10
10.4925427184
20
7.0061055524
30
0.0000000000
10
10.4971087540
20
16.3481902155
30
0.0000000000
10
10.5005350625
20
21.0183142309
30
0.0000000000
11
10.5005350625
21
-21.0183142309
31
0.0000000000
11
10.4936846758
21
-7.0079400896
31
0.0000000000
11
10.4936846758
21
7.0079400886
31
0.0000000000
11
10.5005350625
21
21.0183142309
31
0.0000000000
0
SPLINE
5
3BF
100
AcDbEntity
8
0
100
AcDbSpline
62
9
6
CONTINUOUS
70
0
71
3
72
10
73
6
74
4
42
0.0000001000
43
0.0000001000
44
0.0000000001
12
-0.0308408174
22
41.9945838615
32
0.0000000000
13
0.0308408152
23
41.9945838615
33
0.0000000000
40
0.0000000000
40
0.0000000000
40
0.0000000000
40
0.0000000000
40
0.3332892780
40
0.6667108413
40
1.0000000000
40
1.0000000000
40
1.0000000000
40
1.0000000000
10
11.0004589101
20
-20.9972959167
30
0.0000000000
10
10.9970326055
20
-16.3318477385
30
0.0000000000
10
10.9924665640
20
-6.9990977786
30
0.0000000000
10
10.9924665650
20
6.9991011190
30
0.0000000000
10
10.9970326070
20
16.3318494087
30
0.0000000000
10
11.0004589101
20
20.9972959167
30
0.0000000000
11
11.0004589101
21
-20.9972959167
31
0.0000000000
11
10.9936085276
21
-7.0009492841
31
0.0000000000
11
10.9936085288
21
7.0009542947
31
0.0000000000
11
11.0004589101
21
20.9972959167
31
0.0000000000
0
SPLINE
5
3C0
100
AcDbEntity
8
0
100
AcDbSpline
62
9
6
CONTINUOUS
70
0
71
3
72
12
73
8
74
6
42
0.0000001000
43
0.0000001000
44
0.0000000001
12
0.5010580609
22
0.0003673245
32
0.0000000000
13
0.1919552794
23
0.4628309475
33
0.0000000000
40
0.0000000000
40
0.0000000000
40
0.0000000000
40
0.0000000000
40
0.3050607110
40
0.5809725757
40
0.8013959858
40
0.9453902249
40
1.0000000000
40
1.0000000000
40
1.0000000000
40
1.0000000000
10
10.5005350625
20
-21.0183142305
30
0.0000000000
10
10.5514861053
20
-21.0182768785
30
0.0000000000
10
10.6490214536
20
-21.0180276716
30
0.0000000000
10
10.7809060057
20
-21.0135856064
30
0.0000000000
10
10.8928023071
20
-21.0137704021
30
0.0000000000
10
10.9527896765
20
-21.0005048012
30
0.0000000000
10
10.9969646986
20
-21.0057209480
30
0.0000000000
10
11.0004589101
20
-20.9972959167
30
0.0000000000
11
10.5005350625
21
-21.0183142305
31
0.0000000000
11
10.6533841415
21
-21.0171959976
31
0.0000000000
11
10.7915989758
21
-21.0141724686
31
0.0000000000
11
10.9019464489
21
-21.0095331261
31
0.0000000000
11
10.9738615520
21
-21.0037221554
31
0.0000000000
11
11.0004589101
21
-20.9972959167
31
0.0000000000
0
SPLINE
5
3C1
100
AcDbEntity
8
0
100
AcDbSpline
62
9
6
CONTINUOUS
70
0
71
3
72
13
73
9
74
7
42
0.0000001000
43
0.0000001000
44
0.0000000001
12
0.0003511224
22
0.9566793779
32
0.0000000000
13
0.1576584620
23
0.9435991547
33
0.0000000000
40
0.0000000000
40
0.0000000000
40
0.0000000000
40
0.0000000000
40
0.2530716260
40
0.4882756078
40
0.6913705244
40
0.8501774967
40
0.9551766102
40
1.0000000000
40
1.0000000000
40
1.0000000000
40
1.0000000000
10
10.5005350625
20
21.0183142309
30
0.0000000000
10
10.5005646822
20
21.0990170328
30
0.0000000000
10
10.5008151313
20
21.2547203781
30
0.0000000000
10
10.5015010874
20
21.4752101910
30
0.0000000000
10
10.5030905134
20
21.6655676863
30
0.0000000000
10
10.5036924130
20
21.8145846744
30
0.0000000000
10
10.5072284209
20
21.9127254438
30
0.0000000000
10
10.5064425211
20
21.9608086996
30
0.0000000000
10
10.5087981167
20
21.9749071372
30
0.0000000000
11
10.5005350625
21
21.0183142309
31
0.0000000000
11
10.5008871566
21
21.2604223969
31
0.0000000000
11
10.5017436919
21
21.4854355808
31
0.0000000000
11
10.5030519449
21
21.6797279079
31
0.0000000000
11
10.5047338308
21
21.8316459638
31
0.0000000000
11
10.5066887822
21
21.9320774319
31
0.0000000000
11
10.5087981167
21
21.9749071372
31
0.0000000000
0
SPLINE
5
3C2
100
AcDbEntity
8
0
100
AcDbSpline
62
9
6
CONTINUOUS
70
0
71
3
72
13
73
9
74
7
42
0.0000001000
43
0.0000001000
44
0.0000000001
12
0.0003507747
22
0.4784692357
32
0.0000000000
13
0.1515509188
23
0.4538339471
33
0.0000000000
40
0.0000000000
40
0.0000000000
40
0.0000000000
40
0.0000000000
40
0.2523977495
40
0.4878380372
40
0.6911458199
40
0.8500915659
40
0.9551687699
40
1.0000000000
40
1.0000000000
40
1.0000000000
40
1.0000000000
10
11.0004589101
20
20.9972959167
30
0.0000000000
10
11.0004884217
20
21.0375507694
30
0.0000000000
10
11.0007358996
20
21.1153478129
30
0.0000000000
10
11.0014302772
20
21.2256089323
30
0.0000000000
10
11.0029922086
20
21.3208314652
30
0.0000000000
10
11.0036694561
20
21.3955977721
30
0.0000000000
10
11.0070598636
20
21.4443370488
30
0.0000000000
10
11.0064572263
20
21.4688103918
30
0.0000000000
10
11.0087219643
20
21.4755923698
30
0.0000000000
11
11.0004589101
21
20.9972959167
31
0.0000000000
11
11.0008094528
21
21.1180599986
31
0.0000000000
11
11.0016657915
21
21.2307077086
31
0.0000000000
11
11.0029753137
21
21.3279754394
31
0.0000000000
11
11.0046592521
21
21.4040074640
31
0.0000000000
11
11.0066166007
21
21.4542455709
31
0.0000000000
11
11.0087219643
21
21.4755923698
31
0.0000000000
0
SPLINE
5
3C3
100
AcDbEntity
8
0
100
AcDbSpline
62
9
6
CONTINUOUS
70
0
71
3
72
12
73
8
74
6
42
0.0000001000
43
0.0000001000
44
0.0000000001
12
0.5010578789
22
-0.0003673793
32
0.0000000000
13
0.1921868604
23
-0.4627346364
33
0.0000000000
40
0.0000000000
40
0.0000000000
40
0.0000000000
40
0.0000000000
40
0.3050563107
40
0.5809651216
40
0.8013879126
40
0.9453846466
40
1.0000000000
40
1.0000000000
40
1.0000000000
40
1.0000000000
10
10.5005350626
20
21.0183133038
30
0.0000000000
10
10.5514853519
20
21.0182759467
30
0.0000000000
10
10.6490189937
20
21.0180266405
30
0.0000000000
10
10.7809037919
20
21.0135851497
30
0.0000000000
10
10.8927956798
20
21.0137689918
30
0.0000000000
10
10.9527922035
20
21.0005055113
30
0.0000000000
10
10.9969601255
20
21.0057200553
30
0.0000000000
10
11.0004589100
20
20.9972959167
30
0.0000000000
11
10.5005350626
21
21.0183133038
31
0.0000000000
11
10.6533818814
21
21.0171951092
31
0.0000000000
11
10.7915951381
21
21.0141717192
31
0.0000000000
11
10.9019422698
21
21.0095325952
31
0.0000000000
11
10.9738586221
21
21.0037218884
31
0.0000000000
11
11.0004589100
21
20.9972959167
31
0.0000000000
0
SPLINE
5
3C4
100
AcDbEntity
8
0
100
AcDbSpline
62
9
6
CONTINUOUS
70
0
71
3
72
12
73
8
74
6
42
0.0000001000
43
0.0000001000
44
0.0000000001
12
0.7813571062
22
-0.0007128135
32
0.0000000000
13
0.0007145531
23
-0.7813571046
33
0.0000000000
40
0.0000000000
40
0.0000000000
40
0.0000000000
40
0.0000000000
40
0.2000850064
40
0.4001713425
40
0.6002035310
40
0.8001467218
40
1.0000000000
40
1.0000000000
40
1.0000000000
40
1.0000000000
10
10.5087981167
20
21.9749071372
30
0.0000000000
10
10.5609107306
20
21.9748595961
30
0.0000000000
10
10.6658521000
20
21.9582171672
30
0.0000000000
10
10.8073186644
20
21.8860938495
30
0.0000000000
10
10.9197666025
20
21.7737967766
30
0.0000000000
10
10.9920025187
20
21.6324904868
30
0.0000000000
10
11.0086743624
20
21.5276446294
30
0.0000000000
10
11.0087219643
20
21.4755923698
30
0.0000000000
11
10.5087981167
21
21.9749071372
31
0.0000000000
11
10.6631962883
21
21.9503562579
31
0.0000000000
11
10.8024983178
21
21.8793857676
31
0.0000000000
11
10.9130840750
21
21.7689347421
31
0.0000000000
11
10.9841411372
21
21.6298024308
31
0.0000000000
11
11.0087219643
21
21.4755923698
31
0.0000000000
0
SPLINE
5
3C5
100
AcDbEntity
8
0
100
AcDbSpline
62
7
6
CONTINUOUS
70
0
71
3
72
14
73
10
74
8
42
0.0000001000
43
0.0000001000
44
0.0000000001
12
-0.4783690978
22
-0.5261313767
32
0.0000000000
13
-0.5026114889
23
-0.5028335967
33
0.0000000000
40
0.0000000000
40
0.0000000000
40
0.0000000000
40
0.0000000000
40
0.0395323100
40
0.1403804262
40
0.2809376014
40
0.4468045209
40
0.6277146330
40
0.8149711336
40
1.0000000000
40
1.0000000000
40
1.0000000000
40
1.0000000000
10
-3.3500000000
20
-4.9000000000
30
0.0000000000
10
-3.3563036785
20
-4.9069330629
30
0.0000000000
10
-3.3789895843
20
-4.9312660543
30
0.0000000000
10
-3.4258905857
20
-4.9785342929
30
0.0000000000
10
-3.4935472733
20
-5.0473631025
30
0.0000000000
10
-3.5749039265
20
-5.1293371623
30
0.0000000000
10
-3.6641174200
20
-5.2191025185
30
0.0000000000
10
-3.7566612858
20
-5.3119612306
30
0.0000000000
10
-3.8190007887
20
-5.3743924953
30
0.0000000000
10
-3.8500000000
20
-5.4054054054
30
0.0000000000
11
-3.3500000000
21
-4.9000000000
31
0.0000000000
11
-3.3691402276
21
-4.9205812114
31
0.0000000000
11
-3.4192267016
21
-4.9718846791
31
0.0000000000
11
-3.4893956916
21
-5.0430348077
31
0.0000000000
11
-3.5724016077
21
-5.1267972588
31
0.0000000000
11
-3.6630779884
21
-5.2180152592
31
0.0000000000
11
-3.7570491316
21
-5.3123199535
31
0.0000000000
11
-3.8500000000
21
-5.4054054054
31
0.0000000000
0
SPLINE
5
3C6
100
AcDbEntity
8
0
100
AcDbSpline
62
9
6
CONTINUOUS
70
0
71
3
72
13
73
9
74
7
42
0.0000001000
43
0.0000001000
44
0.0000000001
12
0.1514175279
22
0.4538785052
32
0.0000000000
13
0.0003487501
23
0.4784692713
33
0.0000000000
40
0.0000000000
40
0.0000000000
40
0.0000000000
40
0.0000000000
40
0.0447393873
40
0.1496912263
40
0.3085216489
40
0.5116483853
40
0.7470339087
40
1.0000000000
40
1.0000000000
40
1.0000000000
40
1.0000000000
10
-11.0087219643
20
-21.4755923698
30
0.0000000000
10
-11.0064638552
20
-21.4688236211
30
0.0000000000
10
-11.0070576095
20
-21.4443875877
30
0.0000000000
10
-11.0036743870
20
-21.3956995189
30
0.0000000000
10
-11.0029941766
20
-21.3210012926
30
0.0000000000
10
-11.0014327633
20
-21.2258344617
30
0.0000000000
10
-11.0007366076
20
-21.1155203756
30
0.0000000000
10
-11.0004883174
20
-21.0376414171
30
0.0000000000
10
-11.0004589101
20
-20.9972959167
30
0.0000000000
11
-11.0087219643
21
-21.4755923698
31
0.0000000000
11
-11.0066191044
21
-21.4542894797
31
0.0000000000
11
-11.0046622904
21
-21.4041113772
31
0.0000000000
11
-11.0029780638
21
-21.3281345458
31
0.0000000000
11
-11.0016683071
21
-21.2309534442
31
0.0000000000
11
-11.0008108466
21
-21.1183319385
31
0.0000000000
11
-11.0004589101
21
-20.9972959167
31
0.0000000000
0
SPLINE
5
3C7
100
AcDbEntity
8
0
100
AcDbSpline
62
9
6
CONTINUOUS
70
0
71
3
72
13
73
9
74
7
42
0.0000001000
43
0.0000001000
44
0.0000000001
12
0.1576341305
22
0.9436032094
32
0.0000000000
13
0.0003456835
23
0.9566793697
33
0.0000000000
40
0.0000000000
40
0.0000000000
40
0.0000000000
40
0.0000000000
40
0.0448270314
40
0.1498225927
40
0.3086597101
40
0.5117110612
40
0.7469567150
40
1.0000000000
40
1.0000000000
40
1.0000000000
40
1.0000000000
10
-10.5087981167
20
-21.9749071372
30
0.0000000000
10
-10.5064426933
20
-21.9608074936
30
0.0000000000
10
-10.5072282534
20
-21.9127243118
30
0.0000000000
10
-10.5036928017
20
-21.8145738165
30
0.0000000000
10
-10.5030905571
20
-21.6655622815
30
0.0000000000
10
-10.5015013431
20
-21.4751957534
30
0.0000000000
10
-10.5008152567
20
-21.2547155910
30
0.0000000000
10
-10.5005642202
20
-21.0990079944
30
0.0000000000
10
-10.5005350625
20
-21.0183142309
30
0.0000000000
11
-10.5087981167
21
-21.9749071372
31
0.0000000000
11
-10.5066888224
21
-21.9320739422
31
0.0000000000
11
-10.5047342215
21
-21.8316458674
31
0.0000000000
11
-10.5030519768
21
-21.6796989761
31
0.0000000000
11
-10.5017440253
21
-21.4854483283
31
0.0000000000
11
-10.5008871259
21
-21.2603952811
31
0.0000000000
11
-10.5005350625
21
-21.0183142309
31
0.0000000000
0
SPLINE
5
3C8
100
AcDbEntity
8
0
100
AcDbSpline
62
9
6
CONTINUOUS
70
0
71
3
72
12
73
8
74
6
42
0.0000001000
43
0.0000001000
44
0.0000000001
12
0.0007145502
22
-0.7813571067
32
0.0000000000
13
0.7813571083
23
-0.0007128045
33
0.0000000000
40
0.0000000000
40
0.0000000000
40
0.0000000000
40
0.0000000000
40
0.1998487703
40
0.3997899671
40
0.5998225284
40
0.7999112244
40
1.0000000000
40
1.0000000000
40
1.0000000000
40
1.0000000000
10
-11.0087219643
20
-21.4755923698
30
0.0000000000
10
-11.0086743636
20
-21.5276434555
30
0.0000000000
10
-10.9920031804
20
-21.6324875713
30
0.0000000000
10
-10.9197692638
20
-21.7737930102
30
0.0000000000
10
-10.8073223022
20
-21.8860913528
30
0.0000000000
10
-10.6658547189
20
-21.9582165899
30
0.0000000000
10
-10.5609117124
20
-21.9748595957
30
0.0000000000
10
-10.5087981167
20
-21.9749071371
30
0.0000000000
11
-11.0087219643
21
-21.4755923698
31
0.0000000000
11
-10.9841422433
21
-21.6297990407
31
0.0000000000
11
-10.9130871030
21
-21.7689305846
31
0.0000000000
11
-10.8025022426
21
-21.8793829208
31
0.0000000000
11
-10.6631991243
21
-21.9503553370
31
0.0000000000
11
-10.5087981167
21
-21.9749071371
31
0.0000000000
0
SPLINE
5
3C9
100
AcDbEntity
8
0
100
AcDbSpline
62
7
6
CONTINUOUS
70
0
71
3
72
14
73
10
74
8
42
0.0000001000
43
0.0000001000
44
0.0000000001
12
0.4852863582
22
-0.5180902941
32
0.0000000000
13
0.5017931413
23
-0.5020296979
33
0.0000000000
40
0.0000000000
40
0.0000000000
40
0.0000000000
40
0.0000000000
40
0.0398872574
40
0.1409701245
40
0.2811166876
40
0.4461739673
40
0.6264137290
40
0.8137226038
40
1.0000000000
40
1.0000000000
40
1.0000000000
40
1.0000000000
10
6.1500000000
20
-3.3000000000
30
0.0000000000
10
6.1564522473
20
-3.3068884003
30
0.0000000000
10
6.1794626228
20
-3.3310337912
30
0.0000000000
10
6.2263679275
20
-3.3781985488
30
0.0000000000
10
6.2939323378
20
-3.4465755087
30
0.0000000000
10
6.3749298366
20
-3.5280117592
30
0.0000000000
10
6.4638381794
20
-3.6173166186
30
0.0000000000
10
6.5563774905
20
-3.7100917016
30
0.0000000000
10
6.6188424267
20
-3.7726315422
30
0.0000000000
10
6.6500000000
20
-3.8038038038
30
0.0000000000
11
6.1500000000
21
-3.3000000000
31
0.0000000000
11
6.1695146499
21
-3.3205126515
31
0.0000000000
11
6.2198264566
21
-3.3716666432
31
0.0000000000
11
6.2898254788
21
-3.4423482897
31
0.0000000000
11
6.3724027772
21
-3.5254584063
31
0.0000000000
11
6.4626722788
21
-3.6161172801
31
0.0000000000
11
6.5565604133
21
-3.7102539130
31
0.0000000000
11
6.6500000000
21
-3.8038038038
31
0.0000000000
0
SPLINE
5
3CA
100
AcDbEntity
8
0
100
AcDbSpline
62
9
6
CONTINUOUS
70
0
71
3
72
10
73
6
74
4
42
0.0000001000
43
0.0000001000
44
0.0000000001
12
0.0308408056
22
41.9945838615
32
0.0000000000
13
-0.0308408162
23
41.9945838615
33
0.0000000000
40
0.0000000000
40
0.0000000000
40
0.0000000000
40
0.0000000000
40
0.3332888351
40
0.6667105879
40
1.0000000000
40
1.0000000000
40
1.0000000000
40
1.0000000000
10
-11.0004589101
20
-20.9972959167
30
0.0000000000
10
-10.9970326114
20
-16.3318539387
30
0.0000000000
10
-10.9924665661
20
-6.9991075263
30
0.0000000000
10
-10.9924665617
20
6.9990913713
30
0.0000000000
10
-10.9970326043
20
16.3318458612
30
0.0000000000
10
-11.0004589101
20
20.9972959167
30
0.0000000000
11
-11.0004589101
21
-20.9972959167
31
0.0000000000
11
-10.9936085319
21
-7.0009678848
31
0.0000000000
11
-10.9936085263
21
7.0009436522
31
0.0000000000
11
-11.0004589101
21
20.9972959167
31
0.0000000000
0
SPLINE
5
3CB
100
AcDbEntity
8
0
100
AcDbSpline
62
9
6
CONTINUOUS
70
0
71
3
72
10
73
6
74
4
42
0.0000001000
43
0.0000001000
44
0.0000000001
12
0.0308408058
22
42.0366204979
32
0.0000000000
13
-0.0308408163
23
42.0366204979
33
0.0000000000
40
0.0000000000
40
0.0000000000
40
0.0000000000
40
0.0000000000
40
0.3332896861
40
0.6667103140
40
1.0000000000
40
1.0000000000
40
1.0000000000
40
1.0000000000
10
-10.5005350625
20
-21.0183142309
30
0.0000000000
10
-10.4971087550
20
-16.3481902147
30
0.0000000000
10
-10.4925427175
20
-7.0061055512
30
0.0000000000
10
-10.4925427190
20
7.0061055542
30
0.0000000000
10
-10.4971087539
20
16.3481902162
30
0.0000000000
10
-10.5005350625
20
21.0183142309
30
0.0000000000
11
-10.5005350625
21
-21.0183142309
31
0.0000000000
11
-10.4936846756
21
-7.0079400863
31
0.0000000000
11
-10.4936846759
21
7.0079400909
31
0.0000000000
11
-10.5005350625
21
21.0183142309
31
0.0000000000
0
SPLINE
5
3CC
100
AcDbEntity
8
0
100
AcDbSpline
62
9
6
CONTINUOUS
70
0
71
3
72
12
73
8
74
6
42
0.0000001000
43
0.0000001000
44
0.0000000001
12
0.1919553909
22
-0.4628309013
32
0.0000000000
13
0.5010580608
23
-0.0003673188
33
0.0000000000
40
0.0000000000
40
0.0000000000
40
0.0000000000
40
0.0000000000
40
0.0546097780
40
0.1986040184
40
0.4190274283
40
0.6949392915
40
1.0000000000
40
1.0000000000
40
1.0000000000
40
1.0000000000
10
-11.0004589101
20
-20.9972959167
30
0.0000000000
10
-10.9969646964
20
-21.0057209476
30
0.0000000000
10
-10.9527896777
20
-21.0005048019
30
0.0000000000
10
-10.8928023038
20
-21.0137704020
30
0.0000000000
10
-10.7809060045
20
-21.0135856071
30
0.0000000000
10
-10.6490214523
20
-21.0180276727
30
0.0000000000
10
-10.5514861049
20
-21.0182768788
30
0.0000000000
10
-10.5005350625
20
-21.0183142303
30
0.0000000000
11
-11.0004589101
21
-20.9972959167
31
0.0000000000
11
-10.9738615505
21
-21.0037221554
31
0.0000000000
11
-10.9019464468
21
-21.0095331264
31
0.0000000000
11
-10.7915989738
21
-21.0141724691
31
0.0000000000
11
-10.6533841403
21
-21.0171959985
31
0.0000000000
11
-10.5005350625
21
-21.0183142303
31
0.0000000000
0
SPLINE
5
3CD
100
AcDbEntity
8
0
100
AcDbSpline
62
9
6
CONTINUOUS
70
0
71
3
72
13
73
9
74
7
42
0.0000001000
43
0.0000001000
44
0.0000000001
12
-0.0003487498
22
0.4784692713
32
0.0000000000
13
-0.1514174029
23
0.4538785469
33
0.0000000000
40
0.0000000000
40
0.0000000000
40
0.0000000000
40
0.0000000000
40
0.2529660912
40
0.4883516149
40
0.6914783512
40
0.8503087732
40
0.9552606132
40
1.0000000000
40
1.0000000000
40
1.0000000000
40
1.0000000000
10
-11.0004589101
20
20.9972959167
30
0.0000000000
10
-11.0004883174
20
21.0376414171
30
0.0000000000
10
-11.0007366076
20
21.1155203756
30
0.0000000000
10
-11.0014327634
20
21.2258344616
30
0.0000000000
10
-11.0029941762
20
21.3210012927
30
0.0000000000
10
-11.0036743882
20
21.3956995185
30
0.0000000000
10
-11.0070576074
20
21.4443875884
30
0.0000000000
10
-11.0064638570
20
21.4688236205
30
0.0000000000
10
-11.0087219643
20
21.4755923698
30
0.0000000000
11
-11.0004589101
21
20.9972959167
31
0.0000000000
11
-11.0008108466
21
21.1183319385
31
0.0000000000
11
-11.0016683071
21
21.2309534443
31
0.0000000000
11
-11.0029780638
21
21.3281345459
31
0.0000000000
11
-11.0046622904
21
21.4041113770
31
0.0000000000
11
-11.0066191044
21
21.4542894799
31
0.0000000000
11
-11.0087219643
21
21.4755923698
31
0.0000000000
0
SPLINE
5
3CE
100
AcDbEntity
8
0
100
AcDbSpline
62
9
6
CONTINUOUS
70
0
71
3
72
13
73
9
74
7
42
0.0000001000
43
0.0000001000
44
0.0000000001
12
-0.0003456837
22
0.9566793697
32
0.0000000000
13
-0.1576341168
23
0.9436032117
33
0.0000000000
40
0.0000000000
40
0.0000000000
40
0.0000000000
40
0.0000000000
40
0.2530432850
40
0.4882889388
40
0.6913402899
40
0.8501774073
40
0.9551729686
40
1.0000000000
40
1.0000000000
40
1.0000000000
40
1.0000000000
10
-10.5005350625
20
21.0183142309
30
0.0000000000
10
-10.5005642202
20
21.0990079944
30
0.0000000000
10
-10.5008152568
20
21.2547155911
30
0.0000000000
10
-10.5015013431
20
21.4751957534
30
0.0000000000
10
-10.5030905571
20
21.6655622815
30
0.0000000000
10
-10.5036928019
20
21.8145738165
30
0.0000000000
10
-10.5072282531
20
21.9127243119
30
0.0000000000
10
-10.5064426935
20
21.9608074936
30
0.0000000000
10
-10.5087981167
20
21.9749071372
30
0.0000000000
11
-10.5005350625
21
21.0183142309
31
0.0000000000
11
-10.5008871259
21
21.2603952811
31
0.0000000000
11
-10.5017440252
21
21.4854483283
31
0.0000000000
11
-10.5030519768
21
21.6796989761
31
0.0000000000
11
-10.5047342215
21
21.8316458675
31
0.0000000000
11
-10.5066888224
21
21.9320739422
31
0.0000000000
11
-10.5087981167
21
21.9749071372
31
0.0000000000
0
SPLINE
5
3CF
100
AcDbEntity
8
0
100
AcDbSpline
62
7
6
CONTINUOUS
70
0
71
3
72
14
73
10
74
8
42
0.0000001000
43
0.0000001000
44
0.0000000001
12
0.0000000000
22
-0.7117907640
32
0.0000000000
13
-0.5032081444
23
-0.5034159862
33
0.0000000000
40
0.0000000000
40
0.0000000000
40
0.0000000000
40
0.0000000000
40
0.0411778637
40
0.1428093612
40
0.2832149035
40
0.4483214657
40
0.6283073319
40
0.8149286988
40
1.0000000000
40
1.0000000000
40
1.0000000000
40
1.0000000000
10
-2.3000000000
20
-6.1000404052
30
0.0000000000
10
-2.3000000000
20
-6.1098104128
30
0.0000000000
10
-2.3371220775
20
-6.1293339333
30
0.0000000000
10
-2.3728643885
20
-6.1815067891
30
0.0000000000
10
-2.4457295041
20
-6.2484978336
30
0.0000000000
10
-2.5249669508
20
-6.3310296293
30
0.0000000000
10
-2.6144092367
20
-6.4203481337
30
0.0000000000
10
-2.7066130985
20
-6.5131535186
30
0.0000000000
10
-2.7689568713
20
-6.5755506561
30
0.0000000000
10
-2.8000000000
20
-6.6066066066
30
0.0000000000
11
-2.3000000000
21
-6.1000404052
31
0.0000000000
11
-2.3198197439
21
-6.1216333485
31
0.0000000000
11
-2.3702227566
21
-6.1735242357
31
0.0000000000
11
-2.4402920316
21
-6.2447855438
31
0.0000000000
11
-2.5229340021
21
-6.3283413143
31
0.0000000000
11
-2.6131974549
21
-6.4192548153
31
0.0000000000
11
-2.7069280154
21
-6.5133814126
31
0.0000000000
11
-2.8000000000
21
-6.6066066066
31
0.0000000000
0
SPLINE
5
3D0
100
AcDbEntity
8
0
100
AcDbSpline
62
9
6
CONTINUOUS
70
0
71
3
72
12
73
8
74
6
42
0.0000001000
43
0.0000001000
44
0.0000000001
12
0.1920878002
22
0.4627758470
32
0.0000000000
13
0.5010579533
23
0.0003673968
33
0.0000000000
40
0.0000000000
40
0.0000000000
40
0.0000000000
40
0.0000000000
40
0.0546129504
40
0.1986086123
40
0.4190316711
40
0.6949417965
40
1.0000000000
40
1.0000000000
40
1.0000000000
40
1.0000000000
10
-11.0004589101
20
20.9972959167
30
0.0000000000
10
-10.9969620829
20
21.0057204348
30
0.0000000000
10
-10.9527911230
20
21.0005051797
30
0.0000000000
10
-10.8927985233
20
21.0137695786
30
0.0000000000
10
-10.7809047444
20
21.0135853208
30
0.0000000000
10
-10.6490200501
20
21.0180270680
30
0.0000000000
10
-10.5514856756
20
21.0182763380
30
0.0000000000
10
-10.5005350625
20
21.0183136971
30
0.0000000000
11
-11.0004589101
21
20.9972959167
31
0.0000000000
11
-10.9738598809
21
21.0037219888
31
0.0000000000
11
-10.9019440654
21
21.0095328012
31
0.0000000000
11
-10.7915967869
21
21.0141720186
31
0.0000000000
11
-10.6533828524
21
21.0171954750
31
0.0000000000
11
-10.5005350625
21
21.0183136971
31
0.0000000000
0
SPLINE
5
3D1
100
AcDbEntity
8
0
100
AcDbSpline
62
7
6
CONTINUOUS
70
0
71
3
72
14
73
10
74
8
42
0.0000001000
43
0.0000001000
44
0.0000000001
12
-0.4852863582
22
-0.5180902941
32
0.0000000000
13
-0.5017931413
23
-0.5020296979
33
0.0000000000
40
0.0000000000
40
0.0000000000
40
0.0000000000
40
0.0000000000
40
0.0398872574
40
0.1409701245
40
0.2811166876
40
0.4461739673
40
0.6264137290
40
0.8137226038
40
1.0000000000
40
1.0000000000
40
1.0000000000
40
1.0000000000
10
-3.3500000000
20
-3.3000000000
30
0.0000000000
10
-3.3564522473
20
-3.3068884003
30
0.0000000000
10
-3.3794626228
20
-3.3310337912
30
0.0000000000
10
-3.4263679275
20
-3.3781985488
30
0.0000000000
10
-3.4939323378
20
-3.4465755087
30
0.0000000000
10
-3.5749298366
20
-3.5280117592
30
0.0000000000
10
-3.6638381794
20
-3.6173166186
30
0.0000000000
10
-3.7563774905
20
-3.7100917016
30
0.0000000000
10
-3.8188424267
20
-3.7726315422
30
0.0000000000
10
-3.8500000000
20
-3.8038038038
30
0.0000000000
11
-3.3500000000
21
-3.3000000000
31
0.0000000000
11
-3.3695146499
21
-3.3205126515
31
0.0000000000
11
-3.4198264566
21
-3.3716666432
31
0.0000000000
11
-3.4898254788
21
-3.4423482897
31
0.0000000000
11
-3.5724027772
21
-3.5254584063
31
0.0000000000
11
-3.6626722788
21
-3.6161172801
31
0.0000000000
11
-3.7565604133
21
-3.7102539130
31
0.0000000000
11
-3.8500000000
21
-3.8038038038
31
0.0000000000
0
SPLINE
5
3D2
100
AcDbEntity
8
0
100
AcDbSpline
62
9
6
CONTINUOUS
70
0
71
3
72
12
73
8
74
6
42
0.0000001000
43
0.0000001000
44
0.0000000001
12
0.0007145531
22
0.7813571046
32
0.0000000000
13
0.7813571062
23
0.0007128133
33
0.0000000000
40
0.0000000000
40
0.0000000000
40
0.0000000000
40
0.0000000000
40
0.1998532782
40
0.3997964689
40
0.5998286573
40
0.7999149935
40
1.0000000000
40
1.0000000000
40
1.0000000000
40
1.0000000000
10
-11.0087219643
20
21.4755923698
30
0.0000000000
10
-11.0086743624
20
21.5276446294
30
0.0000000000
10
-10.9920025187
20
21.6324904868
30
0.0000000000
10
-10.9197666025
20
21.7737967766
30
0.0000000000
10
-10.8073186645
20
21.8860938495
30
0.0000000000
10
-10.6658521001
20
21.9582171672
30
0.0000000000
10
-10.5609107306
20
21.9748595961
30
0.0000000000
10
-10.5087981167
20
21.9749071372
30
0.0000000000
11
-11.0087219643
21
21.4755923698
31
0.0000000000
11
-10.9841411372
21
21.6298024308
31
0.0000000000
11
-10.9130840750
21
21.7689347421
31
0.0000000000
11
-10.8024983179
21
21.8793857676
31
0.0000000000
11
-10.6631962884
21
21.9503562579
31
0.0000000000
11
-10.5087981167
21
21.9749071372
31
0.0000000000
0
SPLINE
5
3D3
100
AcDbEntity
8
0
100
AcDbSpline
62
7
6
CONTINUOUS
70
0
71
3
72
14
73
10
74
8
42
0.0000001000
43
0.0000001000
44
0.0000000001
12
0.4792318440
22
0.5251372788
32
0.0000000000
13
0.5025088506
23
0.5027330492
33
0.0000000000
40
0.0000000000
40
0.0000000000
40
0.0000000000
40
0.0000000000
40
0.0395349047
40
0.1403810047
40
0.2809219563
40
0.4467666365
40
0.6276625029
40
0.8149275899
40
1.0000000000
40
1.0000000000
40
1.0000000000
40
1.0000000000
10
6.1500000000
20
4.7000000000
30
0.0000000000
10
6.1563154618
20
4.7069204174
30
0.0000000000
10
6.1790298221
20
4.7312178737
30
0.0000000000
10
6.2259250404
20
4.7784665936
30
0.0000000000
10
6.2935838290
20
4.8472529946
30
0.0000000000
10
6.3749262264
20
4.9291905238
30
0.0000000000
10
6.4641266837
20
5.0189235158
30
0.0000000000
10
6.5566631338
20
5.1117648659
30
0.0000000000
10
6.6189998253
20
5.1741911995
30
0.0000000000
10
6.6500000000
20
5.2052052052
30
0.0000000000
11
6.1500000000
21
4.7000000000
31
0.0000000000
11
6.1691664563
21
4.7205515436
31
0.0000000000
11
6.2192653637
21
4.7718206102
31
0.0000000000
11
6.2894305737
21
4.8429299024
31
0.0000000000
11
6.3724223844
21
4.9266505242
31
0.0000000000
11
6.4630827193
21
5.0178335470
31
0.0000000000
11
6.5570444986
21
5.1121182074
31
0.0000000000
11
6.6500000000
21
5.2052052052
31
0.0000000000
0
SPLINE
5
3D4
100
AcDbEntity
8
0
100
AcDbSpline
62
7
6
CONTINUOUS
70
0
71
3
72
14
73
10
74
8
42
0.0000001000
43
0.0000001000
44
0.0000000001
12
0.4852301740
22
-0.5181432829
32
0.0000000000
13
0.5017931538
23
-0.5020297104
33
0.0000000000
40
0.0000000000
40
0.0000000000
40
0.0000000000
40
0.0000000000
40
0.0395559748
40
0.1403879447
40
0.2808148821
40
0.4465032235
40
0.6272985782
40
0.8146230087
40
1.0000000000
40
1.0000000000
40
1.0000000000
40
1.0000000000
10
3.3500000000
20
-3.3000000000
30
0.0000000000
10
3.3563979175
20
-3.3068318875
30
0.0000000000
10
3.3793106383
20
-3.3308800657
30
0.0000000000
10
3.4261664131
20
-3.3779934505
30
0.0000000000
10
3.4938393848
20
-3.4464828089
30
0.0000000000
10
3.5750820920
20
-3.5281647571
30
0.0000000000
10
3.6641912866
20
-3.6176710311
30
0.0000000000
10
3.7566759441
20
-3.7103906033
30
0.0000000000
10
3.8189930316
20
-3.7727822181
30
0.0000000000
10
3.8500000000
20
-3.8038038038
30
0.0000000000
11
3.3500000000
21
-3.3000000000
31
0.0000000000
11
3.3693504219
21
-3.3203443299
31
0.0000000000
11
3.4195360435
21
-3.3713726400
31
0.0000000000
11
3.4896745837
21
-3.4421962097
31
0.0000000000
11
3.5725675918
21
-3.5256240916
31
0.0000000000
11
3.6631156286
21
-3.6165621516
31
0.0000000000
11
3.7570119078
21
-3.7107062607
31
0.0000000000
11
3.8500000000
21
-3.8038038038
31
0.0000000000
0
SPLINE
5
3D5
100
AcDbEntity
8
0
100
AcDbSpline
62
7
6
CONTINUOUS
70
0
71
3
72
14
73
10
74
8
42
0.0000001000
43
0.0000001000
44
0.0000000001
12
-0.4852301740
22
-0.5181432829
32
0.0000000000
13
-0.5017931538
23
-0.5020297104
33
0.0000000000
40
0.0000000000
40
0.0000000000
40
0.0000000000
40
0.0000000000
40
0.0395559748
40
0.1403879447
40
0.2808148821
40
0.4465032235
40
0.6272985782
40
0.8146230087
40
1.0000000000
40
1.0000000000
40
1.0000000000
40
1.0000000000
10
-6.1500000000
20
-3.3000000000
30
0.0000000000
10
-6.1563979175
20
-3.3068318875
30
0.0000000000
10
-6.1793106383
20
-3.3308800657
30
0.0000000000
10
-6.2261664131
20
-3.3779934505
30
0.0000000000
10
-6.2938393848
20
-3.4464828089
30
0.0000000000
10
-6.3750820920
20
-3.5281647571
30
0.0000000000
10
-6.4641912866
20
-3.6176710311
30
0.0000000000
10
-6.5566759441
20
-3.7103906033
30
0.0000000000
10
-6.6189930316
20
-3.7727822181
30
0.0000000000
10
-6.6500000000
20
-3.8038038038
30
0.0000000000
11
-6.1500000000
21
-3.3000000000
31
0.0000000000
11
-6.1693504219
21
-3.3203443299
31
0.0000000000
11
-6.2195360435
21
-3.3713726400
31
0.0000000000
11
-6.2896745837
21
-3.4421962097
31
0.0000000000
11
-6.3725675918
21
-3.5256240916
31
0.0000000000
11
-6.4631156286
21
-3.6165621516
31
0.0000000000
11
-6.5570119078
21
-3.7107062607
31
0.0000000000
11
-6.6500000000
21
-3.8038038038
31
0.0000000000
0
SPLINE
5
3D6
100
AcDbEntity
8
0
100
AcDbSpline
62
7
6
CONTINUOUS
70
0
71
3
72
14
73
10
74
8
42
0.0000001000
43
0.0000001000
44
0.0000000001
12
-0.4792318440
22
0.5251372788
32
0.0000000000
13
-0.5025088506
23
0.5027330492
33
0.0000000000
40
0.0000000000
40
0.0000000000
40
0.0000000000
40
0.0000000000
40
0.0395349047
40
0.1403810047
40
0.2809219563
40
0.4467666365
40
0.6276625029
40
0.8149275899
40
1.0000000000
40
1.0000000000
40
1.0000000000
40
1.0000000000
10
-6.1500000000
20
4.7000000000
30
0.0000000000
10
-6.1563154618
20
4.7069204174
30
0.0000000000
10
-6.1790298221
20
4.7312178737
30
0.0000000000
10
-6.2259250404
20
4.7784665936
30
0.0000000000
10
-6.2935838290
20
4.8472529946
30
0.0000000000
10
-6.3749262264
20
4.9291905238
30
0.0000000000
10
-6.4641266837
20
5.0189235158
30
0.0000000000
10
-6.5566631338
20
5.1117648659
30
0.0000000000
10
-6.6189998253
20
5.1741911995
30
0.0000000000
10
-6.6500000000
20
5.2052052052
30
0.0000000000
11
-6.1500000000
21
4.7000000000
31
0.0000000000
11
-6.1691664563
21
4.7205515436
31
0.0000000000
11
-6.2192653637
21
4.7718206102
31
0.0000000000
11
-6.2894305737
21
4.8429299024
31
0.0000000000
11
-6.3724223844
21
4.9266505242
31
0.0000000000
11
-6.4630827193
21
5.0178335470
31
0.0000000000
11
-6.5570444986
21
5.1121182074
31
0.0000000000
11
-6.6500000000
21
5.2052052052
31
0.0000000000
0
SPLINE
5
3D7
100
AcDbEntity
8
0
100
AcDbSpline
62
7
6
CONTINUOUS
70
0
71
3
72
14
73
10
74
8
42
0.0000001000
43
0.0000001000
44
0.0000000001
12
0.0000000000
22
-0.7117907640
32
0.0000000000
13
0.5032081444
23
-0.5034159862
33
0.0000000000
40
0.0000000000
40
0.0000000000
40
0.0000000000
40
0.0000000000
40
0.0411778637
40
0.1428093612
40
0.2832149035
40
0.4483214657
40
0.6283073319
40
0.8149286988
40
1.0000000000
40
1.0000000000
40
1.0000000000
40
1.0000000000
10
2.3000000000
20
-6.1000404052
30
0.0000000000
10
2.3000000000
20
-6.1098104128
30
0.0000000000
10
2.3371220775
20
-6.1293339333
30
0.0000000000
10
2.3728643885
20
-6.1815067891
30
0.0000000000
10
2.4457295041
20
-6.2484978336
30
0.0000000000
10
2.5249669508
20
-6.3310296293
30
0.0000000000
10
2.6144092367
20
-6.4203481337
30
0.0000000000
10
2.7066130985
20
-6.5131535186
30
0.0000000000
10
2.7689568713
20
-6.5755506561
30
0.0000000000
10
2.8000000000
20
-6.6066066066
30
0.0000000000
11
2.3000000000
21
-6.1000404052
31
0.0000000000
11
2.3198197439
21
-6.1216333485
31
0.0000000000
11
2.3702227566
21
-6.1735242357
31
0.0000000000
11
2.4402920316
21
-6.2447855438
31
0.0000000000
11
2.5229340021
21
-6.3283413143
31
0.0000000000
11
2.6131974549
21
-6.4192548153
31
0.0000000000
11
2.7069280154
21
-6.5133814126
31
0.0000000000
11
2.8000000000
21
-6.6066066066
31
0.0000000000
0
SPLINE
5
3D8
100
AcDbEntity
8
0
100
AcDbSpline
62
7
6
CONTINUOUS
70
0
71
3
72
14
73
10
74
8
42
0.0000001000
43
0.0000001000
44
0.0000000001
12
0.4783690978
22
-0.5261313767
32
0.0000000000
13
0.5026114889
23
-0.5028335967
33
0.0000000000
40
0.0000000000
40
0.0000000000
40
0.0000000000
40
0.0000000000
40
0.0395323100
40
0.1403804262
40
0.2809376014
40
0.4468045209
40
0.6277146330
40
0.8149711336
40
1.0000000000
40
1.0000000000
40
1.0000000000
40
1.0000000000
10
2.3000000000
20
-4.9000000000
30
0.0000000000
10
2.3063036785
20
-4.9069330629
30
0.0000000000
10
2.3289895843
20
-4.9312660543
30
0.0000000000
10
2.3758905857
20
-4.9785342929
30
0.0000000000
10
2.4435472733
20
-5.0473631025
30
0.0000000000
10
2.5249039265
20
-5.1293371623
30
0.0000000000
10
2.6141174200
20
-5.2191025185
30
0.0000000000
10
2.7066612858
20
-5.3119612306
30
0.0000000000
10
2.7690007887
20
-5.3743924953
30
0.0000000000
10
2.8000000000
20
-5.4054054054
30
0.0000000000
11
2.3000000000
21
-4.9000000000
31
0.0000000000
11
2.3191402276
21
-4.9205812114
31
0.0000000000
11
2.3692267016
21
-4.9718846791
31
0.0000000000
11
2.4393956916
21
-5.0430348077
31
0.0000000000
11
2.5224016077
21
-5.1267972588
31
0.0000000000
11
2.6130779884
21
-5.2180152592
31
0.0000000000
11
2.7070491316
21
-5.3123199535
31
0.0000000000
11
2.8000000000
21
-5.4054054054
31
0.0000000000
0
SPLINE
5
3D9
100
AcDbEntity
8
0
100
AcDbSpline
62
7
6
CONTINUOUS
70
0
71
3
72
14
73
10
74
8
42
0.0000001000
43
0.0000001000
44
0.0000000001
12
0.4784885843
22
-0.5260216100
32
0.0000000000
13
0.5026114509
23
-0.5028335587
33
0.0000000000
40
0.0000000000
40
0.0000000000
40
0.0000000000
40
0.0000000000
40
0.0400126124
40
0.1412245550
40
0.2813751410
40
0.4463273204
40
0.6264325620
40
0.8136669796
40
1.0000000000
40
1.0000000000
40
1.0000000000
40
1.0000000000
10
3.3500000000
20
-4.9000000000
30
0.0000000000
10
3.3563818594
20
-4.9070158329
30
0.0000000000
10
3.3792097887
20
-4.9314899093
30
0.0000000000
10
3.4261820691
20
-4.9788332550
30
0.0000000000
10
3.4936824190
20
-5.0474976832
30
0.0000000000
10
3.5746832055
20
-5.1291149347
30
0.0000000000
10
3.6636053870
20
-5.2185878845
30
0.0000000000
10
3.7562283207
20
-5.3115274401
30
0.0000000000
10
3.8187822968
20
-5.3741739068
30
0.0000000000
10
3.8500000000
20
-5.4054054054
30
0.0000000000
11
3.3500000000
21
-4.9000000000
31
0.0000000000
11
3.3693773920
21
-4.9208269666
31
0.0000000000
11
3.4196473402
21
-4.9723127994
31
0.0000000000
11
3.4896144551
21
-5.0432560145
31
0.0000000000
11
3.5721626151
21
-5.1265564978
31
0.0000000000
11
3.6624349894
21
-5.2173692380
31
0.0000000000
11
3.7563943202
21
-5.3116635246
31
0.0000000000
11
3.8500000000
21
-5.4054054054
31
0.0000000000
0
SPLINE
5
3DA
100
AcDbEntity
8
0
100
AcDbSpline
62
9
6
CONTINUOUS
70
0
71
3
72
13
73
9
74
7
42
0.0000001000
43
0.0000001000
44
0.0000000001
12
0.0308987652
22
0.7356790134
32
0.0000000000
13
0.7353237494
23
0.0384360249
33
0.0000000000
40
0.0000000000
40
0.0000000000
40
0.0000000000
40
0.0000000000
40
0.1662609401
40
0.3331258118
40
0.4999521687
40
0.6667701255
40
0.8336465628
40
1.0000000000
40
1.0000000000
40
1.0000000000
40
1.0000000000
10
-61.7519594100
20
20.9972959167
30
0.0000000000
10
-61.7502469907
20
21.0380674781
30
0.0000000000
10
-61.7366907823
20
21.1196865533
30
0.0000000000
10
-61.6871936774
20
21.2332712524
30
0.0000000000
10
-61.6114130882
20
21.3315531514
30
0.0000000000
10
-61.5139270670
20
21.4083599046
30
0.0000000000
10
-61.4008442607
20
21.4590498673
30
0.0000000000
10
-61.3193438973
20
21.4734610482
30
0.0000000000
10
-61.2785693529
20
21.4755923698
30
0.0000000000
11
-61.7519594100
21
20.9972959167
31
0.0000000000
11
-61.7318768319
21
21.1180599986
31
0.0000000000
11
-61.6828172239
21
21.2307077086
31
0.0000000000
11
-61.6077947464
21
21.3279754394
31
0.0000000000
11
-61.5113219767
21
21.4040074640
31
0.0000000000
11
-61.3991855550
21
21.4542455709
31
0.0000000000
11
-61.2785693529
21
21.4755923698
31
0.0000000000
0
SPLINE
5
3DB
100
AcDbEntity
8
0
100
AcDbSpline
62
9
6
CONTINUOUS
70
0
71
3
72
12
73
8
74
6
42
0.0000001000
43
0.0000001000
44
0.0000000001
12
-0.4990705851
22
-0.0261551811
32
0.0000000000
13
0.0261472364
23
-0.4990710014
33
0.0000000000
40
0.0000000000
40
0.0000000000
40
0.0000000000
40
0.0000000000
40
0.0492065481
40
0.1912403569
40
0.4123852872
40
0.6910492527
40
1.0000000000
40
1.0000000000
40
1.0000000000
40
1.0000000000
10
-61.2960111278
20
21.9749071372
30
0.0000000000
10
-61.3041969748
20
21.9744781352
30
0.0000000000
10
-61.2881696543
20
21.9242228488
30
0.0000000000
10
-61.3014970818
20
21.8725184816
30
0.0000000000
10
-61.2897852617
20
21.7567844815
30
0.0000000000
10
-61.2869183370
20
21.6256547081
30
0.0000000000
10
-61.2812620890
20
21.5269884894
30
0.0000000000
10
-61.2785693529
20
21.4755923698
30
0.0000000000
11
-61.2960111278
21
21.9749071372
31
0.0000000000
11
-61.2974195020
21
21.9503562579
31
0.0000000000
11
-61.2961316218
21
21.8793857676
31
0.0000000000
11
-61.2922734100
21
21.7689347421
31
0.0000000000
11
-61.2862220999
21
21.6298024308
31
0.0000000000
11
-61.2785693529
21
21.4755923698
31
0.0000000000
0
SPLINE
5
3DC
100
AcDbEntity
8
0
100
AcDbSpline
62
9
6
CONTINUOUS
70
0
71
3
72
13
73
9
74
7
42
0.0000001000
43
0.0000001000
44
0.0000000001
12
-0.7353237509
22
0.0384359973
32
0.0000000000
13
-0.0308987927
23
0.7356790123
33
0.0000000000
40
0.0000000000
40
0.0000000000
40
0.0000000000
40
0.0000000000
40
0.1663534372
40
0.3332298744
40
0.5000478313
40
0.6668741882
40
0.8337390599
40
1.0000000000
40
1.0000000000
40
1.0000000000
40
1.0000000000
10
-61.2785693529
20
-21.4755923698
30
0.0000000000
10
-61.3193438974
20
-21.4734610497
30
0.0000000000
10
-61.4008442606
20
-21.4590498662
30
0.0000000000
10
-61.5139270671
20
-21.4083599051
30
0.0000000000
10
-61.6114130883
20
-21.3315531514
30
0.0000000000
10
-61.6871936769
20
-21.2332712522
30
0.0000000000
10
-61.7366907833
20
-21.1196865534
30
0.0000000000
10
-61.7502469892
20
-21.0380674781
30
0.0000000000
10
-61.7519594100
20
-20.9972959167
30
0.0000000000
11
-61.2785693529
21
-21.4755923698
31
0.0000000000
11
-61.3991855549
21
-21.4542455707
31
0.0000000000
11
-61.5113219768
21
-21.4040074642
31
0.0000000000
11
-61.6077947464
21
-21.3279754394
31
0.0000000000
11
-61.6828172238
21
-21.2307077085
31
0.0000000000
11
-61.7318768321
21
-21.1180599987
31
0.0000000000
11
-61.7519594100
21
-20.9972959167
31
0.0000000000
0
SPLINE
5
3DD
100
AcDbEntity
8
0
100
AcDbSpline
62
9
6
CONTINUOUS
70
0
71
3
72
12
73
8
74
6
42
0.0000001000
43
0.0000001000
44
0.0000000001
12
-0.4990705811
22
0.0261551809
32
0.0000000000
13
0.0261471363
23
0.4990710026
33
0.0000000000
40
0.0000000000
40
0.0000000000
40
0.0000000000
40
0.0000000000
40
0.0492080736
40
0.1912450852
40
0.4123921964
40
0.6910548878
40
1.0000000000
40
1.0000000000
40
1.0000000000
40
1.0000000000
10
-61.2960111278
20
-21.9749071372
30
0.0000000000
10
-61.3041972285
20
-21.9744781219
30
0.0000000000
10
-61.2881693389
20
-21.9242215597
30
0.0000000000
10
-61.3014970537
20
-21.8725163400
30
0.0000000000
10
-61.2897851155
20
-21.7567816347
30
0.0000000000
10
-61.2869181893
20
-21.6256525931
30
0.0000000000
10
-61.2812620296
20
-21.5269875521
30
0.0000000000
10
-61.2785693529
20
-21.4755923698
30
0.0000000000
11
-61.2960111278
21
-21.9749071372
31
0.0000000000
11
-61.2974194792
21
-21.9503554931
31
0.0000000000
11
-61.2961315170
21
-21.8793834041
31
0.0000000000
11
-61.2922732347
21
-21.7689312913
31
0.0000000000
11
-61.2862219432
21
-21.6297996177
31
0.0000000000
11
-61.2785693529
21
-21.4755923698
31
0.0000000000
0
SPLINE
5
3DE
100
AcDbEntity
8
0
100
AcDbSpline
62
9
6
CONTINUOUS
70
0
71
3
72
10
73
6
74
4
42
0.0000001000
43
0.0000001000
44
0.0000000001
12
-1.7657702978
22
41.9684643579
32
0.0000000000
13
1.7657701723
23
41.9684643632
33
0.0000000000
40
0.0000000000
40
0.0000000000
40
0.0000000000
40
0.0000000000
40
0.3333329306
40
0.6666671886
40
1.0000000000
40
1.0000000000
40
1.0000000000
40
1.0000000000
10
-61.7519594100
20
-20.9972959167
30
0.0000000000
10
-61.9481558727
20
-16.3341388436
30
0.0000000000
10
-62.2098384831
20
-7.0017560958
30
0.0000000000
10
-62.2098384304
20
7.0017594371
30
0.0000000000
10
-61.9481557885
20
16.3341405117
30
0.0000000000
10
-61.7519594100
20
20.9972959167
30
0.0000000000
11
-61.7519594100
21
-20.9972959167
31
0.0000000000
11
-62.1444175612
21
-7.0009492841
31
0.0000000000
11
-62.1444174948
21
7.0009542947
31
0.0000000000
11
-61.7519594100
21
20.9972959167
31
0.0000000000
0
SPLINE
5
3DF
100
AcDbEntity
8
0
100
AcDbSpline
62
9
6
CONTINUOUS
70
0
71
3
72
12
73
8
74
6
42
0.0000001000
43
0.0000001000
44
0.0000000001
12
0.0087246128
22
0.4999850185
32
0.0000000000
13
-0.4999849721
23
0.0087272702
33
0.0000000000
40
0.0000000000
40
0.0000000000
40
0.0000000000
40
0.0000000000
40
0.3098579557
40
0.5892097349
40
0.8103191748
40
0.9518361988
40
1.0000000000
40
1.0000000000
40
1.0000000000
40
1.0000000000
10
-20.0760299047
20
5.2086513684
30
0.0000000000
10
-20.0751287745
20
5.2602928137
30
0.0000000000
10
-20.0729098449
20
5.3594309762
30
0.0000000000
10
-20.0746373816
20
5.4908927312
30
0.0000000000
10
-20.0669636438
20
5.6071020236
30
0.0000000000
10
-20.0820478558
20
5.6580893795
30
0.0000000000
10
-20.0680028458
20
5.7084351032
30
0.0000000000
10
-20.0760299047
20
5.7085752160
30
0.0000000000
11
-20.0760299047
21
5.2086513684
31
0.0000000000
11
-20.0737560194
21
5.3635826034
31
0.0000000000
11
-20.0725652321
21
5.5032704954
31
0.0000000000
11
-20.0725743935
21
5.6138387322
31
0.0000000000
11
-20.0737808348
21
5.6845956112
31
0.0000000000
11
-20.0760299047
21
5.7085752160
31
0.0000000000
0
SPLINE
5
3E0
100
AcDbEntity
8
0
100
AcDbSpline
62
7
6
CONTINUOUS
70
0
71
3
72
8
73
4
74
2
42
0.0000001000
43
0.0000001000
44
0.0000000001
12
0.0000000000
22
0.0488146662
32
0.0000000000
13
-0.0048267467
23
0.0487392957
33
0.0000000000
40
0.0000000000
40
0.0000000000
40
0.0000000000
40
0.0000000000
40
1.0000000000
40
1.0000000000
40
1.0000000000
40
1.0000000000
10
-19.5847561079
20
-1.1911228098
30
0.0000000000
10
-19.5847561079
20
-1.1748512544
30
0.0000000000
10
-19.5855625499
20
-1.1585437848
30
0.0000000000
10
-19.5871714654
20
-1.1422973529
30
0.0000000000
11
-19.5847561079
21
-1.1911228098
31
0.0000000000
11
-19.5871714654
21
-1.1422973529
31
0.0000000000
0
SPLINE
5
3E1
100
AcDbEntity
8
0
100
AcDbSpline
62
9
6
CONTINUOUS
70
0
71
3
72
8
73
4
74
2
42
0.0000001000
43
0.0000001000
44
0.0000000001
12
-0.0578657420
22
-0.0010190554
32
0.0000000000
13
-0.0577933423
23
-0.0038674409
33
0.0000000000
40
0.0000000000
40
0.0000000000
40
0.0000000000
40
0.0000000000
40
1.0000000000
40
1.0000000000
40
1.0000000000
40
1.0000000000
10
-43.4230150429
20
-19.6695125202
30
0.0000000000
10
-43.4423036235
20
-19.6698522053
30
0.0000000000
10
-43.4615938451
20
-19.6706678701
30
0.0000000000
10
-43.4808582926
20
-19.6719570171
30
0.0000000000
11
-43.4230150429
21
-19.6695125202
31
0.0000000000
11
-43.4808582926
21
-19.6719570171
31
0.0000000000
0
SPLINE
5
3E2
100
AcDbEntity
8
0
100
AcDbSpline
62
7
6
CONTINUOUS
70
0
71
3
72
10
73
6
74
4
42
0.0000001000
43
0.0000001000
44
0.0000000001
12
-4.0000360299
22
0.0287443498
32
0.0000000000
13
-3.9999639243
23
0.0374577365
33
0.0000000000
40
0.0000000000
40
0.0000000000
40
0.0000000000
40
0.0000000000
40
0.3303029973
40
0.6636439357
40
1.0000000000
40
1.0000000000
40
1.0000000000
40
1.0000000000
10
-49.1847561079
20
22.6298666026
30
0.0000000000
10
-49.6251640712
20
22.6330313843
30
0.0000000000
10
-50.5100280190
20
22.6397571456
30
0.0000000000
10
-51.8433613956
20
22.6508921323
30
0.0000000000
10
-52.7362854003
20
22.6589669097
30
0.0000000000
10
-53.1847561079
20
22.6631666220
30
0.0000000000
11
-49.1847561079
21
22.6298666026
31
0.0000000000
11
-50.5059760839
21
22.6398908175
31
0.0000000000
11
-51.8393398993
21
22.6510115990
31
0.0000000000
11
-53.1847561079
21
22.6631666220
31
0.0000000000
0
SPLINE
5
3E3
100
AcDbEntity
8
0
100
AcDbSpline
62
7
6
CONTINUOUS
70
0
71
3
72
10
73
6
74
4
42
0.0000001000
43
0.0000001000
44
0.0000000001
12
-4.0000360299
22
-0.0287443498
32
0.0000000000
13
-3.9999639243
23
-0.0374577365
33
0.0000000000
40
0.0000000000
40
0.0000000000
40
0.0000000000
40
0.0000000000
40
0.3303029973
40
0.6636439357
40
1.0000000000
40
1.0000000000
40
1.0000000000
40
1.0000000000
10
-49.1847561079
20
-22.6298666026
30
0.0000000000
10
-49.6251640712
20
-22.6330313843
30
0.0000000000
10
-50.5100280190
20
-22.6397571456
30
0.0000000000
10
-51.8433613956
20
-22.6508921323
30
0.0000000000
10
-52.7362854003
20
-22.6589669097
30
0.0000000000
10
-53.1847561079
20
-22.6631666220
30
0.0000000000
11
-49.1847561079
21
-22.6298666026
31
0.0000000000
11
-50.5059760839
21
-22.6398908175
31
0.0000000000
11
-51.8393398993
21
-22.6510115990
31
0.0000000000
11
-53.1847561079
21
-22.6631666220
31
0.0000000000
0
SPLINE
5
3E4
100
AcDbEntity
8
0
100
AcDbSpline
62
9
6
CONTINUOUS
70
0
71
3
72
9
73
5
74
3
42
0.0000001000
43
0.0000001000
44
0.0000000001
12
3.7743655892
22
-0.0661764725
32
0.0000000000
13
3.7743655643
23
-0.0661778929
33
0.0000000000
40
0.0000000000
40
0.0000000000
40
0.0000000000
40
0.0000000000
40
0.4998500584
40
1.0000000000
40
1.0000000000
40
1.0000000000
40
1.0000000000
10
-48.9882464456
20
21.0738952212
30
0.0000000000
10
-48.3593741588
20
21.0628691166
30
0.0000000000
10
-47.1012522977
20
21.0408101827
30
0.0000000000
10
-45.8431304412
20
21.0187509794
30
0.0000000000
10
-45.2138808691
20
21.0077180230
30
0.0000000000
11
-48.9882464456
21
21.0738952212
31
0.0000000000
11
-47.1016295885
21
21.0408167305
31
0.0000000000
11
-45.2138808691
21
21.0077180230
31
0.0000000000
0
SPLINE
5
3E5
100
AcDbEntity
8
0
100
AcDbSpline
62
9
6
CONTINUOUS
70
0
71
3
72
11
73
7
74
5
42
0.0000001000
43
0.0000001000
44
0.0000000001
12
0.0018926759
22
1.2436251492
32
0.0000000000
13
-0.0024170842
23
1.2436242406
33
0.0000000000
40
0.0000000000
40
0.0000000000
40
0.0000000000
40
0.0000000000
40
0.2685954978
40
0.5295404717
40
0.7756209556
40
1.0000000000
40
1.0000000000
40
1.0000000000
40
1.0000000000
10
-42.6760301288
20
16.0558086073
30
0.0000000000
10
-42.6758606740
20
16.1671526459
30
0.0000000000
10
-42.6756058217
20
16.3866693912
30
0.0000000000
10
-42.6754721436
20
16.7081970096
30
0.0000000000
10
-42.6755909068
20
17.0113950487
30
0.0000000000
10
-42.6758493296
20
17.2064202474
30
0.0000000000
10
-42.6760301106
20
17.2994346536
30
0.0000000000
11
-42.6760301288
21
16.0558086073
31
0.0000000000
11
-42.6756442265
21
16.3898408872
31
0.0000000000
11
-42.6755145347
21
16.7143589693
31
0.0000000000
11
-42.6756442336
21
17.0203911747
31
0.0000000000
11
-42.6760301106
21
17.2994346536
31
0.0000000000
0
SPLINE
5
3E6
100
AcDbEntity
8
0
100
AcDbSpline
62
9
6
CONTINUOUS
70
0
71
3
72
12
73
8
74
6
42
0.0000001000
43
0.0000001000
44
0.0000000001
12
0.0000000000
22
-0.6622138342
32
0.0000000000
13
-0.6621640761
23
-0.0081177882
33
0.0000000000
40
0.0000000000
40
0.0000000000
40
0.0000000000
40
0.0000000000
40
0.1660910336
40
0.3463903205
40
0.5476646322
40
0.7681302226
40
1.0000000000
40
1.0000000000
40
1.0000000000
40
1.0000000000
10
-19.5847561079
20
-18.9086513684
30
0.0000000000
10
-19.5847561079
20
-18.9453139618
30
0.0000000000
10
-19.6028133787
20
-19.0225592008
30
0.0000000000
10
-19.6768787447
20
-19.1213930303
30
0.0000000000
10
-19.7877205528
20
-19.1980219893
30
0.0000000000
10
-19.9247714783
20
-19.2471905058
30
0.0000000000
10
-20.0248512924
20
-19.2591430726
30
0.0000000000
10
-20.0760299047
20
-19.2597704959
30
0.0000000000
11
-19.5847561079
21
-18.9086513684
31
0.0000000000
11
-19.6086914116
21
-19.0160031874
31
0.0000000000
11
-19.6782057274
21
-19.1130770128
31
0.0000000000
11
-19.7866436704
21
-19.1905788787
31
0.0000000000
11
-19.9236232603
21
-19.2410886625
31
0.0000000000
11
-20.0760299047
21
-19.2597704959
31
0.0000000000
0
SPLINE
5
3E7
100
AcDbEntity
8
0
100
AcDbSpline
62
9
6
CONTINUOUS
70
0
71
3
72
11
73
7
74
5
42
0.0000001000
43
0.0000001000
44
0.0000000001
12
0.0000000000
22
-0.6342825682
32
0.0000000000
13
-0.6342446908
23
-0.0069317038
33
0.0000000000
40
0.0000000000
40
0.0000000000
40
0.0000000000
40
0.0000000000
40
0.1958901352
40
0.4267676172
40
0.6999052693
40
1.0000000000
40
1.0000000000
40
1.0000000000
40
1.0000000000
10
-19.5847561079
20
-16.8566705834
30
0.0000000000
10
-19.5847561079
20
-16.8980871494
30
0.0000000000
10
-19.6165099388
20
-16.9890310181
30
0.0000000000
10
-19.7314750706
20
-17.0886442225
30
0.0000000000
10
-19.8909077379
20
-17.1534376737
30
0.0000000000
10
-20.0125854082
20
-17.1689926150
30
0.0000000000
10
-20.0760299047
20
-17.1696860043
30
0.0000000000
11
-19.5847561079
21
-16.8566705834
31
0.0000000000
11
-19.6219858234
21
-16.9752114444
31
0.0000000000
11
-19.7281308111
21
-17.0760993661
31
0.0000000000
11
-19.8873841186
21
-17.1443101937
31
0.0000000000
11
-20.0760299047
21
-17.1696860043
31
0.0000000000
0
SPLINE
5
3E8
100
AcDbEntity
8
0
100
AcDbSpline
62
9
6
CONTINUOUS
70
0
71
3
72
11
73
7
74
5
42
0.0000001000
43
0.0000001000
44
0.0000000001
12
0.0019210983
22
-1.2520522023
32
0.0000000000
13
-0.0024652883
23
-1.2520512490
33
0.0000000000
40
0.0000000000
40
0.0000000000
40
0.0000000000
40
0.0000000000
40
0.2689242216
40
0.5300367042
40
0.7760435791
40
1.0000000000
40
1.0000000000
40
1.0000000000
40
1.0000000000
10
-20.0760302255
20
-15.9176243194
30
0.0000000000
10
-20.0758580155
20
-16.0298600407
30
0.0000000000
10
-20.0755986218
20
-16.2510713801
30
0.0000000000
10
-20.0754627330
20
-16.5749541228
30
0.0000000000
10
-20.0755832950
20
-16.8800695052
30
0.0000000000
10
-20.0758461045
20
-17.0762091318
30
0.0000000000
10
-20.0760301436
20
-17.1696774373
30
0.0000000000
11
-20.0760302255
21
-15.9176243194
31
0.0000000000
11
-20.0756376809
21
-16.2543316509
31
0.0000000000
11
-20.0755058013
21
-16.5812584680
31
0.0000000000
11
-20.0756377075
21
-16.8892722519
31
0.0000000000
11
-20.0760301436
21
-17.1696774373
31
0.0000000000
0
SPLINE
5
3E9
100
AcDbEntity
8
0
100
AcDbSpline
62
9
6
CONTINUOUS
70
0
71
3
72
11
73
7
74
5
42
0.0000001000
43
0.0000001000
44
0.0000000001
12
0.6328142064
22
-0.0068695148
32
0.0000000000
13
0.0000000005
23
-0.6328514913
33
0.0000000000
40
0.0000000000
40
0.0000000000
40
0.0000000000
40
0.0000000000
40
0.3007374229
40
0.5742078574
40
0.8048694493
40
1.0000000000
40
1.0000000000
40
1.0000000000
40
1.0000000000
10
-42.6760299047
20
17.2994419902
30
0.0000000000
10
-42.6125929335
20
17.2987533501
30
0.0000000000
10
-42.4909860323
20
17.2833199253
30
0.0000000000
10
-42.3316320052
20
17.2190182360
30
0.0000000000
10
-42.2166350036
20
17.1201981680
30
0.0000000000
10
-42.1847561080
20
17.0296965315
30
0.0000000000
10
-42.1847561079
20
16.9885336449
30
0.0000000000
11
-42.6760299047
21
17.2994419902
31
0.0000000000
11
-42.4873841503
21
17.2742370063
31
0.0000000000
11
-42.3281308486
21
17.2064853577
31
0.0000000000
11
-42.2219858403
21
17.1062765690
31
0.0000000000
11
-42.1847561079
21
16.9885336449
31
0.0000000000
0
SPLINE
5
3EA
100
AcDbEntity
8
0
100
AcDbSpline
62
7
6
CONTINUOUS
70
0
71
3
72
13
73
9
74
7
42
0.0000001000
43
0.0000001000
44
0.0000000001
12
0.7656287256
22
-0.0133640991
32
0.0000000000
13
0.0000000000
23
0.7657453523
33
0.0000000000
40
0.0000000000
40
0.0000000000
40
0.0000000000
40
0.0000000000
40
0.1564943738
40
0.3172566669
40
0.4794576029
40
0.6437468093
40
0.8153953166
40
1.0000000000
40
1.0000000000
40
1.0000000000
40
1.0000000000
10
-20.0760299047
20
-5.1915009248
30
0.0000000000
10
-20.0360910421
20
-5.1921980602
30
0.0000000000
10
-19.9546028179
20
-5.1838251565
30
0.0000000000
10
-19.8385279717
20
-5.1411400079
30
0.0000000000
10
-19.7355102080
20
-5.0689170687
30
0.0000000000
10
-19.6531527766
20
-4.9700578681
30
0.0000000000
10
-19.5978078600
20
-4.8475129457
30
0.0000000000
10
-19.5847561079
20
-4.7559972497
30
0.0000000000
10
-19.5847561079
20
-4.7088771902
30
0.0000000000
11
-20.0760299047
21
-5.1915009248
31
0.0000000000
11
-19.9568381670
21
-5.1791026029
31
0.0000000000
11
-19.8413305943
21
-5.1365309689
31
0.0000000000
11
-19.7396661795
21
-5.0651787957
31
0.0000000000
11
-19.6591105518
21
-4.9685487753
31
0.0000000000
11
-19.6049485790
21
-4.8487877478
31
0.0000000000
11
-19.5847561079
21
-4.7088771902
31
0.0000000000
0
SPLINE
5
3EB
100
AcDbEntity
8
0
100
AcDbSpline
62
7
6
CONTINUOUS
70
0
71
3
72
8
73
4
74
2
42
0.0000001000
43
0.0000001000
44
0.0000000001
12
0.0000000000
22
0.0488146662
32
0.0000000000
13
-0.0048267467
23
0.0487392957
33
0.0000000000
40
0.0000000000
40
0.0000000000
40
0.0000000000
40
0.0000000000
40
1.0000000000
40
1.0000000000
40
1.0000000000
40
1.0000000000
10
-19.5847561079
20
-1.1911228098
30
0.0000000000
10
-19.5847561079
20
-1.1748512544
30
0.0000000000
10
-19.5855625499
20
-1.1585437848
30
0.0000000000
10
-19.5871714654
20
-1.1422973529
30
0.0000000000
11
-19.5847561079
21
-1.1911228098
31
0.0000000000
11
-19.5871714654
21
-1.1422973529
31
0.0000000000
0
SPLINE
5
3EC
100
AcDbEntity
8
0
100
AcDbSpline
62
7
6
CONTINUOUS
70
0
71
3
72
13
73
9
74
7
42
0.0000001000
43
0.0000001000
44
0.0000000001
12
-0.0708894361
22
0.7158240185
32
0.0000000000
13
-0.7168217786
23
-0.0125121707
33
0.0000000000
40
0.0000000000
40
0.0000000000
40
0.0000000000
40
0.0000000000
40
0.1287909642
40
0.3122383388
40
0.4882731099
40
0.6615442610
40
0.8325285634
40
1.0000000000
40
1.0000000000
40
1.0000000000
40
1.0000000000
10
-19.5871714654
20
-1.1422973529
30
0.0000000000
10
-19.5902147717
20
-1.1115667977
30
0.0000000000
10
-19.6045536610
20
-1.0375936791
30
0.0000000000
10
-19.6531193948
20
-0.9299537583
30
0.0000000000
10
-19.7356059852
20
-0.8309686817
30
0.0000000000
10
-19.8386405915
20
-0.7588264433
30
0.0000000000
10
-19.9546195511
20
-0.7161835313
30
0.0000000000
10
-20.0360141804
20
-0.7078005981
30
0.0000000000
10
-20.0760299047
20
-0.7084990752
30
0.0000000000
11
-19.5871714654
21
-1.1422973529
31
0.0000000000
11
-19.6048879721
21
-1.0514169787
31
0.0000000000
11
-19.6590398185
21
-0.9315635168
31
0.0000000000
11
-19.7398665081
21
-0.8346372945
31
0.0000000000
11
-19.8415885157
21
-0.7633344206
31
0.0000000000
11
-19.9566117213
21
-0.7209494588
31
0.0000000000
11
-20.0760299047
21
-0.7084990752
31
0.0000000000
0
SPLINE
5
3ED
100
AcDbEntity
8
0
100
AcDbSpline
62
9
6
CONTINUOUS
70
0
71
3
72
12
73
8
74
6
42
0.0000001000
43
0.0000001000
44
0.0000000001
12
0.6636851045
22
-0.0081862318
32
0.0000000000
13
-0.0000000000
23
-0.6637355891
33
0.0000000000
40
0.0000000000
40
0.0000000000
40
0.0000000000
40
0.0000000000
40
0.2310610660
40
0.4512792107
40
0.6525961541
40
0.8332727644
40
1.0000000000
40
1.0000000000
40
1.0000000000
40
1.0000000000
10
-42.6760299047
20
19.6564038783
30
0.0000000000
10
-42.6249126421
20
19.6557733718
30
0.0000000000
10
-42.5248359343
20
19.6437584207
30
0.0000000000
10
-42.3877574145
20
19.5943044984
30
0.0000000000
10
-42.2768394130
20
19.5171531120
30
0.0000000000
10
-42.2027819701
20
19.4176714506
30
0.0000000000
10
-42.1847561079
20
19.3400234358
30
0.0000000000
10
-42.1847561079
20
19.3031358358
30
0.0000000000
11
-42.6760299047
21
19.6564038783
31
0.0000000000
11
-42.5238168948
21
19.6376542582
31
0.0000000000
11
-42.3867630600
21
19.5868514317
31
0.0000000000
11
-42.2782599621
21
19.5088661242
31
0.0000000000
11
-42.2087056451
21
19.4111759902
31
0.0000000000
11
-42.1847561079
21
19.3031358358
31
0.0000000000
0
SPLINE
5
3EE
100
AcDbEntity
8
0
100
AcDbSpline
62
7
6
CONTINUOUS
70
0
71
3
72
23
73
19
74
17
42
0.0000001000
43
0.0000001000
44
0.0000000001
12
-5.8729769630
22
-0.0684979012
32
0.0000000000
13
5.8729769515
23
-0.0684980172
33
0.0000000000
40
0.0000000000
40
0.0000000000
40
0.0000000000
40
0.0000000000
40
0.0336224709
40
0.0671275362
40
0.1338336545
40
0.1671705761
40
0.2005038215
40
0.3003790424
40
0.4002761657
40
0.5000000707
40
0.5997239647
40
0.6996210522
40
0.7994962292
40
0.8328294612
40
0.8661663704
40
0.9328724700
40
0.9663775302
40
1.0000000000
40
1.0000000000
40
1.0000000000
40
1.0000000000
10
-40.3207181654
20
-1.0618714232
30
0.0000000000
10
-40.3865394978
20
-1.0626391128
30
0.0000000000
10
-40.5177225676
20
-1.0711685162
30
0.0000000000
10
-40.7760450674
20
-1.1154874337
30
0.0000000000
10
-41.0255970546
20
-1.1996033549
30
0.0000000000
10
-41.2572378137
20
-1.3203003666
30
0.0000000000
10
-41.5291850247
20
-1.5003466814
30
0.0000000000
10
-41.8533826574
20
-1.8320731327
30
0.0000000000
10
-42.1239122201
20
-2.3619192687
30
0.0000000000
10
-42.2145309390
20
-2.9500004066
30
0.0000000000
10
-42.1239119741
20
-3.5380814282
30
0.0000000000
10
-41.8533823342
20
-4.0679273171
30
0.0000000000
10
-41.5291847423
20
-4.3996535415
30
0.0000000000
10
-41.2572376207
20
-4.5796997424
30
0.0000000000
10
-41.0255969283
20
-4.7003966933
30
0.0000000000
10
-40.7760450054
20
-4.7845125794
30
0.0000000000
10
-40.5177225530
20
-4.8288314831
30
0.0000000000
10
-40.3865394955
20
-4.8373608859
30
0.0000000000
10
-40.3207181654
20
-4.8381285768
30
0.0000000000
11
-40.3207181654
21
-1.0618714232
31
0.0000000000
11
-40.5175468137
21
-1.0746203829
31
0.0000000000
11
-40.7112717408
21
-1.1078390996
31
0.0000000000
11
-41.0820858214
21
-1.2328561457
31
0.0000000000
11
-41.2555126703
21
-1.3232396457
31
0.0000000000
11
-41.4185111883
21
-1.4312632441
31
0.0000000000
11
-41.8290105841
21
-1.8493210131
31
0.0000000000
11
-42.0940456197
21
-2.3719959217
31
0.0000000000
11
-42.1843421362
21
-2.9500004205
31
0.0000000000
11
-42.0940453822
21
-3.5280048171
31
0.0000000000
11
-41.8290102687
21
-4.0506794510
31
0.0000000000
11
-41.4185109488
21
-4.4687369329
31
0.0000000000
11
-41.2555124811
21
-4.5767604645
31
0.0000000000
11
-41.0820856876
21
-4.6671439155
31
0.0000000000
11
-40.7112717051
21
-4.7921609084
31
0.0000000000
11
-40.5175468071
21
-4.8253796166
31
0.0000000000
11
-40.3207181654
21
-4.8381285768
31
0.0000000000
0
SPLINE
5
3EF
100
AcDbEntity
8
0
100
AcDbSpline
62
9
6
CONTINUOUS
70
0
71
3
72
10
73
6
74
4
42
0.0000001000
43
0.0000001000
44
0.0000000001
12
-0.1487968030
22
-0.0025972579
32
0.0000000000
13
-0.0038059309
23
0.1487707943
33
0.0000000000
40
0.0000000000
40
0.0000000000
40
0.0000000000
40
0.0000000000
40
0.1176939096
40
0.4620202795
40
1.0000000000
40
1.0000000000
40
1.0000000000
40
1.0000000000
10
-20.0760299047
20
-19.4085752160
30
0.0000000000
10
-20.0818673972
20
-19.4086771098
30
0.0000000000
10
-20.0662658558
20
-19.3715082981
30
0.0000000000
10
-20.0811528818
20
-19.3354778301
30
0.0000000000
10
-20.0753474002
20
-19.2864490527
30
0.0000000000
10
-20.0760299047
20
-19.2597704959
30
0.0000000000
11
-20.0760299047
21
-19.4085752160
31
0.0000000000
11
-20.0753775324
21
-19.3910722243
31
0.0000000000
11
-20.0753853231
21
-19.3398297574
31
0.0000000000
11
-20.0760299047
21
-19.2597704959
31
0.0000000000
0
SPLINE
5
3F0
100
AcDbEntity
8
0
100
AcDbSpline
62
9
6
CONTINUOUS
70
0
71
3
72
10
73
6
74
4
42
0.0000001000
43
0.0000001000
44
0.0000000001
12
-23.3469845517
22
-0.4097756019
32
0.0000000000
13
-23.3469857215
23
-0.4097089480
33
0.0000000000
40
0.0000000000
40
0.0000000000
40
0.0000000000
40
0.0000000000
40
0.3341530837
40
0.6674864173
40
1.0000000000
40
1.0000000000
40
1.0000000000
40
1.0000000000
10
-20.0760299047
20
-19.2597703307
30
0.0000000000
10
-22.6765188655
20
-19.3054129244
30
0.0000000000
10
-27.8711172637
20
-19.3965838482
30
0.0000000000
10
-35.6534456471
20
-19.5331643504
30
0.0000000000
10
-40.8352850873
20
-19.6241012568
30
0.0000000000
10
-43.4230150429
20
-19.6695125202
30
0.0000000000
11
-20.0760299047
21
-19.2597703307
31
0.0000000000
11
-27.8774968506
21
-19.3966944899
31
0.0000000000
11
-35.6598252398
21
-19.5332751095
31
0.0000000000
11
-43.4230150429
21
-19.6695125202
31
0.0000000000
0
SPLINE
5
3F1
100
AcDbEntity
8
0
100
AcDbSpline
62
7
6
CONTINUOUS
70
0
71
3
72
9
73
5
74
3
42
0.0000001000
43
0.0000001000
44
0.0000000001
12
-0.0740114289
22
0.0786150719
32
0.0000000000
13
-0.0709864994
23
0.0813776023
33
0.0000000000
40
0.0000000000
40
0.0000000000
40
0.0000000000
40
0.0000000000
40
0.7588427905
40
1.0000000000
40
1.0000000000
40
1.0000000000
40
1.0000000000
10
-48.9882464456
20
21.0738952212
30
0.0000000000
10
-49.0069674586
20
21.0937807147
30
0.0000000000
10
-49.0316618072
20
21.1199664843
30
0.0000000000
10
-49.0555856115
20
21.1468646595
30
0.0000000000
10
-49.0612919136
20
21.1534062580
30
0.0000000000
11
-48.9882464456
21
21.0738952212
31
0.0000000000
11
-49.0440020033
21
21.1339327130
31
0.0000000000
11
-49.0612919136
21
21.1534062580
31
0.0000000000
0
SPLINE
5
3F2
100
AcDbEntity
8
0
100
AcDbSpline
62
7
6
CONTINUOUS
70
0
71
3
72
9
73
5
74
3
42
0.0000001000
43
0.0000001000
44
0.0000000001
12
-0.0787110755
22
0.0902329126
32
0.0000000000
13
-0.0641353968
23
0.1011773842
33
0.0000000000
40
0.0000000000
40
0.0000000000
40
0.0000000000
40
0.0000000000
40
0.4180569928
40
1.0000000000
40
1.0000000000
40
1.0000000000
40
1.0000000000
10
-49.0612919136
20
21.1534062580
30
0.0000000000
10
-49.0722604854
20
21.1659804247
30
0.0000000000
10
-49.0979398679
20
21.1965433548
30
0.0000000000
10
-49.1215423848
20
21.2288148269
30
0.0000000000
10
-49.1339834333
20
21.2484413173
30
0.0000000000
11
-49.0612919136
21
21.1534062580
31
0.0000000000
11
-49.0933683990
21
21.1918331227
31
0.0000000000
11
-49.1339834333
21
21.2484413173
31
0.0000000000
0
SPLINE
5
3F3
100
AcDbEntity
8
0
100
AcDbSpline
62
7
6
CONTINUOUS
70
0
71
3
72
9
73
5
74
3
42
0.0000001000
43
0.0000001000
44
0.0000000001
12
-0.0518558485
22
0.0818056701
32
0.0000000000
13
-0.0278272758
23
0.0929152935
33
0.0000000000
40
0.0000000000
40
0.0000000000
40
0.0000000000
40
0.0000000000
40
0.6532795459
40
1.0000000000
40
1.0000000000
40
1.0000000000
40
1.0000000000
10
-49.1339834333
20
21.2484413173
30
0.0000000000
10
-49.1452755550
20
21.2662553077
30
0.0000000000
10
-49.1609286756
20
21.2945911466
30
0.0000000000
10
-49.1722619785
20
21.3250010754
30
0.0000000000
10
-49.1754780737
20
21.3357396196
30
0.0000000000
11
-49.1339834333
21
21.2484413173
31
0.0000000000
11
-49.1638836955
21
21.3041629236
31
0.0000000000
11
-49.1754780737
21
21.3357396196
31
0.0000000000
0
SPLINE
5
3F4
100
AcDbEntity
8
0
100
AcDbSpline
62
7
6
CONTINUOUS
70
0
71
3
72
8
73
4
74
2
42
0.0000001000
43
0.0000001000
44
0.0000000001
12
-0.0069173764
22
0.0230971247
32
0.0000000000
13
-0.0045025958
23
0.0236376189
33
0.0000000000
40
0.0000000000
40
0.0000000000
40
0.0000000000
40
0.0000000000
40
1.0000000000
40
1.0000000000
40
1.0000000000
40
1.0000000000
10
-49.1754780737
20
21.3357396196
30
0.0000000000
10
-49.1777838659
20
21.3434386612
30
0.0000000000
10
-49.1797229578
20
21.3512378344
30
0.0000000000
10
-49.1812238231
20
21.3591170407
30
0.0000000000
11
-49.1754780737
21
21.3357396196
31
0.0000000000
11
-49.1812238231
21
21.3591170407
31
0.0000000000
0
SPLINE
5
3F5
100
AcDbEntity
8
0
100
AcDbSpline
62
9
6
CONTINUOUS
70
0
71
3
72
10
73
6
74
4
42
0.0000001000
43
0.0000001000
44
0.0000000001
12
0.1465781349
22
0.0025550437
32
0.0000000000
13
-0.0014990913
23
0.1465927372
33
0.0000000000
40
0.0000000000
40
0.0000000000
40
0.0000000000
40
0.0000000000
40
0.1164870005
40
0.4575412439
40
1.0000000000
40
1.0000000000
40
1.0000000000
40
1.0000000000
10
-43.4230150436
20
-19.8160983137
30
0.0000000000
10
-43.4173235612
20
-19.8159991040
30
0.0000000000
10
-43.4294800593
20
-19.7802212576
30
0.0000000000
10
-43.4177022670
20
-19.7442325405
30
0.0000000000
10
-43.4227439800
20
-19.6960192675
30
0.0000000000
10
-43.4230150451
20
-19.6695124295
30
0.0000000000
11
-43.4230150436
21
-19.8160983137
31
0.0000000000
11
-43.4223762409
21
-19.7990332247
31
0.0000000000
11
-43.4223762360
21
-19.7490345355
31
0.0000000000
11
-43.4230150451
21
-19.6695124295
31
0.0000000000
0
SPLINE
5
3F6
100
AcDbEntity
8
0
100
AcDbSpline
62
9
6
CONTINUOUS
70
0
71
3
72
8
73
4
74
2
42
0.0000001000
43
0.0000001000
44
0.0000000001
12
-0.0578657420
22
-0.0010190554
32
0.0000000000
13
-0.0577933423
23
-0.0038674409
33
0.0000000000
40
0.0000000000
40
0.0000000000
40
0.0000000000
40
0.0000000000
40
1.0000000000
40
1.0000000000
40
1.0000000000
40
1.0000000000
10
-43.4230150429
20
-19.6695125202
30
0.0000000000
10
-43.4423036235
20
-19.6698522053
30
0.0000000000
10
-43.4615938451
20
-19.6706678701
30
0.0000000000
10
-43.4808582926
20
-19.6719570171
30
0.0000000000
11
-43.4230150429
21
-19.6695125202
31
0.0000000000
11
-43.4808582926
21
-19.6719570171
31
0.0000000000
0
SPLINE
5
3F7
100
AcDbEntity
8
0
100
AcDbSpline
62
9
6
CONTINUOUS
70
0
71
3
72
12
73
8
74
6
42
0.0000001000
43
0.0000001000
44
0.0000000001
12
-0.8645897339
22
-0.0578570048
32
0.0000000000
13
-0.6068367697
23
-0.6175524305
33
0.0000000000
40
0.0000000000
40
0.0000000000
40
0.0000000000
40
0.0000000000
40
0.1346850029
40
0.3420872990
40
0.5564981224
40
0.7762619946
40
1.0000000000
40
1.0000000000
40
1.0000000000
40
1.0000000000
10
-43.4808582926
20
-19.6719570171
30
0.0000000000
10
-43.5196740495
20
-19.6745545074
30
0.0000000000
10
-43.6179966687
20
-19.6860341878
30
0.0000000000
10
-43.7744935944
20
-19.7246675277
30
0.0000000000
10
-43.9460460617
20
-19.7963679776
30
0.0000000000
10
-44.1081840291
20
-19.8966554194
30
0.0000000000
10
-44.2053428097
20
-19.9809808078
30
0.0000000000
10
-44.2506002926
20
-20.0270374575
30
0.0000000000
11
-43.4808582926
21
-19.6719570171
31
0.0000000000
11
-43.5967673941
21
-19.6854957642
31
0.0000000000
11
-43.7711127780
21
-19.7284981579
31
0.0000000000
11
-43.9423965560
21
-19.8000766805
31
0.0000000000
11
-44.1042239904
21
-19.9001553439
31
0.0000000000
11
-44.2506002926
21
-20.0270374575
31
0.0000000000
0
SPLINE
5
3F8
100
AcDbEntity
8
0
100
AcDbSpline
62
9
6
CONTINUOUS
70
0
71
3
72
12
73
8
74
6
42
0.0000001000
43
0.0000001000
44
0.0000000001
12
-0.0004886301
22
0.1226808211
32
0.0000000000
13
0.1226700782
23
-0.0016954511
33
0.0000000000
40
0.0000000000
40
0.0000000000
40
0.0000000000
40
0.0000000000
40
0.4129714935
40
0.6977162542
40
0.8771224081
40
0.9718439396
40
1.0000000000
40
1.0000000000
40
1.0000000000
40
1.0000000000
10
-48.9882466881
20
21.0738911231
30
0.0000000000
10
-48.9883139515
20
21.0907790170
30
0.0000000000
10
-48.9887655699
20
21.1196980671
30
0.0000000000
10
-48.9877905836
20
21.1544100021
30
0.0000000000
10
-48.9897526699
20
21.1794357893
30
0.0000000000
10
-48.9867189906
20
21.1885174451
30
0.0000000000
10
-48.9893978924
20
21.1965857592
30
0.0000000000
10
-48.9882465904
20
21.1965698468
30
0.0000000000
11
-48.9882466881
21
21.0738911231
31
0.0000000000
11
-48.9884186450
21
21.1245549150
31
0.0000000000
11
-48.9884809442
21
21.1594878576
31
0.0000000000
11
-48.9884594057
21
21.1814977159
31
0.0000000000
11
-48.9883756131
21
21.1931180213
31
0.0000000000
11
-48.9882465904
21
21.1965698468
31
0.0000000000
0
SPLINE
5
3F9
100
AcDbEntity
8
0
100
AcDbSpline
62
9
6
CONTINUOUS
70
0
71
3
72
10
73
6
74
4
42
0.0000001000
43
0.0000001000
44
0.0000000001
12
-0.2574048678
22
-0.2574048678
32
0.0000000000
13
-0.3381399711
23
0.1348179954
33
0.0000000000
40
0.0000000000
40
0.0000000000
40
0.0000000000
40
0.0000000000
40
0.2873965240
40
0.6158037530
40
1.0000000000
40
1.0000000000
40
1.0000000000
40
1.0000000000
10
-44.8690741226
20
-20.9843180147
30
0.0000000000
10
-44.8937332107
20
-21.0089771028
30
0.0000000000
10
-44.9626509775
20
-21.0466543809
30
0.0000000000
10
-45.0870115516
20
-21.0511052840
30
0.0000000000
10
-45.1705972740
20
-21.0249839204
30
0.0000000000
10
-45.2139013100
20
-21.0077183978
30
0.0000000000
11
-44.8690741226
21
-20.9843180147
31
0.0000000000
11
-44.9597305437
21
-21.0365356801
31
0.0000000000
11
-45.0790044255
21
-21.0446354773
31
0.0000000000
11
-45.2139013100
21
-21.0077183978
31
0.0000000000
0
SPLINE
5
3FA
100
AcDbEntity
8
0
100
AcDbSpline
62
9
6
CONTINUOUS
70
0
71
3
72
10
73
6
74
4
42
0.0000001000
43
0.0000001000
44
0.0000000001
12
-0.2575232204
22
-0.2575231995
32
0.0000000000
13
-0.3287885611
23
0.1566348920
33
0.0000000000
40
0.0000000000
40
0.0000000000
40
0.0000000000
40
0.0000000000
40
0.2783158603
40
0.6065717214
40
1.0000000000
40
1.0000000000
40
1.0000000000
40
1.0000000000
10
-43.9057731052
20
-20.0210169973
30
0.0000000000
10
-43.9296640374
20
-20.0449079275
30
0.0000000000
10
-43.9993964654
20
-20.0801177537
30
0.0000000000
10
-44.1237124337
20
-20.0768072158
30
0.0000000000
10
-44.2074820535
20
-20.0475789838
30
0.0000000000
10
-44.2506002927
20
-20.0270374518
30
0.0000000000
11
-43.9057731052
21
-20.0210169973
31
0.0000000000
11
-43.9948498518
21
-20.0693834312
31
0.0000000000
11
-44.1143800615
21
-20.0714703496
31
0.0000000000
11
-44.2506002927
21
-20.0270374518
31
0.0000000000
0
SPLINE
5
3FB
100
AcDbEntity
8
0
100
AcDbSpline
62
9
6
CONTINUOUS
70
0
71
3
72
9
73
5
74
3
42
0.0000001000
43
0.0000001000
44
0.0000000001
12
-0.9632861062
22
-0.9806764142
32
0.0000000000
13
-0.9632966576
23
-0.9806660498
33
0.0000000000
40
0.0000000000
40
0.0000000000
40
0.0000000000
40
0.0000000000
40
0.5178696657
40
1.0000000000
40
1.0000000000
40
1.0000000000
40
1.0000000000
10
-44.2506002926
20
-20.0270374575
30
0.0000000000
10
-44.4168858438
20
-20.1963249797
30
0.0000000000
10
-44.7379876316
20
-20.5232108126
30
0.0000000000
10
-45.0590699052
20
-20.8501158135
30
0.0000000000
10
-45.2138814185
20
-21.0077187636
30
0.0000000000
11
-44.2506002926
21
-20.0270374575
31
0.0000000000
11
-44.7494583613
21
-20.5348986343
31
0.0000000000
11
-45.2138814185
21
-21.0077187636
31
0.0000000000
0
SPLINE
5
3FC
100
AcDbEntity
8
0
100
AcDbSpline
62
9
6
CONTINUOUS
70
0
71
3
72
10
73
6
74
4
42
0.0000001000
43
0.0000001000
44
0.0000000001
12
0.1229631135
22
-0.0021463291
32
0.0000000000
13
-0.0004143175
23
-0.1229811464
33
0.0000000000
40
0.0000000000
40
0.0000000000
40
0.0000000000
40
0.0000000000
40
0.1154847081
40
0.4552180528
40
1.0000000000
40
1.0000000000
40
1.0000000000
40
1.0000000000
10
-45.2139013100
20
21.1306884717
30
0.0000000000
10
-45.2091678569
20
21.1306058490
30
0.0000000000
10
-45.2193241725
20
21.1007527225
30
0.0000000000
10
-45.2093866994
20
21.0705598941
30
0.0000000000
10
-45.2138260724
20
21.0300510339
30
0.0000000000
10
-45.2139013100
20
21.0077183978
30
0.0000000000
11
-45.2139013100
21
21.1306884717
31
0.0000000000
11
-45.2133761942
21
21.1164956603
31
0.0000000000
11
-45.2133760052
21
21.0747146270
31
0.0000000000
11
-45.2139013100
21
21.0077183978
31
0.0000000000
0
SPLINE
5
3FD
100
AcDbEntity
8
0
100
AcDbSpline
62
9
6
CONTINUOUS
70
0
71
3
72
9
73
5
74
3
42
0.0000001000
43
0.0000001000
44
0.0000000001
12
-3.7743650055
22
-0.0661778826
32
0.0000000000
13
-3.7743650304
23
-0.0661764627
33
0.0000000000
40
0.0000000000
40
0.0000000000
40
0.0000000000
40
0.0000000000
40
0.5001520009
40
1.0000000000
40
1.0000000000
40
1.0000000000
40
1.0000000000
10
-45.2138814185
20
-21.0077187636
30
0.0000000000
10
-45.8431334884
20
-21.0187517637
30
0.0000000000
10
-47.1012551778
20
-21.0408098679
30
0.0000000000
10
-48.3593768462
20
-21.0628691637
30
0.0000000000
10
-48.9882464490
20
-21.0738952211
30
0.0000000000
11
-45.2138814185
21
-21.0077187636
31
0.0000000000
11
-47.1016376439
21
-21.0408168717
31
0.0000000000
11
-48.9882464490
21
-21.0738952211
31
0.0000000000
0
SPLINE
5
3FE
100
AcDbEntity
8
0
100
AcDbSpline
62
9
6
CONTINUOUS
70
0
71
3
72
10
73
6
74
4
42
0.0000001000
43
0.0000001000
44
0.0000000001
12
-0.2574048704
22
0.2574048704
32
0.0000000000
13
-0.3381399650
23
-0.1348180204
33
0.0000000000
40
0.0000000000
40
0.0000000000
40
0.0000000000
40
0.0000000000
40
0.2873965416
40
0.6158037674
40
1.0000000000
40
1.0000000000
40
1.0000000000
40
1.0000000000
10
-44.8690741226
20
20.9843180147
30
0.0000000000
10
-44.8937332125
20
21.0089771045
30
0.0000000000
10
-44.9626509799
20
21.0466543866
30
0.0000000000
10
-45.0870115562
20
21.0511052907
30
0.0000000000
10
-45.1705972764
20
21.0249839230
30
0.0000000000
10
-45.2139013100
20
21.0077183978
30
0.0000000000
11
-44.8690741226
21
20.9843180147
31
0.0000000000
11
-44.9597305491
21
21.0365356855
31
0.0000000000
11
-45.0790044310
21
21.0446354828
31
0.0000000000
11
-45.2139013100
21
21.0077183978
31
0.0000000000
0
SPLINE
5
3FF
100
AcDbEntity
8
0
100
AcDbSpline
62
7
6
CONTINUOUS
70
0
71
3
72
8
73
4
74
2
42
0.0000001000
43
0.0000001000
44
0.0000000001
12
0.0043487692
22
0.0228300710
32
0.0000000000
13
0.0066081436
23
0.0223273617
33
0.0000000000
40
0.0000000000
40
0.0000000000
40
0.0000000000
40
0.0000000000
40
1.0000000000
40
1.0000000000
40
1.0000000000
40
1.0000000000
10
-49.1812238230
20
-21.3591170406
30
0.0000000000
10
-49.1797742333
20
-21.3515070169
30
0.0000000000
10
-49.1779157244
20
-21.3439715726
30
0.0000000000
10
-49.1757130099
20
-21.3365291187
30
0.0000000000
11
-49.1812238230
21
-21.3591170406
31
0.0000000000
11
-49.1757130099
21
-21.3365291187
31
0.0000000000
0
SPLINE
5
400
100
AcDbEntity
8
0
100
AcDbSpline
62
7
6
CONTINUOUS
70
0
71
3
72
8
73
4
74
2
42
0.0000001000
43
0.0000001000
44
0.0000000001
12
0.0039022145
22
0.0131846643
32
0.0000000000
13
0.0045824034
23
0.0129787312
33
0.0000000000
40
0.0000000000
40
0.0000000000
40
0.0000000000
40
0.0000000000
40
1.0000000000
40
1.0000000000
40
1.0000000000
40
1.0000000000
10
-49.1757130099
20
-21.3365291187
30
0.0000000000
10
-49.1744122718
20
-21.3321342306
30
0.0000000000
10
-49.1729915059
20
-21.3277717691
30
0.0000000000
10
-49.1714640381
20
-21.3234455254
30
0.0000000000
11
-49.1757130099
21
-21.3365291187
31
0.0000000000
11
-49.1714640381
21
-21.3234455254
31
0.0000000000
0
SPLINE
5
401
100
AcDbEntity
8
0
100
AcDbSpline
62
7
6
CONTINUOUS
70
0
71
3
72
9
73
5
74
3
42
0.0000001000
43
0.0000001000
44
0.0000000001
12
0.0132425211
22
0.0375067635
32
0.0000000000
13
0.0177236974
23
0.0355238476
33
0.0000000000
40
0.0000000000
40
0.0000000000
40
0.0000000000
40
0.0000000000
40
0.4896285257
40
1.0000000000
40
1.0000000000
40
1.0000000000
40
1.0000000000
10
-49.1714640381
20
-21.3234455254
30
0.0000000000
10
-49.1693027328
20
-21.3173240650
30
0.0000000000
10
-49.1644522503
20
-21.3049699064
30
0.0000000000
10
-49.1588681327
20
-21.2929630128
30
0.0000000000
10
-49.1558529096
20
-21.2869195600
30
0.0000000000
11
-49.1714640381
21
-21.3234455254
31
0.0000000000
11
-49.1643769848
21
-21.3053094200
31
0.0000000000
11
-49.1558529096
21
-21.2869195600
31
0.0000000000
0
SPLINE
5
402
100
AcDbEntity
8
0
100
AcDbSpline
62
7
6
CONTINUOUS
70
0
71
3
72
8
73
4
74
2
42
0.0000001000
43
0.0000001000
44
0.0000000001
12
0.0191841685
22
0.0384510897
32
0.0000000000
13
0.0229040617
23
0.0363398201
33
0.0000000000
40
0.0000000000
40
0.0000000000
40
0.0000000000
40
0.0000000000
40
1.0000000000
40
1.0000000000
40
1.0000000000
40
1.0000000000
10
-49.1558529096
20
-21.2869195600
30
0.0000000000
10
-49.1494581867
20
-21.2741025301
30
0.0000000000
10
-49.1423202000
20
-21.2616656721
30
0.0000000000
10
-49.1346855128
20
-21.2495523987
30
0.0000000000
11
-49.1558529096
21
-21.2869195600
31
0.0000000000
11
-49.1346855128
21
-21.2495523987
31
0.0000000000
0
SPLINE
5
403
100
AcDbEntity
8
0
100
AcDbSpline
62
7
6
CONTINUOUS
70
0
71
3
72
10
73
6
74
4
42
0.0000001000
43
0.0000001000
44
0.0000000001
12
0.1073143104
22
0.1702659899
32
0.0000000000
13
0.1375690350
23
0.1467364633
33
0.0000000000
40
0.0000000000
40
0.0000000000
40
0.0000000000
40
0.0000000000
40
0.3497224360
40
0.7314638192
40
1.0000000000
40
1.0000000000
40
1.0000000000
40
1.0000000000
10
-49.1346855128
20
-21.2495523987
30
0.0000000000
10
-49.1221754387
20
-21.2297037865
30
0.0000000000
10
-49.0932205885
20
-21.1900064814
30
0.0000000000
10
-49.0493259681
20
-21.1392773906
30
0.0000000000
10
-49.0196529849
20
-21.1073341000
30
0.0000000000
10
-49.0073388971
20
-21.0941994168
30
0.0000000000
11
-49.1346855128
21
-21.2495523987
31
0.0000000000
11
-49.0937674208
21
-21.1923364220
31
0.0000000000
11
-49.0439676902
21
-21.1338946182
31
0.0000000000
11
-49.0073388971
21
-21.0941994168
31
0.0000000000
0
SPLINE
5
404
100
AcDbEntity
8
0
100
AcDbSpline
62
7
6
CONTINUOUS
70
0
71
3
72
8
73
4
74
2
42
0.0000001000
43
0.0000001000
44
0.0000000001
12
0.0190623214
22
0.0203326106
32
0.0000000000
13
0.0191044204
23
0.0202924954
33
0.0000000000
40
0.0000000000
40
0.0000000000
40
0.0000000000
40
0.0000000000
40
1.0000000000
40
1.0000000000
40
1.0000000000
40
1.0000000000
10
-49.0073388971
20
-21.0941994168
30
0.0000000000
10
-49.0009847900
20
-21.0874218800
30
0.0000000000
10
-48.9946145891
20
-21.0806593863
30
0.0000000000
10
-48.9882464490
20
-21.0738952211
30
0.0000000000
11
-49.0073388971
21
-21.0941994168
31
0.0000000000
11
-48.9882464490
21
-21.0738952211
31
0.0000000000
0
SPLINE
5
405
100
AcDbEntity
8
0
100
AcDbSpline
62
7
6
CONTINUOUS
70
0
71
3
72
10
73
6
74
4
42
0.0000001000
43
0.0000001000
44
0.0000000001
12
-3.9999099472
22
0.0844306542
32
0.0000000000
13
-4.0000789575
23
0.0760029924
33
0.0000000000
40
0.0000000000
40
0.0000000000
40
0.0000000000
40
0.0000000000
40
0.3303097417
40
0.6636505372
40
1.0000000000
40
1.0000000000
40
1.0000000000
40
1.0000000000
10
-49.1847561079
20
23.0998904748
30
0.0000000000
10
-49.6251591818
20
23.1091865640
30
0.0000000000
10
-50.5100142029
20
23.1275074450
30
0.0000000000
10
-51.8433485539
20
23.1541449052
30
0.0000000000
10
-52.7362813050
20
23.1713873732
30
0.0000000000
10
-53.1847561079
20
23.1799085618
30
0.0000000000
11
-49.1847561079
21
23.0998904748
31
0.0000000000
11
-50.5059760839
21
23.1272645049
31
0.0000000000
11
-51.8393398993
21
23.1539170037
31
0.0000000000
11
-53.1847561079
21
23.1799085618
31
0.0000000000
0
SPLINE
5
406
100
AcDbEntity
8
0
100
AcDbSpline
62
9
6
CONTINUOUS
70
0
71
3
72
12
73
8
74
6
42
0.0000001000
43
0.0000001000
44
0.0000000001
12
0.0087246128
22
0.4999850185
32
0.0000000000
13
-0.4999849721
23
0.0087272702
33
0.0000000000
40
0.0000000000
40
0.0000000000
40
0.0000000000
40
0.0000000000
40
0.3098579557
40
0.5892097349
40
0.8103191748
40
0.9518361988
40
1.0000000000
40
1.0000000000
40
1.0000000000
40
1.0000000000
10
-20.0760299047
20
5.2086513684
30
0.0000000000
10
-20.0751287745
20
5.2602928137
30
0.0000000000
10
-20.0729098449
20
5.3594309762
30
0.0000000000
10
-20.0746373816
20
5.4908927312
30
0.0000000000
10
-20.0669636438
20
5.6071020236
30
0.0000000000
10
-20.0820478558
20
5.6580893795
30
0.0000000000
10
-20.0680028458
20
5.7084351032
30
0.0000000000
10
-20.0760299047
20
5.7085752160
30
0.0000000000
11
-20.0760299047
21
5.2086513684
31
0.0000000000
11
-20.0737560194
21
5.3635826034
31
0.0000000000
11
-20.0725652321
21
5.5032704954
31
0.0000000000
11
-20.0725743935
21
5.6138387322
31
0.0000000000
11
-20.0737808348
21
5.6845956112
31
0.0000000000
11
-20.0760299047
21
5.7085752160
31
0.0000000000
0
SPLINE
5
407
100
AcDbEntity
8
0
100
AcDbSpline
62
9
6
CONTINUOUS
70
0
71
3
72
12
73
8
74
6
42
0.0000001000
43
0.0000001000
44
0.0000000001
12
-0.1226699126
22
-0.0017008460
32
0.0000000000
13
0.0004886271
23
0.1226807303
33
0.0000000000
40
0.0000000000
40
0.0000000000
40
0.0000000000
40
0.0000000000
40
0.0283469970
40
0.1235717874
40
0.3035125030
40
0.5882905992
40
1.0000000000
40
1.0000000000
40
1.0000000000
40
1.0000000000
10
-48.9882465903
20
-21.1965698523
30
0.0000000000
10
-48.9894056982
20
-21.1965859236
30
0.0000000000
10
-48.9867097633
20
-21.1884711930
30
0.0000000000
10
-48.9897566332
20
-21.1793531218
30
0.0000000000
10
-48.9877908975
20
-21.1542805179
30
0.0000000000
10
-48.9887635011
20
-21.1195942660
30
0.0000000000
10
-48.9883137433
20
-21.0907274839
30
0.0000000000
10
-48.9882466859
20
-21.0738912139
30
0.0000000000
11
-48.9882465903
21
-21.1965698523
31
0.0000000000
11
-48.9883759664
21
-21.1930946018
31
0.0000000000
11
-48.9884596945
21
-21.1814125623
31
0.0000000000
11
-48.9884808546
21
-21.1593371390
31
0.0000000000
11
-48.9884182331
21
-21.1244001332
31
0.0000000000
11
-48.9882466859
21
-21.0738912139
31
0.0000000000
0
SPLINE
5
408
100
AcDbEntity
8
0
100
AcDbSpline
62
9
6
CONTINUOUS
70
0
71
3
72
9
73
5
74
3
42
0.0000001000
43
0.0000001000
44
0.0000000001
12
-10.5087254313
22
0.0639775136
32
0.0000000000
13
-10.5087269710
23
0.0637241057
33
0.0000000000
40
0.0000000000
40
0.0000000000
40
0.0000000000
40
0.0000000000
40
0.5004211831
40
1.0000000000
40
1.0000000000
40
1.0000000000
40
1.0000000000
10
-42.6760299047
20
16.0558086086
30
0.0000000000
10
-44.4289595091
20
16.0664805096
30
0.0000000000
10
-47.9318681157
20
16.0877850865
30
0.0000000000
10
-51.4347769789
20
16.1090474282
30
0.0000000000
10
-53.1847561079
20
16.1196591660
30
0.0000000000
11
-42.6760299047
21
16.0558086086
31
0.0000000000
11
-47.9348189118
21
16.0877924562
31
0.0000000000
11
-53.1847561079
21
16.1196591660
31
0.0000000000
0
SPLINE
5
409
100
AcDbEntity
8
0
100
AcDbSpline
62
9
6
CONTINUOUS
70
0
71
3
72
9
73
5
74
3
42
0.0000001000
43
0.0000001000
44
0.0000000001
12
-10.5087255786
22
0.0600969244
32
0.0000000000
13
-10.5087268246
23
0.0598786530
33
0.0000000000
40
0.0000000000
40
0.0000000000
40
0.0000000000
40
0.0000000000
40
0.5004211814
40
1.0000000000
40
1.0000000000
40
1.0000000000
40
1.0000000000
10
-42.6760299047
20
17.2994419902
30
0.0000000000
10
-44.4289595276
20
17.3094665815
30
0.0000000000
10
-47.9318681585
20
17.3294805799
30
0.0000000000
10
-51.4347769971
20
17.3494582003
30
0.0000000000
10
-53.1847561079
20
17.3594295692
30
0.0000000000
11
-42.6760299047
21
17.2994419902
31
0.0000000000
11
-47.9348189302
21
17.3294883291
31
0.0000000000
11
-53.1847561079
21
17.3594295692
31
0.0000000000
0
SPLINE
5
40A
100
AcDbEntity
8
0
100
AcDbSpline
62
9
6
CONTINUOUS
70
0
71
3
72
10
73
6
74
4
42
0.0000001000
43
0.0000001000
44
0.0000000001
12
0.1465780243
22
-0.0025585289
32
0.0000000000
13
-0.0014989177
23
-0.1465926892
33
0.0000000000
40
0.0000000000
40
0.0000000000
40
0.0000000000
40
0.0000000000
40
0.1164870791
40
0.4575413230
40
1.0000000000
40
1.0000000000
40
1.0000000000
40
1.0000000000
10
-43.4230150429
20
19.8160983575
30
0.0000000000
10
-43.4173235609
20
19.8159990123
30
0.0000000000
10
-43.4294802030
20
19.7802214904
30
0.0000000000
10
-43.4177022971
20
19.7442324771
30
0.0000000000
10
-43.4227440092
20
19.6960193456
30
0.0000000000
10
-43.4230150429
20
19.6695125202
30
0.0000000000
11
-43.4230150429
21
19.8160983575
31
0.0000000000
11
-43.4223763032
21
19.7990332604
31
0.0000000000
11
-43.4223763032
21
19.7490345881
31
0.0000000000
11
-43.4230150429
21
19.6695125202
31
0.0000000000
0
SPLINE
5
40B
100
AcDbEntity
8
0
100
AcDbSpline
62
9
6
CONTINUOUS
70
0
71
3
72
10
73
6
74
4
42
0.0000001000
43
0.0000001000
44
0.0000000001
12
0.1466479898
22
-0.0025597502
32
0.0000000000
13
-0.0014997566
23
-0.1466626605
33
0.0000000000
40
0.0000000000
40
0.0000000000
40
0.0000000000
40
0.0000000000
40
0.1164898001
40
0.4575480127
40
1.0000000000
40
1.0000000000
40
1.0000000000
40
1.0000000000
10
-42.6760299047
20
19.8030596834
30
0.0000000000
10
-42.6703355730
20
19.8029602885
30
0.0000000000
10
-42.6824981628
20
19.7671651422
30
0.0000000000
10
-42.6707146672
20
19.7311589624
30
0.0000000000
10
-42.6757587227
20
19.6829230288
30
0.0000000000
10
-42.6760299047
20
19.6564038783
30
0.0000000000
11
-42.6760299047
21
19.8030596834
31
0.0000000000
11
-42.6753908216
21
19.7859860427
31
0.0000000000
11
-42.6753908216
21
19.7359629227
31
0.0000000000
11
-42.6760299047
21
19.6564038783
31
0.0000000000
0
SPLINE
5
40C
100
AcDbEntity
8
0
100
AcDbSpline
62
9
6
CONTINUOUS
70
0
71
3
72
10
73
6
74
4
42
0.0000001000
43
0.0000001000
44
0.0000000001
12
-0.2575212736
22
0.2575233639
32
0.0000000000
13
-0.3287889220
23
-0.1566312042
33
0.0000000000
40
0.0000000000
40
0.0000000000
40
0.0000000000
40
0.0000000000
40
0.2783180491
40
0.6065737620
40
1.0000000000
40
1.0000000000
40
1.0000000000
40
1.0000000000
10
-43.9057742710
20
20.0210158313
30
0.0000000000
10
-43.9296652105
20
20.0449069647
30
0.0000000000
10
-43.9993970884
20
20.0801175701
30
0.0000000000
10
-44.1237127063
20
20.0768089491
30
0.0000000000
10
-44.2074821461
20
20.0475818202
30
0.0000000000
10
-44.2506002090
20
20.0270408784
30
0.0000000000
11
-43.9057742710
21
20.0210158313
31
0.0000000000
11
-43.9948509433
21
20.0693833377
31
0.0000000000
11
-44.1143806572
21
20.0714718635
31
0.0000000000
11
-44.2506002090
21
20.0270408784
31
0.0000000000
0
SPLINE
5
40D
100
AcDbEntity
8
0
100
AcDbSpline
62
9
6
CONTINUOUS
70
0
71
3
72
10
73
6
74
4
42
0.0000001000
43
0.0000001000
44
0.0000000001
12
4.0000000196
22
-0.0702511788
32
0.0000000000
13
3.9999999803
23
-0.0702534154
33
0.0000000000
40
0.0000000000
40
0.0000000000
40
0.0000000000
40
0.0000000000
40
0.3331946317
40
0.6665279651
40
1.0000000000
40
1.0000000000
40
1.0000000000
40
1.0000000000
10
-53.1847561079
20
23.3333596575
30
0.0000000000
10
-52.7404965968
20
23.3255572189
30
0.0000000000
10
-51.8517926404
20
23.3099490114
30
0.0000000000
10
-50.5184593071
20
23.2865315799
30
0.0000000000
10
-49.6293854856
20
23.2709165449
30
0.0000000000
10
-49.1847561079
20
23.2631073618
30
0.0000000000
11
-53.1847561079
21
23.3333596575
31
0.0000000000
11
-51.8519775766
21
23.3099522180
31
0.0000000000
11
-50.5186442432
21
23.2865347865
31
0.0000000000
11
-49.1847561079
21
23.2631073618
31
0.0000000000
0
SPLINE
5
40E
100
AcDbEntity
8
0
100
AcDbSpline
62
9
6
CONTINUOUS
70
0
71
3
72
11
73
7
74
5
42
0.0000001000
43
0.0000001000
44
0.0000000001
12
0.0087242968
22
0.4999669137
32
0.0000000000
13
-0.4999668673
23
0.0087269541
33
0.0000000000
40
0.0000000000
40
0.0000000000
40
0.0000000000
40
0.0000000000
40
0.3825595026
40
0.7068736328
40
0.9236229728
40
1.0000000000
40
1.0000000000
40
1.0000000000
40
1.0000000000
10
-41.6934823111
20
5.5859854038
30
0.0000000000
10
-41.6923697903
20
5.6497411017
30
0.0000000000
10
-41.6939662463
20
5.7637518743
30
0.0000000000
10
-41.6813787295
20
5.9310868801
30
0.0000000000
10
-41.7045893297
20
6.0075560219
30
0.0000000000
10
-41.6807536501
20
6.0856870718
30
0.0000000000
10
-41.6934823111
20
6.0859092514
30
0.0000000000
11
-41.6934823111
21
5.5859854038
31
0.0000000000
11
-41.6908085557
21
5.7772629287
31
0.0000000000
11
-41.6898696784
21
5.9394312300
31
0.0000000000
11
-41.6908085578
21
6.0478111593
31
0.0000000000
11
-41.6934823111
21
6.0859092514
31
0.0000000000
0
SPLINE
5
40F
100
AcDbEntity
8
0
100
AcDbSpline
62
9
6
CONTINUOUS
70
0
71
3
72
12
73
8
74
6
42
0.0000001000
43
0.0000001000
44
0.0000000001
12
0.6474008745
22
-0.6588323905
32
0.0000000000
13
0.9235385671
23
-0.0162642606
33
0.0000000000
40
0.0000000000
40
0.0000000000
40
0.0000000000
40
0.0000000000
40
0.2097193769
40
0.4157135620
40
0.6166901593
40
0.8110973434
40
1.0000000000
40
1.0000000000
40
1.0000000000
40
1.0000000000
10
-44.2506002926
20
20.0270374575
30
0.0000000000
10
-44.2053427899
20
19.9809808180
30
0.0000000000
10
-44.1081839452
20
19.8966555288
30
0.0000000000
10
-43.9460460982
20
19.7963678980
30
0.0000000000
10
-43.7744935865
20
19.7246675529
30
0.0000000000
10
-43.5991987479
20
19.6813936698
30
0.0000000000
10
-43.4811680058
20
19.6705366408
30
0.0000000000
10
-43.4230150429
20
19.6695125202
30
0.0000000000
11
-44.2506002926
21
20.0270374575
31
0.0000000000
11
-44.1042239280
21
19.9001553855
31
0.0000000000
11
-43.9423965801
21
19.8000766569
31
0.0000000000
11
-43.7711127760
21
19.7284981611
31
0.0000000000
11
-43.5967673926
21
19.6854957688
31
0.0000000000
11
-43.4230150429
21
19.6695125202
31
0.0000000000
0
SPLINE
5
410
100
AcDbEntity
8
0
100
AcDbSpline
62
9
6
CONTINUOUS
70
0
71
3
72
10
73
6
74
4
42
0.0000001000
43
0.0000001000
44
0.0000000001
12
4.0000000196
22
0.0702511788
32
0.0000000000
13
3.9999999803
23
0.0702534154
33
0.0000000000
40
0.0000000000
40
0.0000000000
40
0.0000000000
40
0.0000000000
40
0.3331946317
40
0.6665279651
40
1.0000000000
40
1.0000000000
40
1.0000000000
40
1.0000000000
10
-53.1847561079
20
-23.3333596575
30
0.0000000000
10
-52.7404965968
20
-23.3255572189
30
0.0000000000
10
-51.8517926404
20
-23.3099490114
30
0.0000000000
10
-50.5184593071
20
-23.2865315799
30
0.0000000000
10
-49.6293854856
20
-23.2709165449
30
0.0000000000
10
-49.1847561079
20
-23.2631073618
30
0.0000000000
11
-53.1847561079
21
-23.3333596575
31
0.0000000000
11
-51.8519775766
21
-23.3099522180
31
0.0000000000
11
-50.5186442432
21
-23.2865347865
31
0.0000000000
11
-49.1847561079
21
-23.2631073618
31
0.0000000000
0
SPLINE
5
411
100
AcDbEntity
8
0
100
AcDbSpline
62
9
6
CONTINUOUS
70
0
71
3
72
9
73
5
74
3
42
0.0000001000
43
0.0000001000
44
0.0000000001
12
0.9632960036
22
-0.9806654120
32
0.0000000000
13
0.9632854666
23
-0.9806757622
33
0.0000000000
40
0.0000000000
40
0.0000000000
40
0.0000000000
40
0.0000000000
40
0.4824510919
40
1.0000000000
40
1.0000000000
40
1.0000000000
40
1.0000000000
10
-45.2138808691
20
21.0077180230
30
0.0000000000
10
-45.0589664661
20
20.8500103234
30
0.0000000000
10
-44.7378842561
20
20.5231056868
30
0.0000000000
10
-44.4167827397
20
20.1962200141
30
0.0000000000
10
-44.2506002926
20
20.0270374575
30
0.0000000000
11
-45.2138808691
21
21.0077180230
31
0.0000000000
11
-44.7491490468
21
20.5345837397
31
0.0000000000
11
-44.2506002926
21
20.0270374575
31
0.0000000000
0
SPLINE
5
412
100
AcDbEntity
8
0
100
AcDbSpline
62
9
6
CONTINUOUS
70
0
71
3
72
10
73
6
74
4
42
0.0000001000
43
0.0000001000
44
0.0000000001
12
-33.1087183620
22
-0.2033169634
32
0.0000000000
13
-33.1087339119
23
-0.2007687959
33
0.0000000000
40
0.0000000000
40
0.0000000000
40
0.0000000000
40
0.0000000000
40
0.3345044254
40
0.6678377607
40
1.0000000000
40
1.0000000000
40
1.0000000000
40
1.0000000000
10
-20.0760299047
20
-15.9176243207
30
0.0000000000
10
-23.7677008422
20
-15.9402944620
30
0.0000000000
10
-31.1381188800
20
-15.9854586922
30
0.0000000000
10
-42.1743609682
20
-16.0528008607
30
0.0000000000
10
-49.5189323759
20
-16.0974298951
30
0.0000000000
10
-53.1847561079
20
-16.1196591660
30
0.0000000000
11
-20.0760299047
21
-15.9176243207
31
0.0000000000
11
-31.1510436047
21
-15.9854900761
31
0.0000000000
11
-42.1872857527
21
-16.0528328401
31
0.0000000000
11
-53.1847561079
21
-16.1196591660
31
0.0000000000
0
SPLINE
5
413
100
AcDbEntity
8
0
100
AcDbSpline
62
9
6
CONTINUOUS
70
0
71
3
72
10
73
6
74
4
42
0.0000001000
43
0.0000001000
44
0.0000000001
12
-33.1087198657
22
-0.1908471367
32
0.0000000000
13
-33.1087324387
23
-0.1886533290
33
0.0000000000
40
0.0000000000
40
0.0000000000
40
0.0000000000
40
0.0000000000
40
0.3345044164
40
0.6678377520
40
1.0000000000
40
1.0000000000
40
1.0000000000
40
1.0000000000
10
-20.0760299047
20
-17.1696860043
30
0.0000000000
10
-23.7677009099
20
-17.1909657410
30
0.0000000000
10
-31.1381190714
20
-17.2333675314
30
0.0000000000
10
-42.1743611552
20
-17.2966130484
30
0.0000000000
10
-49.5189324424
20
-17.3385417312
30
0.0000000000
10
-53.1847561079
20
-17.3594295692
30
0.0000000000
11
-20.0760299047
21
-17.1696860043
31
0.0000000000
11
-31.1510436371
21
-17.2334007291
31
0.0000000000
11
-42.1872857919
21
-17.2966467403
31
0.0000000000
11
-53.1847561079
21
-17.3594295692
31
0.0000000000
0
SPLINE
5
414
100
AcDbEntity
8
0
100
AcDbSpline
62
9
6
CONTINUOUS
70
0
71
3
72
15
73
11
74
9
42
0.0000001000
43
0.0000001000
44
0.0000000001
12
-1.5506166205
22
0.0270326685
32
0.0000000000
13
-0.0000162698
23
1.5508522394
33
0.0000000000
40
0.0000000000
40
0.0000000000
40
0.0000000000
40
0.0000000000
40
0.1057721600
40
0.2258239893
40
0.3557797384
40
0.4907380471
40
0.6266215758
40
0.7596451622
40
0.8855544022
40
1.0000000000
40
1.0000000000
40
1.0000000000
40
1.0000000000
10
-41.6934823111
20
5.5859854038
30
0.0000000000
10
-41.7481530009
20
5.5869385050
30
0.0000000000
10
-41.8649186827
20
5.5985939521
30
0.0000000000
10
-42.0429314661
20
5.6488022935
30
0.0000000000
10
-42.2216721967
20
5.7393760044
30
0.0000000000
10
-42.3846382198
20
5.8697809047
30
0.0000000000
10
-42.5178006853
20
6.0325973604
30
0.0000000000
10
-42.6121074187
20
6.2152640848
30
0.0000000000
10
-42.6649450448
20
6.4021510579
30
0.0000000000
10
-42.6760292840
20
6.5266703617
30
0.0000000000
10
-42.6760299047
20
6.5858330989
30
0.0000000000
11
-41.6934823111
21
5.5859854038
31
0.0000000000
11
-41.8567068484
21
5.6022913825
31
0.0000000000
11
-42.0358982943
21
5.6528324969
31
0.0000000000
11
-42.2156711675
21
5.7439420910
31
0.0000000000
11
-42.3790916497
21
5.8747105944
31
0.0000000000
11
-42.5125049854
21
6.0378370418
31
0.0000000000
11
-42.6071539410
21
6.2211434384
31
0.0000000000
11
-42.6602752283
21
6.4090454992
31
0.0000000000
11
-42.6760299047
21
6.5858330989
31
0.0000000000
0
SPLINE
5
415
100
AcDbEntity
8
0
100
AcDbSpline
62
9
6
CONTINUOUS
70
0
71
3
72
10
73
6
74
4
42
0.0000001000
43
0.0000001000
44
0.0000000001
12
0.1229631135
22
0.0021463291
32
0.0000000000
13
-0.0004143174
23
0.1229811464
33
0.0000000000
40
0.0000000000
40
0.0000000000
40
0.0000000000
40
0.0000000000
40
0.1154847081
40
0.4552180528
40
1.0000000000
40
1.0000000000
40
1.0000000000
40
1.0000000000
10
-45.2139013100
20
-21.1306884717
30
0.0000000000
10
-45.2091678569
20
-21.1306058489
30
0.0000000000
10
-45.2193241726
20
-21.1007527225
30
0.0000000000
10
-45.2093866994
20
-21.0705598941
30
0.0000000000
10
-45.2138260724
20
-21.0300510339
30
0.0000000000
10
-45.2139013100
20
-21.0077183978
30
0.0000000000
11
-45.2139013100
21
-21.1306884717
31
0.0000000000
11
-45.2133761942
21
-21.1164956603
31
0.0000000000
11
-45.2133760052
21
-21.0747146270
31
0.0000000000
11
-45.2139013100
21
-21.0077183978
31
0.0000000000
0
SPLINE
5
416
100
AcDbEntity
8
0
100
AcDbSpline
62
7
6
CONTINUOUS
70
0
71
3
72
10
73
6
74
4
42
0.0000001000
43
0.0000001000
44
0.0000000001
12
-3.9999099472
22
-0.0844306542
32
0.0000000000
13
-4.0000789575
23
-0.0760029924
33
0.0000000000
40
0.0000000000
40
0.0000000000
40
0.0000000000
40
0.0000000000
40
0.3303097417
40
0.6636505372
40
1.0000000000
40
1.0000000000
40
1.0000000000
40
1.0000000000
10
-49.1847561079
20
-23.0998904748
30
0.0000000000
10
-49.6251591818
20
-23.1091865640
30
0.0000000000
10
-50.5100142029
20
-23.1275074450
30
0.0000000000
10
-51.8433485539
20
-23.1541449052
30
0.0000000000
10
-52.7362813050
20
-23.1713873732
30
0.0000000000
10
-53.1847561079
20
-23.1799085618
30
0.0000000000
11
-49.1847561079
21
-23.0998904748
31
0.0000000000
11
-50.5059760839
21
-23.1272645049
31
0.0000000000
11
-51.8393398993
21
-23.1539170037
31
0.0000000000
11
-53.1847561079
21
-23.1799085618
31
0.0000000000
0
ENDSEC
0
SECTION
2
OBJECTS
0
DICTIONARY
5
C
100
AcDbDictionary
280
0
281
1
3
ACAD_GROUP
350
D
3
ACAD_MLINESTYLE
350
17
3
ACAD_LAYOUT
350
1A
3
ACAD_PLOTSETTINGS
350
19
3
ACAD_PLOTSTYLENAME
350
E
0
DICTIONARY
5
D
102
{ACAD_REACTORS
330
C
102
}
100
AcDbDictionary
280
0
281
1
0
ACDBDICTIONARYWDFLT
5
E
102
{ACAD_REACTORS
330
C
102
}
100
AcDbDictionary
281
1
3
Normal
350
F
100
AcDbDictionaryWithDefault
340
F
0
DICTIONARY
5
17
102
{ACAD_REACTORS
330
C
102
}
100
AcDbDictionary
280
0
281
1
3
Standard
350
18
0
DICTIONARY
5
19
102
{ACAD_REACTORS
330
C
102
}
100
AcDbDictionary
281
1
0
DICTIONARY
5
1A
102
{ACAD_REACTORS
330
C
102
}
100
AcDbDictionary
281
1
3
Layout1
350
1E
3
Model
350
22
0
ACDBPLACEHOLDER
5
F
102
{ACAD_REACTORS
330
E
102
}
0
MLINESTYLE
5
18
102
{ACAD_REACTORS
330
17
102
}
100
AcDbMlineStyle
2
STANDARD
70
0
3

62
256
51
90.0
52
90.0
71
2
49
0.5
62
256
6
BYLAYER
49
-0.5
62
256
6
BYLAYER
0
LAYOUT
5
1E
102
{ACAD_REACTORS
330
1A
102
}
100
AcDbPlotSettings
1

2

4

6

40
0.0
41
0.0
42
0.0
43
0.0
44
0.0
45
0.0
46
0.0
47
0.0
48
0.0
49
0.0
140
0.0
141
0.0
142
1.0
143
1.0
70
0
72
0
73
0
74
0
7

75
0
147
1.0
148
0.0
149
0.0
100
AcDbLayout
1
Layout1
70
0
71
0
10
0.0
20
0.0
11
0.0
21
0.0
12
0.0
22
0.0
32
0.0
14
0.0
24
0.0
34
0.0
15
0.0
25
0.0
35
0.0
146
0.0
13
0.0
23
0.0
33
0.0
16
0.0
26
0.0
36
0.0
17
0.0
27
0.0
37
0.0
76
0
330
1B
331
0
345
0
346
0
0
LAYOUT
5
22
102
{ACAD_REACTORS
330
1A
102
}
100
AcDbPlotSettings
1

2

4

6

40
0.0
41
0.0
42
0.0
43
0.0
44
0.0
45
0.0
46
0.0
47
0.0
48
0.0
49
0.0
140
0.0
141
0.0
142
1.0
143
1.0
70
0
72
0
73
0
74
0
7

75
0
147
1.0
148
0.0
149
0.0
100
AcDbLayout
1
Model
70
0
71
0
10
0.0
20
0.0
11
0.0
21
0.0
12
0.0
22
0.0
32
0.0
14
0.0
24
0.0
34
0.0
15
0.0
25
0.0
35
0.0
146
0.0
13
0.0
23
0.0
33
0.0
16
0.0
26
0.0
36
0.0
17
0.0
27
0.0
37
0.0
76
0
330
1F
331
0
345
0
346
0
0
ENDSEC
0
EOF
