  0
SECTION
  2
HEADER
  9
$ACADVER
  1
AC1024
  9
$DWGCODEPAGE
  3
ANSI_1252
  9
$EXTMAX
 10
297.0
 20
210.0
 30
0.0
  9
$EXTMIN
 10
0.0
 20
0.0
 30
0.0
  9
$LIMMIN
 10
0.0
 20
0.0
  9
$LIMMAX
 10
297.0
 20
210.0
  9
$VIEWCTR
 10
148.5
 20
105.0
  9
$VIEWSIZE
 40
210.0
  9
$CLAYER
  8
0
  9
$LTSCALE
 40
16.335
  9
$CELTYPE
  6
BYLAYER
  9
$DIMSCALE
 40
1.0
  9
$DIMASZ
 40
3.0
  9
$DIMEXO
 40
0.5
  9
$DIMDLI
 40
11.286
  9
$DIMEXE
 40
1.5
  9
$DIMCEN
 40
2.673
  9
$DIMLFAC
 40
1.0
  9
$DIMBLK
  1
_FILLED
  9
$DIMALT
 70
0
  9
$DIMALTF
 40
0.0393700787
  9
$DIMTXT
 40
3.0
  9
$DIMTOL
 70
1
  9
$DIMLIM
 70
0
  9
$DIMTFAC
 40
1.0
  9
$DIMTP
 40
0.01
  9
$DIMTM
 40
0.01
  9
$DIMGAP
 40
0.625
  9
$DIMDSEP
 70
44
  9
$AUNITS
 70
0
  9
$PDMODE
 70
3
  9
$PDSIZE
 40
3.0
  9
$HANDSEED
  5
50E
  9
$TILEMODE
 70
1
  9
$MEASUREMENT
 70
1
  9
$INSUNITS
 70
4
  0
ENDSEC
  0
SECTION
  2
CLASSES
  0
CLASS
  1
ACDBDICTIONARYWDFLT
  2
AcDbDictionaryWithDefault
  3
AutoCAD 2000
 90
0
 91
1
280
0
281
0
  0
CLASS
  1
ACDBPLACEHOLDER
  2
AcDbPlaceHolder
  3
AutoCAD 2000
 90
0
 91
1
280
0
281
0
  0
CLASS
  1
LAYOUT
  2
AcDbLayout
  3
AutoCAD 2000
 90
0
 91
0
280
0
281
0
  0
ENDSEC
  0
SECTION
  2
TABLES
  0
TABLE
  2
VPORT
  5
8
100
AcDbSymbolTable
 70
2
  0
VPORT
  5
1F4
100
AcDbSymbolTableRecord
100
AcDbViewportTableRecord
  2
*ACTIVE
 70
0
 10
0.0
 20
0.0
 11
1.0
 21
1.0
 12
148.5
 22
105.0
 13
0.0
 23
0.0
 14
1.0
 24
1.0
 15
0.0
 25
0.0
 16
0.0
 26
0.0
 36
1.0
 17
0.0
 27
0.0
 37
0.0
 40
210.0
 41
1.4142857143
 42
50.0
 43
0.0
 44
0.0
 50
0.0
 51
0.0
 71
0
 72
100
 73
1
 74
1
 75
0
 76
0
 77
0
 78
0
  0
ENDTAB
  0
TABLE
  2
LTYPE
  5
5
100
AcDbSymbolTable
 70
6
  0
LTYPE
  5
14
100
AcDbSymbolTableRecord
100
AcDbLinetypeTableRecord
  2
BYBLOCK
 70
0
  3

 72
65
 73
0
 40
0.0
  0
LTYPE
  5
15
100
AcDbSymbolTableRecord
100
AcDbLinetypeTableRecord
  2
BYLAYER
 70
0
  3

 72
65
 73
0
 40
0.0
  0
LTYPE
  5
16
100
AcDbSymbolTableRecord
100
AcDbLinetypeTableRecord
  2
CONTINUOUS
 70
64
  3
Solid line
 72
65
 73
0
 40
0.0
  0
LTYPE
  5
1F5
100
AcDbSymbolTableRecord
100
AcDbLinetypeTableRecord
  2
CENTER
 70
64
  3
____ _ ____ _ ____ _ ____ _ ____ _ ____ _ ____
 72
65
 73
4
 40
0.6
 49
0.375
 74
0
 49
-0.075
 74
0
 49
0.075
 74
0
 49
-0.075
 74
0
  0
LTYPE
  5
1F6
100
AcDbSymbolTableRecord
100
AcDbLinetypeTableRecord
  2
HIDDEN
 70
64
  3
- - - - - - - - - - - - - - - - - - - -
 72
65
 73
2
 40
0.2
 49
0.1
 74
0
 49
-0.1
 74
0
  0
LTYPE
  5
1F7
100
AcDbSymbolTableRecord
100
AcDbLinetypeTableRecord
  2
PHANTOM
 70
64
  3
_____ _ _ _____ _ _ _____ _ _ _____
 72
65
 73
6
 40
0.8
 49
0.45
 74
0
 49
-0.05
 74
0
 49
0.1
 74
0
 49
-0.05
 74
0
 49
0.1
 74
0
 49
-0.05
 74
0
  0
LTYPE
  5
1F8
100
AcDbSymbolTableRecord
100
AcDbLinetypeTableRecord
  2
DOT
 70
64
  3
. . . . . . . . . . . . . . . . . . . .
 72
65
 73
2
 40
0.2
 49
0.1
 74
0
 49
-0.1
 74
0
  0
LTYPE
  5
1F9
100
AcDbSymbolTableRecord
100
AcDbLinetypeTableRecord
  2
DASHED
 70
64
  3
- - - - - - - - - - - - - - - - - - - -
 72
65
 73
2
 40
0.2
 49
0.1
 74
0
 49
-0.1
 74
0
  0
ENDTAB
  0
TABLE
  2
LAYER
  5
2
100
AcDbSymbolTable
 70
36
  0
LAYER
  5
10
100
AcDbSymbolTableRecord
100
AcDbLayerTableRecord
  2
0
 70
0
 62
7
  6
CONTINUOUS
370
-3
390
F
  0
LAYER
  5
1FA
100
AcDbSymbolTableRecord
100
AcDbLayerTableRecord
  2
DEFAULT_1
 70
0
 62
7
  6
CENTER
370
-3
390
F
  0
LAYER
  5
1FB
100
AcDbSymbolTableRecord
100
AcDbLayerTableRecord
  2
DEFAULT_2
 70
0
 62
7
  6
HIDDEN
370
-3
390
F
  0
LAYER
  5
1FC
100
AcDbSymbolTableRecord
100
AcDbLayerTableRecord
  2
DEFAULT_3
 70
0
 62
7
  6
PHANTOM
370
-3
390
F
  0
LAYER
  5
1FD
100
AcDbSymbolTableRecord
100
AcDbLayerTableRecord
  2
ASSI
 70
0
 62
7
  6
CONTINUOUS
370
-3
390
F
  0
LAYER
  5
1FE
100
AcDbSymbolTableRecord
100
AcDbLayerTableRecord
  2
COORDINATE
 70
0
 62
7
  6
CONTINUOUS
370
-3
390
F
  0
LAYER
  5
1FF
100
AcDbSymbolTableRecord
100
AcDbLayerTableRecord
  2
COORD_ORIGINE
 70
0
 62
7
  6
CONTINUOUS
370
-3
390
F
  0
LAYER
  5
200
100
AcDbSymbolTableRecord
100
AcDbLayerTableRecord
  2
COSMETICHE
 70
0
 62
7
  6
CONTINUOUS
370
-3
390
F
  0
LAYER
  5
201
100
AcDbSymbolTableRecord
100
AcDbLayerTableRecord
  2
CURVE
 70
0
 62
7
  6
CONTINUOUS
370
-3
390
F
  0
LAYER
  5
202
100
AcDbSymbolTableRecord
100
AcDbLayerTableRecord
  2
DRAFT
 70
0
 62
7
  6
CONTINUOUS
370
-3
390
F
  0
LAYER
  5
203
100
AcDbSymbolTableRecord
100
AcDbLayerTableRecord
  2
IGES
 70
0
 62
7
  6
CONTINUOUS
370
-3
390
F
  0
LAYER
  5
204
100
AcDbSymbolTableRecord
100
AcDbLayerTableRecord
  2
INTF_1
 70
0
 62
7
  6
CONTINUOUS
370
-3
390
F
  0
LAYER
  5
205
100
AcDbSymbolTableRecord
100
AcDbLayerTableRecord
  2
INTF_11
 70
0
 62
7
  6
CONTINUOUS
370
-3
390
F
  0
LAYER
  5
206
100
AcDbSymbolTableRecord
100
AcDbLayerTableRecord
  2
INTF_12
 70
0
 62
7
  6
CONTINUOUS
370
-3
390
F
  0
LAYER
  5
207
100
AcDbSymbolTableRecord
100
AcDbLayerTableRecord
  2
INTF_9
 70
0
 62
7
  6
CONTINUOUS
370
-3
390
F
  0
LAYER
  5
208
100
AcDbSymbolTableRecord
100
AcDbLayerTableRecord
  2
NOTE
 70
0
 62
7
  6
CONTINUOUS
370
-3
390
F
  0
LAYER
  5
209
100
AcDbSymbolTableRecord
100
AcDbLayerTableRecord
  2
PIANI
 70
0
 62
7
  6
CONTINUOUS
370
-3
390
F
  0
LAYER
  5
20A
100
AcDbSymbolTableRecord
100
AcDbLayerTableRecord
  2
PIANI_ORIGINE
 70
0
 62
7
  6
CONTINUOUS
370
-3
390
F
  0
LAYER
  5
20B
100
AcDbSymbolTableRecord
100
AcDbLayerTableRecord
  2
PUNTI
 70
0
 62
7
  6
CONTINUOUS
370
-3
390
F
  0
LAYER
  5
20C
100
AcDbSymbolTableRecord
100
AcDbLayerTableRecord
  2
RACCORDO
 70
0
 62
7
  6
CONTINUOUS
370
-3
390
F
  0
LAYER
  5
20D
100
AcDbSymbolTableRecord
100
AcDbLayerTableRecord
  2
RGB____0____0____0__
 70
0
 62
7
  6
CONTINUOUS
370
-3
390
F
  0
LAYER
  5
20E
100
AcDbSymbolTableRecord
100
AcDbLayerTableRecord
  2
SMUSSO
 70
0
 62
7
  6
CONTINUOUS
370
-3
390
F
  0
LAYER
  5
20F
100
AcDbSymbolTableRecord
100
AcDbLayerTableRecord
  2
SNAPLINE
 70
0
 62
7
  6
CONTINUOUS
370
-3
390
F
  0
LAYER
  5
210
100
AcDbSymbolTableRecord
100
AcDbLayerTableRecord
  2
SUPERFICI
 70
0
 62
7
  6
CONTINUOUS
370
-3
390
F
  0
LAYER
  5
211
100
AcDbSymbolTableRecord
100
AcDbLayerTableRecord
  2
TRASH
 70
0
 62
7
  6
CONTINUOUS
370
-3
390
F
  0
LAYER
  5
212
100
AcDbSymbolTableRecord
100
AcDbLayerTableRecord
  2
XSEC_DATUMS
 70
0
 62
7
  6
CONTINUOUS
370
-3
390
F
  0
ENDTAB
  0
TABLE
  2
STYLE
  5
3
100
AcDbSymbolTable
 70
1
  0
STYLE
  5
11
100
AcDbSymbolTableRecord
100
AcDbTextStyleTableRecord
  2
STANDARD
 70
0
 40
0.0
 41
0.8
 50
0.0
 71
0
 42
0.2
  3
txt
  4

  0
STYLE
  5
213
100
AcDbSymbolTableRecord
100
AcDbTextStyleTableRecord
  2
TEXTSTYLE_1
 70
0
 40
0.0
 41
0.8
 50
0.0
 71
0
 42
0.2
  3
gdt
  4

  0
ENDTAB
  0
TABLE
  2
VIEW
  5
6
100
AcDbSymbolTable
 70
0
  0
ENDTAB
  0
TABLE
  2
UCS
  5
7
100
AcDbSymbolTable
 70
0
  0
ENDTAB
  0
TABLE
  2
APPID
  5
9
100
AcDbSymbolTable
 70
1
  0
APPID
  5
214
100
AcDbSymbolTableRecord
100
AcDbRegAppTableRecord
  2
ACAD
 70
0
  0
ENDTAB
  0
TABLE
  2
BLOCK_RECORD
  5
1
100
AcDbSymbolTable
 70
0
  0
BLOCK_RECORD
  5
215
100
AcDbSymbolTableRecord
100
AcDbBlockTableRecord
  2
*Model_Space
  0
BLOCK_RECORD
  5
216
100
AcDbSymbolTableRecord
100
AcDbBlockTableRecord
  2
*Paper_Space
  0
BLOCK_RECORD
  5
217
100
AcDbSymbolTableRecord
100
AcDbBlockTableRecord
  2
_FILLED
  0
BLOCK_RECORD
  5
218
100
AcDbSymbolTableRecord
100
AcDbBlockTableRecord
  2
*D0
  0
BLOCK_RECORD
  5
219
100
AcDbSymbolTableRecord
100
AcDbBlockTableRecord
  2
*D1
  0
BLOCK_RECORD
  5
21A
100
AcDbSymbolTableRecord
100
AcDbBlockTableRecord
  2
*D2
  0
BLOCK_RECORD
  5
21B
100
AcDbSymbolTableRecord
100
AcDbBlockTableRecord
  2
*D3
  0
ENDTAB
  0
TABLE
  2
DIMSTYLE
  5
A
100
AcDbSymbolTable
 70
1
100
AcDbDimStyleTable
 71
0
  0
DIMSTYLE
105
21C
100
AcDbSymbolTableRecord
100
AcDbDimStyleTableRecord
  2
STANDARD
 70
0
  3

  4

 40
1.0
 41
3.0
 42
0.5
 43
0.38
 44
1.5
 45
0.0
 46
0.0
 47
0.01
 48
0.01
140
3.0
141
0.09
142
0.0
143
25.4
144
1.0
145
0.0
146
1.0
147
0.625
 71
1
 72
0
 73
0
 74
0
 75
0
 76
0
 77
1
 78
8
 79
2
170
0
171
1
172
0
173
0
174
0
175
0
176
0
177
0
178
0
270
2
179
2
271
2
272
2
273
2
274
2
275
0
280
0
281
0
282
0
283
1
284
8
285
0
286
0
287
3
288
0
340
11
278
44
341
217
342
217
343
217
344
217
  0
DIMSTYLE
105
21D
100
AcDbSymbolTableRecord
100
AcDbDimStyleTableRecord
  2
DIMSTYLE_1
 70
0
  3

  4

 40
1.0
 41
3.0
 42
0.5
 43
0.38
 44
1.5
 45
0.0
 46
0.0
 47
0.0
 48
0.0
140
3.0
141
0.09
142
0.0
143
25.4
144
1.0
145
0.0
146
1.0
147
0.75
 71
0
 72
0
 73
0
 74
0
 75
0
 76
0
 77
1
 78
8
 79
2
170
0
171
1
172
0
173
0
174
0
175
0
176
0
177
0
178
0
270
2
179
2
271
2
272
2
273
2
274
2
275
0
280
0
281
0
282
0
283
1
284
8
285
0
286
0
287
3
288
0
340
11
278
44
341
217
342
217
343
217
344
217
  0
ENDTAB
  0
ENDSEC
  0
SECTION
  2
BLOCKS
  0
BLOCK
  5
20
100
AcDbEntity
  8
0
100
AcDbBlockBegin
  2
*Model_Space
 70
0
 10
0.0
 20
0.0
 30
0.0
  3
*Model_Space
  1

  0
ENDBLK
  5
21
100
AcDbEntity
  8
0
100
AcDbBlockEnd
  0
BLOCK
  5
1C
100
AcDbEntity
  8
0
100
AcDbBlockBegin
  2
*Paper_Space
 70
0
 10
0.0
 20
0.0
 30
0.0
  3
*Paper_Space
  1

  0
ENDBLK
  5
1D
100
AcDbEntity
  8
0
100
AcDbBlockEnd
  0
BLOCK
  5
21E
100
AcDbEntity
  8
0
100
AcDbBlockBegin
  2
_FILLED
 70
64
 10
0.0
 20
0.0
  3
_FILLED
  1

  0
SOLID
  5
21F
100
AcDbEntity
  8
0
  6
BYBLOCK
 62
0
100
AcDbTrace
 10
0.0
 20
0.0
 11
-1.0
 21
0.3166666667
 12
-1.0
 22
-0.3166666667
 13
-1.0
 23
-0.3166666667
  0
ENDBLK
  5
220
100
AcDbEntity
  8
0
  6
BYBLOCK
 62
0
100
AcDbBlockEnd
  0
BLOCK
  5
221
100
AcDbEntity
  8
0
100
AcDbBlockBegin
 62
7
  6
CONTINUOUS
  2
*D0
 70
65
 10
0.0
 20
0.0
  3
*D0
  1

  0
LINE
  5
222
100
AcDbEntity
  8
0
100
AcDbLine
 62
7
  6
CONTINUOUS
 10
-33.65
 20
22.3997711479
 11
-33.65
 21
35.0
  0
LINE
  5
223
100
AcDbEntity
  8
0
100
AcDbLine
 62
7
  6
CONTINUOUS
 10
33.65
 20
22.3997711479
 11
33.65
 21
35.0
  0
LINE
  5
224
100
AcDbEntity
  8
0
100
AcDbLine
 62
7
  6
CONTINUOUS
 10
-33.65
 20
33.5
 11
0.0
 21
33.5
  0
LINE
  5
225
100
AcDbEntity
  8
0
100
AcDbLine
 62
7
  6
CONTINUOUS
 10
33.65
 20
33.5
 11
0.0
 21
33.5
  0
INSERT
  5
226
100
AcDbEntity
  8
0
100
AcDbBlockReference
 62
7
  6
CONTINUOUS
  2
_FILLED
 10
-33.65
 20
33.5
 41
3.0
 42
3.0
 43
3.0
 50
180.0
  0
INSERT
  5
227
100
AcDbEntity
  8
0
100
AcDbBlockReference
 62
7
  6
CONTINUOUS
  2
_FILLED
 10
33.65
 20
33.5
 41
3.0
 42
3.0
 43
3.0
  0
ENDBLK
  5
228
100
AcDbEntity
  8
0
  6
BYBLOCK
 62
0
100
AcDbBlockEnd
  0
BLOCK
  5
229
100
AcDbEntity
  8
0
100
AcDbBlockBegin
 62
7
  6
CONTINUOUS
  2
*D1
 70
65
 10
0.0
 20
0.0
  3
*D1
  1

  0
LINE
  5
22A
100
AcDbEntity
  8
0
100
AcDbLine
 62
7
  6
CONTINUOUS
 10
26.6748574782
 20
23.5
 11
45.15
 21
23.5
  0
LINE
  5
22B
100
AcDbEntity
  8
0
100
AcDbLine
 62
7
  6
CONTINUOUS
 10
26.6748574782
 20
-23.5
 11
45.15
 21
-23.5
  0
LINE
  5
22C
100
AcDbEntity
  8
0
100
AcDbLine
 62
7
  6
CONTINUOUS
 10
43.65
 20
23.5
 11
43.65
 21
0.0
  0
LINE
  5
22D
100
AcDbEntity
  8
0
100
AcDbLine
 62
7
  6
CONTINUOUS
 10
43.65
 20
-23.5
 11
43.65
 21
0.0
  0
INSERT
  5
22E
100
AcDbEntity
  8
0
100
AcDbBlockReference
 62
7
  6
CONTINUOUS
  2
_FILLED
 10
43.65
 20
23.5
 41
3.0
 42
3.0
 43
3.0
 50
90.0
  0
INSERT
  5
22F
100
AcDbEntity
  8
0
100
AcDbBlockReference
 62
7
  6
CONTINUOUS
  2
_FILLED
 10
43.65
 20
-23.5
 41
3.0
 42
3.0
 43
3.0
 50
270.0
  0
ENDBLK
  5
230
100
AcDbEntity
  8
0
  6
BYBLOCK
 62
0
100
AcDbBlockEnd
  0
BLOCK
  5
231
100
AcDbEntity
  8
0
100
AcDbBlockBegin
 62
7
  6
CONTINUOUS
  2
*D2
 70
65
 10
0.0
 20
0.0
  3
*D2
  1

  0
LINE
  5
232
100
AcDbEntity
  8
0
100
AcDbLine
 62
7
  6
CONTINUOUS
 10
-46.1641698549
 20
15.1104922689
 11
-46.1641698549
 21
35.0
  0
LINE
  5
233
100
AcDbEntity
  8
0
100
AcDbLine
 62
7
  6
CONTINUOUS
 10
-72.1641698549
 20
22.3997711479
 11
-72.1641698549
 21
35.0
  0
LINE
  5
234
100
AcDbEntity
  8
0
100
AcDbLine
 62
7
  6
CONTINUOUS
 10
-46.1641698549
 20
33.5
 11
-59.1641698549
 21
33.5
  0
LINE
  5
235
100
AcDbEntity
  8
0
100
AcDbLine
 62
7
  6
CONTINUOUS
 10
-72.1641698549
 20
33.5
 11
-59.1641698549
 21
33.5
  0
INSERT
  5
236
100
AcDbEntity
  8
0
100
AcDbBlockReference
 62
7
  6
CONTINUOUS
  2
_FILLED
 10
-46.1641698549
 20
33.5
 41
3.0
 42
3.0
 43
3.0
  0
INSERT
  5
237
100
AcDbEntity
  8
0
100
AcDbBlockReference
 62
7
  6
CONTINUOUS
  2
_FILLED
 10
-72.1641698549
 20
33.5
 41
3.0
 42
3.0
 43
3.0
 50
180.0
  0
ENDBLK
  5
238
100
AcDbEntity
  8
0
  6
BYBLOCK
 62
0
100
AcDbBlockEnd
  0
BLOCK
  5
239
100
AcDbEntity
  8
0
100
AcDbBlockBegin
 62
7
  6
CONTINUOUS
  2
*D3
 70
65
 10
0.0
 20
0.0
  3
*D3
  1

  0
LINE
  5
23A
100
AcDbEntity
  8
0
100
AcDbLine
 62
7
  6
CONTINUOUS
 10
-46.1641698549
 20
15.1104922689
 11
-46.1641698549
 21
43.0
  0
LINE
  5
23B
100
AcDbEntity
  8
0
100
AcDbLine
 62
7
  6
CONTINUOUS
 10
-81.6641698549
 20
0.5
 11
-81.6641698549
 21
43.0
  0
LINE
  5
23C
100
AcDbEntity
  8
0
100
AcDbLine
 62
7
  6
CONTINUOUS
 10
-46.1641698549
 20
41.5
 11
-63.9141698549
 21
41.5
  0
LINE
  5
23D
100
AcDbEntity
  8
0
100
AcDbLine
 62
7
  6
CONTINUOUS
 10
-81.6641698549
 20
41.5
 11
-63.9141698549
 21
41.5
  0
INSERT
  5
23E
100
AcDbEntity
  8
0
100
AcDbBlockReference
 62
7
  6
CONTINUOUS
  2
_FILLED
 10
-46.1641698549
 20
41.5
 41
3.0
 42
3.0
 43
3.0
  0
INSERT
  5
23F
100
AcDbEntity
  8
0
100
AcDbBlockReference
 62
7
  6
CONTINUOUS
  2
_FILLED
 10
-81.6641698549
 20
41.5
 41
3.0
 42
3.0
 43
3.0
 50
180.0
  0
ENDBLK
  5
240
100
AcDbEntity
  8
0
  6
BYBLOCK
 62
0
100
AcDbBlockEnd
  0
ENDSEC
  0
SECTION
  2
ENTITIES
  0
DIMENSION
  5
241
100
AcDbEntity
  8
0
100
AcDbDimension
 62
7
  6
CONTINUOUS
  2
*D0
 10
33.65
 20
33.5
 11
-4.2857142857
 21
33.5
 70
160
 71
2
 72
2
 41
0.9
 42
67.3
  3
DIMSTYLE_1
100
AcDbAlignedDimension
 13
-33.65
 23
21.8997711479
 14
33.65
 24
21.8997711479
100
AcDbRotatedDimension
  0
DIMENSION
  5
242
100
AcDbEntity
  8
0
100
AcDbDimension
 62
7
  6
CONTINUOUS
  2
*D1
 10
43.65
 20
-23.5
 11
43.65
 21
-2.3571428571
 70
160
 71
2
 72
2
 41
0.9
 42
47.0
  3
DIMSTYLE_1
100
AcDbAlignedDimension
 13
26.1748574782
 23
23.5
 14
26.1748574782
 24
-23.5
 50
270.0
100
AcDbRotatedDimension
  0
DIMENSION
  5
243
100
AcDbEntity
  8
0
100
AcDbDimension
 62
7
  6
CONTINUOUS
  2
*D2
 10
-72.1641698549
 20
33.5
 11
-61.521312712
 21
33.5
 70
160
 71
2
 72
2
 41
0.9
 42
26.0
  3
DIMSTYLE_1
100
AcDbAlignedDimension
 13
-46.1641698549
 23
14.6104922689
 14
-72.1641698549
 24
21.8997711479
 50
180.0
100
AcDbRotatedDimension
  0
DIMENSION
  5
244
100
AcDbEntity
  8
0
100
AcDbDimension
 62
7
  6
CONTINUOUS
  2
*D3
 10
-81.6641698549
 20
41.5
 11
-67.9855984263
 21
41.5
 70
160
 71
2
 72
2
 41
0.9
 42
35.5
  3
DIMSTYLE_1
100
AcDbAlignedDimension
 13
-46.1641698549
 23
14.6104922689
 14
-81.6641698549
 24
0.0
 50
180.0
100
AcDbRotatedDimension
  0
LWPOLYLINE
  5
245
100
AcDbEntity
  8
0
100
AcDbPolyline
 62
250
  6
CONTINUOUS
 90
13
 70
0
 10
-33.5087219643
 20
-21.4755923698
 10
-33.5043909286
 20
-21.5407247312
 10
-33.4915907689
 20
-21.6047447827
 10
-33.4705399464
 20
-21.6665584383
 10
-33.4415979197
 20
-21.7251092828
 10
-33.4052590504
 20
-21.7793965485
 10
-33.3621441964
 20
-21.8284922444
 10
-33.3129899925
 20
-21.8715571619
 10
-33.2586363742
 20
-21.9078550768
 10
-33.2000123347
 20
-21.9367653406
 10
-33.1381198158
 20
-21.9577936639
 10
-33.0740165426
 20
-21.970580504
 10
-33.0087981166
 20
-21.974907137
  0
LWPOLYLINE
  5
246
100
AcDbEntity
  8
0
100
AcDbPolyline
 62
250
  6
CONTINUOUS
 90
7
 70
0
 10
-33.503952428
 20
21.3766964379
 10
-33.5046643609
 20
21.4040784891
 10
-33.5054267115
 20
21.4276016085
 10
-33.5062159955
 20
21.4465828508
 10
-33.507024385
 20
21.4607945676
 10
-33.5078597079
 20
21.4704644072
 10
-33.5087219643
 20
21.4755923698
  0
LWPOLYLINE
  5
247
100
AcDbEntity
  8
0
100
AcDbPolyline
 62
250
  6
CONTINUOUS
 90
5
 70
0
 10
-33.0054926649
 20
21.8784024384
 10
-33.0062814112
 20
21.91643799
 10
-33.0070916269
 20
21.9453735414
 10
-33.0079305287
 20
21.9649270253
 10
-33.0087981167
 20
21.9749071372
  0
LINE
  5
248
100
AcDbEntity
  8
0
100
AcDbLine
 62
250
  6
CONTINUOUS
 10
-33.5026838775
 20
21.3101421375
 11
-33.503952428
 21
21.3766964379
  0
LINE
  5
249
100
AcDbEntity
  8
0
100
AcDbLine
 62
250
  6
CONTINUOUS
 10
-33.0040228811
 20
21.7765959617
 11
-33.0054926649
 21
21.8784024384
  0
LINE
  5
24A
100
AcDbEntity
  8
0
100
AcDbLine
 62
250
  6
CONTINUOUS
 10
-33.5016710765
 20
21.2310675104
 11
-33.5026838775
 21
21.3101421375
  0
LINE
  5
24B
100
AcDbEntity
  8
0
100
AcDbLine
 62
250
  6
CONTINUOUS
 10
-33.0022173792
 20
21.567531307
 11
-33.0040228811
 21
21.7765959617
  0
LINE
  5
24C
100
AcDbEntity
  8
0
100
AcDbLine
 62
250
  6
CONTINUOUS
 10
-33.5007022138
 20
21.0951768256
 11
-33.5016710765
 21
21.2310675104
  0
LINE
  5
24D
100
AcDbEntity
  8
0
100
AcDbLine
 62
250
  6
CONTINUOUS
 10
-33.0007788576
 20
21.2129473151
 11
-33.0022173792
 21
21.567531307
  0
LINE
  5
24E
100
AcDbEntity
  8
TRASH
100
AcDbLine
 62
7
  6
CONTINUOUS
 10
-33.65
 20
16.1196592265
 11
-33.65
 21
-16.1196592265
  0
LINE
  5
24F
100
AcDbEntity
  8
0
100
AcDbLine
 62
7
  6
CONTINUOUS
 10
-33.65
 20
-21.8997711479
 11
-33.65
 21
21.8997711479
  0
LWPOLYLINE
  5
250
100
AcDbEntity
  8
0
100
AcDbPolyline
 62
250
  6
CONTINUOUS
 90
9
 70
0
 10
-33.4974142989
 20
-16.3324771154
 10
-33.49513084
 20
-11.6670364005
 10
-33.4936085333
 20
-7.0009737718
 10
-33.4928473781
 20
-2.3338756638
 10
-33.4928473752
 20
2.3338443579
 10
-33.4936085267
 20
7.0009455965
 10
-33.4951308334
 20
11.6670144863
 10
-33.4974142946
 20
16.3324645931
 10
-33.5007022138
 20
21.0951768256
  0
LWPOLYLINE
  5
251
100
AcDbEntity
  8
0
100
AcDbPolyline
 62
250
  6
CONTINUOUS
 90
9
 70
0
 10
-32.997490446
 20
-16.349481053
 10
-32.9952069837
 20
-11.6792204116
 10
-32.9936846755
 20
-7.0079400855
 10
-32.9929235215
 20
-2.3360479917
 10
-32.9929235217
 20
2.3360479976
 10
-32.9936846759
 20
7.0079400907
 10
-32.9952069841
 20
11.6792204157
 10
-32.9974904463
 20
16.3494810554
 10
-33.0007788576
 20
21.2129473151
  0
LINE
  5
252
100
AcDbEntity
  8
0
100
AcDbLine
 62
250
  6
CONTINUOUS
 10
-33.5007022138
 20
-21.0951768257
 11
-33.4974142989
 21
-16.3324771154
  0
LINE
  5
253
100
AcDbEntity
  8
0
100
AcDbLine
 62
250
  6
CONTINUOUS
 10
-33.0017466938
 20
-21.4854326371
 11
-32.997490446
 21
-16.349481053
  0
LINE
  5
254
100
AcDbEntity
  8
0
100
AcDbLine
 62
250
  6
CONTINUOUS
 10
-33.0033649804
 20
-21.7138161431
 11
-33.0017466938
 21
-21.4854326371
  0
LINE
  5
255
100
AcDbEntity
  8
0
100
AcDbLine
 62
250
  6
CONTINUOUS
 10
-33.5016710765
 20
-21.2310675104
 11
-33.5007022138
 21
-21.0951768257
  0
LINE
  5
256
100
AcDbEntity
  8
0
100
AcDbLine
 62
250
  6
CONTINUOUS
 10
-33.5026838775
 20
-21.3101421375
 11
-33.5016710765
 21
-21.2310675104
  0
LWPOLYLINE
  5
257
100
AcDbEntity
  8
0
100
AcDbPolyline
 62
250
  6
CONTINUOUS
 90
13
 70
0
 10
-33.5087219643
 20
21.4755923698
 10
-33.5043904448
 20
21.5407283714
 10
-33.4915890479
 20
21.6047511717
 10
-33.4705365548
 20
21.6665665948
 10
-33.4415927612
 20
21.7251181896
 10
-33.4052523286
 20
21.7794052851
 10
-33.3621363298
 20
21.8285000926
 10
-33.312981635
 20
21.8715635615
 10
-33.2586283182
 20
21.9078597194
 10
-33.2000053001
 20
21.9367682499
 10
-33.1381144721
 20
21.9577950942
 10
-33.074013574
 20
21.9705808949
 10
-33.0087981167
 20
21.9749071372
  0
LINE
  5
258
100
AcDbEntity
  8
0
100
AcDbLine
 62
7
  6
CONTINUOUS
 10
-25.8
 20
22.4
 11
-25.7333672024
 21
22.5
  0
LWPOLYLINE
  5
259
100
AcDbEntity
  8
TRASH
100
AcDbPolyline
 62
7
  6
CONTINUOUS
 90
10
 70
0
 10
-26.7275426698
 20
23.3333596575
 10
-26.6723250752
 20
23.3675185871
 10
-26.6152198987
 20
23.397868842
 10
-26.5562271403
 20
23.424410422
 10
-26.4948939811
 20
23.4472795393
 10
-26.4316732401
 20
23.4663399818
 10
-26.3679233736
 20
23.4811831128
 10
-26.3040972005
 20
23.4916727201
 10
-26.239741902
 20
23.4979450158
 10
-26.1748574782
 20
23.5
  0
LWPOLYLINE
  5
25A
100
AcDbEntity
  8
0
100
AcDbPolyline
 62
250
  6
CONTINUOUS
 90
12
 70
0
 10
-33.5004589098
 20
20.9972959167
 10
-33.4951489101
 20
21.0000093116
 10
-33.4815628804
 20
21.0026772986
 10
-33.4599281464
 20
21.0052552362
 10
-33.4306067074
 20
21.0076999898
 10
-33.3940891789
 20
21.0099706531
 10
-33.3509865837
 20
21.0120292323
 10
-33.302020128
 20
21.013841283
 10
-33.2480091339
 20
21.0153764848
 10
-33.1898573306
 20
21.0166091491
 10
-33.1285377322
 20
21.01751865
 10
-33.0650763576
 20
21.0180897694
  0
LWPOLYLINE
  5
25B
100
AcDbEntity
  8
0
100
AcDbPolyline
 62
250
  6
CONTINUOUS
 90
13
 70
0
 10
-33.5004589101
 20
-20.9972959167
 10
-33.4951508609
 20
-21.0000094853
 10
-33.4815663955
 20
-21.0026776479
 10
-33.4599328229
 20
-21.0052557581
 10
-33.4306121381
 20
-21.0077006763
 10
-33.3940949648
 20
-21.0099714916
 10
-33.3509923456
 20
-21.0120302064
 10
-33.3020255175
 20
-21.0138423724
 10
-33.2480138433
 20
-21.0153776663
 10
-33.1898611016
 20
-21.016610397
 10
-33.1285403633
 20
-21.0175199368
 10
-33.0650777097
 20
-21.0180910668
 10
-33.0005350625
 20
-21.0183142302
  0
LWPOLYLINE
  5
25C
100
AcDbEntity
  8
TRASH
100
AcDbPolyline
 62
7
  6
CONTINUOUS
 90
10
 70
0
 10
-26.7275426698
 20
-23.3333596575
 10
-26.6723250752
 20
-23.3675185871
 10
-26.6152198987
 20
-23.397868842
 10
-26.5562271403
 20
-23.424410422
 10
-26.4948939811
 20
-23.4472795393
 10
-26.4316732401
 20
-23.4663399818
 10
-26.3679233736
 20
-23.4811831128
 10
-26.3040972005
 20
-23.4916727201
 10
-26.239741902
 20
-23.4979450158
 10
-26.1748574782
 20
-23.5
  0
LINE
  5
25D
100
AcDbEntity
  8
0
100
AcDbLine
 62
7
  6
CONTINUOUS
 10
-25.7333672024
 20
-22.5
 11
-25.8
 21
-22.4
  0
LINE
  5
25E
100
AcDbEntity
  8
RACCORDO
100
AcDbLine
 62
250
  6
CONTINUOUS
 10
-30.9
 20
-3.0018010806
 11
-30.9
 21
3.0018010806
  0
LINE
  5
25F
100
AcDbEntity
  8
RACCORDO
100
AcDbLine
 62
7
  6
CONTINUOUS
 10
-30.6
 20
-2.7
 11
-30.6
 21
2.7
  0
LWPOLYLINE
  5
260
100
AcDbEntity
  8
0
100
AcDbPolyline
 62
250
  6
CONTINUOUS
 90
7
 70
0
 10
-33.0087981167
 20
-21.9749071372
 10
-33.0079305287
 20
-21.9649270253
 10
-33.0070916269
 20
-21.9453735414
 10
-33.0062814112
 20
-21.91643799
 10
-33.0054926649
 20
-21.8784024384
 10
-33.0047326047
 20
-21.8316369491
 10
-33.0033649804
 20
-21.7138161431
  0
LINE
  5
261
100
AcDbEntity
  8
TRASH
100
AcDbLine
 62
7
  6
CONTINUOUS
 10
-25.8633443637
 20
22.5
 11
-25.8848722771
 21
22.4
  0
LINE
  5
262
100
AcDbEntity
  8
TRASH
100
AcDbLine
 62
7
  6
CONTINUOUS
 10
-25.8633443637
 20
-22.5
 11
-25.8848722771
 21
-22.4
  0
LINE
  5
263
100
AcDbEntity
  8
RACCORDO
100
AcDbLine
 62
250
  6
CONTINUOUS
 10
-27.9
 20
3.0018010806
 11
-27.9000000051
 21
2.7
  0
LINE
  5
264
100
AcDbEntity
  8
RACCORDO
100
AcDbLine
 62
250
  6
CONTINUOUS
 10
-27.9
 20
-3.0018010806
 11
-27.9
 21
-2.7
  0
LWPOLYLINE
  5
265
100
AcDbEntity
  8
0
100
AcDbPolyline
 62
250
  6
CONTINUOUS
 90
8
 70
0
 10
-33.5087219643
 20
-21.4755923698
 10
-33.5078597079
 20
-21.4704644071
 10
-33.507024385
 20
-21.4607945673
 10
-33.5062159955
 20
-21.4465828505
 10
-33.5054267115
 20
-21.4276016083
 10
-33.5046643609
 20
-21.4040784891
 10
-33.503952428
 20
-21.3766964381
 10
-33.5026838775
 20
-21.3101421375
  0
LWPOLYLINE
  5
266
100
AcDbEntity
  8
0
100
AcDbPolyline
 62
7
  6
CONTINUOUS
 90
10
 70
0
 43
0.3500000006
 10
-3.2142856836
 20
37.2500019836
 10
-3.8571428204
 20
36.6071439972
 10
-4.2857143393
 20
35.7500015259
 10
-4.2857143393
 20
34.6785700378
 10
-3.8571428204
 20
34.2500010681
 10
-3.2142856836
 20
34.2500010681
 10
-2.7857141647
 20
34.6785700378
 10
-2.7857141647
 20
35.5357125092
 10
-3.2142856836
 20
35.9642860107
 10
-4.1428570719
 20
35.9642860107
  0
LWPOLYLINE
  5
267
100
AcDbEntity
  8
0
100
AcDbPolyline
 62
7
  6
CONTINUOUS
 90
5
 70
0
 43
0.3500000006
 10
3.0000000658
 20
35.9642860107
 10
3.357142951
 20
36.1785704956
 10
3.357142951
 20
36.8214284821
 10
3.0000000658
 20
37.2500019836
 10
2.1428571696
 20
37.2500019836
  0
LINE
  5
268
100
AcDbEntity
  8
TRASH
100
AcDbLine
 62
7
  6
CONTINUOUS
 10
-25.9698202597
 20
-22.4
 11
-25.9698202597
 21
-22.5
  0
LINE
  5
269
100
AcDbEntity
  8
TRASH
100
AcDbLine
 62
7
  6
CONTINUOUS
 10
-25.9698202597
 20
22.4
 11
-25.9698202597
 21
22.5
  0
LINE
  5
26A
100
AcDbEntity
  8
0
100
AcDbLine
 62
250
  6
CONTINUOUS
 10
-33.65
 20
-21.8997711479
 11
-33.5087219643
 21
-21.4755923698
  0
LINE
  5
26B
100
AcDbEntity
  8
0
100
AcDbLine
 62
250
  6
CONTINUOUS
 10
-33.1503805997
 20
-22.4
 11
-33.0087981167
 21
-21.9749071372
  0
LWPOLYLINE
  5
26C
100
AcDbEntity
  8
TRASH
100
AcDbPolyline
 62
7
  6
CONTINUOUS
 90
10
 70
0
 10
26.1748574782
 20
-23.5
 10
26.239741902
 20
-23.4979450158
 10
26.3040972005
 20
-23.4916727201
 10
26.3679233736
 20
-23.4811831128
 10
26.4316732401
 20
-23.4663399818
 10
26.4948939811
 20
-23.4472795393
 10
26.5562271403
 20
-23.424410422
 10
26.6152198987
 20
-23.397868842
 10
26.6723250752
 20
-23.3675185871
 10
26.7275426698
 20
-23.3333596575
  0
LINE
  5
26D
100
AcDbEntity
  8
0
100
AcDbLine
 62
250
  6
CONTINUOUS
 10
-33.5087219643
 20
21.4755923698
 11
-33.65
 21
21.8997711479
  0
LINE
  5
26E
100
AcDbEntity
  8
0
100
AcDbLine
 62
250
  6
CONTINUOUS
 10
-33.0087981167
 20
21.9749071372
 11
-33.1503805997
 21
22.4
  0
LINE
  5
26F
100
AcDbEntity
  8
TRASH
100
AcDbLine
 62
7
  6
CONTINUOUS
 10
-19.0633443637
 20
22.5
 11
-19.0848722771
 21
22.4
  0
LWPOLYLINE
  5
270
100
AcDbEntity
  8
0
100
AcDbPolyline
 62
250
  6
CONTINUOUS
 90
13
 70
0
 10
33.0087981167
 20
-21.9749071372
 10
33.0740160216
 20
-21.9705805728
 10
33.1381188775
 20
-21.9577939153
 10
33.200011099
 20
-21.9367658519
 10
33.2586349582
 20
-21.9078558933
 10
33.3129885225
 20
-21.8715582881
 10
33.362142812
 20
-21.8284936262
 10
33.4052578669
 20
-21.7793980875
 10
33.4415970109
 20
-21.7251108527
 10
33.4705393487
 20
-21.6665598766
 10
33.4915904656
 20
-21.6047459097
 10
33.5043908434
 20
-21.5407253734
 10
33.5087219643
 20
-21.4755923698
  0
LWPOLYLINE
  5
271
100
AcDbEntity
  8
TRASH
100
AcDbPolyline
 62
7
  6
CONTINUOUS
 90
10
 70
0
 10
-18.8251425218
 20
-23.5
 10
-18.760258098
 20
-23.4979450158
 10
-18.6959027995
 20
-23.4916727201
 10
-18.6320766264
 20
-23.4811831128
 10
-18.5683267599
 20
-23.4663399818
 10
-18.5051060189
 20
-23.4472795393
 10
-18.4437728597
 20
-23.424410422
 10
-18.3847801013
 20
-23.397868842
 10
-18.3276749248
 20
-23.3675185871
 10
-18.2724573302
 20
-23.3333596575
  0
LINE
  5
272
100
AcDbEntity
  8
TRASH
100
AcDbLine
 62
7
  6
CONTINUOUS
 10
26.1748574782
 20
-23.5
 11
18.8251425218
 21
-23.5
  0
LINE
  5
273
100
AcDbEntity
  8
TRASH
100
AcDbLine
 62
7
  6
CONTINUOUS
 10
-18.8251425218
 20
-23.5
 11
-26.1748574782
 21
-23.5
  0
LINE
  5
274
100
AcDbEntity
  8
TRASH
100
AcDbLine
 62
7
  6
CONTINUOUS
 10
-25.9698202597
 20
-22.5
 11
-19.0301797403
 21
-22.5
  0
LINE
  5
275
100
AcDbEntity
  8
TRASH
100
AcDbLine
 62
7
  6
CONTINUOUS
 10
19.0301797403
 20
-22.5
 11
25.9698202597
 21
-22.5
  0
LINE
  5
276
100
AcDbEntity
  8
0
100
AcDbLine
 62
7
  6
CONTINUOUS
 10
33.1503805997
 20
-22.4
 11
25.8
 21
-22.4
  0
LINE
  5
277
100
AcDbEntity
  8
0
100
AcDbLine
 62
7
  6
CONTINUOUS
 10
19.2
 20
-22.4
 11
-19.2
 21
-22.4
  0
LINE
  5
278
100
AcDbEntity
  8
0
100
AcDbLine
 62
7
  6
CONTINUOUS
 10
-25.8
 20
-22.4
 11
-33.1503805997
 21
-22.4
  0
LINE
  5
279
100
AcDbEntity
  8
0
100
AcDbLine
 62
250
  6
CONTINUOUS
 10
33.0087981167
 20
-21.9749071372
 11
-33.0087981167
 21
-21.9749071372
  0
LINE
  5
27A
100
AcDbEntity
  8
TRASH
100
AcDbLine
 62
7
  6
CONTINUOUS
 10
-19.0633443637
 20
-22.5
 11
-19.0848722771
 21
-22.4
  0
LINE
  5
27B
100
AcDbEntity
  8
RACCORDO
100
AcDbLine
 62
250
  6
CONTINUOUS
 10
-20.65
 20
4.9529717831
 11
-20.65
 21
7.7546527917
  0
LINE
  5
27C
100
AcDbEntity
  8
RACCORDO
100
AcDbLine
 62
7
  6
CONTINUOUS
 10
-20.35
 20
5.25
 11
-20.35
 21
7.45
  0
LINE
  5
27D
100
AcDbEntity
  8
RACCORDO
100
AcDbLine
 62
250
  6
CONTINUOUS
 10
-19.8
 20
-7.7546527917
 11
-19.8
 21
-4.9529717831
  0
LINE
  5
27E
100
AcDbEntity
  8
RACCORDO
100
AcDbLine
 62
7
  6
CONTINUOUS
 10
-19.5
 20
-7.45
 11
-19.5
 21
-5.25
  0
LINE
  5
27F
100
AcDbEntity
  8
TRASH
100
AcDbLine
 62
7
  6
CONTINUOUS
 10
-19.0301797403
 20
22.5
 11
-19.0301797403
 21
22.4
  0
LINE
  5
280
100
AcDbEntity
  8
TRASH
100
AcDbLine
 62
7
  6
CONTINUOUS
 10
-19.0301797403
 20
-22.5
 11
-19.0301797403
 21
-22.4
  0
LINE
  5
281
100
AcDbEntity
  8
TRASH
100
AcDbLine
 62
7
  6
CONTINUOUS
 10
-25.9366556363
 20
-22.5
 11
-25.9151277229
 21
-22.4
  0
LWPOLYLINE
  5
282
100
AcDbEntity
  8
RACCORDO
100
AcDbPolyline
 62
7
  6
CONTINUOUS
 90
10
 70
0
 10
-30.7692461704
 20
-2.870982715
 10
-30.7196498947
 20
-2.8210057823
 10
-30.6961880869
 20
-2.7977071833
 10
-30.6745904721
 20
-2.7757380991
 10
-30.6546602708
 20
-2.7556465964
 10
-30.6365942624
 20
-2.7378499479
 10
-30.6219404326
 20
-2.7225897743
 10
-30.6112147765
 20
-2.7105854684
 10
-30.603901299
 20
-2.7027804926
 10
-30.6
 20
-2.7
  0
LWPOLYLINE
  5
283
100
AcDbEntity
  8
RACCORDO
100
AcDbPolyline
 62
7
  6
CONTINUOUS
 90
6
 70
0
 10
-30.9
 20
-3.0018010806
 10
-30.8737784879
 20
-2.9759805721
 10
-30.8476467972
 20
-2.9497464057
 10
-30.8216049278
 20
-2.9233220913
 10
-30.7953806384
 20
-2.8969873781
 10
-30.7692461704
 20
-2.870982715
  0
LWPOLYLINE
  5
284
100
AcDbEntity
  8
0
100
AcDbPolyline
 62
250
  6
CONTINUOUS
 90
12
 70
0
 10
33.0650777105
 20
-21.0180910647
 10
33.1285403649
 20
-21.0175199331
 10
33.1898611038
 20
-21.0166103924
 10
33.248013846
 20
-21.0153776619
 10
33.3020255204
 20
-21.013842369
 10
33.3509923486
 20
-21.012030204
 10
33.3940949677
 20
-21.0099714899
 10
33.4306121407
 20
-21.0077006753
 10
33.4599328251
 20
-21.0052557576
 10
33.4815663971
 20
-21.0026776477
 10
33.4951508618
 20
-21.0000094853
 10
33.5004589101
 20
-20.9972959167
  0
LINE
  5
285
100
AcDbEntity
  8
0
100
AcDbLine
 62
250
  6
CONTINUOUS
 10
33.0650777105
 20
-21.0180910647
 11
-33.0005350625
 21
-21.0183142309
  0
LWPOLYLINE
  5
286
100
AcDbEntity
  8
RACCORDO
100
AcDbPolyline
 62
7
  6
CONTINUOUS
 90
7
 70
0
 10
-30.9
 20
3.0018010806
 10
-30.8737784879
 20
2.9759805721
 10
-30.8476467972
 20
2.9497464057
 10
-30.8216049278
 20
2.9233220913
 10
-30.7953806384
 20
2.8969873781
 10
-30.7692461704
 20
2.870982715
 10
-30.7196498947
 20
2.8210057823
  0
LWPOLYLINE
  5
287
100
AcDbEntity
  8
RACCORDO
100
AcDbPolyline
 62
7
  6
CONTINUOUS
 90
9
 70
0
 10
-30.7196498947
 20
2.8210057823
 10
-30.6961880869
 20
2.7977071833
 10
-30.6745904721
 20
2.7757380991
 10
-30.6546602708
 20
2.7556465964
 10
-30.6365942624
 20
2.7378499479
 10
-30.6219404326
 20
2.7225897743
 10
-30.6112147765
 20
2.7105854684
 10
-30.603901299
 20
2.7027804926
 10
-30.6
 20
2.7
  0
LINE
  5
288
100
AcDbEntity
  8
TRASH
100
AcDbLine
 62
7
  6
CONTINUOUS
 10
-25.9366556363
 20
22.5
 11
-25.9151277229
 21
22.4
  0
LWPOLYLINE
  5
289
100
AcDbEntity
  8
RACCORDO
100
AcDbPolyline
 62
7
  6
CONTINUOUS
 90
10
 70
0
 10
-20.5197959717
 20
5.0827639916
 10
-20.4703158992
 20
5.1321416398
 10
-20.4468863558
 20
5.1551044706
 10
-20.4252976328
 20
5.1767045077
 10
-20.4053605215
 20
5.1964542742
 10
-20.3872642307
 20
5.2138751901
 10
-20.3725280993
 20
5.2286190336
 10
-20.3616585735
 20
5.2400495117
 10
-20.3541492071
 20
5.2474032714
 10
-20.35
 20
5.25
  0
LWPOLYLINE
  5
28A
100
AcDbEntity
  8
RACCORDO
100
AcDbPolyline
 62
7
  6
CONTINUOUS
 90
6
 70
0
 10
-20.65
 20
4.9529717831
 10
-20.6239147377
 20
4.9786423991
 10
-20.5979058837
 20
5.0046976159
 10
-20.571973438
 20
5.0309147931
 10
-20.5458465007
 20
5.0570172726
 10
-20.5197959717
 20
5.0827639916
  0
LWPOLYLINE
  5
28B
100
AcDbEntity
  8
RACCORDO
100
AcDbPolyline
 62
7
  6
CONTINUOUS
 90
9
 70
0
 10
-19.6202250248
 20
-5.1322245156
 10
-19.5969363595
 20
-5.1550500147
 10
-19.5754537249
 20
-5.1765501791
 10
-19.5555688281
 20
-5.1962327208
 10
-19.5374899619
 20
-5.2136260394
 10
-19.5227412351
 20
-5.2284111511
 10
-19.511830684
 20
-5.2399288369
 10
-19.5042502723
 20
-5.2473657725
 10
-19.5
 20
-5.25
  0
LWPOLYLINE
  5
28C
100
AcDbEntity
  8
RACCORDO
100
AcDbPolyline
 62
7
  6
CONTINUOUS
 90
7
 70
0
 10
-19.8
 20
-4.9529717831
 10
-19.7737024211
 20
-4.978858219
 10
-19.7475519064
 20
-5.0050550803
 10
-19.721548456
 20
-5.0313387305
 10
-19.6954388245
 20
-5.0574232293
 10
-19.6694762572
 20
-5.0830857847
 10
-19.6202250248
 20
-5.1322245156
  0
LINE
  5
28D
100
AcDbEntity
  8
TRASH
100
AcDbLine
 62
7
  6
CONTINUOUS
 10
-19.1366556363
 20
-22.5
 11
-19.1151277229
 21
-22.4
  0
LWPOLYLINE
  5
28E
100
AcDbEntity
  8
RACCORDO
100
AcDbPolyline
 62
7
  6
CONTINUOUS
 90
7
 70
0
 10
-11.5542607038
 20
7.5493670167
 10
-11.5958817918
 20
7.5067799549
 10
-11.6139383434
 20
7.4887411256
 10
-11.6285345565
 20
7.47319503
 10
-11.6391500429
 20
7.4608969239
 10
-11.6463051907
 20
7.4528691918
 10
-11.65
 20
7.45
  0
LWPOLYLINE
  5
28F
100
AcDbEntity
  8
RACCORDO
100
AcDbPolyline
 62
7
  6
CONTINUOUS
 90
3
 70
0
 10
-11.4808945409
 20
7.6234245202
 10
-11.5306961674
 20
7.5729485309
 10
-11.5542607038
 20
7.5493670167
  0
LINE
  5
290
100
AcDbEntity
  8
RACCORDO
100
AcDbLine
 62
7
  6
CONTINUOUS
 10
-11.4283643869
 20
7.676113493
 11
-11.4808945409
 21
7.6234245202
  0
LWPOLYLINE
  5
291
100
AcDbEntity
  8
RACCORDO
100
AcDbPolyline
 62
7
  6
CONTINUOUS
 90
4
 70
0
 10
-11.35
 20
7.7546527917
 10
-11.3761774358
 20
7.7288735484
 10
-11.4022988981
 20
7.7026193956
 10
-11.4283643869
 20
7.676113493
  0
LWPOLYLINE
  5
292
100
AcDbEntity
  8
RACCORDO
100
AcDbPolyline
 62
7
  6
CONTINUOUS
 90
5
 70
0
 10
-12.2
 20
-7.7546527917
 10
-12.2261774358
 20
-7.7288735484
 10
-12.2522988981
 20
-7.7026193956
 10
-12.2783643869
 20
-7.676113493
 10
-12.3308945409
 20
-7.6234245202
  0
LWPOLYLINE
  5
293
100
AcDbEntity
  8
RACCORDO
100
AcDbPolyline
 62
7
  6
CONTINUOUS
 90
6
 70
0
 10
-12.4458817918
 20
-7.5067799549
 10
-12.4639383434
 20
-7.4887411256
 10
-12.4785345565
 20
-7.47319503
 10
-12.4891500429
 20
-7.4608969239
 10
-12.4963051907
 20
-7.4528691918
 10
-12.5
 20
-7.45
  0
LWPOLYLINE
  5
294
100
AcDbEntity
  8
RACCORDO
100
AcDbPolyline
 62
7
  6
CONTINUOUS
 90
3
 70
0
 10
-12.3806961674
 20
-7.5729485309
 10
-12.4042607038
 20
-7.5493670167
 10
-12.4458817918
 20
-7.5067799549
  0
LINE
  5
295
100
AcDbEntity
  8
RACCORDO
100
AcDbLine
 62
7
  6
CONTINUOUS
 10
-12.3308945409
 20
-7.6234245202
 11
-12.3806961674
 21
-7.5729485309
  0
LINE
  5
296
100
AcDbEntity
  8
TRASH
100
AcDbLine
 62
7
  6
CONTINUOUS
 10
-19.1366556363
 20
22.5
 11
-19.1151277229
 21
22.4
  0
LINE
  5
297
100
AcDbEntity
  8
RACCORDO
100
AcDbLine
 62
7
  6
CONTINUOUS
 10
-12.5
 20
-5.25
 11
-12.5
 21
-7.45
  0
LINE
  5
298
100
AcDbEntity
  8
RACCORDO
100
AcDbLine
 62
250
  6
CONTINUOUS
 10
-12.2
 20
-4.9529717831
 11
-12.2
 21
-7.7546527917
  0
LINE
  5
299
100
AcDbEntity
  8
RACCORDO
100
AcDbLine
 62
7
  6
CONTINUOUS
 10
-11.65
 20
7.45
 11
-11.65
 21
5.25
  0
LINE
  5
29A
100
AcDbEntity
  8
RACCORDO
100
AcDbLine
 62
250
  6
CONTINUOUS
 10
-11.35
 20
7.7546527917
 11
-11.35
 21
4.9529717831
  0
LWPOLYLINE
  5
29B
100
AcDbEntity
  8
0
100
AcDbPolyline
 62
7
  6
CONTINUOUS
 90
27
 70
0
 10
-16.7029149686
 20
-5.9630416894
 10
-16.7035105154
 20
-5.9644202941
 10
-16.7021456269
 20
-5.9625696019
 10
-16.6982694294
 20
-5.9580181948
 10
-16.6910009207
 20
-5.9507341386
 10
-16.6800610149
 20
-5.9412979878
 10
-16.6656214697
 20
-5.930400931
 10
-16.6474803778
 20
-5.9182339259
 10
-16.6253655234
 20
-5.9048937051
 10
-16.5995168697
 20
-5.890725769
 10
-16.5698705477
 20
-5.8758273753
 10
-16.5363532702
 20
-5.8602686064
 10
-16.4992996676
 20
-5.8442733819
 10
-16.4587519663
 20
-5.8278960184
 10
-16.4147048401
 20
-5.8111607757
 10
-16.3674811364
 20
-5.7942005049
 10
-16.3172122911
 20
-5.7770567069
 10
-16.2639163647
 20
-5.7597259987
 10
-16.2077679506
 20
-5.7422517582
 10
-16.1489742329
 20
-5.7246784544
 10
-16.087524136
 20
-5.706980876
 10
-16.0232278624
 20
-5.6890867128
 10
-15.9561776672
 20
-5.6710054512
 10
-15.8864433672
 20
-5.6527372062
 10
-15.8137378428
 20
-5.6341896182
 10
-15.7381362781
 20
-5.6153653563
 10
-15.6597279911
 20
-5.5962666566
  0
LWPOLYLINE
  5
29C
100
AcDbEntity
  8
0
100
AcDbPolyline
 62
7
  6
CONTINUOUS
 90
3
 70
0
 10
27.679067172
 20
-5.2925676166
 10
27.7781166689
 20
-5.2691908656
 10
27.8576540791
 20
-5.25
  0
LINE
  5
29D
100
AcDbEntity
  8
0
100
AcDbLine
 62
7
  6
CONTINUOUS
 10
26.3402720089
 20
-5.5962666566
 11
26.5063919448
 21
-5.5569468995
  0
LINE
  5
29E
100
AcDbEntity
  8
0
100
AcDbLine
 62
7
  6
CONTINUOUS
 10
27.4778719473
 20
-5.3388336802
 11
27.679067172
 21
-5.2925676166
  0
LINE
  5
29F
100
AcDbEntity
  8
0
100
AcDbLine
 62
7
  6
CONTINUOUS
 10
26.5063919448
 20
-5.5569468995
 11
26.6844391883
 21
-5.5160748542
  0
LINE
  5
2A0
100
AcDbEntity
  8
0
100
AcDbLine
 62
7
  6
CONTINUOUS
 10
26.6844391883
 20
-5.5160748542
 11
26.8747644798
 21
-5.4733077167
  0
LINE
  5
2A1
100
AcDbEntity
  8
0
100
AcDbLine
 62
7
  6
CONTINUOUS
 10
26.8747644798
 20
-5.4733077167
 11
27.4778719473
 21
-5.3388336802
  0
LWPOLYLINE
  5
2A2
100
AcDbEntity
  8
0
100
AcDbPolyline
 62
7
  6
CONTINUOUS
 90
13
 70
0
 10
28.7395061623
 20
-6.9253239955
 10
28.7394112466
 20
-6.9253425953
 10
28.7387847548
 20
-6.9254600893
 10
28.7377228022
 20
-6.9256469409
 10
28.7363180483
 20
-6.9258793318
 10
28.7345819534
 20
-6.926150375
 10
28.7324937032
 20
-6.9264588123
 10
28.7301000772
 20
-6.926794063
 10
28.7274022037
 20
-6.9271532555
 10
28.724388686
 20
-6.9275354062
 10
28.7210874676
 20
-6.927934899
 10
28.7174977615
 20
-6.9283502163
 10
28.7136113029
 20
-6.9287808122
  0
LWPOLYLINE
  5
2A3
100
AcDbEntity
  8
0
100
AcDbPolyline
 62
7
  6
CONTINUOUS
 90
13
 70
0
 10
25.269419515
 20
-7.3565929243
 10
25.2695349915
 20
-7.3565704806
 10
25.2702275616
 20
-7.3564416718
 10
25.2713598616
 20
-7.3562441249
 10
25.2728341275
 20
-7.356002282
 10
25.2746388162
 20
-7.3557228622
 10
25.2767941618
 20
-7.3554070892
 10
25.2792491086
 20
-7.3550659343
 10
25.2819998857
 20
-7.3547024181
 10
25.2850577735
 20
-7.3543173394
 10
25.2883938643
 20
-7.3539162245
 10
25.2920076812
 20
-7.3535005711
 10
25.2959064069
 20
-7.3530708895
  0
LWPOLYLINE
  5
2A4
100
AcDbEntity
  8
0
100
AcDbPolyline
 62
7
  6
CONTINUOUS
 90
3
 70
0
 43
0.3500000006
 10
1.1428571477
 20
34.535712204
 10
1.0714285848
 20
34.3214277191
 10
0.9285714591
 20
34.0357120514
  0
LWPOLYLINE
  5
2A5
100
AcDbEntity
  8
RACCORDO
100
AcDbPolyline
 62
7
  6
CONTINUOUS
 90
7
 70
0
 10
-19.5957392962
 20
-7.5493670167
 10
-19.5541182082
 20
-7.5067799549
 10
-19.5360616566
 20
-7.4887411256
 10
-19.5214654435
 20
-7.47319503
 10
-19.5108499571
 20
-7.4608969239
 10
-19.5036948093
 20
-7.4528691918
 10
-19.5
 20
-7.45
  0
LWPOLYLINE
  5
2A6
100
AcDbEntity
  8
RACCORDO
100
AcDbPolyline
 62
7
  6
CONTINUOUS
 90
3
 70
0
 10
-19.6691054591
 20
-7.6234245202
 10
-19.6193038326
 20
-7.5729485309
 10
-19.5957392962
 20
-7.5493670167
  0
LINE
  5
2A7
100
AcDbEntity
  8
RACCORDO
100
AcDbLine
 62
7
  6
CONTINUOUS
 10
-19.7216356131
 20
-7.676113493
 11
-19.6691054591
 21
-7.6234245202
  0
LWPOLYLINE
  5
2A8
100
AcDbEntity
  8
RACCORDO
100
AcDbPolyline
 62
7
  6
CONTINUOUS
 90
4
 70
0
 10
-19.8
 20
-7.7546527917
 10
-19.7738225642
 20
-7.7288735484
 10
-19.7477011019
 20
-7.7026193956
 10
-19.7216356131
 20
-7.676113493
  0
LWPOLYLINE
  5
2A9
100
AcDbEntity
  8
TRASH
100
AcDbPolyline
 62
7
  6
CONTINUOUS
 90
10
 70
0
 10
18.2724573302
 20
23.3333596575
 10
18.3276749248
 20
23.3675185871
 10
18.3847801013
 20
23.397868842
 10
18.4437728597
 20
23.424410422
 10
18.5051060189
 20
23.4472795393
 10
18.5683267599
 20
23.4663399818
 10
18.6320766264
 20
23.4811831128
 10
18.6959027995
 20
23.4916727201
 10
18.760258098
 20
23.4979450158
 10
18.8251425218
 20
23.5
  0
LWPOLYLINE
  5
2AA
100
AcDbEntity
  8
0
100
AcDbPolyline
 62
7
  6
CONTINUOUS
 90
34
 70
0
 10
25.2687484282
 20
-7.0544443942
 10
25.2629332475
 20
-7.0550677907
 10
25.2573283756
 20
-7.0556965061
 10
25.2519249765
 20
-7.0563318916
 10
25.2466945987
 20
-7.0569779405
 10
25.241640964
 20
-7.0576350561
 10
25.2367481554
 20
-7.0583062947
 10
25.2319574672
 20
-7.0590015608
 10
25.227269196
 20
-7.0597235117
 10
25.2226727493
 20
-7.0604768354
 10
25.2180905872
 20
-7.0612789592
 10
25.213533484
 20
-7.0621343562
 10
25.2089767317
 20
-7.0630549539
 10
25.2042839466
 20
-7.064080155
 10
25.1994921665
 20
-7.0652177909
 10
25.1945490554
 20
-7.0664987626
 10
25.189183955
 20
-7.0680260744
 10
25.1834162756
 20
-7.0698434803
 10
25.1772364975
 20
-7.0720122875
 10
25.1703457938
 20
-7.0747266806
 10
25.1626626227
 20
-7.0781576119
 10
25.1543721495
 20
-7.0823896527
 10
25.1456055663
 20
-7.0875381485
 10
25.136403348
 20
-7.0938009346
 10
25.126996097
 20
-7.1012878031
 10
25.1178034992
 20
-7.1099266982
 10
25.1090220219
 20
-7.1197670719
 10
25.1007858991
 20
-7.1308696675
 10
25.0933722459
 20
-7.1430635736
 10
25.0869568092
 20
-7.1562446744
 10
25.081672281
 20
-7.1703907802
 10
25.0777040831
 20
-7.1853817766
 10
25.0752400592
 20
-7.2010869618
 10
25.0744716614
 20
-7.2159875645
  0
LWPOLYLINE
  5
2AB
100
AcDbEntity
  8
0
100
AcDbPolyline
 62
7
  6
CONTINUOUS
 90
34
 70
0
 10
28.7376290622
 20
-7.2277387684
 10
28.7436077217
 20
-7.2271103116
 10
28.7493679104
 20
-7.2264768122
 10
28.7549177931
 20
-7.2258370308
 10
28.7602857901
 20
-7.2251870741
 10
28.765470873
 20
-7.2245262142
 10
28.7704859615
 20
-7.2238518309
 10
28.7753820269
 20
-7.2231553713
 10
28.7801507826
 20
-7.22243571
 10
28.7848131467
 20
-7.2216870696
 10
28.7894649975
 20
-7.2208894213
 10
28.7940844793
 20
-7.220040132
 10
28.7987046926
 20
-7.2191258053
 10
28.8035048239
 20
-7.2180978604
 10
28.8084689583
 20
-7.2169402756
 10
28.8136182526
 20
-7.2156254002
 10
28.819192204
 20
-7.214055873
 10
28.8251786288
 20
-7.2121824253
 10
28.8315847086
 20
-7.2099401568
 10
28.838672266
 20
-7.2071448807
 10
28.8465386068
 20
-7.2036164305
 10
28.8549856628
 20
-7.1992731251
 10
28.8638092084
 20
-7.1940445887
 10
28.8729516792
 20
-7.1877658879
 10
28.8822233261
 20
-7.1803293071
 10
28.8912279354
 20
-7.17182096
 10
28.8997666639
 20
-7.1622377536
 10
28.9077579526
 20
-7.1515072464
 10
28.9150093692
 20
-7.1397035257
 10
28.9213453222
 20
-7.1269192691
 10
28.9266347155
 20
-7.1131632161
 10
28.9307190251
 20
-7.0984230284
 10
28.9333767413
 20
-7.0827703234
 10
28.9343518583
 20
-7.0659793125
  0
LINE
  5
2AC
100
AcDbEntity
  8
0
100
AcDbLine
 62
7
  6
CONTINUOUS
 10
28.7136113029
 20
-6.9287808122
 11
28.7049987843
 21
-6.9296773581
  0
LINE
  5
2AD
100
AcDbEntity
  8
0
100
AcDbLine
 62
7
  6
CONTINUOUS
 10
25.2959064069
 20
-7.3530708895
 11
25.3045059069
 21
-7.3521795245
  0
LINE
  5
2AE
100
AcDbEntity
  8
0
100
AcDbLine
 62
7
  6
CONTINUOUS
 10
25.2810306715
 20
-7.053210241
 11
25.2687484282
 21
-7.0544443942
  0
LINE
  5
2AF
100
AcDbEntity
  8
0
100
AcDbLine
 62
7
  6
CONTINUOUS
 10
28.7249915902
 20
-7.2289841402
 11
28.7376290622
 21
-7.2277387684
  0
LINE
  5
2B0
100
AcDbEntity
  8
0
100
AcDbLine
 62
7
  6
CONTINUOUS
 10
28.7049987843
 20
-6.9296773581
 11
28.6952537291
 21
-6.9306159205
  0
LINE
  5
2B1
100
AcDbEntity
  8
0
100
AcDbLine
 62
7
  6
CONTINUOUS
 10
25.3045059069
 20
-7.3521795245
 11
25.3141802693
 21
-7.3512505171
  0
LINE
  5
2B2
100
AcDbEntity
  8
0
100
AcDbLine
 62
7
  6
CONTINUOUS
 10
25.2942460524
 20
-7.0519855074
 11
25.2810306715
 21
-7.053210241
  0
LINE
  5
2B3
100
AcDbEntity
  8
0
100
AcDbLine
 62
7
  6
CONTINUOUS
 10
28.7113802378
 20
-7.2302215513
 11
28.7249915902
 21
-7.2289841402
  0
LINE
  5
2B4
100
AcDbEntity
  8
0
100
AcDbLine
 62
7
  6
CONTINUOUS
 10
28.6952537291
 20
-6.9306159205
 11
28.6843906065
 21
-6.9315887384
  0
LINE
  5
2B5
100
AcDbEntity
  8
0
100
AcDbLine
 62
7
  6
CONTINUOUS
 10
25.3141802693
 20
-7.3512505171
 11
25.3249058017
 21
-7.3502915272
  0
LINE
  5
2B6
100
AcDbEntity
  8
0
100
AcDbLine
 62
7
  6
CONTINUOUS
 10
25.308435313
 20
-7.0507658879
 11
25.2942460524
 21
-7.0519855074
  0
LINE
  5
2B7
100
AcDbEntity
  8
0
100
AcDbLine
 62
7
  6
CONTINUOUS
 10
28.696723644
 20
-7.2314575366
 11
28.7113802378
 21
-7.2302215513
  0
LINE
  5
2B8
100
AcDbEntity
  8
0
100
AcDbLine
 62
7
  6
CONTINUOUS
 10
25.3249058017
 20
-7.3502915272
 11
25.3366710112
 21
-7.3493076244
  0
LINE
  5
2B9
100
AcDbEntity
  8
0
100
AcDbLine
 62
7
  6
CONTINUOUS
 10
28.6843906065
 20
-6.9315887384
 11
28.6724035671
 21
-6.9325913224
  0
LINE
  5
2BA
100
AcDbEntity
  8
0
100
AcDbLine
 62
7
  6
CONTINUOUS
 10
25.3236331135
 20
-7.0495482323
 11
25.308435313
 21
-7.0507658879
  0
LINE
  5
2BB
100
AcDbEntity
  8
0
100
AcDbLine
 62
7
  6
CONTINUOUS
 10
28.6809669628
 20
-7.2326960929
 11
28.696723644
 21
-7.2314575366
  0
LINE
  5
2BC
100
AcDbEntity
  8
0
100
AcDbLine
 62
7
  6
CONTINUOUS
 10
25.3366710112
 20
-7.3493076244
 11
25.3494776946
 21
-7.3483018661
  0
LINE
  5
2BD
100
AcDbEntity
  8
0
100
AcDbLine
 62
7
  6
CONTINUOUS
 10
28.6724035671
 20
-6.9325913224
 11
28.6592788407
 21
-6.9336206442
  0
LINE
  5
2BE
100
AcDbEntity
  8
0
100
AcDbLine
 62
7
  6
CONTINUOUS
 10
25.339872182
 20
-7.0483299928
 11
25.3236331135
 21
-7.0495482323
  0
LINE
  5
2BF
100
AcDbEntity
  8
0
100
AcDbLine
 62
7
  6
CONTINUOUS
 10
28.6640528629
 20
-7.2339407134
 11
28.6809669628
 21
-7.2326960929
  0
LINE
  5
2C0
100
AcDbEntity
  8
0
100
AcDbLine
 62
7
  6
CONTINUOUS
 10
25.3494776946
 20
-7.3483018661
 11
25.3706483654
 21
-7.3467573093
  0
LINE
  5
2C1
100
AcDbEntity
  8
0
100
AcDbLine
 62
7
  6
CONTINUOUS
 10
28.6592788407
 20
-6.9336206442
 11
28.63743596
 21
-6.9352089436
  0
LINE
  5
2C2
100
AcDbEntity
  8
0
100
AcDbLine
 62
7
  6
CONTINUOUS
 10
25.3662553612
 20
-7.046496798
 11
25.339872182
 21
-7.0483299928
  0
LINE
  5
2C3
100
AcDbEntity
  8
0
100
AcDbLine
 62
7
  6
CONTINUOUS
 10
28.6364092418
 20
-7.2358237368
 11
28.6640528629
 21
-7.2339407134
  0
LINE
  5
2C4
100
AcDbEntity
  8
0
100
AcDbLine
 62
7
  6
CONTINUOUS
 10
25.3706483654
 20
-7.3467573093
 11
25.3942092267
 21
-7.3451733502
  0
LINE
  5
2C5
100
AcDbEntity
  8
0
100
AcDbLine
 62
7
  6
CONTINUOUS
 10
28.63743596
 20
-6.9352089436
 11
28.6129577391
 21
-6.9368453523
  0
LINE
  5
2C6
100
AcDbEntity
  8
0
100
AcDbLine
 62
7
  6
CONTINUOUS
 10
25.3951461427
 20
-7.0446524707
 11
25.3662553612
 21
-7.046496798
  0
LINE
  5
2C7
100
AcDbEntity
  8
0
100
AcDbLine
 62
7
  6
CONTINUOUS
 10
28.6059115611
 20
-7.2377306724
 11
28.6364092418
 21
-7.2358237368
  0
LINE
  5
2C8
100
AcDbEntity
  8
0
100
AcDbLine
 62
7
  6
CONTINUOUS
 10
25.3942092267
 20
-7.3451733502
 11
25.4202104151
 21
-7.3435527121
  0
LINE
  5
2C9
100
AcDbEntity
  8
0
100
AcDbLine
 62
7
  6
CONTINUOUS
 10
28.6129577391
 20
-6.9368453523
 11
28.5857871399
 21
-6.9385256951
  0
LINE
  5
2CA
100
AcDbEntity
  8
0
100
AcDbLine
 62
7
  6
CONTINUOUS
 10
25.4376849144
 20
-7.0421711871
 11
25.3951461427
 21
-7.0446524707
  0
LINE
  5
2CB
100
AcDbEntity
  8
0
100
AcDbLine
 62
7
  6
CONTINUOUS
 10
25.4202104151
 20
-7.3435527121
 11
25.4587772053
 21
-7.3413373267
  0
LINE
  5
2CC
100
AcDbEntity
  8
0
100
AcDbLine
 62
7
  6
CONTINUOUS
 10
28.5605894582
 20
-7.2403164207
 11
28.6059115611
 21
-7.2377306724
  0
LINE
  5
2CD
100
AcDbEntity
  8
0
100
AcDbLine
 62
7
  6
CONTINUOUS
 10
28.5857871399
 20
-6.9385256951
 11
28.5452702822
 21
-6.9408295002
  0
LINE
  5
2CE
100
AcDbEntity
  8
0
100
AcDbLine
 62
7
  6
CONTINUOUS
 10
25.4849180788
 20
-7.0396613394
 11
25.4376849144
 21
-7.0421711871
  0
LINE
  5
2CF
100
AcDbEntity
  8
0
100
AcDbLine
 62
7
  6
CONTINUOUS
 10
28.5097061159
 20
-7.2429562021
 11
28.5605894582
 21
-7.2403164207
  0
LINE
  5
2D0
100
AcDbEntity
  8
0
100
AcDbLine
 62
7
  6
CONTINUOUS
 10
25.4587772053
 20
-7.3413373267
 11
25.5134714138
 21
-7.3384823814
  0
LINE
  5
2D1
100
AcDbEntity
  8
0
100
AcDbLine
 62
7
  6
CONTINUOUS
 10
28.5452702822
 20
-6.9408295002
 11
28.4875398284
 21
-6.9438045752
  0
LINE
  5
2D2
100
AcDbEntity
  8
0
100
AcDbLine
 62
7
  6
CONTINUOUS
 10
25.5506565162
 20
-7.0364817751
 11
25.4849180788
 21
-7.0396613394
  0
LINE
  5
2D3
100
AcDbEntity
  8
0
100
AcDbLine
 62
7
  6
CONTINUOUS
 10
28.4379491735
 20
-7.2463367897
 11
28.5097061159
 21
-7.2429562021
  0
LINE
  5
2D4
100
AcDbEntity
  8
0
100
AcDbLine
 62
7
  6
CONTINUOUS
 10
25.5134714138
 20
-7.3384823814
 11
25.5890499872
 21
-7.3349303895
  0
LINE
  5
2D5
100
AcDbEntity
  8
0
100
AcDbLine
 62
7
  6
CONTINUOUS
 10
28.4875398284
 20
-6.9438045752
 11
28.4075817687
 21
-6.9475055706
  0
LINE
  5
2D6
100
AcDbEntity
  8
0
100
AcDbLine
 62
7
  6
CONTINUOUS
 10
25.6393865087
 20
-7.0326045588
 11
25.5506565162
 21
-7.0364817751
  0
LINE
  5
2D7
100
AcDbEntity
  8
0
100
AcDbLine
 62
7
  6
CONTINUOUS
 10
28.3393750749
 20
-7.2505197913
 11
28.4379491735
 21
-7.2463367897
  0
LINE
  5
2D8
100
AcDbEntity
  8
0
100
AcDbLine
 62
7
  6
CONTINUOUS
 10
25.5890499872
 20
-7.3349303895
 11
25.6915627987
 21
-7.3306119457
  0
LINE
  5
2D9
100
AcDbEntity
  8
0
100
AcDbLine
 62
7
  6
CONTINUOUS
 10
28.4075817687
 20
-6.9475055706
 11
28.299427235
 21
-6.9519855248
  0
LINE
  5
2DA
100
AcDbEntity
  8
0
100
AcDbLine
 62
7
  6
CONTINUOUS
 10
25.7741010042
 20
-7.0273359008
 11
25.6393865087
 21
-7.0326045588
  0
LINE
  5
2DB
100
AcDbEntity
  8
0
100
AcDbLine
 62
7
  6
CONTINUOUS
 10
28.1859323621
 20
-7.2563251485
 11
28.3393750749
 21
-7.2505197913
  0
LINE
  5
2DC
100
AcDbEntity
  8
0
100
AcDbLine
 62
7
  6
CONTINUOUS
 10
25.6915627987
 20
-7.3306119457
 11
25.8463663543
 21
-7.324803249
  0
LINE
  5
2DD
100
AcDbEntity
  8
0
100
AcDbLine
 62
7
  6
CONTINUOUS
 10
28.299427235
 20
-6.9519855248
 11
28.117712424
 21
-6.9586450204
  0
LINE
  5
2DE
100
AcDbEntity
  8
0
100
AcDbLine
 62
7
  6
CONTINUOUS
 10
26.0091529844
 20
-7.0192482303
 11
25.7741010042
 21
-7.0273359008
  0
LINE
  5
2DF
100
AcDbEntity
  8
0
100
AcDbLine
 62
7
  6
CONTINUOUS
 10
25.8463663543
 20
-7.324803249
 11
26.0699055703
 21
-7.3173502559
  0
LINE
  5
2E0
100
AcDbEntity
  8
0
100
AcDbLine
 62
7
  6
CONTINUOUS
 10
26.0519076023
 20
-7.0178801355
 11
26.0091529844
 21
-7.0192482303
  0
LINE
  5
2E1
100
AcDbEntity
  8
0
100
AcDbLine
 62
7
  6
CONTINUOUS
 10
28.117712424
 20
-6.9586450204
 11
27.9282869536
 21
-6.9648634435
  0
LINE
  5
2E2
100
AcDbEntity
  8
0
100
AcDbLine
 62
7
  6
CONTINUOUS
 10
27.9076795858
 20
-7.2655441794
 11
28.1859323621
 21
-7.2563251485
  0
LINE
  5
2E3
100
AcDbEntity
  8
0
100
AcDbLine
 62
7
  6
CONTINUOUS
 10
26.0699055703
 20
-7.3173502559
 11
26.3577923712
 21
-7.3086960131
  0
LINE
  5
2E4
100
AcDbEntity
  8
0
100
AcDbLine
 62
7
  6
CONTINUOUS
 10
26.3577923712
 20
-7.3086960131
 11
26.4376844519
 21
-7.3064135943
  0
LINE
  5
2E5
100
AcDbEntity
  8
0
100
AcDbLine
 62
7
  6
CONTINUOUS
 10
27.5475016372
 20
-7.2761371809
 11
27.9076795858
 21
-7.2655441794
  0
LINE
  5
2E6
100
AcDbEntity
  8
0
100
AcDbLine
 62
7
  6
CONTINUOUS
 10
26.4376844519
 20
-7.3064135943
 11
26.578365364
 21
-7.3024791795
  0
LINE
  5
2E7
100
AcDbEntity
  8
0
100
AcDbLine
 62
7
  6
CONTINUOUS
 10
27.4269320529
 20
-7.2794954201
 11
27.5475016372
 21
-7.2761371809
  0
LINE
  5
2E8
100
AcDbEntity
  8
0
100
AcDbLine
 62
7
  6
CONTINUOUS
 10
26.578365364
 20
-7.3024791795
 11
26.6373504112
 21
-7.3008549647
  0
LINE
  5
2E9
100
AcDbEntity
  8
0
100
AcDbLine
 62
7
  6
CONTINUOUS
 10
27.3342216752
 20
-7.2820385441
 11
27.4269320529
 21
-7.2794954201
  0
LINE
  5
2EA
100
AcDbEntity
  8
0
100
AcDbLine
 62
7
  6
CONTINUOUS
 10
26.6373504112
 20
-7.3008549647
 11
26.6978546293
 21
-7.2992010926
  0
LINE
  5
2EB
100
AcDbEntity
  8
0
100
AcDbLine
 62
7
  6
CONTINUOUS
 10
26.6978546293
 20
-7.2992010926
 11
26.7597759395
 21
-7.2975189575
  0
LWPOLYLINE
  5
2EC
100
AcDbEntity
  8
0
100
AcDbPolyline
 62
7
  6
CONTINUOUS
 90
3
 70
0
 10
27.2399142396
 20
-7.2845999596
 10
27.2715055835
 20
-7.2837442988
 10
27.3342216752
 20
-7.2820385441
  0
LWPOLYLINE
  5
2ED
100
AcDbEntity
  8
0
100
AcDbPolyline
 62
7
  6
CONTINUOUS
 90
3
 70
0
 10
26.7597759395
 20
-7.2975189575
 10
26.8227818625
 20
-7.2958159259
 10
26.8546402976
 20
-7.2949573716
  0
LINE
  5
2EE
100
AcDbEntity
  8
0
100
AcDbLine
 62
7
  6
CONTINUOUS
 10
27.1763229306
 20
-7.2863165828
 11
27.2399142396
 21
-7.2845999596
  0
LINE
  5
2EF
100
AcDbEntity
  8
0
100
AcDbLine
 62
7
  6
CONTINUOUS
 10
26.8546402976
 20
-7.2949573716
 11
27.1763229306
 21
-7.2863165828
  0
LWPOLYLINE
  5
2F0
100
AcDbEntity
  8
TRASH
100
AcDbPolyline
 62
7
  6
CONTINUOUS
 90
10
 70
0
 10
18.2724573302
 20
-23.3333596575
 10
18.3276749248
 20
-23.3675185871
 10
18.3847801013
 20
-23.397868842
 10
18.4437728597
 20
-23.424410422
 10
18.5051060189
 20
-23.4472795393
 10
18.5683267599
 20
-23.4663399818
 10
18.6320766264
 20
-23.4811831128
 10
18.6959027995
 20
-23.4916727201
 10
18.760258098
 20
-23.4979450158
 10
18.8251425218
 20
-23.5
  0
LWPOLYLINE
  5
2F1
100
AcDbEntity
  8
RACCORDO
100
AcDbPolyline
 62
7
  6
CONTINUOUS
 90
5
 70
0
 10
-20.65
 20
7.7546527917
 10
-20.6238225642
 20
7.7288735484
 10
-20.5977011019
 20
7.7026193956
 10
-20.5716356131
 20
7.676113493
 10
-20.5191054591
 20
7.6234245202
  0
LWPOLYLINE
  5
2F2
100
AcDbEntity
  8
RACCORDO
100
AcDbPolyline
 62
7
  6
CONTINUOUS
 90
6
 70
0
 10
-20.4041182082
 20
7.5067799549
 10
-20.3860616566
 20
7.4887411256
 10
-20.3714654435
 20
7.47319503
 10
-20.3608499571
 20
7.4608969239
 10
-20.3536948093
 20
7.4528691918
 10
-20.35
 20
7.45
  0
LWPOLYLINE
  5
2F3
100
AcDbEntity
  8
RACCORDO
100
AcDbPolyline
 62
7
  6
CONTINUOUS
 90
3
 70
0
 10
-20.4693038326
 20
7.5729485309
 10
-20.4457392962
 20
7.5493670167
 10
-20.4041182082
 20
7.5067799549
  0
LINE
  5
2F4
100
AcDbEntity
  8
RACCORDO
100
AcDbLine
 62
7
  6
CONTINUOUS
 10
-20.5191054591
 20
7.6234245202
 11
-20.4693038326
 21
7.5729485309
  0
LWPOLYLINE
  5
2F5
100
AcDbEntity
  8
0
100
AcDbPolyline
 62
7
  6
CONTINUOUS
 90
34
 70
0
 10
-16.7312515718
 20
-7.0544443942
 10
-16.7370667525
 20
-7.0550677907
 10
-16.7426716244
 20
-7.0556965061
 10
-16.7480750235
 20
-7.0563318916
 10
-16.7533054013
 20
-7.0569779405
 10
-16.758359036
 20
-7.0576350561
 10
-16.7632518446
 20
-7.0583062947
 10
-16.7680425328
 20
-7.0590015608
 10
-16.772730804
 20
-7.0597235117
 10
-16.7773272507
 20
-7.0604768354
 10
-16.7819094128
 20
-7.0612789592
 10
-16.786466516
 20
-7.0621343562
 10
-16.7910232683
 20
-7.0630549539
 10
-16.7957160534
 20
-7.064080155
 10
-16.8005078335
 20
-7.0652177909
 10
-16.8054509446
 20
-7.0664987626
 10
-16.810816045
 20
-7.0680260744
 10
-16.8165837244
 20
-7.0698434803
 10
-16.8227635025
 20
-7.0720122875
 10
-16.8296542062
 20
-7.0747266806
 10
-16.8373373773
 20
-7.0781576119
 10
-16.8456278505
 20
-7.0823896527
 10
-16.8543944337
 20
-7.0875381485
 10
-16.863596652
 20
-7.0938009346
 10
-16.873003903
 20
-7.1012878031
 10
-16.8821965008
 20
-7.1099266982
 10
-16.8909779781
 20
-7.1197670719
 10
-16.8992141009
 20
-7.1308696675
 10
-16.9066277541
 20
-7.1430635736
 10
-16.9130431908
 20
-7.1562446744
 10
-16.918327719
 20
-7.1703907802
 10
-16.9222959169
 20
-7.1853817766
 10
-16.9247599408
 20
-7.2010869618
 10
-16.9255283386
 20
-7.2159875645
  0
LWPOLYLINE
  5
2F6
100
AcDbEntity
  8
0
100
AcDbPolyline
 62
7
  6
CONTINUOUS
 90
34
 70
0
 10
-13.2623709378
 20
-7.2277387684
 10
-13.2563922783
 20
-7.2271103116
 10
-13.2506320896
 20
-7.2264768122
 10
-13.2450822069
 20
-7.2258370308
 10
-13.2397142099
 20
-7.2251870741
 10
-13.234529127
 20
-7.2245262142
 10
-13.2295140385
 20
-7.2238518309
 10
-13.2246179731
 20
-7.2231553713
 10
-13.2198492174
 20
-7.22243571
 10
-13.2151868533
 20
-7.2216870696
 10
-13.2105350025
 20
-7.2208894213
 10
-13.2059155207
 20
-7.220040132
 10
-13.2012953074
 20
-7.2191258053
 10
-13.1964951761
 20
-7.2180978604
 10
-13.1915310417
 20
-7.2169402756
 10
-13.1863817474
 20
-7.2156254002
 10
-13.180807796
 20
-7.214055873
 10
-13.1748213712
 20
-7.2121824253
 10
-13.1684152914
 20
-7.2099401568
 10
-13.161327734
 20
-7.2071448807
 10
-13.1534613932
 20
-7.2036164305
 10
-13.1450143372
 20
-7.1992731251
 10
-13.1361907916
 20
-7.1940445887
 10
-13.1270483208
 20
-7.1877658879
 10
-13.1177766739
 20
-7.1803293071
 10
-13.1087720646
 20
-7.17182096
 10
-13.1002333361
 20
-7.1622377536
 10
-13.0922420474
 20
-7.1515072464
 10
-13.0849906308
 20
-7.1397035257
 10
-13.0786546778
 20
-7.1269192691
 10
-13.0733652845
 20
-7.1131632161
 10
-13.0692809749
 20
-7.0984230284
 10
-13.0666232587
 20
-7.0827703234
 10
-13.0656481417
 20
-7.0659793125
  0
LINE
  5
2F7
100
AcDbEntity
  8
0
100
AcDbLine
 62
7
  6
CONTINUOUS
 10
-13.2863886971
 20
-6.9287808122
 11
-13.2950012157
 21
-6.9296773581
  0
LINE
  5
2F8
100
AcDbEntity
  8
0
100
AcDbLine
 62
7
  6
CONTINUOUS
 10
-16.7040935931
 20
-7.3530708895
 11
-16.6954940931
 21
-7.3521795245
  0
LINE
  5
2F9
100
AcDbEntity
  8
0
100
AcDbLine
 62
7
  6
CONTINUOUS
 10
-16.7189693285
 20
-7.053210241
 11
-16.7312515718
 21
-7.0544443942
  0
LINE
  5
2FA
100
AcDbEntity
  8
0
100
AcDbLine
 62
7
  6
CONTINUOUS
 10
-13.2750084098
 20
-7.2289841402
 11
-13.2623709378
 21
-7.2277387684
  0
LINE
  5
2FB
100
AcDbEntity
  8
0
100
AcDbLine
 62
7
  6
CONTINUOUS
 10
-13.2950012157
 20
-6.9296773581
 11
-13.3047462709
 21
-6.9306159205
  0
LINE
  5
2FC
100
AcDbEntity
  8
0
100
AcDbLine
 62
7
  6
CONTINUOUS
 10
-16.6954940931
 20
-7.3521795245
 11
-16.6858197307
 21
-7.3512505171
  0
LINE
  5
2FD
100
AcDbEntity
  8
0
100
AcDbLine
 62
7
  6
CONTINUOUS
 10
-16.7057539476
 20
-7.0519855074
 11
-16.7189693285
 21
-7.053210241
  0
LINE
  5
2FE
100
AcDbEntity
  8
0
100
AcDbLine
 62
7
  6
CONTINUOUS
 10
-13.2886197622
 20
-7.2302215513
 11
-13.2750084098
 21
-7.2289841402
  0
LINE
  5
2FF
100
AcDbEntity
  8
0
100
AcDbLine
 62
7
  6
CONTINUOUS
 10
-13.3047462709
 20
-6.9306159205
 11
-13.3156093935
 21
-6.9315887384
  0
LINE
  5
300
100
AcDbEntity
  8
0
100
AcDbLine
 62
7
  6
CONTINUOUS
 10
-16.6858197307
 20
-7.3512505171
 11
-16.6750941983
 21
-7.3502915272
  0
LINE
  5
301
100
AcDbEntity
  8
0
100
AcDbLine
 62
7
  6
CONTINUOUS
 10
-16.691564687
 20
-7.0507658879
 11
-16.7057539476
 21
-7.0519855074
  0
LINE
  5
302
100
AcDbEntity
  8
0
100
AcDbLine
 62
7
  6
CONTINUOUS
 10
-13.303276356
 20
-7.2314575366
 11
-13.2886197622
 21
-7.2302215513
  0
LINE
  5
303
100
AcDbEntity
  8
0
100
AcDbLine
 62
7
  6
CONTINUOUS
 10
-16.6750941983
 20
-7.3502915272
 11
-16.6633289888
 21
-7.3493076244
  0
LINE
  5
304
100
AcDbEntity
  8
0
100
AcDbLine
 62
7
  6
CONTINUOUS
 10
-13.3156093935
 20
-6.9315887384
 11
-13.3275964329
 21
-6.9325913224
  0
LINE
  5
305
100
AcDbEntity
  8
0
100
AcDbLine
 62
7
  6
CONTINUOUS
 10
-16.6763668865
 20
-7.0495482323
 11
-16.691564687
 21
-7.0507658879
  0
LINE
  5
306
100
AcDbEntity
  8
0
100
AcDbLine
 62
7
  6
CONTINUOUS
 10
-13.3190330372
 20
-7.2326960929
 11
-13.303276356
 21
-7.2314575366
  0
LINE
  5
307
100
AcDbEntity
  8
0
100
AcDbLine
 62
7
  6
CONTINUOUS
 10
-16.6633289888
 20
-7.3493076244
 11
-16.6505223054
 21
-7.3483018661
  0
LINE
  5
308
100
AcDbEntity
  8
0
100
AcDbLine
 62
7
  6
CONTINUOUS
 10
-13.3275964329
 20
-6.9325913224
 11
-13.3407211593
 21
-6.9336206442
  0
LINE
  5
309
100
AcDbEntity
  8
0
100
AcDbLine
 62
7
  6
CONTINUOUS
 10
-16.660127818
 20
-7.0483299928
 11
-16.6763668865
 21
-7.0495482323
  0
LINE
  5
30A
100
AcDbEntity
  8
0
100
AcDbLine
 62
7
  6
CONTINUOUS
 10
-13.3359471371
 20
-7.2339407134
 11
-13.3190330372
 21
-7.2326960929
  0
LINE
  5
30B
100
AcDbEntity
  8
0
100
AcDbLine
 62
7
  6
CONTINUOUS
 10
-16.6505223054
 20
-7.3483018661
 11
-16.6293516346
 21
-7.3467573093
  0
LINE
  5
30C
100
AcDbEntity
  8
0
100
AcDbLine
 62
7
  6
CONTINUOUS
 10
-13.3407211593
 20
-6.9336206442
 11
-13.36256404
 21
-6.9352089436
  0
LINE
  5
30D
100
AcDbEntity
  8
0
100
AcDbLine
 62
7
  6
CONTINUOUS
 10
-16.6337446388
 20
-7.046496798
 11
-16.660127818
 21
-7.0483299928
  0
LINE
  5
30E
100
AcDbEntity
  8
0
100
AcDbLine
 62
7
  6
CONTINUOUS
 10
-13.3635907582
 20
-7.2358237368
 11
-13.3359471371
 21
-7.2339407134
  0
LINE
  5
30F
100
AcDbEntity
  8
0
100
AcDbLine
 62
7
  6
CONTINUOUS
 10
-16.6293516346
 20
-7.3467573093
 11
-16.6057907733
 21
-7.3451733502
  0
LINE
  5
310
100
AcDbEntity
  8
0
100
AcDbLine
 62
7
  6
CONTINUOUS
 10
-13.36256404
 20
-6.9352089436
 11
-13.3870422609
 21
-6.9368453523
  0
LINE
  5
311
100
AcDbEntity
  8
0
100
AcDbLine
 62
7
  6
CONTINUOUS
 10
-16.6048538573
 20
-7.0446524707
 11
-16.6337446388
 21
-7.046496798
  0
LINE
  5
312
100
AcDbEntity
  8
0
100
AcDbLine
 62
7
  6
CONTINUOUS
 10
-13.3940884389
 20
-7.2377306724
 11
-13.3635907582
 21
-7.2358237368
  0
LINE
  5
313
100
AcDbEntity
  8
0
100
AcDbLine
 62
7
  6
CONTINUOUS
 10
-16.6057907733
 20
-7.3451733502
 11
-16.5797895849
 21
-7.3435527121
  0
LINE
  5
314
100
AcDbEntity
  8
0
100
AcDbLine
 62
7
  6
CONTINUOUS
 10
-13.3870422609
 20
-6.9368453523
 11
-13.4142128601
 21
-6.9385256951
  0
LINE
  5
315
100
AcDbEntity
  8
0
100
AcDbLine
 62
7
  6
CONTINUOUS
 10
-16.5623150856
 20
-7.0421711871
 11
-16.6048538573
 21
-7.0446524707
  0
LINE
  5
316
100
AcDbEntity
  8
0
100
AcDbLine
 62
7
  6
CONTINUOUS
 10
-16.5797895849
 20
-7.3435527121
 11
-16.5412227947
 21
-7.3413373267
  0
LINE
  5
317
100
AcDbEntity
  8
0
100
AcDbLine
 62
7
  6
CONTINUOUS
 10
-13.4394105418
 20
-7.2403164207
 11
-13.3940884389
 21
-7.2377306724
  0
LINE
  5
318
100
AcDbEntity
  8
0
100
AcDbLine
 62
7
  6
CONTINUOUS
 10
-13.4142128601
 20
-6.9385256951
 11
-13.4547297178
 21
-6.9408295002
  0
LINE
  5
319
100
AcDbEntity
  8
0
100
AcDbLine
 62
7
  6
CONTINUOUS
 10
-16.5150819212
 20
-7.0396613394
 11
-16.5623150856
 21
-7.0421711871
  0
LINE
  5
31A
100
AcDbEntity
  8
0
100
AcDbLine
 62
7
  6
CONTINUOUS
 10
-13.4902938841
 20
-7.2429562021
 11
-13.4394105418
 21
-7.2403164207
  0
LINE
  5
31B
100
AcDbEntity
  8
0
100
AcDbLine
 62
7
  6
CONTINUOUS
 10
-16.5412227947
 20
-7.3413373267
 11
-16.4865285862
 21
-7.3384823814
  0
LINE
  5
31C
100
AcDbEntity
  8
0
100
AcDbLine
 62
7
  6
CONTINUOUS
 10
-13.4547297178
 20
-6.9408295002
 11
-13.5124601716
 21
-6.9438045752
  0
LINE
  5
31D
100
AcDbEntity
  8
0
100
AcDbLine
 62
7
  6
CONTINUOUS
 10
-16.4493434838
 20
-7.0364817751
 11
-16.5150819212
 21
-7.0396613394
  0
LINE
  5
31E
100
AcDbEntity
  8
0
100
AcDbLine
 62
7
  6
CONTINUOUS
 10
-13.5620508265
 20
-7.2463367897
 11
-13.4902938841
 21
-7.2429562021
  0
LINE
  5
31F
100
AcDbEntity
  8
0
100
AcDbLine
 62
7
  6
CONTINUOUS
 10
-16.4865285862
 20
-7.3384823814
 11
-16.4109500128
 21
-7.3349303895
  0
LINE
  5
320
100
AcDbEntity
  8
0
100
AcDbLine
 62
7
  6
CONTINUOUS
 10
-13.5124601716
 20
-6.9438045752
 11
-13.5924182313
 21
-6.9475055706
  0
LINE
  5
321
100
AcDbEntity
  8
0
100
AcDbLine
 62
7
  6
CONTINUOUS
 10
-16.3606134913
 20
-7.0326045588
 11
-16.4493434838
 21
-7.0364817751
  0
LINE
  5
322
100
AcDbEntity
  8
0
100
AcDbLine
 62
7
  6
CONTINUOUS
 10
-13.6606249251
 20
-7.2505197913
 11
-13.5620508265
 21
-7.2463367897
  0
LINE
  5
323
100
AcDbEntity
  8
0
100
AcDbLine
 62
7
  6
CONTINUOUS
 10
-16.4109500128
 20
-7.3349303895
 11
-16.3084372013
 21
-7.3306119457
  0
LINE
  5
324
100
AcDbEntity
  8
0
100
AcDbLine
 62
7
  6
CONTINUOUS
 10
-13.5924182313
 20
-6.9475055706
 11
-13.700572765
 21
-6.9519855248
  0
LINE
  5
325
100
AcDbEntity
  8
0
100
AcDbLine
 62
7
  6
CONTINUOUS
 10
-16.2258989958
 20
-7.0273359008
 11
-16.3606134913
 21
-7.0326045588
  0
LINE
  5
326
100
AcDbEntity
  8
0
100
AcDbLine
 62
7
  6
CONTINUOUS
 10
-13.8140676379
 20
-7.2563251485
 11
-13.6606249251
 21
-7.2505197913
  0
LINE
  5
327
100
AcDbEntity
  8
0
100
AcDbLine
 62
7
  6
CONTINUOUS
 10
-16.3084372013
 20
-7.3306119457
 11
-16.1536336457
 21
-7.324803249
  0
LINE
  5
328
100
AcDbEntity
  8
0
100
AcDbLine
 62
7
  6
CONTINUOUS
 10
-13.700572765
 20
-6.9519855248
 11
-13.882287576
 21
-6.9586450204
  0
LINE
  5
329
100
AcDbEntity
  8
0
100
AcDbLine
 62
7
  6
CONTINUOUS
 10
-15.9908470156
 20
-7.0192482303
 11
-16.2258989958
 21
-7.0273359008
  0
LINE
  5
32A
100
AcDbEntity
  8
0
100
AcDbLine
 62
7
  6
CONTINUOUS
 10
-16.1536336457
 20
-7.324803249
 11
-15.9300944297
 21
-7.3173502559
  0
LINE
  5
32B
100
AcDbEntity
  8
0
100
AcDbLine
 62
7
  6
CONTINUOUS
 10
-14.0923204142
 20
-7.2655441794
 11
-13.8140676379
 21
-7.2563251485
  0
LINE
  5
32C
100
AcDbEntity
  8
0
100
AcDbLine
 62
7
  6
CONTINUOUS
 10
-13.882287576
 20
-6.9586450204
 11
-14.1170529933
 21
-6.9662758059
  0
LINE
  5
32D
100
AcDbEntity
  8
0
100
AcDbLine
 62
7
  6
CONTINUOUS
 10
27.9282869536
 20
-6.9648634435
 11
27.6386867887
 21
-6.9735326167
  0
LINE
  5
32E
100
AcDbEntity
  8
0
100
AcDbLine
 62
7
  6
CONTINUOUS
 10
-15.9300944297
 20
-7.3173502559
 11
-15.6422076288
 21
-7.3086960131
  0
LINE
  5
32F
100
AcDbEntity
  8
0
100
AcDbLine
 62
7
  6
CONTINUOUS
 10
-14.1170529933
 20
-6.9662758059
 11
-14.4402191365
 21
-6.9757800546
  0
LINE
  5
330
100
AcDbEntity
  8
0
100
AcDbLine
 62
7
  6
CONTINUOUS
 10
26.4629272783
 20
-7.0056900763
 11
26.0519076023
 21
-7.0178801355
  0
LINE
  5
331
100
AcDbEntity
  8
0
100
AcDbLine
 62
7
  6
CONTINUOUS
 10
27.6386867887
 20
-6.9735326167
 11
27.5057674472
 21
-6.9772982259
  0
LINE
  5
332
100
AcDbEntity
  8
0
100
AcDbLine
 62
7
  6
CONTINUOUS
 10
-15.4541526929
 20
-7.0033732723
 11
-15.9908470156
 21
-7.0192482303
  0
LINE
  5
333
100
AcDbEntity
  8
0
100
AcDbLine
 62
7
  6
CONTINUOUS
 10
26.5742806882
 20
-7.0025859305
 11
26.4629272783
 21
-7.0056900763
  0
LINE
  5
334
100
AcDbEntity
  8
0
100
AcDbLine
 62
7
  6
CONTINUOUS
 10
27.5057674472
 20
-6.9772982259
 11
27.4226811086
 21
-6.9796065942
  0
LINE
  5
335
100
AcDbEntity
  8
0
100
AcDbLine
 62
7
  6
CONTINUOUS
 10
26.632344838
 20
-7.0009877507
 11
26.5742806882
 21
-7.0025859305
  0
LWPOLYLINE
  5
336
100
AcDbEntity
  8
0
100
AcDbPolyline
 62
7
  6
CONTINUOUS
 90
3
 70
0
 10
27.4226811086
 20
-6.9796065942
 10
27.3371768142
 20
-6.9819541128
 10
27.3081547166
 20
-6.9827456079
  0
LINE
  5
337
100
AcDbEntity
  8
0
100
AcDbLine
 62
7
  6
CONTINUOUS
 10
26.6920906447
 20
-6.9993550231
 11
26.632344838
 21
-7.0009877507
  0
LINE
  5
338
100
AcDbEntity
  8
0
100
AcDbLine
 62
7
  6
CONTINUOUS
 10
27.3081547166
 20
-6.9827456079
 11
27.249343943
 21
-6.9843427337
  0
LINE
  5
339
100
AcDbEntity
  8
0
100
AcDbLine
 62
7
  6
CONTINUOUS
 10
26.7532227788
 20
-6.9976945402
 11
26.6920906447
 21
-6.9993550231
  0
LINE
  5
33A
100
AcDbEntity
  8
0
100
AcDbLine
 62
7
  6
CONTINUOUS
 10
27.249343943
 20
-6.9843427337
 11
27.1895492652
 21
-6.9859589252
  0
LINE
  5
33B
100
AcDbEntity
  8
0
100
AcDbLine
 62
7
  6
CONTINUOUS
 10
26.8154903056
 20
-6.9960115349
 11
26.7532227788
 21
-6.9976945402
  0
LINE
  5
33C
100
AcDbEntity
  8
0
100
AcDbLine
 62
7
  6
CONTINUOUS
 10
-15.6422076288
 20
-7.3086960131
 11
-15.0489772478
 21
-7.2923669977
  0
LINE
  5
33D
100
AcDbEntity
  8
0
100
AcDbLine
 62
7
  6
CONTINUOUS
 10
27.1895492652
 20
-6.9859589252
 11
26.8154903056
 21
-6.9960115349
  0
LINE
  5
33E
100
AcDbEntity
  8
0
100
AcDbLine
 62
7
  6
CONTINUOUS
 10
-15.0489772478
 20
-7.2923669977
 11
-14.0923204142
 21
-7.2655441794
  0
LINE
  5
33F
100
AcDbEntity
  8
0
100
AcDbLine
 62
7
  6
CONTINUOUS
 10
-14.4402191365
 20
-6.9757800546
 11
-15.4541526929
 21
-7.0033732723
  0
LINE
  5
340
100
AcDbEntity
  8
RACCORDO
100
AcDbLine
 62
250
  6
CONTINUOUS
 10
29.8
 20
-7.7546527917
 11
22.2
 21
-7.7546527917
  0
LINE
  5
341
100
AcDbEntity
  8
RACCORDO
100
AcDbLine
 62
250
  6
CONTINUOUS
 10
-12.2
 20
-7.7546527917
 11
-19.8
 21
-7.7546527917
  0
LINE
  5
342
100
AcDbEntity
  8
RACCORDO
100
AcDbLine
 62
7
  6
CONTINUOUS
 10
29.5
 20
-7.45
 11
22.5
 21
-7.45
  0
LINE
  5
343
100
AcDbEntity
  8
RACCORDO
100
AcDbLine
 62
7
  6
CONTINUOUS
 10
-12.5
 20
-7.45
 11
-19.5
 21
-7.45
  0
LINE
  5
344
100
AcDbEntity
  8
RACCORDO
100
AcDbLine
 62
7
  6
CONTINUOUS
 10
-19.5
 20
-5.25
 11
-12.5
 21
-5.25
  0
LINE
  5
345
100
AcDbEntity
  8
RACCORDO
100
AcDbLine
 62
7
  6
CONTINUOUS
 10
22.5
 20
-5.25
 11
29.5
 21
-5.25
  0
LINE
  5
346
100
AcDbEntity
  8
0
100
AcDbLine
 62
7
  6
CONTINUOUS
 10
-19.2
 20
-22.4
 11
-19.2666327976
 21
-22.5
  0
LWPOLYLINE
  5
347
100
AcDbEntity
  8
RACCORDO
100
AcDbPolyline
 62
7
  6
CONTINUOUS
 90
16
 70
0
 10
-12.2
 20
-4.9529717831
 10
-12.2262975789
 20
-4.978858219
 10
-12.2524480936
 20
-5.0050550803
 10
-12.278451544
 20
-5.0313387305
 10
-12.3045611755
 20
-5.0574232293
 10
-12.3305237428
 20
-5.0830857847
 10
-12.3555795099
 20
-5.1081524864
 10
-12.3797749752
 20
-5.1322245156
 10
-12.4030636405
 20
-5.1550500147
 10
-12.4245462751
 20
-5.1765501791
 10
-12.4444311719
 20
-5.1962327208
 10
-12.4625100381
 20
-5.2136260394
 10
-12.4772587649
 20
-5.2284111511
 10
-12.488169316
 20
-5.2399288369
 10
-12.4957497277
 20
-5.2473657725
 10
-12.5
 20
-5.25
  0
LWPOLYLINE
  5
348
100
AcDbEntity
  8
0
100
AcDbPolyline
 62
7
  6
CONTINUOUS
 90
13
 70
0
 10
-13.2604938377
 20
-6.9253239955
 10
-13.2605887534
 20
-6.9253425953
 10
-13.2612152452
 20
-6.9254600893
 10
-13.2622771978
 20
-6.9256469409
 10
-13.2636819517
 20
-6.9258793318
 10
-13.2654180466
 20
-6.926150375
 10
-13.2675062968
 20
-6.9264588123
 10
-13.2698999228
 20
-6.926794063
 10
-13.2725977963
 20
-6.9271532555
 10
-13.275611314
 20
-6.9275354062
 10
-13.2789125324
 20
-6.927934899
 10
-13.2825022385
 20
-6.9283502163
 10
-13.2863886971
 20
-6.9287808122
  0
LWPOLYLINE
  5
349
100
AcDbEntity
  8
0
100
AcDbPolyline
 62
7
  6
CONTINUOUS
 90
13
 70
0
 10
-16.730580485
 20
-7.3565929243
 10
-16.7304650085
 20
-7.3565704806
 10
-16.7297724384
 20
-7.3564416718
 10
-16.7286401384
 20
-7.3562441249
 10
-16.7271658725
 20
-7.356002282
 10
-16.7253611838
 20
-7.3557228622
 10
-16.7232058382
 20
-7.3554070892
 10
-16.7207508914
 20
-7.3550659343
 10
-16.7180001143
 20
-7.3547024181
 10
-16.7149422265
 20
-7.3543173394
 10
-16.7116061357
 20
-7.3539162245
 10
-16.7079923188
 20
-7.3535005711
 10
-16.7040935931
 20
-7.3530708895
  0
LINE
  5
34A
100
AcDbEntity
  8
RACCORDO
100
AcDbLine
 62
250
  6
CONTINUOUS
 10
-19.8
 20
-4.9529717831
 11
-12.2
 21
-4.9529717831
  0
LINE
  5
34B
100
AcDbEntity
  8
RACCORDO
100
AcDbLine
 62
250
  6
CONTINUOUS
 10
22.2
 20
-4.9529717831
 11
29.8
 21
-4.9529717831
  0
LINE
  5
34C
100
AcDbEntity
  8
RACCORDO
100
AcDbLine
 62
250
  6
CONTINUOUS
 10
14.1
 20
-3.0018010806
 11
11.1
 21
-3.0018010806
  0
LINE
  5
34D
100
AcDbEntity
  8
RACCORDO
100
AcDbLine
 62
250
  6
CONTINUOUS
 10
-27.9
 20
-3.0018010806
 11
-30.9
 21
-3.0018010806
  0
LINE
  5
34E
100
AcDbEntity
  8
RACCORDO
100
AcDbLine
 62
7
  6
CONTINUOUS
 10
14.1
 20
-2.7
 11
11.4
 21
-2.7
  0
LINE
  5
34F
100
AcDbEntity
  8
RACCORDO
100
AcDbLine
 62
7
  6
CONTINUOUS
 10
-27.9
 20
-2.7
 11
-30.6
 21
-2.7
  0
LWPOLYLINE
  5
350
100
AcDbEntity
  8
RACCORDO
100
AcDbPolyline
 62
7
  6
CONTINUOUS
 90
9
 70
0
 10
-11.5297749752
 20
5.1322245156
 10
-11.5530636405
 20
5.1550500147
 10
-11.5745462751
 20
5.1765501791
 10
-11.5944311719
 20
5.1962327208
 10
-11.6125100381
 20
5.2136260394
 10
-11.6272587649
 20
5.2284111511
 10
-11.638169316
 20
5.2399288369
 10
-11.6457497277
 20
5.2473657725
 10
-11.65
 20
5.25
  0
LWPOLYLINE
  5
351
100
AcDbEntity
  8
RACCORDO
100
AcDbPolyline
 62
7
  6
CONTINUOUS
 90
7
 70
0
 10
-11.35
 20
4.9529717831
 10
-11.3762975789
 20
4.978858219
 10
-11.4024480936
 20
5.0050550803
 10
-11.428451544
 20
5.0313387305
 10
-11.4545611755
 20
5.0574232293
 10
-11.4805237428
 20
5.0830857847
 10
-11.5297749752
 20
5.1322245156
  0
LINE
  5
352
100
AcDbEntity
  8
0
100
AcDbLine
 62
7
  6
CONTINUOUS
 10
-19.2666327976
 20
22.5
 11
-19.2
 21
22.4
  0
LWPOLYLINE
  5
353
100
AcDbEntity
  8
0
100
AcDbPolyline
 62
7
  6
CONTINUOUS
 90
4
 70
0
 43
0.3500000006
 10
-1.9285714102
 20
36.6071439972
 10
-1.9285714102
 20
37.2500019836
 10
-0.4285714127
 20
37.2500019836
 10
-1.2857142735
 20
34.2500010681
  0
LWPOLYLINE
  5
354
100
AcDbEntity
  8
0
100
AcDbPolyline
 62
7
  6
CONTINUOUS
 90
3
 70
0
 10
-14.320932828
 20
-5.2925676166
 10
-14.2218833311
 20
-5.2691908656
 10
-14.1423459209
 20
-5.25
  0
LINE
  5
355
100
AcDbEntity
  8
0
100
AcDbLine
 62
7
  6
CONTINUOUS
 10
-15.6597279911
 20
-5.5962666566
 11
-15.4936080552
 21
-5.5569468995
  0
LINE
  5
356
100
AcDbEntity
  8
0
100
AcDbLine
 62
7
  6
CONTINUOUS
 10
-14.5221280527
 20
-5.3388336802
 11
-14.320932828
 21
-5.2925676166
  0
LINE
  5
357
100
AcDbEntity
  8
0
100
AcDbLine
 62
7
  6
CONTINUOUS
 10
-15.4936080552
 20
-5.5569468995
 11
-15.3155608117
 21
-5.5160748542
  0
LINE
  5
358
100
AcDbEntity
  8
0
100
AcDbLine
 62
7
  6
CONTINUOUS
 10
-15.3155608117
 20
-5.5160748542
 11
-15.1252355202
 21
-5.4733077167
  0
LINE
  5
359
100
AcDbEntity
  8
0
100
AcDbLine
 62
7
  6
CONTINUOUS
 10
-15.1252355202
 20
-5.4733077167
 11
-14.5221280527
 21
-5.3388336802
  0
LWPOLYLINE
  5
35A
100
AcDbEntity
  8
0
100
AcDbPolyline
 62
7
  6
CONTINUOUS
 90
2
 70
0
 43
0.3500000006
 10
42.8999994965
 20
-1.3571429443
 10
41.3999990387
 20
-1.3571429443
  0
LINE
  5
35B
100
AcDbEntity
  8
0
100
AcDbLine
 62
7
  6
CONTINUOUS
 10
-30.6
 20
-0.8325505063
 11
-25.3326973949
 21
-0.8325505063
  0
LINE
  5
35C
100
AcDbEntity
  8
0
100
AcDbLine
 62
7
  6
CONTINUOUS
 10
16.6673026051
 20
-0.8325505063
 11
11.4
 21
-0.8325505063
  0
LINE
  5
35D
100
AcDbEntity
  8
0
100
AcDbLine
 62
7
  6
CONTINUOUS
 10
-30.6
 20
-0.4082864376
 11
-25.2311680893
 21
-0.4082864376
  0
LINE
  5
35E
100
AcDbEntity
  8
0
100
AcDbLine
 62
7
  6
CONTINUOUS
 10
16.7688319107
 20
-0.4082864376
 11
11.4
 21
-0.4082864376
  0
LWPOLYLINE
  5
35F
100
AcDbEntity
  8
0
100
AcDbPolyline
 62
7
  6
CONTINUOUS
 90
4
 70
0
 43
0.3500000006
 10
40.5428565674
 20
-0.0000003204
 10
39.8999985809
 20
-0.0000003204
 10
39.8999985809
 20
1.5000001373
 10
42.8999994965
 20
0.642857666
  0
LINE
  5
360
100
AcDbEntity
  8
0
100
AcDbLine
 62
250
  6
CONTINUOUS
 10
-30.6
 20
0.6846067812
 11
-25.2901299639
 21
0.6846067812
  0
LINE
  5
361
100
AcDbEntity
  8
0
100
AcDbLine
 62
250
  6
CONTINUOUS
 10
16.7098700361
 20
0.6846067812
 11
11.4
 21
0.6846067812
  0
LINE
  5
362
100
AcDbEntity
  8
0
100
AcDbLine
 62
7
  6
CONTINUOUS
 10
11.4
 20
0.9775
 11
16.6163606168
 21
0.9775
  0
LINE
  5
363
100
AcDbEntity
  8
0
100
AcDbLine
 62
7
  6
CONTINUOUS
 10
-25.3836393832
 20
0.9775
 11
-30.6
 21
0.9775
  0
LINE
  5
364
100
AcDbEntity
  8
0
100
AcDbLine
 62
7
  6
CONTINUOUS
 10
11.4
 20
1.0275
 11
16.5955219741
 21
1.0275
  0
LINE
  5
365
100
AcDbEntity
  8
0
100
AcDbLine
 62
7
  6
CONTINUOUS
 10
-25.4044780259
 20
1.0275
 11
-30.6
 21
1.0275
  0
LINE
  5
366
100
AcDbEntity
  8
0
100
AcDbLine
 62
250
  6
CONTINUOUS
 10
-30.6
 20
1.3203932188
 11
-25.5461236824
 21
1.3203932188
  0
LINE
  5
367
100
AcDbEntity
  8
0
100
AcDbLine
 62
250
  6
CONTINUOUS
 10
16.4538763176
 20
1.3203932188
 11
11.4
 21
1.3203932188
  0
LINE
  5
368
100
AcDbEntity
  8
0
100
AcDbLine
 62
7
  6
CONTINUOUS
 10
-30.6
 20
2.4132864376
 11
-26.6916119804
 21
2.4132864376
  0
LINE
  5
369
100
AcDbEntity
  8
0
100
AcDbLine
 62
7
  6
CONTINUOUS
 10
15.3083880195
 20
2.4132864376
 11
11.4
 21
2.4132864376
  0
LINE
  5
36A
100
AcDbEntity
  8
RACCORDO
100
AcDbLine
 62
7
  6
CONTINUOUS
 10
-30.6
 20
2.7
 11
-27.9
 21
2.7
  0
LINE
  5
36B
100
AcDbEntity
  8
RACCORDO
100
AcDbLine
 62
7
  6
CONTINUOUS
 10
11.4
 20
2.7
 11
14.1
 21
2.7
  0
LINE
  5
36C
100
AcDbEntity
  8
RACCORDO
100
AcDbLine
 62
250
  6
CONTINUOUS
 10
-30.9
 20
3.0018010806
 11
-27.9
 21
3.0018010806
  0
LINE
  5
36D
100
AcDbEntity
  8
RACCORDO
100
AcDbLine
 62
250
  6
CONTINUOUS
 10
11.1
 20
3.0018010806
 11
14.1
 21
3.0018010806
  0
LWPOLYLINE
  5
36E
100
AcDbEntity
  8
RACCORDO
100
AcDbPolyline
 62
250
  6
CONTINUOUS
 90
43
 70
0
 10
-27.9
 20
3.0018010806
 10
-27.6728401861
 20
2.9929542596
 10
-27.4494335723
 20
2.9676660993
 10
-27.2297801584
 20
2.9259365847
 10
-27.0125661615
 20
2.8672505354
 10
-26.7991053646
 20
2.7921230749
 10
-26.5933391168
 20
2.7020996357
 10
-26.395614061
 20
2.5969868724
 10
-26.2055835542
 20
2.4769780439
 10
-26.0261490176
 20
2.3441984962
 10
-25.8575071163
 20
2.1985380231
 10
-25.6994611851
 20
2.0401067527
 10
-25.5543226494
 20
1.8713605521
 10
-25.4222347473
 20
1.69220445
 10
-25.3030542407
 20
1.5027333796
 10
-25.1986628408
 20
1.305688092
 10
-25.1091932837
 20
1.100879715
 10
-25.0345128333
 20
0.8884971379
 10
-24.9761049927
 20
0.6718477822
 10
-24.934242741
 20
0.4506189078
 10
-24.9086530991
 20
0.2251233234
 10
-24.9000006328
 20
-0.0003932068
 10
-24.9087240996
 20
-0.2259443914
 10
-24.934384742
 20
-0.45151643
 10
-24.9763308543
 20
-0.6728222951
 10
-25.0348443141
 20
-0.8895444344
 10
-25.1096432437
 20
-1.1020003315
 10
-25.1992303045
 20
-1.3068555329
 10
-25.3037394796
 20
-1.5039117907
 10
-25.4230367857
 20
-1.6933673359
 10
-25.5552229344
 20
-1.8724824612
 10
-25.7004403276
 20
-2.0411589651
 10
-25.8585465633
 20
-2.1994950876
 10
-26.0272151468
 20
-2.345045811
 10
-26.2066366285
 20
-2.4776967272
 10
-26.396620458
 20
-2.5975623225
 10
-26.594268489
 20
-2.7025409396
 10
-26.7999223995
 20
-2.7924425721
 10
-27.0132405117
 20
-2.8674573129
 10
-27.2302996457
 20
-2.9260536596
 10
-27.4497920752
 20
-2.9677211322
 10
-27.6730255266
 20
-2.9929702676
 10
-27.9
 20
-3.0018010806
  0
LINE
  5
36F
100
AcDbEntity
  8
0
100
AcDbLine
 62
7
  6
CONTINUOUS
 10
11.4
 20
-1.2158200457
 11
12.7
 21
-1.7200118922
  0
LINE
  5
370
100
AcDbEntity
  8
0
100
AcDbLine
 62
7
  6
CONTINUOUS
 10
19.2
 20
22.4
 11
19.2666327976
 21
22.5
  0
LINE
  5
371
100
AcDbEntity
  8
RACCORDO
100
AcDbLine
 62
250
  6
CONTINUOUS
 10
30.65
 20
4.9529717831
 11
21.35
 21
4.9529717831
  0
LINE
  5
372
100
AcDbEntity
  8
RACCORDO
100
AcDbLine
 62
250
  6
CONTINUOUS
 10
-11.35
 20
4.9529717831
 11
-20.65
 21
4.9529717831
  0
LINE
  5
373
100
AcDbEntity
  8
RACCORDO
100
AcDbLine
 62
7
  6
CONTINUOUS
 10
30.35
 20
5.25
 11
21.65
 21
5.25
  0
LINE
  5
374
100
AcDbEntity
  8
RACCORDO
100
AcDbLine
 62
7
  6
CONTINUOUS
 10
-11.65
 20
5.25
 11
-20.35
 21
5.25
  0
LWPOLYLINE
  5
375
100
AcDbEntity
  8
RACCORDO
100
AcDbPolyline
 62
250
  6
CONTINUOUS
 90
43
 70
0
 10
14.1
 20
3.0018010806
 10
14.3271598139
 20
2.9929542596
 10
14.5505664277
 20
2.9676660993
 10
14.7702198416
 20
2.9259365847
 10
14.9874338385
 20
2.8672505354
 10
15.2008946354
 20
2.7921230749
 10
15.4066608831
 20
2.7020996357
 10
15.604385939
 20
2.5969868724
 10
15.7944164458
 20
2.4769780439
 10
15.9738509824
 20
2.3441984962
 10
16.1424928837
 20
2.1985380231
 10
16.3005388149
 20
2.0401067527
 10
16.4456773506
 20
1.8713605521
 10
16.5777652527
 20
1.69220445
 10
16.6969457593
 20
1.5027333796
 10
16.8013371592
 20
1.305688092
 10
16.8908067163
 20
1.100879715
 10
16.9654871667
 20
0.8884971379
 10
17.0238950073
 20
0.6718477822
 10
17.065757259
 20
0.4506189078
 10
17.0913469009
 20
0.2251233234
 10
17.0999993672
 20
-0.0003932068
 10
17.0912759004
 20
-0.2259443914
 10
17.065615258
 20
-0.45151643
 10
17.0236691457
 20
-0.6728222951
 10
16.9651556859
 20
-0.8895444344
 10
16.8903567563
 20
-1.1020003315
 10
16.8007696955
 20
-1.3068555329
 10
16.6962605204
 20
-1.5039117907
 10
16.5769632143
 20
-1.6933673359
 10
16.4447770656
 20
-1.8724824612
 10
16.2995596724
 20
-2.0411589651
 10
16.1414534367
 20
-2.1994950876
 10
15.9727848532
 20
-2.345045811
 10
15.7933633715
 20
-2.4776967272
 10
15.603379542
 20
-2.5975623225
 10
15.405731511
 20
-2.7025409396
 10
15.2000776005
 20
-2.7924425721
 10
14.9867594883
 20
-2.8674573129
 10
14.7697003543
 20
-2.9260536596
 10
14.5502079248
 20
-2.9677211322
 10
14.3269744734
 20
-2.9929702676
 10
14.1
 20
-3.0018010806
  0
LINE
  5
376
100
AcDbEntity
  8
0
100
AcDbLine
 62
7
  6
CONTINUOUS
 10
19.2666327976
 20
-22.5
 11
19.2
 21
-22.4
  0
LINE
  5
377
100
AcDbEntity
  8
RACCORDO
100
AcDbLine
 62
7
  6
CONTINUOUS
 10
-20.35
 20
7.45
 11
-11.65
 21
7.45
  0
LINE
  5
378
100
AcDbEntity
  8
RACCORDO
100
AcDbLine
 62
7
  6
CONTINUOUS
 10
21.65
 20
7.45
 11
30.35
 21
7.45
  0
LINE
  5
379
100
AcDbEntity
  8
RACCORDO
100
AcDbLine
 62
250
  6
CONTINUOUS
 10
-20.65
 20
7.7546527917
 11
-11.35
 21
7.7546527917
  0
LINE
  5
37A
100
AcDbEntity
  8
RACCORDO
100
AcDbLine
 62
250
  6
CONTINUOUS
 10
21.35
 20
7.7546527917
 11
30.65
 21
7.7546527917
  0
LINE
  5
37B
100
AcDbEntity
  8
RACCORDO
100
AcDbLine
 62
250
  6
CONTINUOUS
 10
11.1
 20
-3.0018010806
 11
11.1
 21
3.0018010806
  0
LWPOLYLINE
  5
37C
100
AcDbEntity
  8
RACCORDO
100
AcDbPolyline
 62
7
  6
CONTINUOUS
 90
10
 70
0
 10
11.2307538296
 20
-2.870982715
 10
11.2803501053
 20
-2.8210057823
 10
11.3038119131
 20
-2.7977071833
 10
11.3254095279
 20
-2.7757380991
 10
11.3453397292
 20
-2.7556465964
 10
11.3634057376
 20
-2.7378499479
 10
11.3780595674
 20
-2.7225897743
 10
11.3887852235
 20
-2.7105854684
 10
11.396098701
 20
-2.7027804926
 10
11.4
 20
-2.7
  0
LWPOLYLINE
  5
37D
100
AcDbEntity
  8
RACCORDO
100
AcDbPolyline
 62
7
  6
CONTINUOUS
 90
6
 70
0
 10
11.1
 20
-3.0018010806
 10
11.1262215121
 20
-2.9759805721
 10
11.1523532028
 20
-2.9497464057
 10
11.1783950722
 20
-2.9233220913
 10
11.2046193616
 20
-2.8969873781
 10
11.2307538296
 20
-2.870982715
  0
LWPOLYLINE
  5
37E
100
AcDbEntity
  8
RACCORDO
100
AcDbPolyline
 62
7
  6
CONTINUOUS
 90
7
 70
0
 10
11.1
 20
3.0018010806
 10
11.1262215121
 20
2.9759805721
 10
11.1523532028
 20
2.9497464057
 10
11.1783950722
 20
2.9233220913
 10
11.2046193616
 20
2.8969873781
 10
11.2307538296
 20
2.870982715
 10
11.2803501053
 20
2.8210057823
  0
LWPOLYLINE
  5
37F
100
AcDbEntity
  8
RACCORDO
100
AcDbPolyline
 62
7
  6
CONTINUOUS
 90
9
 70
0
 10
11.2803501053
 20
2.8210057823
 10
11.3038119131
 20
2.7977071833
 10
11.3254095279
 20
2.7757380991
 10
11.3453397292
 20
2.7556465964
 10
11.3634057376
 20
2.7378499479
 10
11.3780595674
 20
2.7225897743
 10
11.3887852235
 20
2.7105854684
 10
11.396098701
 20
2.7027804926
 10
11.4
 20
2.7
  0
LINE
  5
380
100
AcDbEntity
  8
RACCORDO
100
AcDbLine
 62
7
  6
CONTINUOUS
 10
11.4
 20
-2.7
 11
11.4
 21
2.7
  0
LINE
  5
381
100
AcDbEntity
  8
0
100
AcDbLine
 62
250
  6
CONTINUOUS
 10
12.7
 20
0.9775
 11
12.7
 21
-1.7200118922
  0
LINE
  5
382
100
AcDbEntity
  8
0
100
AcDbLine
 62
7
  6
CONTINUOUS
 10
12.7
 20
-2.7
 11
12.7
 21
-1.7200118922
  0
LINE
  5
383
100
AcDbEntity
  8
0
100
AcDbLine
 62
250
  6
CONTINUOUS
 10
12.7
 20
1.0275
 11
12.7
 21
2.7
  0
LINE
  5
384
100
AcDbEntity
  8
TRASH
100
AcDbLine
 62
7
  6
CONTINUOUS
 10
19.1366556363
 20
22.5
 11
19.1151277229
 21
22.4
  0
LWPOLYLINE
  5
385
100
AcDbEntity
  8
RACCORDO
100
AcDbPolyline
 62
7
  6
CONTINUOUS
 90
10
 70
0
 10
21.4805237428
 20
5.0830857847
 10
21.5297749752
 20
5.1322245156
 10
21.5530636405
 20
5.1550500147
 10
21.5745462751
 20
5.1765501791
 10
21.5944311719
 20
5.1962327208
 10
21.6125100381
 20
5.2136260394
 10
21.6272587649
 20
5.2284111511
 10
21.638169316
 20
5.2399288369
 10
21.6457497277
 20
5.2473657725
 10
21.65
 20
5.25
  0
LWPOLYLINE
  5
386
100
AcDbEntity
  8
RACCORDO
100
AcDbPolyline
 62
7
  6
CONTINUOUS
 90
6
 70
0
 10
21.35
 20
4.9529717831
 10
21.3762975789
 20
4.978858219
 10
21.4024480936
 20
5.0050550803
 10
21.428451544
 20
5.0313387305
 10
21.4545611755
 20
5.0574232293
 10
21.4805237428
 20
5.0830857847
  0
LWPOLYLINE
  5
387
100
AcDbEntity
  8
RACCORDO
100
AcDbPolyline
 62
7
  6
CONTINUOUS
 90
9
 70
0
 10
22.3797749752
 20
-5.1322245156
 10
22.4030636405
 20
-5.1550500147
 10
22.4245462751
 20
-5.1765501791
 10
22.4444311719
 20
-5.1962327208
 10
22.4625100381
 20
-5.2136260394
 10
22.4772587649
 20
-5.2284111511
 10
22.488169316
 20
-5.2399288369
 10
22.4957497277
 20
-5.2473657725
 10
22.5
 20
-5.25
  0
LWPOLYLINE
  5
388
100
AcDbEntity
  8
RACCORDO
100
AcDbPolyline
 62
7
  6
CONTINUOUS
 90
7
 70
0
 10
22.2
 20
-4.9529717831
 10
22.2262975789
 20
-4.978858219
 10
22.2524480936
 20
-5.0050550803
 10
22.278451544
 20
-5.0313387305
 10
22.3045611755
 20
-5.0574232293
 10
22.3305237428
 20
-5.0830857847
 10
22.3797749752
 20
-5.1322245156
  0
LINE
  5
389
100
AcDbEntity
  8
TRASH
100
AcDbLine
 62
7
  6
CONTINUOUS
 10
19.1366556363
 20
-22.5
 11
19.1151277229
 21
-22.4
  0
LINE
  5
38A
100
AcDbEntity
  8
RACCORDO
100
AcDbLine
 62
250
  6
CONTINUOUS
 10
14.1
 20
3.0018010806
 11
14.0999999949
 21
2.7
  0
LINE
  5
38B
100
AcDbEntity
  8
RACCORDO
100
AcDbLine
 62
250
  6
CONTINUOUS
 10
14.1
 20
-3.0018010806
 11
14.1
 21
-2.7
  0
LWPOLYLINE
  5
38C
100
AcDbEntity
  8
RACCORDO
100
AcDbPolyline
 62
7
  6
CONTINUOUS
 90
10
 70
0
 10
30.518629788
 20
7.6229397545
 10
30.4691679475
 20
7.572822336
 10
30.4458125582
 20
7.5494488935
 10
30.4243042556
 20
7.527351247
 10
30.4044245195
 20
7.5071185891
 10
30.3863918701
 20
7.4891248008
 10
30.3717761128
 20
7.4735174787
 10
30.3611005164
 20
7.4610852123
 10
30.3538418121
 20
7.452928017
 10
30.35
 20
7.45
  0
LINE
  5
38D
100
AcDbEntity
  8
RACCORDO
100
AcDbLine
 62
7
  6
CONTINUOUS
 10
30.5710036721
 20
7.6754787932
 11
30.518629788
 21
7.6229397545
  0
LWPOLYLINE
  5
38E
100
AcDbEntity
  8
RACCORDO
100
AcDbPolyline
 62
7
  6
CONTINUOUS
 90
4
 70
0
 10
30.65
 20
7.7546527917
 10
30.6235069092
 20
7.7285519619
 10
30.5971747999
 20
7.7020855089
 10
30.5710036721
 20
7.6754787932
  0
LWPOLYLINE
  5
38F
100
AcDbEntity
  8
RACCORDO
100
AcDbPolyline
 62
7
  6
CONTINUOUS
 90
5
 70
0
 10
29.8
 20
-7.7546527917
 10
29.7735069092
 20
-7.7285519619
 10
29.7471747999
 20
-7.7020855089
 10
29.7210036721
 20
-7.6754787932
 10
29.668629788
 20
-7.6229397545
  0
LWPOLYLINE
  5
390
100
AcDbEntity
  8
RACCORDO
100
AcDbPolyline
 62
7
  6
CONTINUOUS
 90
9
 70
0
 10
29.6191679475
 20
-7.572822336
 10
29.5958125582
 20
-7.5494488935
 10
29.5743042556
 20
-7.527351247
 10
29.5544245195
 20
-7.5071185891
 10
29.5363918701
 20
-7.4891248008
 10
29.5217761128
 20
-7.4735174787
 10
29.5111005164
 20
-7.4610852123
 10
29.5038418121
 20
-7.452928017
 10
29.5
 20
-7.45
  0
LINE
  5
391
100
AcDbEntity
  8
RACCORDO
100
AcDbLine
 62
7
  6
CONTINUOUS
 10
29.668629788
 20
-7.6229397545
 11
29.6191679475
 21
-7.572822336
  0
LWPOLYLINE
  5
392
100
AcDbEntity
  8
0
100
AcDbPolyline
 62
7
  6
CONTINUOUS
 90
10
 70
0
 43
0.3500000006
 10
1.0714285848
 20
34.7500012207
 10
1.1428571477
 20
34.6071433868
 10
1.1428571477
 20
34.535712204
 10
1.0000000219
 20
34.392858902
 10
0.9285714591
 20
34.392858902
 10
0.8571428254
 20
34.464285553
 10
0.8571428254
 20
34.535712204
 10
0.9285714591
 20
34.6785700378
 10
1.0000000219
 20
34.7500012207
 10
1.0714285848
 20
34.7500012207
  0
LINE
  5
393
100
AcDbEntity
  8
TRASH
100
AcDbLine
 62
7
  6
CONTINUOUS
 10
19.0301797403
 20
-22.4
 11
19.0301797403
 21
-22.5
  0
LINE
  5
394
100
AcDbEntity
  8
TRASH
100
AcDbLine
 62
7
  6
CONTINUOUS
 10
19.0301797403
 20
22.4
 11
19.0301797403
 21
22.5
  0
LINE
  5
395
100
AcDbEntity
  8
RACCORDO
100
AcDbLine
 62
250
  6
CONTINUOUS
 10
21.35
 20
4.9529717831
 11
21.35
 21
7.7546527917
  0
LINE
  5
396
100
AcDbEntity
  8
RACCORDO
100
AcDbLine
 62
7
  6
CONTINUOUS
 10
21.65
 20
5.25
 11
21.65
 21
7.45
  0
LINE
  5
397
100
AcDbEntity
  8
RACCORDO
100
AcDbLine
 62
250
  6
CONTINUOUS
 10
22.2
 20
-7.7546527917
 11
22.2
 21
-4.9529717831
  0
LINE
  5
398
100
AcDbEntity
  8
TRASH
100
AcDbLine
 62
7
  6
CONTINUOUS
 10
25.9366556363
 20
22.5
 11
25.9151277229
 21
22.4
  0
LWPOLYLINE
  5
399
100
AcDbEntity
  8
RACCORDO
100
AcDbPolyline
 62
7
  6
CONTINUOUS
 90
10
 70
0
 10
22.331370212
 20
-7.6229397545
 10
22.3808320525
 20
-7.572822336
 10
22.4041874418
 20
-7.5494488935
 10
22.4256957444
 20
-7.527351247
 10
22.4455754805
 20
-7.5071185891
 10
22.4636081299
 20
-7.4891248008
 10
22.4782238872
 20
-7.4735174787
 10
22.4888994836
 20
-7.4610852123
 10
22.4961581879
 20
-7.452928017
 10
22.5
 20
-7.45
  0
LINE
  5
39A
100
AcDbEntity
  8
RACCORDO
100
AcDbLine
 62
7
  6
CONTINUOUS
 10
22.2789963279
 20
-7.6754787932
 11
22.331370212
 21
-7.6229397545
  0
LWPOLYLINE
  5
39B
100
AcDbEntity
  8
RACCORDO
100
AcDbPolyline
 62
7
  6
CONTINUOUS
 90
4
 70
0
 10
22.2
 20
-7.7546527917
 10
22.2264930908
 20
-7.7285519619
 10
22.2528252001
 20
-7.7020855089
 10
22.2789963279
 20
-7.6754787932
  0
LINE
  5
39C
100
AcDbEntity
  8
0
100
AcDbLine
 62
250
  6
CONTINUOUS
 10
-33.0650763576
 20
21.0180897694
 11
33.0005350625
 21
21.0183142309
  0
LINE
  5
39D
100
AcDbEntity
  8
0
100
AcDbLine
 62
250
  6
CONTINUOUS
 10
-33.0087981167
 20
21.9749071372
 11
33.0087981167
 21
21.9749071372
  0
LWPOLYLINE
  5
39E
100
AcDbEntity
  8
0
100
AcDbPolyline
 62
250
  6
CONTINUOUS
 90
13
 70
0
 10
33.0005350626
 20
21.0183122942
 10
33.0650756507
 20
21.0180891254
 10
33.1285363564
 20
21.017518031
 10
33.1898553588
 20
21.0166085666
 10
33.2480066714
 20
21.0153759495
 10
33.3020173096
 20
21.0138408042
 10
33.3509835705
 20
21.0120288169
 10
33.394086153
 20
21.0099703059
 10
33.4306038671
 20
21.0076997142
 10
33.4599257005
 20
21.0052550331
 10
33.4815610418
 20
21.002677167
 10
33.4951478896
 20
21.0000092484
 10
33.5004589094
 20
20.9972959167
  0
LWPOLYLINE
  5
39F
100
AcDbEntity
  8
RACCORDO
100
AcDbPolyline
 62
7
  6
CONTINUOUS
 90
5
 70
0
 10
21.35
 20
7.7546527917
 10
21.3761774358
 20
7.7288735484
 10
21.4022988981
 20
7.7026193956
 10
21.4283643869
 20
7.676113493
 10
21.4808945409
 20
7.6234245202
  0
LWPOLYLINE
  5
3A0
100
AcDbEntity
  8
RACCORDO
100
AcDbPolyline
 62
7
  6
CONTINUOUS
 90
6
 70
0
 10
21.5958817918
 20
7.5067799549
 10
21.6139383434
 20
7.4887411256
 10
21.6285345565
 20
7.47319503
 10
21.6391500429
 20
7.4608969239
 10
21.6463051907
 20
7.4528691918
 10
21.65
 20
7.45
  0
LWPOLYLINE
  5
3A1
100
AcDbEntity
  8
RACCORDO
100
AcDbPolyline
 62
7
  6
CONTINUOUS
 90
3
 70
0
 10
21.5306961674
 20
7.5729485309
 10
21.5542607038
 20
7.5493670167
 10
21.5958817918
 20
7.5067799549
  0
LINE
  5
3A2
100
AcDbEntity
  8
RACCORDO
100
AcDbLine
 62
7
  6
CONTINUOUS
 10
21.4808945409
 20
7.6234245202
 11
21.5306961674
 21
7.5729485309
  0
LINE
  5
3A3
100
AcDbEntity
  8
TRASH
100
AcDbLine
 62
7
  6
CONTINUOUS
 10
25.9366556363
 20
-22.5
 11
25.9151277229
 21
-22.4
  0
LINE
  5
3A4
100
AcDbEntity
  8
RACCORDO
100
AcDbLine
 62
7
  6
CONTINUOUS
 10
22.5
 20
-7.45
 11
22.5
 21
-5.25
  0
LINE
  5
3A5
100
AcDbEntity
  8
TRASH
100
AcDbLine
 62
7
  6
CONTINUOUS
 10
19.0633443637
 20
-22.5
 11
19.0848722771
 21
-22.4
  0
LINE
  5
3A6
100
AcDbEntity
  8
0
100
AcDbLine
 62
250
  6
CONTINUOUS
 10
33.0087981167
 20
21.9749071372
 11
33.1503805997
 21
22.4
  0
LWPOLYLINE
  5
3A7
100
AcDbEntity
  8
RACCORDO
100
AcDbPolyline
 62
7
  6
CONTINUOUS
 90
10
 70
0
 10
29.6697959717
 20
-5.0827639916
 10
29.6203158992
 20
-5.1321416398
 10
29.5968863558
 20
-5.1551044706
 10
29.5752976328
 20
-5.1767045077
 10
29.5553605215
 20
-5.1964542742
 10
29.5372642307
 20
-5.2138751901
 10
29.5225280993
 20
-5.2286190336
 10
29.5116585735
 20
-5.2400495117
 10
29.5041492071
 20
-5.2474032714
 10
29.5
 20
-5.25
  0
LWPOLYLINE
  5
3A8
100
AcDbEntity
  8
RACCORDO
100
AcDbPolyline
 62
7
  6
CONTINUOUS
 90
6
 70
0
 10
29.8
 20
-4.9529717831
 10
29.7739147377
 20
-4.9786423991
 10
29.7479058837
 20
-5.0046976159
 10
29.721973438
 20
-5.0309147931
 10
29.6958465007
 20
-5.0570172726
 10
29.6697959717
 20
-5.0827639916
  0
LINE
  5
3A9
100
AcDbEntity
  8
0
100
AcDbLine
 62
7
  6
CONTINUOUS
 10
-33.1503805997
 20
22.4
 11
-25.8
 21
22.4
  0
LINE
  5
3AA
100
AcDbEntity
  8
0
100
AcDbLine
 62
7
  6
CONTINUOUS
 10
-19.2
 20
22.4
 11
19.2
 21
22.4
  0
LINE
  5
3AB
100
AcDbEntity
  8
0
100
AcDbLine
 62
7
  6
CONTINUOUS
 10
25.8
 20
22.4
 11
33.1503805997
 21
22.4
  0
LINE
  5
3AC
100
AcDbEntity
  8
TRASH
100
AcDbLine
 62
7
  6
CONTINUOUS
 10
-25.9698202597
 20
22.5
 11
-19.0301797403
 21
22.5
  0
LINE
  5
3AD
100
AcDbEntity
  8
TRASH
100
AcDbLine
 62
7
  6
CONTINUOUS
 10
19.0301797403
 20
22.5
 11
25.9698202597
 21
22.5
  0
LINE
  5
3AE
100
AcDbEntity
  8
TRASH
100
AcDbLine
 62
7
  6
CONTINUOUS
 10
26.1748574782
 20
23.5
 11
18.8251425218
 21
23.5
  0
LINE
  5
3AF
100
AcDbEntity
  8
TRASH
100
AcDbLine
 62
7
  6
CONTINUOUS
 10
-18.8251425218
 20
23.5
 11
-26.1748574782
 21
23.5
  0
LWPOLYLINE
  5
3B0
100
AcDbEntity
  8
TRASH
100
AcDbPolyline
 62
7
  6
CONTINUOUS
 90
10
 70
0
 10
-18.8251425218
 20
23.5
 10
-18.760258098
 20
23.4979450158
 10
-18.6959027995
 20
23.4916727201
 10
-18.6320766264
 20
23.4811831128
 10
-18.5683267599
 20
23.4663399818
 10
-18.5051060189
 20
23.4472795393
 10
-18.4437728597
 20
23.424410422
 10
-18.3847801013
 20
23.397868842
 10
-18.3276749248
 20
23.3675185871
 10
-18.2724573302
 20
23.3333596575
  0
LWPOLYLINE
  5
3B1
100
AcDbEntity
  8
TRASH
100
AcDbPolyline
 62
7
  6
CONTINUOUS
 90
10
 70
0
 10
26.1748574782
 20
23.5
 10
26.239741902
 20
23.4979450158
 10
26.3040972005
 20
23.4916727201
 10
26.3679233736
 20
23.4811831128
 10
26.4316732401
 20
23.4663399818
 10
26.4948939811
 20
23.4472795393
 10
26.5562271403
 20
23.424410422
 10
26.6152198987
 20
23.397868842
 10
26.6723250752
 20
23.3675185871
 10
26.7275426698
 20
23.3333596575
  0
LWPOLYLINE
  5
3B2
100
AcDbEntity
  8
0
100
AcDbPolyline
 62
250
  6
CONTINUOUS
 90
13
 70
0
 10
33.0087981167
 20
21.9749071372
 10
33.0740135738
 20
21.9705808949
 10
33.1381144717
 20
21.9577950942
 10
33.2000052996
 20
21.93676825
 10
33.2586283178
 20
21.9078597196
 10
33.3129816346
 20
21.8715635618
 10
33.3621363294
 20
21.8285000929
 10
33.4052523283
 20
21.7794052854
 10
33.441592761
 20
21.7251181898
 10
33.4705365547
 20
21.666566595
 10
33.4915890479
 20
21.6047511719
 10
33.5043904448
 20
21.5407283714
 10
33.5087219643
 20
21.4755923698
  0
LWPOLYLINE
  5
3B3
100
AcDbEntity
  8
RACCORDO
100
AcDbPolyline
 62
7
  6
CONTINUOUS
 90
9
 70
0
 10
30.4703158992
 20
5.1321416398
 10
30.4468863558
 20
5.1551044706
 10
30.4252976328
 20
5.1767045077
 10
30.4053605215
 20
5.1964542742
 10
30.3872642307
 20
5.2138751901
 10
30.3725280993
 20
5.2286190336
 10
30.3616585735
 20
5.2400495117
 10
30.3541492071
 20
5.2474032714
 10
30.35
 20
5.25
  0
LINE
  5
3B4
100
AcDbEntity
  8
0
100
AcDbLine
 62
250
  6
CONTINUOUS
 10
33.1503805997
 20
-22.4
 11
33.0087981167
 21
-21.9749071372
  0
LINE
  5
3B5
100
AcDbEntity
  8
TRASH
100
AcDbLine
 62
7
  6
CONTINUOUS
 10
19.0633443637
 20
22.5
 11
19.0848722771
 21
22.4
  0
LINE
  5
3B6
100
AcDbEntity
  8
TRASH
100
AcDbLine
 62
7
  6
CONTINUOUS
 10
25.9698202597
 20
22.5
 11
25.9698202597
 21
22.4
  0
LINE
  5
3B7
100
AcDbEntity
  8
TRASH
100
AcDbLine
 62
7
  6
CONTINUOUS
 10
25.9698202597
 20
-22.5
 11
25.9698202597
 21
-22.4
  0
LINE
  5
3B8
100
AcDbEntity
  8
0
100
AcDbLine
 62
250
  6
CONTINUOUS
 10
33.5087219643
 20
21.4755923698
 11
33.65
 21
21.8997711479
  0
LWPOLYLINE
  5
3B9
100
AcDbEntity
  8
0
100
AcDbPolyline
 62
7
  6
CONTINUOUS
 90
27
 70
0
 10
25.2970850314
 20
-5.9630416894
 10
25.2964894846
 20
-5.9644202941
 10
25.2978543731
 20
-5.9625696019
 10
25.3017305706
 20
-5.9580181948
 10
25.3089990793
 20
-5.9507341386
 10
25.3199389851
 20
-5.9412979878
 10
25.3343785303
 20
-5.930400931
 10
25.3525196222
 20
-5.9182339259
 10
25.3746344766
 20
-5.9048937051
 10
25.4004831303
 20
-5.890725769
 10
25.4301294523
 20
-5.8758273753
 10
25.4636467298
 20
-5.8602686064
 10
25.5007003324
 20
-5.8442733819
 10
25.5412480337
 20
-5.8278960184
 10
25.5852951599
 20
-5.8111607757
 10
25.6325188636
 20
-5.7942005049
 10
25.6827877089
 20
-5.7770567069
 10
25.7360836353
 20
-5.7597259987
 10
25.7922320494
 20
-5.7422517582
 10
25.8510257671
 20
-5.7246784544
 10
25.912475864
 20
-5.706980876
 10
25.9767721376
 20
-5.6890867128
 10
26.0438223328
 20
-5.6710054512
 10
26.1135566328
 20
-5.6527372062
 10
26.1862621572
 20
-5.6341896182
 10
26.2618637219
 20
-5.6153653563
 10
26.3402720089
 20
-5.5962666566
  0
LWPOLYLINE
  5
3BA
100
AcDbEntity
  8
RACCORDO
100
AcDbPolyline
 62
7
  6
CONTINUOUS
 90
7
 70
0
 10
30.65
 20
4.9529717831
 10
30.6239147377
 20
4.9786423991
 10
30.5979058837
 20
5.0046976159
 10
30.571973438
 20
5.0309147931
 10
30.5458465007
 20
5.0570172726
 10
30.5197959717
 20
5.0827639916
 10
30.4703158992
 20
5.1321416398
  0
LINE
  5
3BB
100
AcDbEntity
  8
0
100
AcDbLine
 62
250
  6
CONTINUOUS
 10
33.65
 20
-21.8997711479
 11
33.5087219643
 21
-21.4755923698
  0
LINE
  5
3BC
100
AcDbEntity
  8
RACCORDO
100
AcDbLine
 62
7
  6
CONTINUOUS
 10
29.5
 20
-5.25
 11
29.5
 21
-7.45
  0
LINE
  5
3BD
100
AcDbEntity
  8
RACCORDO
100
AcDbLine
 62
250
  6
CONTINUOUS
 10
29.8
 20
-4.9529717831
 11
29.8
 21
-7.7546527917
  0
LINE
  5
3BE
100
AcDbEntity
  8
RACCORDO
100
AcDbLine
 62
7
  6
CONTINUOUS
 10
30.35
 20
7.45
 11
30.35
 21
5.25
  0
LINE
  5
3BF
100
AcDbEntity
  8
TRASH
100
AcDbLine
 62
7
  6
CONTINUOUS
 10
25.8633443637
 20
-22.5
 11
25.8848722771
 21
-22.4
  0
LINE
  5
3C0
100
AcDbEntity
  8
TRASH
100
AcDbLine
 62
7
  6
CONTINUOUS
 10
25.8633443637
 20
22.5
 11
25.8848722771
 21
22.4
  0
LWPOLYLINE
  5
3C1
100
AcDbEntity
  8
0
100
AcDbPolyline
 62
250
  6
CONTINUOUS
 90
7
 70
0
 10
33.5087219643
 20
-21.4755923698
 10
33.5078577101
 20
-21.4704350319
 10
33.5070208591
 20
-21.4607336304
 10
33.5062114114
 20
-21.4464881654
 10
33.5054216596
 20
-21.4274708695
 10
33.5046593111
 20
-21.4039095101
 10
33.5039474879
 20
-21.376487389
  0
LWPOLYLINE
  5
3C2
100
AcDbEntity
  8
0
100
AcDbPolyline
 62
250
  6
CONTINUOUS
 90
5
 70
0
 10
33.0087981167
 20
-21.9749071372
 10
33.0079304777
 20
-21.9649275443
 10
33.0070915103
 20
-21.9453752521
 10
33.0062812145
 20
-21.9164415474
 10
33.0054923533
 20
-21.87840874
  0
LWPOLYLINE
  5
3C3
100
AcDbEntity
  8
0
100
AcDbPolyline
 62
250
  6
CONTINUOUS
 90
3
 70
0
 10
33.5039474879
 20
-21.376487389
 10
33.502679237
 20
-21.3098448807
 10
33.5021382921
 20
-21.2717397581
  0
LINE
  5
3C4
100
AcDbEntity
  8
0
100
AcDbLine
 62
250
  6
CONTINUOUS
 10
33.0054923533
 20
-21.87840874
 11
33.0040223565
 21
-21.7766086172
  0
LINE
  5
3C5
100
AcDbEntity
  8
0
100
AcDbLine
 62
250
  6
CONTINUOUS
 10
33.0040223565
 20
-21.7766086172
 11
33.0022169406
 21
-21.5675433068
  0
LINE
  5
3C6
100
AcDbEntity
  8
0
100
AcDbLine
 62
250
  6
CONTINUOUS
 10
33.0022169406
 20
-21.5675433068
 11
33.0010194756
 21
-21.3072787454
  0
LWPOLYLINE
  5
3C7
100
AcDbEntity
  8
0
100
AcDbPolyline
 62
250
  6
CONTINUOUS
 90
9
 70
0
 10
33.0010194756
 20
-21.3072787454
 10
32.9974904462
 20
-16.3494810548
 10
32.995206984
 20
-11.6792204147
 10
32.9936846758
 20
-7.0079400892
 10
32.9929235217
 20
-2.3360479955
 10
32.9929235216
 20
2.3360479943
 10
32.9936846757
 20
7.0079400882
 10
32.9952069839
 20
11.6792204138
 10
32.9974904462
 20
16.3494810544
  0
LINE
  5
3C8
100
AcDbEntity
  8
RACCORDO
100
AcDbLine
 62
250
  6
CONTINUOUS
 10
30.65
 20
7.7546527917
 11
30.65
 21
4.9529717831
  0
LINE
  5
3C9
100
AcDbEntity
  8
0
100
AcDbLine
 62
250
  6
CONTINUOUS
 10
32.9974904462
 20
16.3494810544
 11
33.0010194756
 21
21.3072787454
  0
LINE
  5
3CA
100
AcDbEntity
  8
0
100
AcDbLine
 62
250
  6
CONTINUOUS
 10
33.0010194756
 20
21.3072787454
 11
33.0022169406
 21
21.5675433068
  0
LINE
  5
3CB
100
AcDbEntity
  8
0
100
AcDbLine
 62
250
  6
CONTINUOUS
 10
33.0022169406
 20
21.5675433068
 11
33.0040223565
 21
21.7766086172
  0
LWPOLYLINE
  5
3CC
100
AcDbEntity
  8
0
100
AcDbPolyline
 62
250
  6
CONTINUOUS
 90
6
 70
0
 10
33.0040223565
 20
21.7766086172
 10
33.0054923533
 20
21.87840874
 10
33.0062812145
 20
21.9164415474
 10
33.0070915103
 20
21.9453752521
 10
33.0079304777
 20
21.9649275443
 10
33.0087981167
 20
21.9749071372
  0
LWPOLYLINE
  5
3CD
100
AcDbEntity
  8
0
100
AcDbPolyline
 62
250
  6
CONTINUOUS
 90
9
 70
0
 10
33.5021382921
 20
21.2717397581
 10
33.5032880998
 20
21.3450965156
 10
33.5039474879
 20
21.3764873889
 10
33.5046593111
 20
21.4039095101
 10
33.5054216596
 20
21.4274708696
 10
33.5062114114
 20
21.4464881656
 10
33.5070208591
 20
21.4607336306
 10
33.5078577101
 20
21.470435032
 10
33.5087219643
 20
21.4755923698
  0
LINE
  5
3CE
100
AcDbEntity
  8
0
100
AcDbLine
 62
250
  6
CONTINUOUS
 10
33.5021382921
 20
-21.2717397581
 11
33.5009403581
 21
-21.1413107391
  0
LINE
  5
3CF
100
AcDbEntity
  8
0
100
AcDbLine
 62
250
  6
CONTINUOUS
 10
33.5009403581
 20
-21.1413107391
 11
33.5004589101
 21
-20.9972959167
  0
LWPOLYLINE
  5
3D0
100
AcDbEntity
  8
0
100
AcDbPolyline
 62
250
  6
CONTINUOUS
 90
9
 70
0
 10
33.5004589101
 20
-20.9972959167
 10
33.4974142958
 20
-16.3324664701
 10
33.4951308352
 20
-11.6670185434
 10
33.4936085283
 20
-7.0009521365
 10
33.4928473752
 20
-2.3338547134
 10
33.4928473758
 20
2.3338611899
 10
33.4936085296
 20
7.0009579653
 10
33.4951308365
 20
11.667023077
 10
33.4974142967
 20
16.3324690607
  0
LINE
  5
3D1
100
AcDbEntity
  8
0
100
AcDbLine
 62
7
  6
CONTINUOUS
 10
33.65
 20
21.8997711479
 11
33.65
 21
-21.8997711479
  0
LINE
  5
3D2
100
AcDbEntity
  8
TRASH
100
AcDbLine
 62
7
  6
CONTINUOUS
 10
33.65
 20
-16.1196592268
 11
33.65
 21
16.1196592268
  0
LINE
  5
3D3
100
AcDbEntity
  8
0
100
AcDbLine
 62
250
  6
CONTINUOUS
 10
33.4974142967
 20
16.3324690607
 11
33.5007002659
 21
21.0948153319
  0
LWPOLYLINE
  5
3D4
100
AcDbEntity
  8
0
100
AcDbPolyline
 62
250
  6
CONTINUOUS
 90
3
 70
0
 10
33.5007002659
 20
21.0948153319
 10
33.5016671656
 20
21.2306689214
 10
33.5021382921
 20
21.2717397581
  0
LINE
  5
3D5
100
AcDbEntity
  8
0
100
AcDbLine
 62
7
  6
CONTINUOUS
 10
25.8
 20
-22.4
 11
25.7333672024
 21
-22.5
  0
LWPOLYLINE
  5
3D6
100
AcDbEntity
  8
0
100
AcDbPolyline
 62
7
  6
CONTINUOUS
 90
6
 70
0
 43
0.3500000006
 10
2.1428571696
 20
34.2500010681
 10
3.2142856836
 20
34.2500010681
 10
3.4285713015
 20
34.464285553
 10
3.4285713015
 20
35.5357125092
 10
3.0000000658
 20
35.9642860107
 10
2.5714285469
 20
35.9642860107
  0
LINE
  5
3D7
100
AcDbEntity
  8
0
100
AcDbLine
 62
7
  6
CONTINUOUS
 10
25.7333672024
 20
22.5
 11
25.8
 21
22.4
  0
LWPOLYLINE
  5
3D8
100
AcDbEntity
  8
0
100
AcDbPolyline
 62
7
  6
CONTINUOUS
 90
3
 70
0
 43
0.3500000006
 10
42.25714151
 20
-0.8571427917
 10
42.25714151
 20
-2.3571432495
 10
39.8999985809
 20
-1.7142852631
  0
LWPOLYLINE
  5
3D9
100
AcDbEntity
  8
0
100
AcDbPolyline
 62
7
  6
CONTINUOUS
 90
5
 70
0
 43
0.3500000006
 10
-67.1284533691
 20
43.9642839203
 10
-66.7713110504
 20
44.178572937
 10
-66.7713110504
 20
44.8214263916
 10
-67.1284533691
 20
45.2499998932
 10
-67.9856003723
 20
45.2499998932
  0
LWPOLYLINE
  5
3DA
100
AcDbEntity
  8
0
100
AcDbPolyline
 62
250
  6
CONTINUOUS
 90
16
 70
0
 10
-80.7313731569
 20
20.9972959167
 10
-80.7267399388
 20
21.0468103912
 10
-80.7175458925
 20
21.0948153319
 10
-80.703791018
 20
21.141310739
 10
-80.6852520451
 20
21.186744597
 10
-80.662152244
 20
21.2306689214
 10
-80.6351614249
 20
21.2717397581
 10
-80.6041707161
 20
21.3098448807
 10
-80.5692889894
 20
21.3450965156
 10
-80.5315126699
 20
21.3764873889
 10
-80.4907323459
 20
21.4039095101
 10
-80.4470574291
 20
21.4274708696
 10
-80.4018125801
 20
21.4464881656
 10
-80.3554393523
 20
21.4607336306
 10
-80.3074961922
 20
21.470435032
 10
-80.2579830999
 20
21.4755923698
  0
LWPOLYLINE
  5
3DB
100
AcDbEntity
  8
0
100
AcDbPolyline
 62
250
  6
CONTINUOUS
 90
10
 70
0
 10
-80.2754248748
 20
21.9749071372
 10
-80.2763364876
 20
21.9705808949
 10
-80.2767852986
 20
21.9577950942
 10
-80.2767636373
 20
21.93676825
 10
-80.2762718739
 20
21.9078597196
 10
-80.2753184129
 20
21.8715635618
 10
-80.2739195499
 20
21.8285000929
 10
-80.2720991921
 20
21.7794052854
 10
-80.2698884502
 20
21.7251181898
 10
-80.2644529699
 20
21.6047511719
  0
LWPOLYLINE
  5
3DC
100
AcDbEntity
  8
0
100
AcDbPolyline
 62
7
  6
CONTINUOUS
 90
10
 70
0
 43
0.3500000006
 10
-58.092739563
 20
37.2500019836
 10
-58.7355975494
 20
36.6071439972
 10
-59.164171051
 20
35.7500015259
 10
-59.164171051
 20
34.6785700378
 10
-58.7355975494
 20
34.2500010681
 10
-58.092739563
 20
34.2500010681
 10
-57.6641705933
 20
34.6785700378
 10
-57.6641705933
 20
35.5357125092
 10
-58.092739563
 20
35.9642860107
 10
-59.0213132172
 20
35.9642860107
  0
LWPOLYLINE
  5
3DD
100
AcDbEntity
  8
0
100
AcDbPolyline
 62
250
  6
CONTINUOUS
 90
8
 70
0
 10
-80.2754248748
 20
-21.9749071372
 10
-80.2763364798
 20
-21.9705805728
 10
-80.276785252
 20
-21.9577939153
 10
-80.2767635288
 20
-21.9367658519
 10
-80.2762716879
 20
-21.9078558933
 10
-80.2753181437
 20
-21.8715582881
 10
-80.2739192065
 20
-21.8284936262
 10
-80.2720987969
 20
-21.7793980875
  0
LWPOLYLINE
  5
3DE
100
AcDbEntity
  8
0
100
AcDbPolyline
 62
250
  6
CONTINUOUS
 90
10
 70
0
 10
-80.7313731569
 20
-20.9972959167
 10
-80.9057989937
 20
-16.3324664701
 10
-81.0366183649
 20
-11.6670185434
 10
-81.1238312704
 20
-7.0009521365
 10
-81.1674377017
 20
-2.3338547134
 10
-81.1674376674
 20
2.3338611899
 10
-81.1238311931
 20
7.0009579653
 10
-81.0366182876
 20
11.667023077
 10
-80.9057989422
 20
16.3324690607
 10
-80.7313731569
 20
20.9972959167
  0
LINE
  5
3DF
100
AcDbEntity
  8
RACCORDO
100
AcDbLine
 62
7
  6
CONTINUOUS
 10
-81.6152101575
 20
-6.9969493567
 11
-81.6148957951
 21
-7.0193754583
  0
LINE
  5
3E0
100
AcDbEntity
  8
RACCORDO
100
AcDbLine
 62
7
  6
CONTINUOUS
 10
-81.6631912652
 20
0.9892364455
 11
-81.6631462984
 21
1.0117091669
  0
LINE
  5
3E1
100
AcDbEntity
  8
RACCORDO
100
AcDbLine
 62
7
  6
CONTINUOUS
 10
-81.6601872011
 20
1.9956547656
 11
-81.6601464657
 21
2.0058347438
  0
LINE
  5
3E2
100
AcDbEntity
  8
0
100
AcDbLine
 62
7
  6
CONTINUOUS
 10
-81.6589189015
 20
2.2914898587
 11
-81.6587138575
 21
2.3358012758
  0
LINE
  5
3E3
100
AcDbEntity
  8
RACCORDO
100
AcDbLine
 62
7
  6
CONTINUOUS
 10
-81.6148957951
 20
7.019375457
 11
-81.6152101575
 21
6.9969493553
  0
LINE
  5
3E4
100
AcDbEntity
  8
0
100
AcDbLine
 62
250
  6
CONTINUOUS
 10
-80.2644529699
 20
21.6047511719
 11
-80.2579830999
 21
21.4755923698
  0
LINE
  5
3E5
100
AcDbEntity
  8
0
100
AcDbLine
 62
250
  6
CONTINUOUS
 10
-80.2720987969
 20
-21.7793980875
 11
-80.2673247151
 21
-21.6665598766
  0
LWPOLYLINE
  5
3E6
100
AcDbEntity
  8
0
100
AcDbPolyline
 62
250
  6
CONTINUOUS
 90
3
 70
0
 10
-80.2673247151
 20
-21.6665598766
 10
-80.2613209401
 20
-21.5407253734
 10
-80.2579830999
 20
-21.4755923698
  0
LWPOLYLINE
  5
3E7
100
AcDbEntity
  8
0
100
AcDbPolyline
 62
7
  6
CONTINUOUS
 90
3
 70
0
 43
0.3500000006
 10
-62.9855988464
 20
42.5357146454
 10
-63.0570254974
 20
42.3214301605
 10
-63.1998833313
 20
42.0357144928
  0
LINE
  5
3E8
100
AcDbEntity
  8
RACCORDO
100
AcDbLine
 62
250
  6
CONTINUOUS
 10
-64.1481792128
 20
21.0252346574
 11
-64.193315057
 21
21.0077183963
  0
LINE
  5
3E9
100
AcDbEntity
  8
TRASH
100
AcDbLine
 62
7
  6
CONTINUOUS
 10
-68.1641698549
 20
-23.0998904748
 11
-69.4874605295
 21
-23.1273066283
  0
LINE
  5
3EA
100
AcDbEntity
  8
TRASH
100
AcDbLine
 62
7
  6
CONTINUOUS
 10
-69.4874605295
 20
-23.1273066283
 11
-70.8208269666
 21
-23.1539577341
  0
LINE
  5
3EB
100
AcDbEntity
  8
TRASH
100
AcDbLine
 62
7
  6
CONTINUOUS
 10
-70.8208269666
 20
-23.1539577341
 11
-72.1641698549
 21
-23.1799085618
  0
LINE
  5
3EC
100
AcDbEntity
  8
TRASH
100
AcDbLine
 62
7
  6
CONTINUOUS
 10
-68.1641698549
 20
-23.4301797403
 11
-72.1641698549
 21
-23.5
  0
LINE
  5
3ED
100
AcDbEntity
  8
TRASH
100
AcDbLine
 62
250
  6
CONTINUOUS
 10
-68.1641698549
 20
-23.2631073612
 11
-72.1641698549
 21
-23.3333596581
  0
LINE
  5
3EE
100
AcDbEntity
  8
TRASH
100
AcDbLine
 62
7
  6
CONTINUOUS
 10
-70.3752593148
 20
-22.6472060409
 11
-72.1641698549
 21
-22.663166622
  0
LWPOLYLINE
  5
3EF
100
AcDbEntity
  8
TRASH
100
AcDbPolyline
 62
7
  6
CONTINUOUS
 90
3
 70
0
 10
-68.1641698549
 20
-22.6298666026
 10
-68.6041472173
 20
-22.6330850443
 10
-70.3752593148
 20
-22.6472060409
  0
LINE
  5
3F0
100
AcDbEntity
  8
0
100
AcDbLine
 62
7
  6
CONTINUOUS
 10
-72.1641698549
 20
-22.4
 11
-80.2754248748
 21
-21.9749071372
  0
LINE
  5
3F1
100
AcDbEntity
  8
0
100
AcDbLine
 62
250
  6
CONTINUOUS
 10
-72.1641698549
 20
-21.8997711479
 11
-80.2579830999
 21
-21.4755923698
  0
LWPOLYLINE
  5
3F2
100
AcDbEntity
  8
0
100
AcDbPolyline
 62
250
  6
CONTINUOUS
 90
16
 70
0
 10
-80.2579830999
 20
-21.4755923698
 10
-80.3074961922
 20
-21.4704350319
 10
-80.3554393522
 20
-21.4607336304
 10
-80.40181258
 20
-21.4464881654
 10
-80.4470574291
 20
-21.4274708695
 10
-80.4907323459
 20
-21.4039095101
 10
-80.53151267
 20
-21.376487389
 10
-80.5692889894
 20
-21.3450965156
 10
-80.6041707161
 20
-21.3098448807
 10
-80.6351614248
 20
-21.2717397581
 10
-80.662152244
 20
-21.2306689214
 10
-80.6852520452
 20
-21.1867445971
 10
-80.7037910181
 20
-21.1413107391
 10
-80.7175458927
 20
-21.094815332
 10
-80.7267399389
 20
-21.0468103912
 10
-80.7313731569
 20
-20.9972959167
  0
LINE
  5
3F3
100
AcDbEntity
  8
RACCORDO
100
AcDbLine
 62
250
  6
CONTINUOUS
 10
-64.1481792003
 20
-21.025234649
 11
-64.193315057
 21
-21.0077183963
  0
LINE
  5
3F4
100
AcDbEntity
  8
TRASH
100
AcDbLine
 62
7
  6
CONTINUOUS
 10
-72.1641698549
 20
23.5
 11
-72.1641698549
 21
22.4
  0
LINE
  5
3F5
100
AcDbEntity
  8
TRASH
100
AcDbLine
 62
7
  6
CONTINUOUS
 10
-72.1641698549
 20
-23.5
 11
-72.1641698549
 21
-22.4
  0
LINE
  5
3F6
100
AcDbEntity
  8
0
100
AcDbLine
 62
7
  6
CONTINUOUS
 10
-72.1641698549
 20
22.4
 11
-72.1641698549
 21
-22.4
  0
LINE
  5
3F7
100
AcDbEntity
  8
TRASH
100
AcDbLine
 62
7
  6
CONTINUOUS
 10
-72.1641698549
 20
-16.1196592268
 11
-72.1641698549
 21
16.1196592268
  0
LWPOLYLINE
  5
3F8
100
AcDbEntity
  8
RACCORDO
100
AcDbPolyline
 62
250
  6
CONTINUOUS
 90
25
 70
0
 10
-62.2716862404
 20
17.7956890594
 10
-62.2871949291
 20
17.7830539511
 10
-62.3032022185
 20
17.7692029721
 10
-62.319612696
 20
17.7541468445
 10
-62.3363311964
 20
17.7377868838
 10
-62.3532762375
 20
17.7202538251
 10
-62.3703818127
 20
17.701907772
 10
-62.3875585523
 20
17.6828167725
 10
-62.4047514816
 20
17.6629622971
 10
-62.4219597445
 20
17.6425738467
 10
-62.4391406772
 20
17.6216844797
 10
-62.4562300236
 20
17.6003100473
 10
-62.4732065937
 20
17.5786505643
 10
-62.4900352069
 20
17.5567386781
 10
-62.5066685979
 20
17.5345932129
 10
-62.5230741248
 20
17.5123932508
 10
-62.5392241538
 20
17.4901720912
 10
-62.5550834588
 20
17.4679501567
 10
-62.5706124461
 20
17.445888751
 10
-62.5857897677
 20
17.4240228509
 10
-62.6005907575
 20
17.4023725618
 10
-62.6149744038
 20
17.3810790587
 10
-62.6289166229
 20
17.3602083872
 10
-62.6424103992
 20
17.3397496636
 10
-62.6554436517
 20
17.3197291193
  0
LINE
  5
3F9
100
AcDbEntity
  8
RACCORDO
100
AcDbLine
 62
7
  6
CONTINUOUS
 10
-64.193315057
 20
-21.1306884717
 11
-67.9676603362
 21
-21.1965699136
  0
LINE
  5
3FA
100
AcDbEntity
  8
RACCORDO
100
AcDbLine
 62
250
  6
CONTINUOUS
 10
-64.1930698542
 20
-21.0077140908
 11
-67.9676603362
 21
-21.0738952237
  0
LINE
  5
3FB
100
AcDbEntity
  8
TRASH
100
AcDbLine
 62
7
  6
CONTINUOUS
 10
-66.014674371
 20
-22.2
 11
-66.5641698549
 21
-22.2
  0
LWPOLYLINE
  5
3FC
100
AcDbEntity
  8
RACCORDO
100
AcDbPolyline
 62
250
  6
CONTINUOUS
 90
16
 70
0
 10
-62.6554430358
 20
-17.3197291034
 10
-62.5890937928
 20
-17.3442848419
 10
-62.524931739
 20
-17.3668239863
 10
-62.4629551369
 20
-17.3873464184
 10
-62.4031705405
 20
-17.4058174797
 10
-62.3455670903
 20
-17.4223307827
 10
-62.2901175797
 20
-17.4370622463
 10
-62.2368160736
 20
-17.4500375044
 10
-62.1856654624
 20
-17.4612738791
 10
-62.1366532415
 20
-17.4708763447
 10
-62.0897555441
 20
-17.4788577949
 10
-62.0449940128
 20
-17.4852301197
 10
-62.0024255345
 20
-17.4900455315
 10
-61.962068763
 20
-17.493310768
 10
-61.9239035108
 20
-17.4950181432
 10
-61.8879288291
 20
-17.495178195
  0
LWPOLYLINE
  5
3FD
100
AcDbEntity
  8
RACCORDO
100
AcDbPolyline
 62
250
  6
CONTINUOUS
 90
10
 70
0
 10
-62.6554436515
 20
-19.4420904628
 10
-62.6085799386
 20
-19.4620666102
 10
-62.5630520306
 20
-19.4786789225
 10
-62.5191514706
 20
-19.4908304691
 10
-62.4766609145
 20
-19.4971489226
 10
-62.4360755262
 20
-19.4973908843
 10
-62.3988485326
 20
-19.4925155993
 10
-62.3656604119
 20
-19.4827205431
 10
-62.3362240525
 20
-19.4673698235
 10
-62.3106164644
 20
-19.4464466095
  0
LWPOLYLINE
  5
3FE
100
AcDbEntity
  8
RACCORDO
100
AcDbPolyline
 62
250
  6
CONTINUOUS
 90
10
 70
0
 10
-62.2716862404
 20
-17.7956890594
 10
-62.2508241458
 20
-17.8130778548
 10
-62.2318162446
 20
-17.8315001717
 10
-62.2148322821
 20
-17.8510007238
 10
-62.2000657089
 20
-17.8717468972
 10
-62.187637329
 20
-17.8936938645
 10
-62.1776459614
 20
-17.9165735448
 10
-62.1702720045
 20
-17.940351439
 10
-62.1657224302
 20
-17.9652385319
 10
-62.1641698549
 20
-17.9913486316
  0
LINE
  5
3FF
100
AcDbEntity
  8
0
100
AcDbLine
 62
250
  6
CONTINUOUS
 10
-81.2222049782
 20
-21.0183142305
 11
-81.2180274114
 21
-21.0180910647
  0
LWPOLYLINE
  5
400
100
AcDbEntity
  8
RACCORDO
100
AcDbPolyline
 62
250
  6
CONTINUOUS
 90
4
 70
0
 10
-62.6554436517
 20
-19.4420904629
 10
-62.6038126642
 20
-19.4395896851
 10
-62.5528283623
 20
-19.433374295
 10
-62.5030370073
 20
-19.4235108862
  0
LINE
  5
401
100
AcDbEntity
  8
0
100
AcDbLine
 62
250
  6
CONTINUOUS
 10
-81.2180274114
 20
-21.0180910647
 11
-80.7313731569
 21
-20.9972959167
  0
LWPOLYLINE
  5
402
100
AcDbEntity
  8
RACCORDO
100
AcDbPolyline
 62
250
  6
CONTINUOUS
 90
16
 70
0
 10
-62.6554436517
 20
-17.3197295787
 10
-62.622309618
 20
-17.3703691855
 10
-62.5900793852
 20
-17.4179598594
 10
-62.5588723926
 20
-17.4625980214
 10
-62.5288730903
 20
-17.5043869819
 10
-62.5000779284
 20
-17.5434311695
 10
-62.4723120028
 20
-17.5798028632
 10
-62.4456282438
 20
-17.6135774429
 10
-62.4201007684
 20
-17.644830405
 10
-62.3956010126
 20
-17.6735865397
 10
-62.3721766205
 20
-17.6999214699
 10
-62.3498882111
 20
-17.7238775128
 10
-62.3286508474
 20
-17.7453960023
 10
-62.3084809658
 20
-17.7644840223
 10
-62.2894765897
 20
-17.7812308196
 10
-62.2716862404
 20
-17.7956890594
  0
LWPOLYLINE
  5
403
100
AcDbEntity
  8
RACCORDO
100
AcDbPolyline
 62
250
  6
CONTINUOUS
 90
4
 70
0
 10
-67.9676603362
 20
-21.1965699136
 10
-67.967708747
 20
-21.1962192632
 10
-67.9677505438
 20
-21.1951410879
 10
-67.967786554
 20
-21.1932991568
  0
LINE
  5
404
100
AcDbEntity
  8
RACCORDO
100
AcDbLine
 62
250
  6
CONTINUOUS
 10
-67.967786554
 20
-21.1932991568
 11
-67.9678465591
 21
-21.1871612924
  0
LINE
  5
405
100
AcDbEntity
  8
RACCORDO
100
AcDbLine
 62
250
  6
CONTINUOUS
 10
-67.9678465591
 20
-21.1871612924
 11
-67.9678929009
 21
-21.1716465287
  0
LINE
  5
406
100
AcDbEntity
  8
RACCORDO
100
AcDbLine
 62
250
  6
CONTINUOUS
 10
-67.9676603362
 20
21.0738952237
 11
-67.9678963357
 21
21.164455767
  0
LINE
  5
407
100
AcDbEntity
  8
RACCORDO
100
AcDbLine
 62
7
  6
CONTINUOUS
 10
-68.1641698549
 20
-22.6298666026
 11
-68.1641698549
 21
-21.3965394526
  0
LINE
  5
408
100
AcDbEntity
  8
TRASH
100
AcDbLine
 62
7
  6
CONTINUOUS
 10
-68.1641698549
 20
-22.6298666026
 11
-68.1641698549
 21
-23.4301797403
  0
LINE
  5
409
100
AcDbEntity
  8
RACCORDO
100
AcDbLine
 62
7
  6
CONTINUOUS
 10
-68.1641698549
 20
21.3965394526
 11
-68.1641698549
 21
22.6298666026
  0
LINE
  5
40A
100
AcDbEntity
  8
TRASH
100
AcDbLine
 62
7
  6
CONTINUOUS
 10
-68.1641698549
 20
22.7150476404
 11
-68.1641698549
 21
23.4301797403
  0
LINE
  5
40B
100
AcDbEntity
  8
RACCORDO
100
AcDbLine
 62
250
  6
CONTINUOUS
 10
-67.9678963357
 20
21.164455767
 11
-67.9678690541
 21
21.1826286012
  0
LWPOLYLINE
  5
40C
100
AcDbEntity
  8
RACCORDO
100
AcDbPolyline
 62
250
  6
CONTINUOUS
 90
3
 70
0
 10
-67.9678929009
 20
-21.1716465287
 10
-67.9677085595
 20
-21.0858663167
 10
-67.9676603362
 20
-21.0738952237
  0
LWPOLYLINE
  5
40D
100
AcDbEntity
  8
RACCORDO
100
AcDbPolyline
 62
250
  6
CONTINUOUS
 90
6
 70
0
 10
-67.9678690541
 20
21.1826286012
 10
-67.967819641
 20
21.1905415363
 10
-67.9677875623
 20
21.1932347254
 10
-67.967751291
 20
21.1951108074
 10
-67.9677091451
 20
21.1962112953
 10
-67.9676603362
 20
21.1965699136
  0
LWPOLYLINE
  5
40E
100
AcDbEntity
  8
RACCORDO
100
AcDbPolyline
 62
250
  6
CONTINUOUS
 90
13
 70
0
 10
-62.5030370073
 20
-19.4235108862
 10
-62.454972079
 20
-19.4101051381
 10
-62.40914856
 20
-19.3933006842
 10
-62.3660574174
 20
-19.3732775725
 10
-62.326160343
 20
-19.3502503368
 10
-62.2898848062
 20
-19.3244656978
 10
-62.2576194744
 20
-19.2961999203
 10
-62.2297100481
 20
-19.2657558523
 10
-62.2064555576
 20
-19.233459681
 10
-62.1881051585
 20
-19.1996574375
 10
-62.1748554628
 20
-19.1647112894
 10
-62.1668484316
 20
-19.1289956604
 10
-62.1641698549
 20
-19.0928932188
  0
LINE
  5
40F
100
AcDbEntity
  8
DRAFT
100
AcDbLine
 62
7
  6
CONTINUOUS
 10
-47.9746370461
 20
-14.9900670064
 11
-46.448469068
 21
-14.9100839318
  0
LINE
  5
410
100
AcDbEntity
  8
RACCORDO
100
AcDbLine
 62
250
  6
CONTINUOUS
 10
-61.426766498
 20
-17.2981341878
 11
-48.655136688
 21
-17.0268827074
  0
LINE
  5
411
100
AcDbEntity
  8
RACCORDO
100
AcDbLine
 62
7
  6
CONTINUOUS
 10
-61.8879288291
 20
-17.495178195
 11
-48.6554436517
 21
-17.264204307
  0
LINE
  5
412
100
AcDbEntity
  8
RACCORDO
100
AcDbLine
 62
250
  6
CONTINUOUS
 10
-62.6554436517
 20
-17.3197291141
 11
-61.4267664958
 21
-17.2981341874
  0
LWPOLYLINE
  5
413
100
AcDbEntity
  8
RACCORDO
100
AcDbPolyline
 62
250
  6
CONTINUOUS
 90
3
 70
0
 10
-72.1641698549
 20
-16.1196592268
 10
-52.5858189813
 20
-16.0004966268
 10
-48.6554436517
 20
-15.9764680899
  0
LINE
  5
414
100
AcDbEntity
  8
RACCORDO
100
AcDbLine
 62
250
  6
CONTINUOUS
 10
-72.1641698549
 20
-17.359429382
 11
-61.4267664958
 21
-17.2981341874
  0
LINE
  5
415
100
AcDbEntity
  8
RACCORDO
100
AcDbLine
 62
250
  6
CONTINUOUS
 10
-48.1641698549
 20
-15.9764680899
 11
-48.6554436517
 21
-15.9764680878
  0
LINE
  5
416
100
AcDbEntity
  8
0
100
AcDbLine
 62
7
  6
CONTINUOUS
 10
-48.1641698549
 20
-14.97
 11
-47.9641698549
 21
-14.97
  0
LINE
  5
417
100
AcDbEntity
  8
TRASH
100
AcDbLine
 62
7
  6
CONTINUOUS
 10
-66.5641698549
 20
22.2
 11
-66.5641698549
 21
21.1720718961
  0
LINE
  5
418
100
AcDbEntity
  8
TRASH
100
AcDbLine
 62
7
  6
CONTINUOUS
 10
-66.5641698549
 20
-22.2
 11
-66.5641698549
 21
-21.1720718961
  0
LWPOLYLINE
  5
419
100
AcDbEntity
  8
RACCORDO
100
AcDbPolyline
 62
250
  6
CONTINUOUS
 90
3
 70
0
 10
-64.192730182
 20
21.091578624
 10
-64.1930826039
 20
21.0326396971
 10
-64.193315057
 20
21.0077183963
  0
LINE
  5
41A
100
AcDbEntity
  8
0
100
AcDbLine
 62
7
  6
CONTINUOUS
 10
-48.1641698549
 20
-13.9676
 11
-47.9641698549
 21
-13.9676
  0
LINE
  5
41B
100
AcDbEntity
  8
RACCORDO
100
AcDbLine
 62
7
  6
CONTINUOUS
 10
-62.1641698549
 20
19.0928932188
 11
-62.1643294181
 21
19.1055240427
  0
LINE
  5
41C
100
AcDbEntity
  8
RACCORDO
100
AcDbLine
 62
250
  6
CONTINUOUS
 10
-62.6554436517
 20
-19.4420813055
 11
-62.6554436517
 21
-17.3197291141
  0
LINE
  5
41D
100
AcDbEntity
  8
RACCORDO
100
AcDbLine
 62
250
  6
CONTINUOUS
 10
-62.6554436517
 20
17.3197291113
 11
-62.6554436517
 21
19.4421024555
  0
LINE
  5
41E
100
AcDbEntity
  8
RACCORDO
100
AcDbLine
 62
7
  6
CONTINUOUS
 10
-62.1641698549
 20
-19.0928932188
 11
-62.1641698549
 21
-17.9913486316
  0
LINE
  5
41F
100
AcDbEntity
  8
RACCORDO
100
AcDbLine
 62
7
  6
CONTINUOUS
 10
-62.1641698549
 20
17.9913486316
 11
-62.1641698549
 21
19.0928932188
  0
LWPOLYLINE
  5
420
100
AcDbEntity
  8
RACCORDO
100
AcDbPolyline
 62
250
  6
CONTINUOUS
 90
10
 70
0
 10
-62.1641698549
 20
17.9913486316
 10
-62.1657224752
 20
17.9652365445
 10
-62.1702725293
 20
17.9403490428
 10
-62.1776478972
 20
17.9165722391
 10
-62.1876430229
 20
17.8936964118
 10
-62.2000774086
 20
17.8717543979
 10
-62.2148484372
 20
17.8510102694
 10
-62.2318322201
 20
17.8315080908
 10
-62.2508351337
 20
17.8130823712
 10
-62.2716862404
 20
17.7956890594
  0
LWPOLYLINE
  5
421
100
AcDbEntity
  8
RACCORDO
100
AcDbPolyline
 62
7
  6
CONTINUOUS
 90
3
 70
0
 10
-68.16063757
 20
-21.3591170407
 10
-68.1550281409
 20
-21.3367359667
 10
-68.1472598429
 20
-21.3140781558
  0
LINE
  5
422
100
AcDbEntity
  8
RACCORDO
100
AcDbLine
 62
7
  6
CONTINUOUS
 10
-47.964633809
 20
-11.0965170854
 11
-46.3606793736
 21
-11.0685199566
  0
LINE
  5
423
100
AcDbEntity
  8
ASSI
100
AcDbLine
 62
7
  6
CONTINUOUS
 10
-48.1641698549
 20
-12.295056
 11
-47.9641698549
 21
-12.295056
  0
LINE
  5
424
100
AcDbEntity
  8
RACCORDO
100
AcDbLine
 62
250
  6
CONTINUOUS
 10
-46.1641698549
 20
-12.25
 11
-47.9746370461
 21
-12.25
  0
LINE
  5
425
100
AcDbEntity
  8
ASSI
100
AcDbLine
 62
7
  6
CONTINUOUS
 10
-48.1641698549
 20
-10.244959
 11
-47.9641698549
 21
-10.244959
  0
LINE
  5
426
100
AcDbEntity
  8
RACCORDO
100
AcDbLine
 62
250
  6
CONTINUOUS
 10
-61.4267664969
 20
-17.2981342321
 11
-61.4259117663
 21
-17.3998784549
  0
LWPOLYLINE
  5
427
100
AcDbEntity
  8
RACCORDO
100
AcDbPolyline
 62
250
  6
CONTINUOUS
 90
5
 70
0
 10
-61.4258151987
 20
17.4476871482
 10
-61.4259117674
 20
17.4648073514
 10
-61.4261039411
 20
17.4771617128
 10
-61.4263898022
 20
17.4846269523
 10
-61.4267664982
 20
17.4871285765
  0
LWPOLYLINE
  5
428
100
AcDbEntity
  8
RACCORDO
100
AcDbPolyline
 62
250
  6
CONTINUOUS
 90
6
 70
0
 10
-61.4259117663
 20
-17.3998784549
 10
-61.4258151979
 20
-17.4476871778
 10
-61.4259117667
 20
-17.464807375
 10
-61.4261039406
 20
-17.4771617295
 10
-61.426389802
 20
-17.484626961
 10
-61.4267664982
 20
-17.4871285765
  0
LINE
  5
429
100
AcDbEntity
  8
RACCORDO
100
AcDbLine
 62
250
  6
CONTINUOUS
 10
-61.4259117674
 20
17.3998784163
 11
-61.4258151987
 21
17.4476871482
  0
LINE
  5
42A
100
AcDbEntity
  8
RACCORDO
100
AcDbLine
 62
250
  6
CONTINUOUS
 10
-61.4267664982
 20
17.2981341875
 11
-61.4259117674
 21
17.3998784163
  0
LWPOLYLINE
  5
42B
100
AcDbEntity
  8
RACCORDO
100
AcDbPolyline
 62
250
  6
CONTINUOUS
 90
8
 70
0
 10
-64.193315057
 20
-21.1306884717
 10
-64.1930826066
 20
-21.129100449
 10
-64.1929069608
 20
-21.1243555217
 10
-64.1927892383
 20
-21.1164837484
 10
-64.192730189
 20
-21.1055349961
 10
-64.192730189
 20
-21.0915786241
 10
-64.1927892383
 20
-21.0747030444
 10
-64.193315057
 20
-21.0077183963
  0
LINE
  5
42C
100
AcDbEntity
  8
0
100
AcDbLine
 62
7
  6
CONTINUOUS
 10
-48.1641698549
 20
-8.8500120352
 11
-47.9641698549
 21
-8.8500120352
  0
LWPOLYLINE
  5
42D
100
AcDbEntity
  8
RACCORDO
100
AcDbPolyline
 62
250
  6
CONTINUOUS
 90
6
 70
0
 10
-64.193315057
 20
21.1306884717
 10
-64.1930826039
 20
21.129100449
 10
-64.192906956
 20
21.1243555216
 10
-64.1927892321
 20
21.1164837483
 10
-64.192730182
 20
21.105534996
 10
-64.192730182
 20
21.091578624
  0
LINE
  5
42E
100
AcDbEntity
  8
RACCORDO
100
AcDbLine
 62
250
  6
CONTINUOUS
 10
-57.6554436517
 20
3.3086513684
 11
-57.6554436517
 21
13.2913486316
  0
LINE
  5
42F
100
AcDbEntity
  8
RACCORDO
100
AcDbLine
 62
7
  6
CONTINUOUS
 10
-57.1641698549
 20
3.8
 11
-57.1641698549
 21
12.8
  0
LWPOLYLINE
  5
430
100
AcDbEntity
  8
RACCORDO
100
AcDbPolyline
 62
7
  6
CONTINUOUS
 90
10
 70
0
 10
-68.1472598429
 20
-21.3140781558
 10
-68.137332676
 20
-21.2911427837
 10
-68.12510173
 20
-21.267900194
 10
-68.1107119151
 20
-21.2443783025
 10
-68.0945979622
 20
-21.2206629792
 10
-68.0767165027
 20
-21.1968032467
 10
-68.0571109051
 20
-21.1727492418
 10
-68.036346006
 20
-21.1484385107
 10
-68.0146100842
 20
-21.1238495221
 10
-67.991714861
 20
-21.0990020435
  0
LWPOLYLINE
  5
431
100
AcDbEntity
  8
RACCORDO
100
AcDbPolyline
 62
7
  6
CONTINUOUS
 90
7
 70
0
 10
-57.2778059588
 20
3.6825862051
 10
-57.2270249032
 20
3.7340064696
 10
-57.2055725006
 20
3.7553565986
 10
-57.1883916837
 20
3.7734906415
 10
-57.1760216202
 20
3.7876447649
 10
-57.1679455156
 20
3.7967787862
 10
-57.1641698549
 20
3.8
  0
LWPOLYLINE
  5
432
100
AcDbEntity
  8
RACCORDO
100
AcDbPolyline
 62
7
  6
CONTINUOUS
 90
3
 70
0
 10
-57.3704790342
 20
3.5901115639
 10
-57.3071204836
 20
3.6535274867
 10
-57.2778059588
 20
3.6825862051
  0
LINE
  5
433
100
AcDbEntity
  8
RACCORDO
100
AcDbLine
 62
7
  6
CONTINUOUS
 10
-57.4748830331
 20
3.4865769762
 11
-57.3704790342
 21
3.5901115639
  0
LINE
  5
434
100
AcDbEntity
  8
RACCORDO
100
AcDbLine
 62
7
  6
CONTINUOUS
 10
-57.5112130733
 20
3.4508308403
 11
-57.4748830331
 21
3.4865769762
  0
LWPOLYLINE
  5
435
100
AcDbEntity
  8
RACCORDO
100
AcDbPolyline
 62
7
  6
CONTINUOUS
 90
3
 70
0
 10
-57.6554436517
 20
3.3086513684
 10
-57.6195094541
 20
3.3436164998
 10
-57.5112130733
 20
3.4508308403
  0
LINE
  5
436
100
AcDbEntity
  8
RACCORDO
100
AcDbLine
 62
250
  6
CONTINUOUS
 10
-46.1641698549
 20
-4.85
 11
-47.9746370461
 21
-4.85
  0
LINE
  5
437
100
AcDbEntity
  8
RACCORDO
100
AcDbLine
 62
7
  6
CONTINUOUS
 10
-47.9641698549
 20
-5.103491013
 11
-46.3606793736
 21
-5.1314800434
  0
LWPOLYLINE
  5
438
100
AcDbEntity
  8
RACCORDO
100
AcDbPolyline
 62
250
  6
CONTINUOUS
 90
10
 70
0
 10
-62.2716912985
 20
-17.7956864891
 10
-62.2471714245
 20
-17.7390941732
 10
-62.2166972788
 20
-17.6866445645
 10
-62.1807619782
 20
-17.6391863992
 10
-62.139947012
 20
-17.5974876422
 10
-62.0949128326
 20
-17.5622230601
 10
-62.0463881682
 20
-17.533963302
 10
-61.9951582305
 20
-17.5131656655
 10
-61.9420520085
 20
-17.5001666965
 10
-61.8879288542
 20
-17.4951767433
  0
LINE
  5
439
100
AcDbEntity
  8
RACCORDO
100
AcDbLine
 62
7
  6
CONTINUOUS
 10
-47.9651114942
 20
-3.6965254234
 11
-46.3606793736
 21
-3.6685199566
  0
LINE
  5
43A
100
AcDbEntity
  8
0
100
AcDbLine
 62
7
  6
CONTINUOUS
 10
-48.1641698549
 20
-3.7500119648
 11
-47.9641698549
 21
-3.7500119648
  0
LINE
  5
43B
100
AcDbEntity
  8
0
100
AcDbLine
 62
7
  6
CONTINUOUS
 10
-48.1641698549
 20
-2.75
 11
-47.9641698549
 21
-2.75
  0
LWPOLYLINE
  5
43C
100
AcDbEntity
  8
RACCORDO
100
AcDbPolyline
 62
250
  6
CONTINUOUS
 90
10
 70
0
 10
-62.2716914407
 20
17.7956864174
 10
-62.2471713069
 20
17.7390957035
 10
-62.216697003
 20
17.6866475287
 10
-62.1807616364
 20
17.6391905618
 10
-62.1399466804
 20
17.5974927085
 10
-62.0949125655
 20
17.5622286855
 10
-62.0463879925
 20
17.5339691034
 10
-61.9951581418
 20
17.513171233
 10
-61.9420519683
 20
17.5001716067
 10
-61.8879287877
 20
17.4951805728
  0
LWPOLYLINE
  5
43D
100
AcDbEntity
  8
RACCORDO
100
AcDbPolyline
 62
250
  6
CONTINUOUS
 90
5
 70
0
 10
-48.6554436517
 20
12.9485203683
 10
-48.6565074584
 20
12.9442252352
 10
-48.6574038202
 20
12.9314530412
 10
-48.658117406
 20
12.9104222373
 10
-48.6586360109
 20
12.8814925272
  0
LINE
  5
43E
100
AcDbEntity
  8
RACCORDO
100
AcDbLine
 62
250
  6
CONTINUOUS
 10
-48.6545921844
 20
12.9511906791
 11
-48.6554436517
 21
12.9485203683
  0
LINE
  5
43F
100
AcDbEntity
  8
0
100
AcDbLine
 62
7
  6
CONTINUOUS
 10
-48.1641698549
 20
-1.4801263923
 11
-47.9641698549
 21
-1.4801263923
  0
LWPOLYLINE
  5
440
100
AcDbEntity
  8
RACCORDO
100
AcDbPolyline
 62
250
  6
CONTINUOUS
 90
5
 70
0
 10
-48.5924085253
 20
12.9536197205
 10
-48.5929103196
 20
12.9492385884
 10
-48.592179629
 20
12.9364927
 10
-48.5902289141
 20
12.9155994431
 10
-48.5870914439
 20
12.8869151628
  0
LINE
  5
441
100
AcDbEntity
  8
RACCORDO
100
AcDbLine
 62
250
  6
CONTINUOUS
 10
-48.5668457181
 20
9.5589571323
 11
-48.5865592401
 21
9.4114047161
  0
LWPOLYLINE
  5
442
100
AcDbEntity
  8
RACCORDO
100
AcDbPolyline
 62
250
  6
CONTINUOUS
 90
12
 70
0
 10
-48.5865592401
 20
9.4114047161
 10
-48.6054708962
 20
9.2709611536
 10
-48.614234586
 20
9.2031776979
 10
-48.62232413
 20
9.1368827792
 10
-48.6298002586
 20
9.0721246178
 10
-48.6363891927
 20
9.0087814954
 10
-48.6420478396
 20
8.9468459053
 10
-48.6468192921
 20
8.8863253542
 10
-48.6505590496
 20
8.8271206437
 10
-48.6532189453
 20
8.7691987077
 10
-48.654847146
 20
8.7125926124
 10
-48.6554436517
 20
8.6573023576
  0
LINE
  5
443
100
AcDbEntity
  8
RACCORDO
100
AcDbLine
 62
7
  6
CONTINUOUS
 10
-47.965070838
 20
2.2965247137
 11
-46.3606793736
 21
2.2685199566
  0
LWPOLYLINE
  5
444
100
AcDbEntity
  8
RACCORDO
100
AcDbPolyline
 62
7
  6
CONTINUOUS
 90
11
 70
0
 10
-68.0573676086
 20
21.1728965618
 10
-68.0730430008
 20
21.19216407
 10
-68.087710418
 20
21.2113034553
 10
-68.1013929895
 20
21.2302997758
 10
-68.1138471594
 20
21.2491528016
 10
-68.1250528933
 20
21.2678686453
 10
-68.1350302257
 20
21.286441804
 10
-68.1435957047
 20
21.3048546532
 10
-68.1506881798
 20
21.3231015788
 10
-68.1563688016
 20
21.3411889226
 10
-68.16063757
 20
21.3591170407
  0
LWPOLYLINE
  5
445
100
AcDbEntity
  8
RACCORDO
100
AcDbPolyline
 62
250
  6
CONTINUOUS
 90
6
 70
0
 10
-62.2293514067
 20
19.265315322
 10
-62.2061181322
 20
19.232922383
 10
-62.1878502807
 20
19.1991013348
 10
-62.1747169475
 20
19.1642492847
 10
-62.1668075373
 20
19.1287197433
 10
-62.1641698549
 20
19.0928932188
  0
LWPOLYLINE
  5
446
100
AcDbEntity
  8
RACCORDO
100
AcDbPolyline
 62
250
  6
CONTINUOUS
 90
7
 70
0
 10
-48.5293862238
 20
12.4588024278
 10
-48.5275358115
 20
12.4250248948
 10
-48.5260125247
 20
12.3908382131
 10
-48.5248163635
 20
12.3562423828
 10
-48.5239473278
 20
12.3212374039
 10
-48.5234054175
 20
12.2858232763
 10
-48.5231906328
 20
12.25
  0
LINE
  5
447
100
AcDbEntity
  8
RACCORDO
100
AcDbLine
 62
250
  6
CONTINUOUS
 10
-48.149449211
 20
13.1784384769
 11
-48.1420072043
 21
12.9830116763
  0
LINE
  5
448
100
AcDbEntity
  8
RACCORDO
100
AcDbLine
 62
250
  6
CONTINUOUS
 10
-48.1420072043
 20
12.9830116763
 11
-48.1369784152
 21
12.8402263792
  0
LWPOLYLINE
  5
449
100
AcDbEntity
  8
RACCORDO
100
AcDbPolyline
 62
250
  6
CONTINUOUS
 90
7
 70
0
 10
-48.1369784152
 20
12.8402263792
 10
-48.132419647
 20
12.6863716244
 10
-48.1304163941
 20
12.60516422
 10
-48.1287732853
 20
12.5209401124
 10
-48.1275646681
 20
12.4336341784
 10
-48.1267638717
 20
12.3433127057
 10
-48.1263832781
 20
12.2500000001
  0
LWPOLYLINE
  5
44A
100
AcDbEntity
  8
RACCORDO
100
AcDbPolyline
 62
7
  6
CONTINUOUS
 90
5
 70
0
 10
-48.1641150864
 20
13.4704770449
 10
-48.1638620721
 20
13.4553923604
 10
-48.1637595655
 20
13.4462743227
 10
-48.1637112112
 20
13.4361752588
 10
-48.1637238296
 20
13.4253779124
  0
LWPOLYLINE
  5
44B
100
AcDbEntity
  8
RACCORDO
100
AcDbPolyline
 62
250
  6
CONTINUOUS
 90
10
 70
0
 10
-48.6551379361
 20
17.0268827122
 10
-48.6558816869
 20
17.0732208851
 10
-48.6552792152
 20
17.1155977518
 10
-48.6540959497
 20
17.1534602556
 10
-48.6536182728
 20
17.186540891
 10
-48.6540426745
 20
17.2141484309
 10
-48.6542018784
 20
17.2356908409
 10
-48.6538642836
 20
17.2512316414
 10
-48.6540745107
 20
17.2608458505
 10
-48.6554436517
 20
17.264204307
  0
LWPOLYLINE
  5
44C
100
AcDbEntity
  8
RACCORDO
100
AcDbPolyline
 62
250
  6
CONTINUOUS
 90
31
 70
0
 10
-48.1641698549
 20
3.1515557841
 10
-48.165008184
 20
3.2096462875
 10
-48.1674269126
 20
3.2656655678
 10
-48.1712815444
 20
3.319613625
 10
-48.1764301809
 20
3.3715767676
 10
-48.1827304767
 20
3.421468687
 10
-48.1900368953
 20
3.4690304577
 10
-48.1981826964
 20
3.5140585036
 10
-48.2070579928
 20
3.5567564007
 10
-48.216634819
 20
3.5974759518
 10
-48.2268083332
 20
3.6361804888
 10
-48.2374959878
 20
3.6729066797
 10
-48.2487679881
 20
3.7081163315
 10
-48.2605399807
 20
3.7417738422
 10
-48.2727844091
 20
3.7739148139
 10
-48.2857315393
 20
3.8051078587
 10
-48.2992350807
 20
3.8352253582
 10
-48.3134040427
 20
3.864394931
 10
-48.3289806379
 20
3.8935680446
 10
-48.3461610499
 20
3.923238375
 10
-48.3648927102
 20
3.9529122462
 10
-48.3856719043
 20
3.9820600976
 10
-48.40885559
 20
4.0111556727
 10
-48.4342709846
 20
4.0397252279
 10
-48.4616084699
 20
4.0658179732
 10
-48.4910024647
 20
4.089339992
 10
-48.5222945143
 20
4.1103852008
 10
-48.5546124119
 20
4.1272845584
 10
-48.5875583555
 20
4.1394817176
 10
-48.6212663945
 20
4.1475330256
 10
-48.6555912631
 20
4.1514384824
  0
LINE
  5
44D
100
AcDbEntity
  8
RACCORDO
100
AcDbLine
 62
250
  6
CONTINUOUS
 10
-48.6574038202
 20
12.5779618259
 11
-48.6554436517
 21
12.4485965208
  0
LINE
  5
44E
100
AcDbEntity
  8
RACCORDO
100
AcDbLine
 62
250
  6
CONTINUOUS
 10
-48.6554436517
 20
13.4484442159
 11
-48.6531697664
 21
13.293512981
  0
LWPOLYLINE
  5
44F
100
AcDbEntity
  8
RACCORDO
100
AcDbPolyline
 62
250
  6
CONTINUOUS
 90
7
 70
0
 10
-48.6519881404
 20
3.5567431479
 10
-48.6522612325
 20
3.5852236874
 10
-48.6526657338
 20
3.6089202749
 10
-48.6531945818
 20
3.6275000269
 10
-48.6538393332
 20
3.6408109525
 10
-48.6545921844
 20
3.6488093209
 10
-48.6554436517
 20
3.6514796317
  0
LWPOLYLINE
  5
450
100
AcDbEntity
  8
RACCORDO
100
AcDbPolyline
 62
7
  6
CONTINUOUS
 90
10
 70
0
 10
-48.164140368
 20
13.3515173414
 10
-48.1640231082
 20
13.3388732191
 10
-48.1637982506
 20
13.3261920061
 10
-48.1634536785
 20
13.3134991519
 10
-48.1629735379
 20
13.3007372075
 10
-48.1623438163
 20
13.2879716252
 10
-48.1615719276
 20
13.2754091113
 10
-48.1606543185
 20
13.2630604282
 10
-48.159586036
 20
13.2509188721
 10
-48.1583932769
 20
13.2391605643
  0
LINE
  5
451
100
AcDbEntity
  8
RACCORDO
100
AcDbLine
 62
7
  6
CONTINUOUS
 10
-48.1641698549
 20
13.4765253366
 11
-48.1641150864
 21
13.4704770449
  0
LINE
  5
452
100
AcDbEntity
  8
RACCORDO
100
AcDbLine
 62
250
  6
CONTINUOUS
 10
-48.6586360109
 20
12.6985144983
 11
-48.6574038202
 21
12.5779618259
  0
LINE
  5
453
100
AcDbEntity
  8
RACCORDO
100
AcDbLine
 62
250
  6
CONTINUOUS
 10
-48.6531697664
 20
13.293512981
 11
-48.6522458447
 21
13.1977855069
  0
LINE
  5
454
100
AcDbEntity
  8
RACCORDO
100
AcDbLine
 62
250
  6
CONTINUOUS
 10
-48.6522458447
 20
13.1977855069
 11
-48.6518464819
 21
13.1131361664
  0
LWPOLYLINE
  5
455
100
AcDbEntity
  8
RACCORDO
100
AcDbPolyline
 62
250
  6
CONTINUOUS
 90
7
 70
0
 10
-48.659056287
 20
3.7979577615
 10
-48.6589507879
 20
3.7548412892
 10
-48.6586360625
 20
3.7185074782
 10
-48.6581174718
 20
3.6895777679
 10
-48.6574038784
 20
3.6685469622
 10
-48.6565074947
 20
3.6557747661
 10
-48.6554436517
 20
3.6514796317
  0
LINE
  5
456
100
AcDbEntity
  8
RACCORDO
100
AcDbLine
 62
250
  6
CONTINUOUS
 10
-48.6554436517
 20
-15.9764680899
 11
-48.6549269028
 21
-16.581030976
  0
LINE
  5
457
100
AcDbEntity
  8
RACCORDO
100
AcDbLine
 62
250
  6
CONTINUOUS
 10
-48.6554436517
 20
8.6573023576
 11
-48.6555912638
 21
4.1514060558
  0
LINE
  5
458
100
AcDbEntity
  8
RACCORDO
100
AcDbLine
 62
250
  6
CONTINUOUS
 10
-48.6554436517
 20
3.1515557841
 11
-48.6554436517
 21
-15.9764680899
  0
LINE
  5
459
100
AcDbEntity
  8
RACCORDO
100
AcDbLine
 62
250
  6
CONTINUOUS
 10
-48.6518464819
 20
3.4868638336
 11
-48.6519881404
 21
3.5567431479
  0
LINE
  5
45A
100
AcDbEntity
  8
RACCORDO
100
AcDbLine
 62
250
  6
CONTINUOUS
 10
-48.5231906328
 20
12.25
 11
-48.5231906328
 21
10.1500000019
  0
LINE
  5
45B
100
AcDbEntity
  8
RACCORDO
100
AcDbLine
 62
7
  6
CONTINUOUS
 10
-48.1641698549
 20
8.6573022066
 11
-48.1641698549
 21
-16.7642804594
  0
LINE
  5
45C
100
AcDbEntity
  8
RACCORDO
100
AcDbLine
 62
7
  6
CONTINUOUS
 10
-48.1641698549
 20
13.4484442159
 11
-48.1641698549
 21
16.7642804594
  0
LINE
  5
45D
100
AcDbEntity
  8
RACCORDO
100
AcDbLine
 62
250
  6
CONTINUOUS
 10
-48.1263832781
 20
12.2500000001
 11
-48.1263832781
 21
10.1500000019
  0
LINE
  5
45E
100
AcDbEntity
  8
RACCORDO
100
AcDbLine
 62
250
  6
CONTINUOUS
 10
-47.9746368391
 20
-14.9700000051
 11
-47.9746368177
 21
-14.9897250751
  0
LINE
  5
45F
100
AcDbEntity
  8
RACCORDO
100
AcDbLine
 62
250
  6
CONTINUOUS
 10
-47.9746370378
 20
14.990067006
 11
-47.9746368214
 21
7.4099330054
  0
LINE
  5
460
100
AcDbEntity
  8
RACCORDO
100
AcDbLine
 62
250
  6
CONTINUOUS
 10
-47.9746370843
 20
-12.2950459911
 11
-47.9746370245
 21
-13.9676
  0
LINE
  5
461
100
AcDbEntity
  8
0
100
AcDbLine
 62
7
  6
CONTINUOUS
 10
-47.9641698549
 20
7.3500533865
 11
-47.9641698549
 21
7.3300268904
  0
LINE
  5
462
100
AcDbEntity
  8
0
100
AcDbLine
 62
7
  6
CONTINUOUS
 10
-47.9641698549
 20
7.325010703
 11
-47.9641698549
 21
-8.8495520984
  0
LINE
  5
463
100
AcDbEntity
  8
ASSI
100
AcDbLine
 62
7
  6
CONTINUOUS
 10
-47.9641698549
 20
-10.244959
 11
-47.9641698549
 21
-12.295056
  0
LINE
  5
464
100
AcDbEntity
  8
0
100
AcDbLine
 62
7
  6
CONTINUOUS
 10
-47.9641698549
 20
-13.9676
 11
-47.9641698549
 21
-14.97
  0
LINE
  5
465
100
AcDbEntity
  8
RACCORDO
100
AcDbLine
 62
7
  6
CONTINUOUS
 10
-48.1641691542
 20
13.3641455854
 11
-48.164140368
 21
13.3515173414
  0
LINE
  5
466
100
AcDbEntity
  8
RACCORDO
100
AcDbLine
 62
250
  6
CONTINUOUS
 10
-48.6549269028
 20
-16.581030976
 11
-48.655136688
 21
-17.0268827074
  0
LINE
  5
467
100
AcDbEntity
  8
RACCORDO
100
AcDbLine
 62
250
  6
CONTINUOUS
 10
-48.6554436517
 20
13.4484442159
 11
-48.6551358961
 21
17.0268826905
  0
LWPOLYLINE
  5
468
100
AcDbEntity
  8
RACCORDO
100
AcDbPolyline
 62
250
  6
CONTINUOUS
 90
7
 70
0
 10
-48.6518464819
 20
13.1131361664
 10
-48.6519881404
 20
13.0432568521
 10
-48.6522612325
 20
13.0147763126
 10
-48.6526657338
 20
12.9910797251
 10
-48.6531945818
 20
12.9724999731
 10
-48.6538393332
 20
12.9591890475
 10
-48.6545921844
 20
12.9511906791
  0
LWPOLYLINE
  5
469
100
AcDbEntity
  8
RACCORDO
100
AcDbPolyline
 62
250
  6
CONTINUOUS
 90
5
 70
0
 10
-48.1263832781
 20
10.1500000019
 10
-48.1268625257
 20
10.0466013909
 10
-48.1278355954
 20
9.9468978209
 10
-48.1292846505
 20
9.8509224527
 10
-48.131242029
 20
9.7587654727
  0
LINE
  5
46A
100
AcDbEntity
  8
RACCORDO
100
AcDbLine
 62
250
  6
CONTINUOUS
 10
-48.6586360189
 20
3.9014855008
 11
-48.659056287
 21
3.7979577615
  0
LINE
  5
46B
100
AcDbEntity
  8
RACCORDO
100
AcDbLine
 62
250
  6
CONTINUOUS
 10
-48.6522458447
 20
3.4022144931
 11
-48.6518464819
 21
3.4868638336
  0
LINE
  5
46C
100
AcDbEntity
  8
RACCORDO
100
AcDbLine
 62
7
  6
CONTINUOUS
 10
-48.1640357707
 20
13.3891591508
 11
-48.1641691542
 21
13.3641455854
  0
LWPOLYLINE
  5
46D
100
AcDbEntity
  8
RACCORDO
100
AcDbPolyline
 62
250
  6
CONTINUOUS
 90
4
 70
0
 10
-48.6586360109
 20
12.8814925272
 10
-48.6589507648
 20
12.8451587145
 10
-48.6590562844
 20
12.8020422402
 10
-48.6586360109
 20
12.6985144983
  0
LINE
  5
46E
100
AcDbEntity
  8
RACCORDO
100
AcDbLine
 62
7
  6
CONTINUOUS
 10
-48.1637238296
 20
13.4253779124
 11
-48.1640357707
 21
13.3891591508
  0
LINE
  5
46F
100
AcDbEntity
  8
RACCORDO
100
AcDbLine
 62
250
  6
CONTINUOUS
 10
-48.6574038309
 20
4.0220381723
 11
-48.6586360189
 21
3.9014855008
  0
LINE
  5
470
100
AcDbEntity
  8
RACCORDO
100
AcDbLine
 62
250
  6
CONTINUOUS
 10
-48.6538164332
 20
3.25580014
 11
-48.6522458447
 21
3.4022144931
  0
LINE
  5
471
100
AcDbEntity
  8
RACCORDO
100
AcDbLine
 62
250
  6
CONTINUOUS
 10
-48.6554436517
 20
4.1514034792
 11
-48.6574038309
 21
4.0220381723
  0
LINE
  5
472
100
AcDbEntity
  8
RACCORDO
100
AcDbLine
 62
250
  6
CONTINUOUS
 10
-48.6554436517
 20
3.1515557841
 11
-48.6538164332
 21
3.25580014
  0
LWPOLYLINE
  5
473
100
AcDbEntity
  8
RACCORDO
100
AcDbPolyline
 62
250
  6
CONTINUOUS
 90
8
 70
0
 10
-48.5231906328
 20
10.1500000019
 10
-48.5250453543
 20
10.0573159605
 10
-48.5284432706
 20
9.9674295333
 10
-48.5333843818
 20
9.8803407201
 10
-48.5401975361
 20
9.7962403736
 10
-48.5485538853
 20
9.7149376412
 10
-48.5574668847
 20
9.6358599651
 10
-48.5668457181
 20
9.5589571323
  0
LWPOLYLINE
  5
474
100
AcDbEntity
  8
RACCORDO
100
AcDbPolyline
 62
250
  6
CONTINUOUS
 90
5
 70
0
 10
-48.1617053014
 20
8.8514460858
 10
-48.1627736534
 20
8.799843692
 10
-48.1635444421
 20
8.7502621775
 10
-48.1640123164
 20
8.7027553167
 10
-48.1641698549
 20
8.6573023576
  0
LINE
  5
475
100
AcDbEntity
  8
RACCORDO
100
AcDbLine
 62
250
  6
CONTINUOUS
 10
-48.1587235736
 20
8.9612360159
 11
-48.1617053014
 21
8.8514460858
  0
LINE
  5
476
100
AcDbEntity
  8
RACCORDO
100
AcDbLine
 62
250
  6
CONTINUOUS
 10
-48.131242029
 20
9.7587654727
 11
-48.1361651015
 21
9.5853780099
  0
LINE
  5
477
100
AcDbEntity
  8
RACCORDO
100
AcDbLine
 62
250
  6
CONTINUOUS
 10
-48.1547152269
 20
9.0805737902
 11
-48.1587235736
 21
8.9612360159
  0
LINE
  5
478
100
AcDbEntity
  8
RACCORDO
100
AcDbLine
 62
250
  6
CONTINUOUS
 10
-48.1361651015
 20
9.5853780099
 11
-48.1416810516
 21
9.4259418158
  0
LINE
  5
479
100
AcDbEntity
  8
RACCORDO
100
AcDbLine
 62
250
  6
CONTINUOUS
 10
-48.1416810516
 20
9.4259418158
 11
-48.1547152269
 21
9.0805737902
  0
LWPOLYLINE
  5
47A
100
AcDbEntity
  8
RACCORDO
100
AcDbPolyline
 62
250
  6
CONTINUOUS
 90
46
 70
0
 10
-48.1494492939
 20
13.1784382306
 10
-48.1499152583
 20
13.1676183636
 10
-48.1504636691
 20
13.1565731538
 10
-48.1510992571
 20
13.1453009984
 10
-48.1518250104
 20
13.1337995652
 10
-48.1526476254
 20
13.1220680653
 10
-48.1535779811
 20
13.1101072118
 10
-48.1546212523
 20
13.0979153412
 10
-48.1557834646
 20
13.0854911593
 10
-48.1570779006
 20
13.0728359201
 10
-48.1585100777
 20
13.0599505804
 10
-48.1600872544
 20
13.0468315828
 10
-48.1618268378
 20
13.0334733714
 10
-48.1637339945
 20
13.0198829373
 10
-48.1658183198
 20
13.0060511703
 10
-48.1681063805
 20
12.9919481074
 10
-48.1706037926
 20
12.9775810547
 10
-48.1733231194
 20
12.9629409814
 10
-48.1763056517
 20
12.9479729399
 10
-48.1795603972
 20
12.9326726179
 10
-48.1831021221
 20
12.9170433895
 10
-48.1869869129
 20
12.9010413696
 10
-48.1912261635
 20
12.8846621259
 10
-48.1958391293
 20
12.8679108355
 10
-48.200901614
 20
12.8507579826
 10
-48.2064282101
 20
12.8331964928
 10
-48.2124433394
 20
12.8152374789
 10
-48.2190475955
 20
12.796879357
 10
-48.2262616657
 20
12.7781060167
 10
-48.2341133974
 20
12.7589432369
 10
-48.2427257928
 20
12.7394538703
 10
-48.2521080743
 20
12.7196416174
 10
-48.2623065967
 20
12.6995208044
 10
-48.2735157706
 20
12.6791727612
 10
-48.2857167056
 20
12.6585983505
 10
-48.2989920979
 20
12.6378253779
 10
-48.3137172443
 20
12.6169793271
 10
-48.3299364643
 20
12.595919328
 10
-48.3476888827
 20
12.5748297476
 10
-48.3673745947
 20
12.5543237522
 10
-48.3891020657
 20
12.5341202143
 10
-48.4128273505
 20
12.5145459046
 10
-48.4387280812
 20
12.4970967487
 10
-48.4668510533
 20
12.4822505489
 10
-48.497096737
 20
12.4694948692
 10
-48.5293861741
 20
12.4588056109
  0
LWPOLYLINE
  5
47B
100
AcDbEntity
  8
RACCORDO
100
AcDbPolyline
 62
250
  6
CONTINUOUS
 90
16
 70
0
 10
-48.1641698549
 20
-16.7642804568
 10
-48.1667780353
 20
-16.7921840819
 10
-48.1746645727
 20
-16.818743829
 10
-48.1878246999
 20
-16.8441634422
 10
-48.2060725782
 20
-16.8692145055
 10
-48.2292047908
 20
-16.8937943298
 10
-48.2571005077
 20
-16.9166396844
 10
-48.2893830418
 20
-16.9377745414
 10
-48.3256046849
 20
-16.9575546233
 10
-48.3655541518
 20
-16.9749081705
 10
-48.4086985875
 20
-16.9898879652
 10
-48.4544569812
 20
-17.0027866318
 10
-48.5025883549
 20
-17.012769482
 10
-48.5525996715
 20
-17.0197209405
 10
-48.603687532
 20
-17.0243029965
 10
-48.6551379359
 20
-17.0268827139
  0
LINE
  5
47C
100
AcDbEntity
  8
RACCORDO
100
AcDbLine
 62
7
  6
CONTINUOUS
 10
-67.991714861
 20
-21.0990020435
 11
-67.9676603362
 21
-21.0738952237
  0
LINE
  5
47D
100
AcDbEntity
  8
RACCORDO
100
AcDbLine
 62
7
  6
CONTINUOUS
 10
-47.9624857973
 20
5.1035204083
 11
-46.3606793736
 21
5.1314800434
  0
LINE
  5
47E
100
AcDbEntity
  8
RACCORDO
100
AcDbLine
 62
250
  6
CONTINUOUS
 10
-48.1641698549
 20
3.1515557841
 11
-48.6554436517
 21
3.1515557841
  0
LINE
  5
47F
100
AcDbEntity
  8
0
100
AcDbLine
 62
7
  6
CONTINUOUS
 10
-48.1641698549
 20
3.3499999985
 11
-47.9641698549
 21
3.3499999985
  0
LINE
  5
480
100
AcDbEntity
  8
0
100
AcDbLine
 62
7
  6
CONTINUOUS
 10
-48.1641698549
 20
4.099459
 11
-47.9641698549
 21
4.099459
  0
LINE
  5
481
100
AcDbEntity
  8
RACCORDO
100
AcDbLine
 62
250
  6
CONTINUOUS
 10
-48.6554436517
 20
3.1515557841
 11
-57.6554436517
 21
3.3086513684
  0
LINE
  5
482
100
AcDbEntity
  8
RACCORDO
100
AcDbLine
 62
7
  6
CONTINUOUS
 10
-48.6554436517
 20
3.6514796317
 11
-57.1641698549
 21
3.8
  0
LINE
  5
483
100
AcDbEntity
  8
RACCORDO
100
AcDbLine
 62
250
  6
CONTINUOUS
 10
-48.6555912638
 20
4.1514060558
 11
-57.1641698549
 21
4.2999238476
  0
LINE
  5
484
100
AcDbEntity
  8
RACCORDO
100
AcDbLine
 62
7
  6
CONTINUOUS
 10
-57.4748830331
 20
13.1134230238
 11
-57.4045101129
 21
13.0434874494
  0
LWPOLYLINE
  5
485
100
AcDbEntity
  8
RACCORDO
100
AcDbPolyline
 62
7
  6
CONTINUOUS
 90
6
 70
0
 10
-57.2270249032
 20
12.8659935304
 10
-57.2055725006
 20
12.8446434014
 10
-57.1883916837
 20
12.8265093585
 10
-57.1760216202
 20
12.8123552351
 10
-57.1679455156
 20
12.8032212138
 10
-57.1641698549
 20
12.8
  0
LWPOLYLINE
  5
486
100
AcDbEntity
  8
RACCORDO
100
AcDbPolyline
 62
7
  6
CONTINUOUS
 90
6
 70
0
 10
-67.9676603355
 20
21.0738952237
 10
-67.9869038696
 20
21.0940826247
 10
-68.0054755011
 20
21.1140789441
 10
-68.02337523
 20
21.1338847175
 10
-68.0407073706
 20
21.1534853605
 10
-68.0573676086
 20
21.1728965618
  0
LINE
  5
487
100
AcDbEntity
  8
RACCORDO
100
AcDbLine
 62
250
  6
CONTINUOUS
 10
-62.2572672473
 20
19.2958558279
 11
-62.2293514067
 21
19.265315322
  0
LINE
  5
488
100
AcDbEntity
  8
RACCORDO
100
AcDbLine
 62
250
  6
CONTINUOUS
 10
-48.5476162643
 20
12.5866731378
 11
-48.5293740828
 21
12.4588038035
  0
LINE
  5
489
100
AcDbEntity
  8
RACCORDO
100
AcDbLine
 62
250
  6
CONTINUOUS
 10
-48.5640263538
 20
12.7058555916
 11
-48.5476162643
 21
12.5866731378
  0
LWPOLYLINE
  5
48A
100
AcDbEntity
  8
RACCORDO
100
AcDbPolyline
 62
250
  6
CONTINUOUS
 90
4
 70
0
 10
-48.5870914439
 20
12.8869151628
 10
-48.5828207277
 20
12.8509290841
 10
-48.5774896026
 20
12.8082549679
 10
-48.5640263538
 20
12.7058555916
  0
LWPOLYLINE
  5
48B
100
AcDbEntity
  8
RACCORDO
100
AcDbPolyline
 62
7
  6
CONTINUOUS
 90
7
 70
0
 10
-48.1583932769
 20
13.2391605643
 10
-48.1570824293
 20
13.2277873615
 10
-48.155658691
 20
13.2167965512
 10
-48.154165292
 20
13.2063528402
 10
-48.1526296328
 20
13.196508224
 10
-48.1510533977
 20
13.1872044247
 10
-48.149449211
 20
13.1784384769
  0
LINE
  5
48C
100
AcDbEntity
  8
RACCORDO
100
AcDbLine
 62
250
  6
CONTINUOUS
 10
-46.448469068
 20
-11.0685199566
 11
-46.4484688355
 21
-14.9100839197
  0
LINE
  5
48D
100
AcDbEntity
  8
RACCORDO
100
AcDbLine
 62
250
  6
CONTINUOUS
 10
-46.4484690826
 20
14.9100839326
 11
-46.4484688355
 21
7.4899160803
  0
LINE
  5
48E
100
AcDbEntity
  8
RACCORDO
100
AcDbLine
 62
250
  6
CONTINUOUS
 10
-46.448469068
 20
-3.6685199566
 11
-46.4484693087
 21
-5.1299476644
  0
LINE
  5
48F
100
AcDbEntity
  8
RACCORDO
100
AcDbLine
 62
250
  6
CONTINUOUS
 10
-46.3606793375
 20
7.5085203487
 11
-46.3606793736
 21
5.1314800434
  0
LINE
  5
490
100
AcDbEntity
  8
RACCORDO
100
AcDbLine
 62
250
  6
CONTINUOUS
 10
-46.3606793736
 20
2.2685199566
 11
-46.3606793736
 21
-3.6685199566
  0
LINE
  5
491
100
AcDbEntity
  8
RACCORDO
100
AcDbLine
 62
250
  6
CONTINUOUS
 10
-46.3606793736
 20
-5.1314800434
 11
-46.3606793736
 21
-11.0685199566
  0
LINE
  5
492
100
AcDbEntity
  8
RACCORDO
100
AcDbLine
 62
7
  6
CONTINUOUS
 10
-46.1641698549
 20
14.6103760064
 11
-46.1641698549
 21
5.3314495825
  0
LINE
  5
493
100
AcDbEntity
  8
RACCORDO
100
AcDbLine
 62
7
  6
CONTINUOUS
 10
-46.1641698549
 20
2.0685504175
 11
-46.1641698549
 21
-14.6103764515
  0
LINE
  5
494
100
AcDbEntity
  8
RACCORDO
100
AcDbLine
 62
250
  6
CONTINUOUS
 10
-63.4471686892
 20
-20.248092608
 11
-64.1930698542
 21
-21.0077140908
  0
LINE
  5
495
100
AcDbEntity
  8
RACCORDO
100
AcDbLine
 62
250
  6
CONTINUOUS
 10
-62.6554436517
 20
-19.4420813055
 11
-63.4471686892
 21
-20.248092608
  0
LINE
  5
496
100
AcDbEntity
  8
RACCORDO
100
AcDbLine
 62
7
  6
CONTINUOUS
 10
-62.3106164643
 20
-19.4464466094
 11
-64.5202403566
 21
-21.6560705017
  0
LINE
  5
497
100
AcDbEntity
  8
DRAFT
100
AcDbLine
 62
7
  6
CONTINUOUS
 10
-47.9746370461
 20
7.4099329936
 11
-46.448469068
 21
7.4899160682
  0
LINE
  5
498
100
AcDbEntity
  8
0
100
AcDbLine
 62
7
  6
CONTINUOUS
 10
-48.1641698549
 20
5.9
 11
-47.9641698549
 21
5.9
  0
LINE
  5
499
100
AcDbEntity
  8
0
100
AcDbLine
 62
7
  6
CONTINUOUS
 10
-48.1276726698
 20
7.3250107572
 11
-47.9641698549
 21
7.325011
  0
LINE
  5
49A
100
AcDbEntity
  8
0
100
AcDbLine
 62
7
  6
CONTINUOUS
 10
-47.9641698549
 20
7.3501503732
 11
-48.1067970845
 21
7.3501503732
  0
LWPOLYLINE
  5
49B
100
AcDbEntity
  8
RACCORDO
100
AcDbPolyline
 62
7
  6
CONTINUOUS
 90
5
 70
0
 10
-57.6554436517
 20
13.2913486316
 10
-57.6195094541
 20
13.2563835002
 10
-57.5835323993
 20
13.220888566
 10
-57.5475184645
 20
13.1850713817
 10
-57.4748830331
 20
13.1134230238
  0
LWPOLYLINE
  5
49C
100
AcDbEntity
  8
RACCORDO
100
AcDbPolyline
 62
7
  6
CONTINUOUS
 90
3
 70
0
 10
-57.4045101129
 20
13.0434874494
 10
-57.3704790342
 20
13.0098884361
 10
-57.3071204836
 20
12.9464725133
  0
LWPOLYLINE
  5
49D
100
AcDbEntity
  8
RACCORDO
100
AcDbPolyline
 62
7
  6
CONTINUOUS
 90
3
 70
0
 10
-57.3071204836
 20
12.9464725133
 10
-57.2778059588
 20
12.9174137949
 10
-57.2270249032
 20
12.8659935304
  0
LINE
  5
49E
100
AcDbEntity
  8
RACCORDO
100
AcDbLine
 62
7
  6
CONTINUOUS
 10
-64.5202403566
 20
21.6560705017
 11
-62.3106164643
 21
19.4464466094
  0
LINE
  5
49F
100
AcDbEntity
  8
RACCORDO
100
AcDbLine
 62
250
  6
CONTINUOUS
 10
-64.1933607098
 20
21.0077191893
 11
-62.6554436517
 21
19.4421024555
  0
LWPOLYLINE
  5
4A0
100
AcDbEntity
  8
RACCORDO
100
AcDbPolyline
 62
250
  6
CONTINUOUS
 90
10
 70
0
 10
-48.6554436517
 20
-17.264204307
 10
-48.6540745211
 20
-17.2608458505
 10
-48.6538643019
 20
-17.2512316415
 10
-48.6542019019
 20
-17.2356908414
 10
-48.6540427005
 20
-17.2141484316
 10
-48.6536182987
 20
-17.1865408915
 10
-48.6540959733
 20
-17.153460256
 10
-48.6552792338
 20
-17.1155977525
 10
-48.6558816976
 20
-17.0732208863
 10
-48.6551379359
 20
-17.0268827139
  0
LWPOLYLINE
  5
4A1
100
AcDbEntity
  8
RACCORDO
100
AcDbPolyline
 62
250
  6
CONTINUOUS
 90
9
 70
0
 10
-63.8484878712
 20
-20.9843180163
 10
-63.8742852856
 20
-21.0058483073
 10
-63.9047352963
 20
-21.0234499133
 10
-63.9391734289
 20
-21.0365417628
 10
-63.9764697142
 20
-21.0443741767
 10
-64.0161448605
 20
-21.0468991091
 10
-64.0584585604
 20
-21.044627331
 10
-64.1029077595
 20
-21.0375368183
 10
-64.1481792003
 20
-21.025234649
  0
LINE
  5
4A2
100
AcDbEntity
  8
RACCORDO
100
AcDbLine
 62
250
  6
CONTINUOUS
 10
-48.1641698549
 20
8.6573023576
 11
-48.6554436517
 21
8.6573023576
  0
LINE
  5
4A3
100
AcDbEntity
  8
RACCORDO
100
AcDbLine
 62
250
  6
CONTINUOUS
 10
-46.1641698549
 20
10.15
 11
-48.5231906328
 21
10.1500000019
  0
LWPOLYLINE
  5
4A4
100
AcDbEntity
  8
RACCORDO
100
AcDbPolyline
 62
250
  6
CONTINUOUS
 90
10
 70
0
 10
-62.3106164644
 20
19.4464466095
 10
-62.3357378909
 20
19.4668518375
 10
-62.3652398583
 20
19.4822681204
 10
-62.3987286488
 20
19.4924896353
 10
-62.43575742
 20
19.4973799115
 10
-62.475832168
 20
19.4968736539
 10
-62.5184183185
 20
19.4909776156
 10
-62.5629478579
 20
19.4797705079
 10
-62.6088269094
 20
19.4634019484
 10
-62.6554436515
 20
19.4420904629
  0
LWPOLYLINE
  5
4A5
100
AcDbEntity
  8
RACCORDO
100
AcDbPolyline
 62
250
  6
CONTINUOUS
 90
9
 70
0
 10
-63.8484878712
 20
20.9843180163
 10
-63.8742853
 20
21.0058483203
 10
-63.9047353225
 20
21.0234499344
 10
-63.9391734631
 20
21.036541788
 10
-63.9764697512
 20
21.0443742025
 10
-64.016144895
 20
21.0468991332
 10
-64.0584585897
 20
21.0446273517
 10
-64.1029077817
 20
21.0375368337
 10
-64.1481792128
 20
21.0252346574
  0
LWPOLYLINE
  5
4A6
100
AcDbEntity
  8
0
100
AcDbPolyline
 62
7
  6
CONTINUOUS
 90
10
 70
0
 43
0.3500000006
 10
-63.0570254974
 20
42.7499991302
 10
-62.9855988464
 20
42.6071412964
 10
-62.9855988464
 20
42.5357146454
 10
-63.1284566803
 20
42.3928568115
 10
-63.1998833313
 20
42.3928568115
 10
-63.2713145142
 20
42.4642834625
 10
-63.2713145142
 20
42.5357146454
 10
-63.1998833313
 20
42.6785724792
 10
-63.1284566803
 20
42.7499991302
 10
-63.0570254974
 20
42.7499991302
  0
LWPOLYLINE
  5
4A7
100
AcDbEntity
  8
RACCORDO
100
AcDbPolyline
 62
250
  6
CONTINUOUS
 90
7
 70
0
 10
-48.5293862238
 20
12.4588024278
 10
-48.5502851355
 20
12.4559913264
 10
-48.5712283112
 20
12.4536242718
 10
-48.5922157506
 20
12.4517012639
 10
-48.6132474538
 20
12.4502223028
 10
-48.6343234208
 20
12.4491873884
 10
-48.6554436517
 20
12.4485965208
  0
LINE
  5
4A8
100
AcDbEntity
  8
RACCORDO
100
AcDbLine
 62
250
  6
CONTINUOUS
 10
-48.6554436517
 20
12.4485965208
 11
-57.1641698549
 21
12.3000761524
  0
LINE
  5
4A9
100
AcDbEntity
  8
RACCORDO
100
AcDbLine
 62
7
  6
CONTINUOUS
 10
-57.1641698549
 20
12.8
 11
-48.6554436517
 21
12.9485203683
  0
LINE
  5
4AA
100
AcDbEntity
  8
RACCORDO
100
AcDbLine
 62
250
  6
CONTINUOUS
 10
-46.1641698549
 20
12.25
 11
-48.5231906328
 21
12.25
  0
LINE
  5
4AB
100
AcDbEntity
  8
RACCORDO
100
AcDbLine
 62
250
  6
CONTINUOUS
 10
-57.6554436517
 20
13.2913486316
 11
-48.6554436517
 21
13.4484442159
  0
LINE
  5
4AC
100
AcDbEntity
  8
RACCORDO
100
AcDbLine
 62
250
  6
CONTINUOUS
 10
-48.6554436517
 20
13.4484442159
 11
-48.1641698549
 21
13.4484442159
  0
LINE
  5
4AD
100
AcDbEntity
  8
DRAFT
100
AcDbLine
 62
7
  6
CONTINUOUS
 10
-47.9746370461
 20
14.9900670064
 11
-46.448469068
 21
14.9100839318
  0
LINE
  5
4AE
100
AcDbEntity
  8
TRASH
100
AcDbLine
 62
7
  6
CONTINUOUS
 10
-66.014674371
 20
-22.2
 11
-64.5202403566
 21
-21.6560705017
  0
LWPOLYLINE
  5
4AF
100
AcDbEntity
  8
RACCORDO
100
AcDbPolyline
 62
250
  6
CONTINUOUS
 90
25
 70
0
 10
-61.8879288291
 20
17.495178195
 10
-61.9194482922
 20
17.4951236341
 10
-61.951577601
 20
17.4939266363
 10
-61.9843156912
 20
17.4916720548
 10
-62.0178098302
 20
17.488448253
 10
-62.0519104366
 20
17.4843362435
 10
-62.0861711368
 20
17.479406885
 10
-62.1205240861
 20
17.4737443426
 10
-62.1550346734
 20
17.4674232486
 10
-62.1894565566
 20
17.4604872222
 10
-62.2237825512
 20
17.4529956222
 10
-62.2580177192
 20
17.445017721
 10
-62.2919343124
 20
17.4365981812
 10
-62.3255241125
 20
17.4277897451
 10
-62.3587933473
 20
17.4186515369
 10
-62.3915360171
 20
17.4092317523
 10
-62.423743702
 20
17.3995774767
 10
-62.4554229259
 20
17.3897403424
 10
-62.4863901107
 20
17.3797729309
 10
-62.5166346117
 20
17.3697179049
 10
-62.5461652668
 20
17.3596196601
 10
-62.5748276991
 20
17.3495324034
 10
-62.6025698683
 20
17.3394999737
 10
-62.6294421151
 20
17.3295542122
 10
-62.6554436484
 20
17.3197291113
  0
LINE
  5
4B0
100
AcDbEntity
  8
RACCORDO
100
AcDbLine
 62
250
  6
CONTINUOUS
 10
-48.6554436517
 20
15.9764680899
 11
-48.1641698549
 21
15.9764680899
  0
LINE
  5
4B1
100
AcDbEntity
  8
RACCORDO
100
AcDbLine
 62
250
  6
CONTINUOUS
 10
-72.1641698549
 20
17.359429382
 11
-61.4267664958
 21
17.2981341874
  0
LINE
  5
4B2
100
AcDbEntity
  8
RACCORDO
100
AcDbLine
 62
250
  6
CONTINUOUS
 10
-72.1641698549
 20
16.1196592268
 11
-48.6554436517
 21
15.9764680899
  0
LINE
  5
4B3
100
AcDbEntity
  8
RACCORDO
100
AcDbLine
 62
7
  6
CONTINUOUS
 10
-48.6554436517
 20
17.264204307
 11
-61.8879288291
 21
17.495178195
  0
LINE
  5
4B4
100
AcDbEntity
  8
RACCORDO
100
AcDbLine
 62
250
  6
CONTINUOUS
 10
-61.4267664958
 20
17.2981341874
 11
-62.6554436517
 21
17.3197291113
  0
LINE
  5
4B5
100
AcDbEntity
  8
RACCORDO
100
AcDbLine
 62
250
  6
CONTINUOUS
 10
-48.6551358961
 20
17.0268826905
 11
-61.426766498
 21
17.2981341878
  0
LWPOLYLINE
  5
4B6
100
AcDbEntity
  8
RACCORDO
100
AcDbPolyline
 62
250
  6
CONTINUOUS
 90
16
 70
0
 10
-48.6551379361
 20
17.0268827122
 10
-48.6036864154
 20
17.0243264923
 10
-48.5525980977
 20
17.0197652693
 10
-48.5025867796
 20
17.0128316151
 10
-48.4544556694
 20
17.0028633225
 10
-48.4086975998
 20
16.9899757421
 10
-48.365553424
 20
16.9750032673
 10
-48.3256040759
 20
16.9576533726
 10
-48.2893823805
 20
16.9378732307
 10
-48.2570997321
 20
16.9167342164
 10
-48.229203902
 20
16.89388107
 10
-48.2060715886
 20
16.8692901104
 10
-48.1878237755
 20
16.8442241534
 10
-48.1746639465
 20
16.8187862686
 10
-48.1667778075
 20
16.7922059806
 10
-48.1641698549
 20
16.7642804594
  0
LWPOLYLINE
  5
4B7
100
AcDbEntity
  8
RACCORDO
100
AcDbPolyline
 62
250
  6
CONTINUOUS
 90
7
 70
0
 10
-62.5029843841
 20
19.4234983707
 10
-62.4548545338
 20
19.4100673031
 10
-62.4089532354
 20
19.3932197409
 10
-62.3657958804
 20
19.3731418072
 10
-62.3258508057
 20
19.350051816
 10
-62.2895431018
 20
19.3241959542
 10
-62.2572672473
 20
19.2958558279
  0
LINE
  5
4B8
100
AcDbEntity
  8
TRASH
100
AcDbLine
 62
7
  6
CONTINUOUS
 10
-66.014674371
 20
22.2
 11
-64.5202403566
 21
21.6560705017
  0
LWPOLYLINE
  5
4B9
100
AcDbEntity
  8
RACCORDO
100
AcDbPolyline
 62
250
  6
CONTINUOUS
 90
4
 70
0
 10
-62.6554436517
 20
19.4420904629
 10
-62.6038179479
 20
19.4395901339
 10
-62.5528154866
 20
19.4333722406
 10
-62.5029843841
 20
19.4234983707
  0
LWPOLYLINE
  5
4BA
100
AcDbEntity
  8
0
100
AcDbPolyline
 62
250
  6
CONTINUOUS
 90
3
 70
0
 10
-81.2221588839
 20
21.0183122942
 10
-81.2179819065
 20
21.0180891254
 10
-80.7313731569
 20
20.9972959167
  0
LINE
  5
4BB
100
AcDbEntity
  8
0
100
AcDbLine
 62
250
  6
CONTINUOUS
 10
-80.2579830999
 20
21.4755923698
 11
-72.1641698549
 21
21.8997711479
  0
LINE
  5
4BC
100
AcDbEntity
  8
TRASH
100
AcDbLine
 62
7
  6
CONTINUOUS
 10
-66.014674371
 20
22.2
 11
-66.5641698549
 21
22.2
  0
LINE
  5
4BD
100
AcDbEntity
  8
TRASH
100
AcDbLine
 62
7
  6
CONTINUOUS
 10
-68.1641698549
 20
22.6298666026
 11
-69.4874605295
 21
22.6399073311
  0
LINE
  5
4BE
100
AcDbEntity
  8
TRASH
100
AcDbLine
 62
7
  6
CONTINUOUS
 10
-69.4874605295
 20
22.6399073311
 11
-70.8208269666
 21
22.6510296289
  0
LINE
  5
4BF
100
AcDbEntity
  8
TRASH
100
AcDbLine
 62
7
  6
CONTINUOUS
 10
-70.8208269666
 20
22.6510296289
 11
-72.1641698549
 21
22.663166622
  0
LINE
  5
4C0
100
AcDbEntity
  8
RACCORDO
100
AcDbLine
 62
7
  6
CONTINUOUS
 10
-67.9676603362
 20
21.1965699136
 11
-64.193315057
 21
21.1306884717
  0
LINE
  5
4C1
100
AcDbEntity
  8
RACCORDO
100
AcDbLine
 62
250
  6
CONTINUOUS
 10
-67.9676603355
 20
21.0738952237
 11
-64.1933607098
 21
21.0077191893
  0
LINE
  5
4C2
100
AcDbEntity
  8
TRASH
100
AcDbLine
 62
250
  6
CONTINUOUS
 10
-68.1641698549
 20
23.2631073612
 11
-72.1641698549
 21
23.3333596581
  0
LINE
  5
4C3
100
AcDbEntity
  8
TRASH
100
AcDbLine
 62
7
  6
CONTINUOUS
 10
-70.3752593148
 20
23.145153565
 11
-72.1641698549
 21
23.1799085618
  0
LWPOLYLINE
  5
4C4
100
AcDbEntity
  8
TRASH
100
AcDbPolyline
 62
7
  6
CONTINUOUS
 90
3
 70
0
 10
-68.1641698549
 20
23.0998904748
 10
-68.6041472173
 20
23.1091095472
 10
-70.3752593148
 20
23.145153565
  0
LINE
  5
4C5
100
AcDbEntity
  8
0
100
AcDbLine
 62
7
  6
CONTINUOUS
 10
-80.2754248748
 20
21.9749071372
 11
-72.1641698549
 21
22.4
  0
LINE
  5
4C6
100
AcDbEntity
  8
TRASH
100
AcDbLine
 62
7
  6
CONTINUOUS
 10
-68.1641698549
 20
23.4301797403
 11
-72.1641698549
 21
23.5
  0
LWPOLYLINE
  5
4C7
100
AcDbEntity
  8
0
100
AcDbPolyline
 62
7
  6
CONTINUOUS
 90
7
 70
0
 43
0.3500000006
 10
-60.0213135223
 20
34.2500010681
 10
-61.5213139801
 20
34.2500010681
 10
-60.0213135223
 20
36.3928549805
 10
-60.0213135223
 20
36.8214284821
 10
-60.4498824921
 20
37.2500019836
 10
-61.0927404785
 20
37.2500019836
 10
-61.5213139801
 20
36.6071439972
  0
LWPOLYLINE
  5
4C8
100
AcDbEntity
  8
0
100
AcDbPolyline
 62
7
  6
CONTINUOUS
 90
6
 70
0
 43
0.3500000006
 10
-67.9856003723
 20
42.2499989777
 10
-66.9141688843
 20
42.2499989777
 10
-66.6998843994
 20
42.4642834625
 10
-66.6998843994
 20
43.5357149506
 10
-67.1284533691
 20
43.9642839203
 10
-67.5570268707
 20
43.9642839203
  0
LWPOLYLINE
  5
4C9
100
AcDbEntity
  8
0
100
AcDbPolyline
 62
7
  6
CONTINUOUS
 90
8
 70
0
 43
0.3500000006
 10
-65.8427419281
 20
42.2499989777
 10
-64.9855994568
 20
42.2499989777
 10
-64.5570259552
 20
42.6785724792
 10
-64.5570259552
 20
43.5357149506
 10
-64.9855994568
 20
43.9642839203
 10
-65.8427419281
 20
43.9642839203
 10
-65.8427419281
 20
45.2499998932
 10
-64.5570259552
 20
45.2499998932
  0
LWPOLYLINE
  5
4CA
100
AcDbEntity
  8
0
100
AcDbPolyline
 62
7
  6
CONTINUOUS
 90
8
 70
0
 43
0.3500000006
 10
-61.9855985413
 20
42.2499989777
 10
-61.1284560699
 20
42.2499989777
 10
-60.6998825684
 20
42.6785724792
 10
-60.6998825684
 20
43.5357149506
 10
-61.1284560699
 20
43.9642839203
 10
-61.9855985413
 20
43.9642839203
 10
-61.9855985413
 20
45.2499998932
 10
-60.6998825684
 20
45.2499998932
  0
ARC
  5
4CB
100
AcDbEntity
  8
TRASH
100
AcDbCircle
 62
7
  6
CONTINUOUS
 10
-11.25
 20
0.0
 40
28.0
100
AcDbArc
 50
125.9627651514
 51
126.8614108133
  0
ARC
  5
4CC
100
AcDbEntity
  8
TRASH
100
AcDbCircle
 62
7
  6
CONTINUOUS
 10
-11.25
 20
0.0
 40
28.0
100
AcDbArc
 50
123.5572123136
 51
124.1210936517
  0
ARC
  5
4CD
100
AcDbEntity
  8
TRASH
100
AcDbCircle
 62
7
  6
CONTINUOUS
 10
-33.75
 20
0.0
 40
28.0
100
AcDbArc
 50
55.8789063483
 51
56.4427876864
  0
ARC
  5
4CE
100
AcDbEntity
  8
TRASH
100
AcDbCircle
 62
7
  6
CONTINUOUS
 10
-33.75
 20
0.0
 40
28.0
100
AcDbArc
 50
53.1306352597
 51
54.0372348486
  0
ARC
  5
4CF
100
AcDbEntity
  8
TRASH
100
AcDbCircle
 62
7
  6
CONTINUOUS
 10
33.75
 20
0.0
 40
28.0
100
AcDbArc
 50
125.9627651514
 51
126.8693647403
  0
ARC
  5
4D0
100
AcDbEntity
  8
TRASH
100
AcDbCircle
 62
7
  6
CONTINUOUS
 10
33.75
 20
0.0
 40
28.0
100
AcDbArc
 50
123.5572123136
 51
124.1210936517
  0
ARC
  5
4D1
100
AcDbEntity
  8
TRASH
100
AcDbCircle
 62
7
  6
CONTINUOUS
 10
11.25
 20
0.0
 40
28.0
100
AcDbArc
 50
55.8789063483
 51
56.4427876864
  0
ARC
  5
4D2
100
AcDbEntity
  8
TRASH
100
AcDbCircle
 62
7
  6
CONTINUOUS
 10
11.25
 20
0.0
 40
28.0
100
AcDbArc
 50
53.1385891867
 51
54.0372348486
  0
ARC
  5
4D3
100
AcDbEntity
  8
TRASH
100
AcDbCircle
 62
7
  6
CONTINUOUS
 10
11.25
 20
0.0
 40
28.0
100
AcDbArc
 50
305.9627651514
 51
306.8614108133
  0
ARC
  5
4D4
100
AcDbEntity
  8
TRASH
100
AcDbCircle
 62
7
  6
CONTINUOUS
 10
11.25
 20
0.0
 40
28.0
100
AcDbArc
 50
303.5572123136
 51
304.1210936517
  0
ARC
  5
4D5
100
AcDbEntity
  8
TRASH
100
AcDbCircle
 62
7
  6
CONTINUOUS
 10
33.75
 20
0.0
 40
28.0
100
AcDbArc
 50
235.8789063483
 51
236.4427876864
  0
ARC
  5
4D6
100
AcDbEntity
  8
TRASH
100
AcDbCircle
 62
7
  6
CONTINUOUS
 10
33.75
 20
0.0
 40
28.0
100
AcDbArc
 50
233.1306352597
 51
234.0372348486
  0
ARC
  5
4D7
100
AcDbEntity
  8
TRASH
100
AcDbCircle
 62
7
  6
CONTINUOUS
 10
-33.75
 20
0.0
 40
28.0
100
AcDbArc
 50
305.9627651514
 51
306.8693647403
  0
ARC
  5
4D8
100
AcDbEntity
  8
TRASH
100
AcDbCircle
 62
7
  6
CONTINUOUS
 10
-33.75
 20
0.0
 40
28.0
100
AcDbArc
 50
303.5572123136
 51
304.1210936517
  0
ARC
  5
4D9
100
AcDbEntity
  8
TRASH
100
AcDbCircle
 62
7
  6
CONTINUOUS
 10
-11.25
 20
0.0
 40
28.0
100
AcDbArc
 50
235.8789063483
 51
236.4427876864
  0
ARC
  5
4DA
100
AcDbEntity
  8
TRASH
100
AcDbCircle
 62
7
  6
CONTINUOUS
 10
-11.25
 20
0.0
 40
28.0
100
AcDbArc
 50
233.1385891867
 51
234.0372348486
  0
ARC
  5
4DB
100
AcDbEntity
  8
RACCORDO
100
AcDbCircle
 62
7
  6
CONTINUOUS
 10
-27.9
 20
-0.0
 40
2.7
100
AcDbArc
 50
270.0
 51
90.0
  0
ARC
  5
4DC
100
AcDbEntity
  8
RACCORDO
100
AcDbCircle
 62
7
  6
CONTINUOUS
 10
14.1
 20
-0.0
 40
2.7
100
AcDbArc
 50
270.0
 51
90.0
  0
ARC
  5
4DD
100
AcDbEntity
  8
0
100
AcDbCircle
 62
7
  6
CONTINUOUS
 10
-26.8
 20
2.6231564559
 40
1.7
100
AcDbArc
 50
249.8442919957
 51
255.5015598151
  0
ARC
  5
4DE
100
AcDbEntity
  8
0
100
AcDbCircle
 62
7
  6
CONTINUOUS
 10
-26.8
 20
2.6231564559
 40
1.7
100
AcDbArc
 50
284.5113303336
 51
290.1782710151
  0
ARC
  5
4DF
100
AcDbEntity
  8
0
100
AcDbCircle
 62
7
  6
CONTINUOUS
 10
15.2
 20
2.6231564559
 40
1.7
100
AcDbArc
 50
249.8442919957
 51
255.5015598151
  0
ARC
  5
4E0
100
AcDbEntity
  8
0
100
AcDbCircle
 62
7
  6
CONTINUOUS
 10
15.2
 20
2.6231564559
 40
1.7
100
AcDbArc
 50
284.5113303336
 51
290.1782710151
  0
ARC
  5
4E1
100
AcDbEntity
  8
TRASH
100
AcDbCircle
 62
7
  6
CONTINUOUS
 10
17.55
 20
-23.1
 40
0.5
100
AcDbArc
 50
350.803718421
 51
119.112422776
  0
ARC
  5
4E2
100
AcDbEntity
  8
TRASH
100
AcDbCircle
 62
7
  6
CONTINUOUS
 10
27.45
 20
-23.1
 40
0.5
100
AcDbArc
 50
60.887577224
 51
189.196281579
  0
ARC
  5
4E3
100
AcDbEntity
  8
TRASH
100
AcDbCircle
 62
7
  6
CONTINUOUS
 10
-17.55
 20
-23.1
 40
0.5
100
AcDbArc
 50
60.887577224
 51
189.196281579
  0
ARC
  5
4E4
100
AcDbEntity
  8
TRASH
100
AcDbCircle
 62
7
  6
CONTINUOUS
 10
-27.45
 20
-23.1
 40
0.5
100
AcDbArc
 50
350.803718421
 51
119.112422776
  0
ARC
  5
4E5
100
AcDbEntity
  8
TRASH
100
AcDbCircle
 62
7
  6
CONTINUOUS
 10
17.55
 20
23.1
 40
0.5
100
AcDbArc
 50
240.887577224
 51
9.196281579
  0
ARC
  5
4E6
100
AcDbEntity
  8
TRASH
100
AcDbCircle
 62
7
  6
CONTINUOUS
 10
27.45
 20
23.1
 40
0.5
100
AcDbArc
 50
170.803718421
 51
299.112422776
  0
ARC
  5
4E7
100
AcDbEntity
  8
TRASH
100
AcDbCircle
 62
7
  6
CONTINUOUS
 10
-17.55
 20
23.1
 40
0.5
100
AcDbArc
 50
170.803718421
 51
299.112422776
  0
ARC
  5
4E8
100
AcDbEntity
  8
TRASH
100
AcDbCircle
 62
7
  6
CONTINUOUS
 10
-27.45
 20
23.1
 40
0.5
100
AcDbArc
 50
240.887577224
 51
9.196281579
  0
ARC
  5
4E9
100
AcDbEntity
  8
0
100
AcDbCircle
 62
7
  6
CONTINUOUS
 10
-80.2230889186
 20
-20.9762776025
 40
1.0
100
AcDbArc
 50
182.4092313014
 51
267.0
  0
ARC
  5
4EA
100
AcDbEntity
  8
RACCORDO
100
AcDbCircle
 62
7
  6
CONTINUOUS
 10
-62.6641698549
 20
-19.0928932188
 40
0.5
100
AcDbArc
 50
315.0
 51
360.0
  0
ARC
  5
4EB
100
AcDbEntity
  8
RACCORDO
100
AcDbCircle
 62
7
  6
CONTINUOUS
 10
-64.2020412602
 20
-20.6307646241
 40
0.5
100
AcDbArc
 50
271.0
 51
315.0
  0
ARC
  5
4EC
100
AcDbEntity
  8
RACCORDO
100
AcDbCircle
 62
7
  6
CONTINUOUS
 10
-48.6641698549
 20
-16.7642804594
 40
0.5
100
AcDbArc
 50
271.0
 51
360.0
  0
ARC
  5
4ED
100
AcDbEntity
  8
RACCORDO
100
AcDbCircle
 62
7
  6
CONTINUOUS
 10
-61.6641698549
 20
-17.9913483535
 40
0.499999861
100
AcDbArc
 50
91.0000005561
 51
180.0
  0
ARC
  5
4EE
100
AcDbEntity
  8
RACCORDO
100
AcDbCircle
 62
7
  6
CONTINUOUS
 10
-46.4641698549
 20
-14.6104950714
 40
0.3
100
AcDbArc
 50
273.0
 51
360.0
  0
ARC
  5
4EF
100
AcDbEntity
  8
RACCORDO
100
AcDbCircle
 62
7
  6
CONTINUOUS
 10
-47.9641698549
 20
-15.1897929133
 40
0.2
100
AcDbArc
 50
93.0
 51
180.0
  0
ARC
  5
4F0
100
AcDbEntity
  8
RACCORDO
100
AcDbCircle
 62
7
  6
CONTINUOUS
 10
-67.9641698549
 20
-21.3965394526
 40
0.2
100
AcDbArc
 50
91.0
 51
180.0
  0
ARC
  5
4F1
100
AcDbEntity
  8
RACCORDO
100
AcDbCircle
 62
7
  6
CONTINUOUS
 10
-46.3641698549
 20
-3.4685504175
 40
0.2
100
AcDbArc
 50
271.0000000168
 51
360.0
  0
ARC
  5
4F2
100
AcDbEntity
  8
RACCORDO
100
AcDbCircle
 62
7
  6
CONTINUOUS
 10
-46.3641698549
 20
-5.3314495825
 40
0.2
100
AcDbArc
 50
0.0
 51
88.9999999831
  0
ARC
  5
4F3
100
AcDbEntity
  8
RACCORDO
100
AcDbCircle
 62
7
  6
CONTINUOUS
 10
-46.3641698549
 20
-10.8685504175
 40
0.2
100
AcDbArc
 50
271.0000000168
 51
360.0
  0
ARC
  5
4F4
100
AcDbEntity
  8
0
100
AcDbCircle
 62
7
  6
CONTINUOUS
 10
-80.2230889186
 20
20.9762776025
 40
1.0
100
AcDbArc
 50
93.0
 51
177.5907686986
  0
ARC
  5
4F5
100
AcDbEntity
  8
RACCORDO
100
AcDbCircle
 62
7
  6
CONTINUOUS
 10
-62.6641698549
 20
19.0928932188
 40
0.5
100
AcDbArc
 50
1.4475397873
 51
45.0
  0
ARC
  5
4F6
100
AcDbEntity
  8
RACCORDO
100
AcDbCircle
 62
7
  6
CONTINUOUS
 10
-48.6641698549
 20
3.1515557841
 40
0.5
100
AcDbArc
 50
0.0
 51
89.0
  0
ARC
  5
4F7
100
AcDbEntity
  8
RACCORDO
100
AcDbCircle
 62
7
  6
CONTINUOUS
 10
-48.6641698549
 20
13.4484442159
 40
0.5
100
AcDbArc
 50
271.0
 51
360.0
  0
ARC
  5
4F8
100
AcDbEntity
  8
RACCORDO
100
AcDbCircle
 62
7
  6
CONTINUOUS
 10
-64.2020412602
 20
20.6307646241
 40
0.5
100
AcDbArc
 50
45.0
 51
89.0
  0
ARC
  5
4F9
100
AcDbEntity
  8
RACCORDO
100
AcDbCircle
 62
7
  6
CONTINUOUS
 10
-48.6641698549
 20
16.7642804594
 40
0.5
100
AcDbArc
 50
0.0
 51
89.0
  0
ARC
  5
4FA
100
AcDbEntity
  8
RACCORDO
100
AcDbCircle
 62
7
  6
CONTINUOUS
 10
-61.6641702463
 20
17.9913486384
 40
0.4999998043
100
AcDbArc
 50
180.0000007829
 51
269.000044857
  0
ARC
  5
4FB
100
AcDbEntity
  8
RACCORDO
100
AcDbCircle
 62
7
  6
CONTINUOUS
 10
-46.4641698549
 20
14.6104950714
 40
0.3
100
AcDbArc
 50
0.0
 51
87.0
  0
ARC
  5
4FC
100
AcDbEntity
  8
RACCORDO
100
AcDbCircle
 62
7
  6
CONTINUOUS
 10
-46.4641698549
 20
7.7895049286
 40
0.3
100
AcDbArc
 50
273.0
 51
360.0
  0
ARC
  5
4FD
100
AcDbEntity
  8
RACCORDO
100
AcDbCircle
 62
7
  6
CONTINUOUS
 10
-47.9641698549
 20
7.2102070867
 40
0.2
100
AcDbArc
 50
93.0
 51
180.0
  0
ARC
  5
4FE
100
AcDbEntity
  8
RACCORDO
100
AcDbCircle
 62
7
  6
CONTINUOUS
 10
-47.9641698549
 20
15.1897929133
 40
0.2
100
AcDbArc
 50
180.0
 51
267.0
  0
ARC
  5
4FF
100
AcDbEntity
  8
RACCORDO
100
AcDbCircle
 62
7
  6
CONTINUOUS
 10
-67.9641698549
 20
21.3965394526
 40
0.2
100
AcDbArc
 50
180.0
 51
269.0
  0
ARC
  5
500
100
AcDbEntity
  8
RACCORDO
100
AcDbCircle
 62
7
  6
CONTINUOUS
 10
-46.3641698549
 20
5.3314495825
 40
0.2
100
AcDbArc
 50
271.0000000169
 51
360.0
  0
ARC
  5
501
100
AcDbEntity
  8
RACCORDO
100
AcDbCircle
 62
7
  6
CONTINUOUS
 10
-46.3641698549
 20
2.0685504175
 40
0.2
100
AcDbArc
 50
0.0
 51
88.9999999831
  0
ARC
  5
502
100
AcDbEntity
  8
RACCORDO
100
AcDbCircle
 62
7
  6
CONTINUOUS
 10
418.3358301451
 20
0.0
 40
500.0
100
AcDbArc
 50
179.1113466186
 51
179.1956123992
  0
ARC
  5
503
100
AcDbEntity
  8
RACCORDO
100
AcDbCircle
 62
7
  6
CONTINUOUS
 10
418.3358301451
 20
0.0
 40
500.0
100
AcDbArc
 50
179.1981824936
 51
179.4324219588
  0
ARC
  5
504
100
AcDbEntity
  8
RACCORDO
100
AcDbCircle
 62
7
  6
CONTINUOUS
 10
418.3358301451
 20
0.0
 40
500.0
100
AcDbArc
 50
180.8043876009
 51
180.8886533814
  0
ARC
  5
505
100
AcDbEntity
  8
RACCORDO
100
AcDbCircle
 62
7
  6
CONTINUOUS
 10
418.3358301451
 20
0.0
 40
500.0
100
AcDbArc
 50
180.6746031546
 51
180.8018175065
  0
ARC
  5
506
100
AcDbEntity
  8
RACCORDO
100
AcDbCircle
 62
7
  6
CONTINUOUS
 10
418.3358301451
 20
-0.0
 40
500.0
100
AcDbArc
 50
179.6560168679
 51
180.2677681591
  0
ARC
  5
507
100
AcDbEntity
  8
0
100
AcDbCircle
 62
7
  6
CONTINUOUS
 10
418.3358301451
 20
0.0
 40
500.0
100
AcDbArc
 50
177.5907686986
 51
182.4092313014
  0
ELLIPSE
  5
508
100
AcDbEntity
  8
0
100
AcDbEllipse
 62
7
  6
CONTINUOUS
 10
33.149923836
 20
-21.899313827
 30
0.0
 11
-0.1582391023
 21
0.4751033573
 31
0.0
 40
0.9984778551
 41
-3.4626430041
 42
-1.8927600658
  0
ELLIPSE
  5
509
100
AcDbEntity
  8
0
100
AcDbEllipse
 62
7
  6
CONTINUOUS
 10
33.149923836
 20
21.899313827
 30
0.0
 11
0.1582391023
 21
0.4751033573
 31
0.0
 40
0.9984778551
 41
-1.2488325878
 42
0.3210503505
  0
ELLIPSE
  5
50A
100
AcDbEntity
  8
0
100
AcDbEllipse
 62
7
  6
CONTINUOUS
 10
-33.149923836
 20
-21.899313827
 30
0.0
 11
0.1582391023
 21
0.4751033573
 31
0.0
 40
0.9984778551
 41
-4.3904252414
 42
-2.8205423031
  0
ELLIPSE
  5
50B
100
AcDbEntity
  8
0
100
AcDbEllipse
 62
7
  6
CONTINUOUS
 10
-33.149923836
 20
21.899313827
 30
0.0
 11
-0.1582391023
 21
0.4751033573
 31
0.0
 40
0.9984778551
 41
-0.3210503505
 42
1.2488325878
  0
ENDSEC
  0
SECTION
  2
OBJECTS
  0
DICTIONARY
  5
C
100
AcDbDictionary
280
0
281
1
  3
ACAD_GROUP
350
D
  3
ACAD_MLINESTYLE
350
17
  3
ACAD_LAYOUT
350
1A
  3
ACAD_PLOTSETTINGS
350
19
  3
ACAD_PLOTSTYLENAME
350
E
  0
DICTIONARY
  5
D
102
{ACAD_REACTORS
330
C
102
}
100
AcDbDictionary
280
0
281
1
  0
ACDBDICTIONARYWDFLT
  5
E
102
{ACAD_REACTORS
330
C
102
}
100
AcDbDictionary
281
1
  3
Normal
350
F
100
AcDbDictionaryWithDefault
340
F
  0
DICTIONARY
  5
17
102
{ACAD_REACTORS
330
C
102
}
100
AcDbDictionary
280
0
281
1
  3
Standard
350
18
  0
DICTIONARY
  5
19
102
{ACAD_REACTORS
330
C
102
}
100
AcDbDictionary
281
1
  0
DICTIONARY
  5
1A
102
{ACAD_REACTORS
330
C
102
}
100
AcDbDictionary
281
1
  3
Model
350
50C
  3
Layout1
350
50D
  0
ACDBPLACEHOLDER
  5
F
102
{ACAD_REACTORS
330
E
102
}
  0
MLINESTYLE
  5
18
102
{ACAD_REACTORS
330
17
102
}
100
AcDbMlineStyle
  2
STANDARD
 70
0
  3

 62
256
 51
90.0
 52
90.0
 71
2
 49
0.5
 62
256
  6
BYLAYER
 49
-0.5
 62
256
  6
BYLAYER
  0
LAYOUT
  5
50C
102
{ACAD_REACTORS
330
1A
102
}
100
AcDbPlotSettings
  1

  2
none_device
  4
ISO_A4_(297.00_x_210.00_MM)
  6

 40
0.0
 41
0.0
 42
0.0
 43
0.0
 44
297.0
 45
210.0
 46
0.0
 47
0.0
 48
0.0
 49
0.0
140
0.0
141
0.0
142
1.0
143
1.0
 70
1024
 72
1
 73
0
 74
0
  7

 75
0
147
1.0
148
0.0
149
0.0
100
AcDbLayout
  1
Model
 70
0
 71
0
 10
0.0
 20
0.0
 11
297.0
 21
210.0
 12
0.0
 22
0.0
 32
0.0
 14
0.0
 24
0.0
 34
0.0
 15
0.0
 25
0.0
 35
0.0
146
0.0
 13
0.0
 23
0.0
 33
0.0
 16
1.0
 26
0.0
 36
0.0
 17
0.0
 27
1.0
 37
0.0
 76
0
330
215
345
0
346
0
  0
LAYOUT
  5
50D
102
{ACAD_REACTORS
330
1A
102
}
100
AcDbPlotSettings
  1

  2
none_device
  4
ISO_A4_(297.00_x_210.00_MM)
  6

 40
0.0
 41
0.0
 42
0.0
 43
0.0
 44
297.0
 45
210.0
 46
0.0
 47
0.0
 48
0.0
 49
0.0
140
0.0
141
0.0
142
1.0
143
1.0
 70
0
 72
1
 73
0
 74
0
  7

 75
0
147
1.0
148
0.0
149
0.0
100
AcDbLayout
  1
Layout1
 70
0
 71
1
 10
0.0
 20
0.0
 11
297.0
 21
210.0
 12
0.0
 22
0.0
 32
0.0
 14
0.0
 24
0.0
 34
0.0
 15
0.0
 25
0.0
 35
0.0
146
0.0
 13
0.0
 23
0.0
 33
0.0
 16
1.0
 26
0.0
 36
0.0
 17
0.0
 27
1.0
 37
0.0
 76
0
330
216
345
0
346
0
  0
ENDSEC
  0
EOF
