  0
SECTION
  2
HEADER
  9
$ACADVER
  1
AC1024
  9
$DWGCODEPAGE
  3
ANSI_1252
  9
$EXTMAX
 10
297.0
 20
210.0
 30
0.0
  9
$EXTMIN
 10
0.0
 20
0.0
 30
0.0
  9
$LIMMIN
 10
0.0
 20
0.0
  9
$LIMMAX
 10
297.0
 20
210.0
  9
$VIEWCTR
 10
148.5
 20
105.0
  9
$VIEWSIZE
 40
210.0
  9
$CLAYER
  8
0
  9
$LTSCALE
 40
16.335
  9
$CELTYPE
  6
BYLAYER
  9
$DIMSCALE
 40
1.0
  9
$DIMASZ
 40
3.0
  9
$DIMEXO
 40
0.5
  9
$DIMDLI
 40
11.286
  9
$DIMEXE
 40
1.5
  9
$DIMCEN
 40
2.673
  9
$DIMLFAC
 40
1.0
  9
$DIMBLK
  1
_FILLED
  9
$DIMALT
 70
0
  9
$DIMALTF
 40
0.0393700787
  9
$DIMTXT
 40
3.0
  9
$DIMTOL
 70
1
  9
$DIMLIM
 70
0
  9
$DIMTFAC
 40
1.0
  9
$DIMTP
 40
0.01
  9
$DIMTM
 40
0.01
  9
$DIMGAP
 40
0.625
  9
$DIMDSEP
 70
44
  9
$AUNITS
 70
0
  9
$PDMODE
 70
3
  9
$PDSIZE
 40
3.0
  9
$HANDSEED
  5
55A
  9
$TILEMODE
 70
1
  9
$MEASUREMENT
 70
1
  9
$INSUNITS
 70
4
  0
ENDSEC
  0
SECTION
  2
CLASSES
  0
CLASS
  1
ACDBDICTIONARYWDFLT
  2
AcDbDictionaryWithDefault
  3
AutoCAD 2000
 90
0
 91
1
280
0
281
0
  0
CLASS
  1
ACDBPLACEHOLDER
  2
AcDbPlaceHolder
  3
AutoCAD 2000
 90
0
 91
1
280
0
281
0
  0
CLASS
  1
LAYOUT
  2
AcDbLayout
  3
AutoCAD 2000
 90
0
 91
0
280
0
281
0
  0
ENDSEC
  0
SECTION
  2
TABLES
  0
TABLE
  2
VPORT
  5
8
100
AcDbSymbolTable
 70
2
  0
VPORT
  5
1F4
100
AcDbSymbolTableRecord
100
AcDbViewportTableRecord
  2
*ACTIVE
 70
0
 10
0.0
 20
0.0
 11
1.0
 21
1.0
 12
148.5
 22
105.0
 13
0.0
 23
0.0
 14
1.0
 24
1.0
 15
0.0
 25
0.0
 16
0.0
 26
0.0
 36
1.0
 17
0.0
 27
0.0
 37
0.0
 40
210.0
 41
1.4142857143
 42
50.0
 43
0.0
 44
0.0
 50
0.0
 51
0.0
 71
0
 72
100
 73
1
 74
1
 75
0
 76
0
 77
0
 78
0
  0
ENDTAB
  0
TABLE
  2
LTYPE
  5
5
100
AcDbSymbolTable
 70
6
  0
LTYPE
  5
14
100
AcDbSymbolTableRecord
100
AcDbLinetypeTableRecord
  2
BYBLOCK
 70
0
  3

 72
65
 73
0
 40
0.0
  0
LTYPE
  5
15
100
AcDbSymbolTableRecord
100
AcDbLinetypeTableRecord
  2
BYLAYER
 70
0
  3

 72
65
 73
0
 40
0.0
  0
LTYPE
  5
16
100
AcDbSymbolTableRecord
100
AcDbLinetypeTableRecord
  2
CONTINUOUS
 70
64
  3
Solid line
 72
65
 73
0
 40
0.0
  0
LTYPE
  5
1F5
100
AcDbSymbolTableRecord
100
AcDbLinetypeTableRecord
  2
CENTER
 70
64
  3
____ _ ____ _ ____ _ ____ _ ____ _ ____ _ ____
 72
65
 73
4
 40
0.6
 49
0.375
 74
0
 49
-0.075
 74
0
 49
0.075
 74
0
 49
-0.075
 74
0
  0
LTYPE
  5
1F6
100
AcDbSymbolTableRecord
100
AcDbLinetypeTableRecord
  2
HIDDEN
 70
64
  3
- - - - - - - - - - - - - - - - - - - -
 72
65
 73
2
 40
0.2
 49
0.1
 74
0
 49
-0.1
 74
0
  0
LTYPE
  5
1F7
100
AcDbSymbolTableRecord
100
AcDbLinetypeTableRecord
  2
PHANTOM
 70
64
  3
_____ _ _ _____ _ _ _____ _ _ _____
 72
65
 73
6
 40
0.8
 49
0.45
 74
0
 49
-0.05
 74
0
 49
0.1
 74
0
 49
-0.05
 74
0
 49
0.1
 74
0
 49
-0.05
 74
0
  0
LTYPE
  5
1F8
100
AcDbSymbolTableRecord
100
AcDbLinetypeTableRecord
  2
DOT
 70
64
  3
. . . . . . . . . . . . . . . . . . . .
 72
65
 73
2
 40
0.2
 49
0.1
 74
0
 49
-0.1
 74
0
  0
LTYPE
  5
1F9
100
AcDbSymbolTableRecord
100
AcDbLinetypeTableRecord
  2
DASHED
 70
64
  3
- - - - - - - - - - - - - - - - - - - -
 72
65
 73
2
 40
0.2
 49
0.1
 74
0
 49
-0.1
 74
0
  0
ENDTAB
  0
TABLE
  2
LAYER
  5
2
100
AcDbSymbolTable
 70
36
  0
LAYER
  5
10
100
AcDbSymbolTableRecord
100
AcDbLayerTableRecord
  2
0
 70
0
 62
7
  6
CONTINUOUS
370
-3
390
F
  0
LAYER
  5
1FA
100
AcDbSymbolTableRecord
100
AcDbLayerTableRecord
  2
DEFAULT_1
 70
0
 62
7
  6
CENTER
370
-3
390
F
  0
LAYER
  5
1FB
100
AcDbSymbolTableRecord
100
AcDbLayerTableRecord
  2
DEFAULT_2
 70
0
 62
7
  6
HIDDEN
370
-3
390
F
  0
LAYER
  5
1FC
100
AcDbSymbolTableRecord
100
AcDbLayerTableRecord
  2
DEFAULT_3
 70
0
 62
7
  6
PHANTOM
370
-3
390
F
  0
LAYER
  5
1FD
100
AcDbSymbolTableRecord
100
AcDbLayerTableRecord
  2
ASSI
 70
0
 62
7
  6
CONTINUOUS
370
-3
390
F
  0
LAYER
  5
1FE
100
AcDbSymbolTableRecord
100
AcDbLayerTableRecord
  2
COORDINATE
 70
0
 62
7
  6
CONTINUOUS
370
-3
390
F
  0
LAYER
  5
1FF
100
AcDbSymbolTableRecord
100
AcDbLayerTableRecord
  2
COORD_ORIGINE
 70
0
 62
7
  6
CONTINUOUS
370
-3
390
F
  0
LAYER
  5
200
100
AcDbSymbolTableRecord
100
AcDbLayerTableRecord
  2
COPY_PUBLISH
 70
0
 62
7
  6
CONTINUOUS
370
-3
390
F
  0
LAYER
  5
201
100
AcDbSymbolTableRecord
100
AcDbLayerTableRecord
  2
COSMETIC
 70
0
 62
7
  6
CONTINUOUS
370
-3
390
F
  0
LAYER
  5
202
100
AcDbSymbolTableRecord
100
AcDbLayerTableRecord
  2
COSMETICHE
 70
0
 62
7
  6
CONTINUOUS
370
-3
390
F
  0
LAYER
  5
203
100
AcDbSymbolTableRecord
100
AcDbLayerTableRecord
  2
COSMETICI
 70
0
 62
7
  6
CONTINUOUS
370
-3
390
F
  0
LAYER
  5
204
100
AcDbSymbolTableRecord
100
AcDbLayerTableRecord
  2
CURVE
 70
0
 62
7
  6
CONTINUOUS
370
-3
390
F
  0
LAYER
  5
205
100
AcDbSymbolTableRecord
100
AcDbLayerTableRecord
  2
DRAFT
 70
0
 62
7
  6
CONTINUOUS
370
-3
390
F
  0
LAYER
  5
206
100
AcDbSymbolTableRecord
100
AcDbLayerTableRecord
  2
IMPORT_IGES
 70
0
 62
7
  6
CONTINUOUS
370
-3
390
F
  0
LAYER
  5
207
100
AcDbSymbolTableRecord
100
AcDbLayerTableRecord
  2
INTF_1
 70
0
 62
7
  6
CONTINUOUS
370
-3
390
F
  0
LAYER
  5
208
100
AcDbSymbolTableRecord
100
AcDbLayerTableRecord
  2
INTF_11
 70
0
 62
7
  6
CONTINUOUS
370
-3
390
F
  0
LAYER
  5
209
100
AcDbSymbolTableRecord
100
AcDbLayerTableRecord
  2
INTF_12
 70
0
 62
7
  6
CONTINUOUS
370
-3
390
F
  0
LAYER
  5
20A
100
AcDbSymbolTableRecord
100
AcDbLayerTableRecord
  2
INTF_2
 70
0
 62
7
  6
CONTINUOUS
370
-3
390
F
  0
LAYER
  5
20B
100
AcDbSymbolTableRecord
100
AcDbLayerTableRecord
  2
INTF_7
 70
0
 62
7
  6
CONTINUOUS
370
-3
390
F
  0
LAYER
  5
20C
100
AcDbSymbolTableRecord
100
AcDbLayerTableRecord
  2
INTF_9
 70
0
 62
7
  6
CONTINUOUS
370
-3
390
F
  0
LAYER
  5
20D
100
AcDbSymbolTableRecord
100
AcDbLayerTableRecord
  2
NOTE
 70
0
 62
7
  6
CONTINUOUS
370
-3
390
F
  0
LAYER
  5
20E
100
AcDbSymbolTableRecord
100
AcDbLayerTableRecord
  2
PIANI
 70
0
 62
7
  6
CONTINUOUS
370
-3
390
F
  0
LAYER
  5
20F
100
AcDbSymbolTableRecord
100
AcDbLayerTableRecord
  2
PIANI_ORIGINE
 70
0
 62
7
  6
CONTINUOUS
370
-3
390
F
  0
LAYER
  5
210
100
AcDbSymbolTableRecord
100
AcDbLayerTableRecord
  2
PIANI_SFORMI
 70
0
 62
7
  6
CONTINUOUS
370
-3
390
F
  0
LAYER
  5
211
100
AcDbSymbolTableRecord
100
AcDbLayerTableRecord
  2
PUNTI
 70
0
 62
7
  6
CONTINUOUS
370
-3
390
F
  0
LAYER
  5
212
100
AcDbSymbolTableRecord
100
AcDbLayerTableRecord
  2
RACCORDO
 70
0
 62
7
  6
CONTINUOUS
370
-3
390
F
  0
LAYER
  5
213
100
AcDbSymbolTableRecord
100
AcDbLayerTableRecord
  2
RGB__255__255__255__
 70
0
 62
7
  6
CONTINUOUS
370
-3
390
F
  0
LAYER
  5
214
100
AcDbSymbolTableRecord
100
AcDbLayerTableRecord
  2
RGB____0____0____0__
 70
0
 62
7
  6
CONTINUOUS
370
-3
390
F
  0
LAYER
  5
215
100
AcDbSymbolTableRecord
100
AcDbLayerTableRecord
  2
SMUSSO
 70
0
 62
7
  6
CONTINUOUS
370
-3
390
F
  0
LAYER
  5
216
100
AcDbSymbolTableRecord
100
AcDbLayerTableRecord
  2
SNAPLINE
 70
0
 62
7
  6
CONTINUOUS
370
-3
390
F
  0
LAYER
  5
217
100
AcDbSymbolTableRecord
100
AcDbLayerTableRecord
  2
SUPERFICI
 70
0
 62
7
  6
CONTINUOUS
370
-3
390
F
  0
LAYER
  5
218
100
AcDbSymbolTableRecord
100
AcDbLayerTableRecord
  2
TRASH
 70
0
 62
7
  6
CONTINUOUS
370
-3
390
F
  0
LAYER
  5
219
100
AcDbSymbolTableRecord
100
AcDbLayerTableRecord
  2
XSEC_DATUMS
 70
0
 62
7
  6
CONTINUOUS
370
-3
390
F
  0
ENDTAB
  0
TABLE
  2
STYLE
  5
3
100
AcDbSymbolTable
 70
1
  0
STYLE
  5
11
100
AcDbSymbolTableRecord
100
AcDbTextStyleTableRecord
  2
STANDARD
 70
0
 40
0.0
 41
0.8
 50
0.0
 71
0
 42
0.2
  3
txt
  4

  0
STYLE
  5
21A
100
AcDbSymbolTableRecord
100
AcDbTextStyleTableRecord
  2
TEXTSTYLE_1
 70
0
 40
0.0
 41
0.8
 50
0.0
 71
0
 42
0.2
  3
gdt
  4

  0
ENDTAB
  0
TABLE
  2
VIEW
  5
6
100
AcDbSymbolTable
 70
0
  0
ENDTAB
  0
TABLE
  2
UCS
  5
7
100
AcDbSymbolTable
 70
0
  0
ENDTAB
  0
TABLE
  2
APPID
  5
9
100
AcDbSymbolTable
 70
1
  0
APPID
  5
21B
100
AcDbSymbolTableRecord
100
AcDbRegAppTableRecord
  2
ACAD
 70
0
  0
ENDTAB
  0
TABLE
  2
BLOCK_RECORD
  5
1
100
AcDbSymbolTable
 70
0
  0
BLOCK_RECORD
  5
21C
100
AcDbSymbolTableRecord
100
AcDbBlockTableRecord
  2
*Model_Space
  0
BLOCK_RECORD
  5
21D
100
AcDbSymbolTableRecord
100
AcDbBlockTableRecord
  2
*Paper_Space
  0
BLOCK_RECORD
  5
21E
100
AcDbSymbolTableRecord
100
AcDbBlockTableRecord
  2
_FILLED
  0
BLOCK_RECORD
  5
21F
100
AcDbSymbolTableRecord
100
AcDbBlockTableRecord
  2
*D0
  0
BLOCK_RECORD
  5
220
100
AcDbSymbolTableRecord
100
AcDbBlockTableRecord
  2
*D1
  0
BLOCK_RECORD
  5
221
100
AcDbSymbolTableRecord
100
AcDbBlockTableRecord
  2
*D2
  0
BLOCK_RECORD
  5
222
100
AcDbSymbolTableRecord
100
AcDbBlockTableRecord
  2
*D3
  0
ENDTAB
  0
TABLE
  2
DIMSTYLE
  5
A
100
AcDbSymbolTable
 70
1
100
AcDbDimStyleTable
 71
0
  0
DIMSTYLE
105
223
100
AcDbSymbolTableRecord
100
AcDbDimStyleTableRecord
  2
STANDARD
 70
0
  3

  4

 40
1.0
 41
3.0
 42
0.5
 43
0.38
 44
1.5
 45
0.0
 46
0.0
 47
0.01
 48
0.01
140
3.0
141
0.09
142
0.0
143
25.4
144
1.0
145
0.0
146
1.0
147
0.625
 71
1
 72
0
 73
0
 74
0
 75
0
 76
0
 77
1
 78
8
 79
2
170
0
171
1
172
0
173
0
174
0
175
0
176
0
177
0
178
0
270
2
179
2
271
2
272
2
273
2
274
2
275
0
280
0
281
0
282
0
283
1
284
8
285
0
286
0
287
3
288
0
340
11
278
44
341
21E
342
21E
343
21E
344
21E
  0
DIMSTYLE
105
224
100
AcDbSymbolTableRecord
100
AcDbDimStyleTableRecord
  2
DIMSTYLE_1
 70
0
  3

  4

 40
1.0
 41
3.0
 42
0.5
 43
0.38
 44
1.5
 45
0.0
 46
0.0
 47
0.0
 48
0.0
140
3.0
141
0.09
142
0.0
143
25.4
144
1.0
145
0.0
146
1.0
147
0.75
 71
0
 72
0
 73
0
 74
0
 75
0
 76
0
 77
1
 78
8
 79
2
170
0
171
1
172
0
173
0
174
0
175
0
176
0
177
0
178
0
270
2
179
2
271
2
272
2
273
2
274
2
275
0
280
0
281
0
282
0
283
1
284
8
285
0
286
0
287
3
288
0
340
11
278
44
341
21E
342
21E
343
21E
344
21E
  0
ENDTAB
  0
ENDSEC
  0
SECTION
  2
BLOCKS
  0
BLOCK
  5
20
100
AcDbEntity
  8
0
100
AcDbBlockBegin
  2
*Model_Space
 70
0
 10
0.0
 20
0.0
 30
0.0
  3
*Model_Space
  1

  0
ENDBLK
  5
21
100
AcDbEntity
  8
0
100
AcDbBlockEnd
  0
BLOCK
  5
1C
100
AcDbEntity
  8
0
100
AcDbBlockBegin
  2
*Paper_Space
 70
0
 10
0.0
 20
0.0
 30
0.0
  3
*Paper_Space
  1

  0
ENDBLK
  5
1D
100
AcDbEntity
  8
0
100
AcDbBlockEnd
  0
BLOCK
  5
225
100
AcDbEntity
  8
0
100
AcDbBlockBegin
  2
_FILLED
 70
64
 10
0.0
 20
0.0
  3
_FILLED
  1

  0
SOLID
  5
226
100
AcDbEntity
  8
0
  6
BYBLOCK
 62
0
100
AcDbTrace
 10
0.0
 20
0.0
 11
-1.0
 21
0.3166666667
 12
-1.0
 22
-0.3166666667
 13
-1.0
 23
-0.3166666667
  0
ENDBLK
  5
227
100
AcDbEntity
  8
0
  6
BYBLOCK
 62
0
100
AcDbBlockEnd
  0
BLOCK
  5
228
100
AcDbEntity
  8
0
100
AcDbBlockBegin
 62
7
  6
CONTINUOUS
  2
*D0
 70
65
 10
0.0
 20
0.0
  3
*D0
  1

  0
LINE
  5
229
100
AcDbEntity
  8
0
100
AcDbLine
 62
7
  6
CONTINUOUS
 10
4.1748574782
 20
23.5
 11
23.3292672793
 21
23.5
  0
LINE
  5
22A
100
AcDbEntity
  8
0
100
AcDbLine
 62
7
  6
CONTINUOUS
 10
4.1748574782
 20
-23.5
 11
23.3292672793
 21
-23.5
  0
LINE
  5
22B
100
AcDbEntity
  8
0
100
AcDbLine
 62
7
  6
CONTINUOUS
 10
21.8292672793
 20
23.5
 11
21.8292672793
 21
0.0
  0
LINE
  5
22C
100
AcDbEntity
  8
0
100
AcDbLine
 62
7
  6
CONTINUOUS
 10
21.8292672793
 20
-23.5
 11
21.8292672793
 21
0.0
  0
INSERT
  5
22D
100
AcDbEntity
  8
0
100
AcDbBlockReference
 62
7
  6
CONTINUOUS
  2
_FILLED
 10
21.8292672793
 20
23.5
 41
3.0
 42
3.0
 43
3.0
 50
90.0
  0
INSERT
  5
22E
100
AcDbEntity
  8
0
100
AcDbBlockReference
 62
7
  6
CONTINUOUS
  2
_FILLED
 10
21.8292672793
 20
-23.5
 41
3.0
 42
3.0
 43
3.0
 50
270.0
  0
ENDBLK
  5
22F
100
AcDbEntity
  8
0
  6
BYBLOCK
 62
0
100
AcDbBlockEnd
  0
BLOCK
  5
230
100
AcDbEntity
  8
0
100
AcDbBlockBegin
 62
7
  6
CONTINUOUS
  2
*D1
 70
65
 10
0.0
 20
0.0
  3
*D1
  1

  0
LINE
  5
231
100
AcDbEntity
  8
0
100
AcDbLine
 62
7
  6
CONTINUOUS
 10
11.15
 20
22.3997711479
 11
11.15
 21
38.2891977008
  0
LINE
  5
232
100
AcDbEntity
  8
0
100
AcDbLine
 62
7
  6
CONTINUOUS
 10
-11.15
 20
22.3997711479
 11
-11.15
 21
38.2891977008
  0
LINE
  5
233
100
AcDbEntity
  8
0
100
AcDbLine
 62
7
  6
CONTINUOUS
 10
11.15
 20
36.7891977008
 11
0.0
 21
36.7891977008
  0
LINE
  5
234
100
AcDbEntity
  8
0
100
AcDbLine
 62
7
  6
CONTINUOUS
 10
-11.15
 20
36.7891977008
 11
0.0
 21
36.7891977008
  0
INSERT
  5
235
100
AcDbEntity
  8
0
100
AcDbBlockReference
 62
7
  6
CONTINUOUS
  2
_FILLED
 10
11.15
 20
36.7891977008
 41
3.0
 42
3.0
 43
3.0
  0
INSERT
  5
236
100
AcDbEntity
  8
0
100
AcDbBlockReference
 62
7
  6
CONTINUOUS
  2
_FILLED
 10
-11.15
 20
36.7891977008
 41
3.0
 42
3.0
 43
3.0
 50
180.0
  0
ENDBLK
  5
237
100
AcDbEntity
  8
0
  6
BYBLOCK
 62
0
100
AcDbBlockEnd
  0
BLOCK
  5
238
100
AcDbEntity
  8
0
100
AcDbBlockBegin
 62
7
  6
CONTINUOUS
  2
*D2
 70
65
 10
0.0
 20
0.0
  3
*D2
  1

  0
LINE
  5
239
100
AcDbEntity
  8
0
100
AcDbLine
 62
7
  6
CONTINUOUS
 10
-50.3141787599
 20
22.3997711479
 11
-50.3141787599
 21
38.0860779119
  0
LINE
  5
23A
100
AcDbEntity
  8
0
100
AcDbLine
 62
7
  6
CONTINUOUS
 10
-20.3141787599
 20
17.069413527
 11
-20.3141787599
 21
38.0860779119
  0
LINE
  5
23B
100
AcDbEntity
  8
0
100
AcDbLine
 62
7
  6
CONTINUOUS
 10
-50.3141787599
 20
36.5860779119
 11
-35.3141787599
 21
36.5860779119
  0
LINE
  5
23C
100
AcDbEntity
  8
0
100
AcDbLine
 62
7
  6
CONTINUOUS
 10
-20.3141787599
 20
36.5860779119
 11
-35.3141787599
 21
36.5860779119
  0
INSERT
  5
23D
100
AcDbEntity
  8
0
100
AcDbBlockReference
 62
7
  6
CONTINUOUS
  2
_FILLED
 10
-50.3141787599
 20
36.5860779119
 41
3.0
 42
3.0
 43
3.0
 50
180.0
  0
INSERT
  5
23E
100
AcDbEntity
  8
0
100
AcDbBlockReference
 62
7
  6
CONTINUOUS
  2
_FILLED
 10
-20.3141787599
 20
36.5860779119
 41
3.0
 42
3.0
 43
3.0
  0
ENDBLK
  5
23F
100
AcDbEntity
  8
0
  6
BYBLOCK
 62
0
100
AcDbBlockEnd
  0
BLOCK
  5
240
100
AcDbEntity
  8
0
100
AcDbBlockBegin
 62
7
  6
CONTINUOUS
  2
*D3
 70
65
 10
0.0
 20
0.0
  3
*D3
  1

  0
LINE
  5
241
100
AcDbEntity
  8
0
100
AcDbLine
 62
7
  6
CONTINUOUS
 10
-20.3141787599
 20
14.6
 11
-20.3141787599
 21
46.0860779119
  0
LINE
  5
242
100
AcDbEntity
  8
0
100
AcDbLine
 62
7
  6
CONTINUOUS
 10
-59.8141787599
 20
0.5
 11
-59.8141787599
 21
46.0860779119
  0
LINE
  5
243
100
AcDbEntity
  8
0
100
AcDbLine
 62
7
  6
CONTINUOUS
 10
-20.3141787599
 20
44.5860779119
 11
-40.0641787599
 21
44.5860779119
  0
LINE
  5
244
100
AcDbEntity
  8
0
100
AcDbLine
 62
7
  6
CONTINUOUS
 10
-59.8141787599
 20
44.5860779119
 11
-40.0641787599
 21
44.5860779119
  0
INSERT
  5
245
100
AcDbEntity
  8
0
100
AcDbBlockReference
 62
7
  6
CONTINUOUS
  2
_FILLED
 10
-20.3141787599
 20
44.5860779119
 41
3.0
 42
3.0
 43
3.0
 50
0.0
  0
INSERT
  5
246
100
AcDbEntity
  8
0
100
AcDbBlockReference
 62
7
  6
CONTINUOUS
  2
_FILLED
 10
-59.8141787599
 20
44.5860779119
 41
3.0
 42
3.0
 43
3.0
 50
180.0
  0
ENDBLK
  5
247
100
AcDbEntity
  8
0
  6
BYBLOCK
 62
0
100
AcDbBlockEnd
  0
ENDSEC
  0
SECTION
  2
ENTITIES
  0
DIMENSION
  5
248
100
AcDbEntity
  8
0
100
AcDbDimension
 62
7
  6
CONTINUOUS
  2
*D0
 10
21.8292672793
 20
-23.5
 11
21.8292672793
 21
-2.3571428571
 70
160
 71
2
 72
2
 41
0.9
 42
47.0
  3
DIMSTYLE_1
100
AcDbAlignedDimension
 13
3.6748574782
 23
23.5
 14
3.6748574782
 24
-23.5
 50
270.0
100
AcDbRotatedDimension
  0
DIMENSION
  5
249
100
AcDbEntity
  8
0
100
AcDbDimension
 62
7
  6
CONTINUOUS
  2
*D1
 10
-11.15
 20
36.7891977008
 11
-4.2857142857
 21
36.7891977008
 70
160
 71
2
 72
2
 41
0.9
 42
22.3
  3
DIMSTYLE_1
100
AcDbAlignedDimension
 13
11.15
 23
21.8997711479
 14
-11.15
 24
21.8997711479
 50
180.0
100
AcDbRotatedDimension
  0
DIMENSION
  5
24A
100
AcDbEntity
  8
0
100
AcDbDimension
 62
7
  6
CONTINUOUS
  2
*D2
 10
-20.3141787599
 20
36.5860779119
 11
-37.5641787599
 21
36.5860779119
 70
160
 71
2
 72
2
 41
0.9
 42
30.0
  3
DIMSTYLE_1
100
AcDbAlignedDimension
 13
-50.3141787599
 23
21.8997711479
 14
-20.3141787599
 24
16.569413527
100
AcDbRotatedDimension
  0
DIMENSION
  5
24B
100
AcDbEntity
  8
0
100
AcDbDimension
 62
7
  6
CONTINUOUS
  2
*D3
 10
-59.8141787599
 20
44.5860779119
 11
-44.2427501885
 21
44.5860779119
 70
160
 71
2
 72
2
 41
0.9
 42
39.5
  3
DIMSTYLE_1
100
AcDbAlignedDimension
 13
-20.3141787599
 23
14.1
 14
-59.8141787599
 24
0.0
 50
180.0
100
AcDbRotatedDimension
  0
LWPOLYLINE
  5
24C
100
AcDbEntity
  8
0
100
AcDbPolyline
 62
7
  6
CONTINUOUS
 90
5
 70
0
 43
0.3500000006
 10
3.0000000658
 20
39.2534830627
 10
3.357142951
 20
39.4677675476
 10
3.357142951
 20
40.1106255341
 10
3.0000000658
 20
40.5391990356
 10
2.1428571696
 20
40.5391990356
  0
LWPOLYLINE
  5
24D
100
AcDbEntity
  8
TRASH
100
AcDbPolyline
 62
7
  6
CONTINUOUS
 90
10
 70
0
 10
-4.2275426698
 20
23.3333596575
 10
-4.1717709372
 20
23.3677255716
 10
-4.1143929866
 20
23.3981882383
 10
-4.0554088181
 20
23.4247476575
 10
-3.994556052
 20
23.4474829393
 10
-3.9320970679
 20
23.4663149736
 10
-3.8688190046
 20
23.4810064299
 10
-3.8049842417
 20
23.491478198
 10
-3.7403303995
 20
23.497809388
 10
-3.6748574782
 20
23.5
  0
LWPOLYLINE
  5
24E
100
AcDbEntity
  8
TRASH
100
AcDbPolyline
 62
7
  6
CONTINUOUS
 90
10
 70
0
 10
3.6748574782
 20
-23.5
 10
3.7403303995
 20
-23.497809388
 10
3.8049842417
 20
-23.491478198
 10
3.8688190046
 20
-23.4810064299
 10
3.9320970679
 20
-23.4663149736
 10
3.994556052
 20
-23.4474829393
 10
4.0554088181
 20
-23.4247476575
 10
4.1143929866
 20
-23.3981882383
 10
4.1717709372
 20
-23.3677255716
 10
4.2275426698
 20
-23.3333596575
  0
LINE
  5
24F
100
AcDbEntity
  8
TRASH
100
AcDbLine
 62
7
  6
CONTINUOUS
 10
3.6748574782
 20
-23.5
 11
-3.6748574782
 21
-23.5
  0
LINE
  5
250
100
AcDbEntity
  8
TRASH
100
AcDbLine
 62
7
  6
CONTINUOUS
 10
-3.4698202597
 20
-22.5
 11
3.4698202597
 21
-22.5
  0
LINE
  5
251
100
AcDbEntity
  8
SUPERFICI
100
AcDbLine
 62
7
  6
CONTINUOUS
 10
10.6503805997
 20
-22.4
 11
3.3
 21
-22.4
  0
LINE
  5
252
100
AcDbEntity
  8
SUPERFICI
100
AcDbLine
 62
7
  6
CONTINUOUS
 10
-3.3
 20
-22.4
 11
-10.6503805997
 21
-22.4
  0
LINE
  5
253
100
AcDbEntity
  8
SUPERFICI
100
AcDbLine
 62
250
  6
CONTINUOUS
 10
10.5087981167
 20
-21.9749071372
 11
-10.5087981167
 21
-21.9749071372
  0
LINE
  5
254
100
AcDbEntity
  8
SUPERFICI
100
AcDbLine
 62
250
  6
CONTINUOUS
 10
10.5522209659
 20
-21.0181634993
 11
-10.5005350625
 21
-21.0183142309
  0
LWPOLYLINE
  5
255
100
AcDbEntity
  8
SUPERFICI
100
AcDbPolyline
 62
250
  6
CONTINUOUS
 90
16
 70
0
 10
-10.5005350626
 20
-21.0183132877
 10
-10.5522203681
 20
-21.0181627949
 10
-10.6033519099
 20
-21.0177887256
 10
-10.6533818551
 20
-21.0171950877
 10
-10.7017741735
 20
-21.0163882415
 10
-10.7480103807
 20
-21.0153768319
 10
-10.7915950934
 20
-21.0141716956
 10
-10.8320613367
 20
-21.0127857448
 10
-10.8689755479
 20
-21.0112338287
 10
-10.9019422211
 20
-21.0095325749
 10
-10.9306081453
 20
-21.0077002109
 10
-10.9546661883
 20
-21.0057563691
 10
-10.9738585879
 20
-21.0037218762
 10
-10.987979713
 20
-21.00161853
 10
-10.9968782673
 20
-20.9994688662
 10
-11.00045891
 20
-20.9972959167
  0
LWPOLYLINE
  5
256
100
AcDbEntity
  8
SUPERFICI
100
AcDbPolyline
 62
250
  6
CONTINUOUS
 90
16
 70
0
 10
-10.5087981167
 20
-21.9749071372
 10
-10.5610241351
 20
-21.9721273713
 10
-10.6126786189
 20
-21.9639137831
 10
-10.6631962883
 20
-21.9503562579
 10
-10.7120243038
 20
-21.9316031621
 10
-10.7586283171
 20
-21.90785972
 10
-10.8024983178
 20
-21.8793857676
 10
-10.8431542153
 20
-21.846492909
 10
-10.8801510926
 20
-21.8095411067
 10
-10.9130840749
 20
-21.7689347421
 10
-10.9415927608
 20
-21.7251181903
 10
-10.9653651658
 20
-21.6785709569
 10
-10.9841411372
 20
-21.6298024308
 10
-10.9977152003
 20
-21.5793463095
 10
-11.0059388076
 20
-21.5277547588
 10
-11.0087219643
 20
-21.4755923698
  0
LWPOLYLINE
  5
257
100
AcDbEntity
  8
TRASH
100
AcDbPolyline
 62
7
  6
CONTINUOUS
 90
10
 70
0
 10
-4.2275426698
 20
-23.3333596575
 10
-4.1717709372
 20
-23.3677255716
 10
-4.1143929866
 20
-23.3981882383
 10
-4.0554088181
 20
-23.4247476575
 10
-3.994556052
 20
-23.4474829393
 10
-3.9320970679
 20
-23.4663149736
 10
-3.8688190046
 20
-23.4810064299
 10
-3.8049842417
 20
-23.491478198
 10
-3.7403303995
 20
-23.497809388
 10
-3.6748574782
 20
-23.5
  0
LINE
  5
258
100
AcDbEntity
  8
0
100
AcDbLine
 62
7
  6
CONTINUOUS
 10
-3.3
 20
22.4
 11
-3.2333672024
 21
22.5
  0
LINE
  5
259
100
AcDbEntity
  8
0
100
AcDbLine
 62
7
  6
CONTINUOUS
 10
-3.2333672024
 20
-22.5
 11
-3.3
 21
-22.4
  0
LWPOLYLINE
  5
25A
100
AcDbEntity
  8
SUPERFICI
100
AcDbPolyline
 62
250
  6
CONTINUOUS
 90
5
 70
0
 10
-10.5087981167
 20
21.9749071372
 10
-10.5080778549
 20
21.9672631277
 10
-10.5073747357
 20
21.9529558612
 10
-10.5066887591
 20
21.9320798744
 10
-10.5060155151
 20
21.9047715709
  0
LINE
  5
25B
100
AcDbEntity
  8
SUPERFICI
100
AcDbLine
 62
250
  6
CONTINUOUS
 10
-11.0046585314
 20
21.403981807
 11
-11.0034984168
 21
21.3558303735
  0
LINE
  5
25C
100
AcDbEntity
  8
SUPERFICI
100
AcDbLine
 62
250
  6
CONTINUOUS
 10
-11.0034984168
 20
21.3558303735
 11
-11.002494253
 21
21.2976924869
  0
LINE
  5
25D
100
AcDbEntity
  8
SUPERFICI
100
AcDbLine
 62
250
  6
CONTINUOUS
 10
-10.5060155151
 20
21.9047715709
 11
-10.5047336849
 21
21.8316424864
  0
LINE
  5
25E
100
AcDbEntity
  8
SUPERFICI
100
AcDbLine
 62
250
  6
CONTINUOUS
 10
-11.002494253
 20
21.2976924869
 11
-11.0013282574
 21
21.1946238913
  0
LINE
  5
25F
100
AcDbEntity
  8
SUPERFICI
100
AcDbLine
 62
250
  6
CONTINUOUS
 10
-10.5047336849
 20
21.8316424864
 11
-10.5030519635
 21
21.6797292088
  0
LINE
  5
260
100
AcDbEntity
  8
SUPERFICI
100
AcDbLine
 62
250
  6
CONTINUOUS
 10
-10.5030519635
 20
21.6797292088
 11
-10.5014061262
 21
21.4132060252
  0
LINE
  5
261
100
AcDbEntity
  8
SUPERFICI
100
AcDbLine
 62
250
  6
CONTINUOUS
 10
-11.0013282574
 20
21.1946238913
 11
-11.0006365685
 21
21.0787402824
  0
LWPOLYLINE
  5
262
100
AcDbEntity
  8
SUPERFICI
100
AcDbPolyline
 62
250
  6
CONTINUOUS
 90
3
 70
0
 10
-10.5014061262
 20
21.4132060252
 10
-10.5005963741
 20
21.1000229543
 10
-10.5005350625
 20
21.0183142309
  0
LWPOLYLINE
  5
263
100
AcDbEntity
  8
SUPERFICI
100
AcDbPolyline
 62
250
  6
CONTINUOUS
 90
9
 70
0
 10
-11.0006365685
 20
21.0787402824
 10
-10.9974142958
 20
16.3324664701
 10
-10.9951308352
 20
11.6670185434
 10
-10.9936085283
 20
7.0009521365
 10
-10.9928473752
 20
2.3338547134
 10
-10.9928473758
 20
-2.3338611899
 10
-10.9936085296
 20
-7.0009579653
 10
-10.9951308365
 20
-11.667023077
 10
-10.9974142967
 20
-16.3324690607
  0
LWPOLYLINE
  5
264
100
AcDbEntity
  8
SUPERFICI
100
AcDbPolyline
 62
250
  6
CONTINUOUS
 90
9
 70
0
 10
-10.5005350625
 20
21.0183142309
 10
-10.4974904462
 20
16.3494810548
 10
-10.495206984
 20
11.6792204147
 10
-10.4936846758
 20
7.0079400892
 10
-10.4929235217
 20
2.3360479955
 10
-10.4929235216
 20
-2.3360479943
 10
-10.4936846757
 20
-7.0079400882
 10
-10.4952069839
 20
-11.6792204138
 10
-10.4974904462
 20
-16.3494810544
  0
LINE
  5
265
100
AcDbEntity
  8
TRASH
100
AcDbLine
 62
7
  6
CONTINUOUS
 10
-11.15
 20
16.119659166
 11
-11.15
 21
-16.119659166
  0
LINE
  5
266
100
AcDbEntity
  8
SUPERFICI
100
AcDbLine
 62
7
  6
CONTINUOUS
 10
-11.15
 20
-21.8997711479
 11
-11.15
 21
21.8997711479
  0
LINE
  5
267
100
AcDbEntity
  8
SUPERFICI
100
AcDbLine
 62
250
  6
CONTINUOUS
 10
-10.4974904462
 20
-16.3494810544
 11
-10.5011186198
 21
-21.3380251343
  0
LINE
  5
268
100
AcDbEntity
  8
SUPERFICI
100
AcDbLine
 62
250
  6
CONTINUOUS
 10
-10.9974142967
 20
-16.3324690607
 11
-11.0008096574
 21
-21.1180991804
  0
LINE
  5
269
100
AcDbEntity
  8
SUPERFICI
100
AcDbLine
 62
250
  6
CONTINUOUS
 10
-10.5011186198
 20
-21.3380251343
 11
-10.5025715154
 21
-21.6191453064
  0
LINE
  5
26A
100
AcDbEntity
  8
SUPERFICI
100
AcDbLine
 62
250
  6
CONTINUOUS
 10
-11.0008096574
 20
-21.1180991804
 11
-11.0016659628
 21
-21.2307227352
  0
LINE
  5
26B
100
AcDbEntity
  8
SUPERFICI
100
AcDbLine
 62
250
  6
CONTINUOUS
 10
-10.5025715154
 20
-21.6191453064
 11
-10.5041390272
 21
-21.786331002
  0
LINE
  5
26C
100
AcDbEntity
  8
SUPERFICI
100
AcDbLine
 62
250
  6
CONTINUOUS
 10
-11.0016659628
 20
-21.2307227352
 11
-11.002494253
 21
-21.297692487
  0
LWPOLYLINE
  5
26D
100
AcDbEntity
  8
SUPERFICI
100
AcDbPolyline
 62
250
  6
CONTINUOUS
 90
7
 70
0
 10
-10.5041390272
 20
-21.786331002
 10
-10.5053594138
 20
-21.8712144185
 10
-10.5060155151
 20
-21.9047715709
 10
-10.5066887591
 20
-21.9320798744
 10
-10.5073747357
 20
-21.9529558612
 10
-10.5080778549
 20
-21.9672631277
 10
-10.5087981167
 20
-21.9749071372
  0
LINE
  5
26E
100
AcDbEntity
  8
SUPERFICI
100
AcDbLine
 62
250
  6
CONTINUOUS
 10
-11.002494253
 20
-21.297692487
 11
-11.0034984168
 21
-21.3558303734
  0
LWPOLYLINE
  5
26F
100
AcDbEntity
  8
SUPERFICI
100
AcDbPolyline
 62
250
  6
CONTINUOUS
 90
8
 70
0
 10
-11.0034984168
 20
-21.3558303734
 10
-11.0046585314
 20
-21.4039818068
 10
-11.0052850488
 20
-21.4237085483
 10
-11.0059419622
 20
-21.4405716188
 10
-11.0066154888
 20
-21.4542260345
 10
-11.0073010341
 20
-21.464556801
 10
-11.0080031927
 20
-21.4716789127
 10
-11.0087219643
 20
-21.4755923698
  0
LINE
  5
270
100
AcDbEntity
  8
TRASH
100
AcDbLine
 62
7
  6
CONTINUOUS
 10
-3.3848722771
 20
22.4
 11
-3.3633443637
 21
22.5
  0
LWPOLYLINE
  5
271
100
AcDbEntity
  8
0
100
AcDbPolyline
 62
7
  6
CONTINUOUS
 90
3
 70
0
 43
0.3500000006
 10
1.1428571477
 20
37.8249137878
 10
1.0714285848
 20
37.6106247711
 10
0.9285714591
 20
37.3249136353
  0
LWPOLYLINE
  5
272
100
AcDbEntity
  8
0
100
AcDbPolyline
 62
7
  6
CONTINUOUS
 90
4
 70
0
 10
-1.5480771518
 20
11.738281018
 10
-1.5083778128
 20
11.7970685428
 10
-1.4690352476
 20
11.8562224446
 10
-1.440328552
 20
11.9000013468
  0
LINE
  5
273
100
AcDbEntity
  8
0
100
AcDbLine
 62
7
  6
CONTINUOUS
 10
-0.8367742767
 20
11.988151872
 11
-0.8085264615
 21
12.0235459978
  0
LINE
  5
274
100
AcDbEntity
  8
0
100
AcDbLine
 62
7
  6
CONTINUOUS
 10
-0.8085264615
 20
12.0235459978
 11
-0.7800560952
 21
12.0587646701
  0
LINE
  5
275
100
AcDbEntity
  8
0
100
AcDbLine
 62
7
  6
CONTINUOUS
 10
-0.7800560952
 20
12.0587646701
 11
-0.751364696
 21
12.0938060107
  0
LINE
  5
276
100
AcDbEntity
  8
0
100
AcDbLine
 62
7
  6
CONTINUOUS
 10
0.7511994846
 20
12.0940064962
 11
0.8415742238
 21
12.1691140947
  0
LINE
  5
277
100
AcDbEntity
  8
0
100
AcDbLine
 62
250
  6
CONTINUOUS
 10
0.8367742767
 20
11.988151872
 11
0.9965978454
 21
12.1151164512
  0
LINE
  5
278
100
AcDbEntity
  8
0
100
AcDbLine
 62
7
  6
CONTINUOUS
 10
1.1848574578
 20
11.5103336283
 11
0.5893985093
 21
11.0804835671
  0
LINE
  5
279
100
AcDbEntity
  8
RACCORDO
100
AcDbLine
 62
250
  6
CONTINUOUS
 10
-2.5238858931
 20
7.7046227748
 11
-2.4408722313
 21
7.763685987
  0
LWPOLYLINE
  5
27A
100
AcDbEntity
  8
RACCORDO
100
AcDbPolyline
 62
250
  6
CONTINUOUS
 90
7
 70
0
 10
-2.4408722313
 20
7.763685987
 10
-2.3677365
 20
7.8151234593
 10
-2.3376675505
 20
7.8359991092
 10
-2.3131819431
 20
7.8527743137
 10
-2.2950168785
 20
7.8649474297
 10
-2.2837212237
 20
7.8721572398
 10
-2.2796388703
 20
7.8741935475
  0
LINE
  5
27B
100
AcDbEntity
  8
0
100
AcDbLine
 62
7
  6
CONTINUOUS
 10
1.1848574578
 20
11.5103336283
 11
1.5480771518
 21
11.738281018
  0
LINE
  5
27C
100
AcDbEntity
  8
0
100
AcDbLine
 62
250
  6
CONTINUOUS
 10
0.6448010379
 20
11.8793696336
 11
0.4932787005
 21
11.7926288566
  0
LWPOLYLINE
  5
27D
100
AcDbEntity
  8
0
100
AcDbPolyline
 62
250
  6
CONTINUOUS
 90
10
 70
0
 10
0.4932787005
 20
11.7926288566
 10
0.4751237016
 20
11.782313825
 10
0.4585955442
 20
11.7732041638
 10
0.4440387535
 20
11.7654882573
 10
0.4318916776
 20
11.7593929937
 10
0.4221441527
 20
11.7549076853
 10
0.414450313
 20
11.7518850153
 10
0.4087621629
 20
11.7503423288
 10
0.4052041493
 20
11.7503534877
 10
0.403767237
 20
11.7519344603
  0
LINE
  5
27E
100
AcDbEntity
  8
0
100
AcDbLine
 62
250
  6
CONTINUOUS
 10
0.8367742767
 20
11.988151872
 11
0.6448010379
 21
11.8793696336
  0
LWPOLYLINE
  5
27F
100
AcDbEntity
  8
0
100
AcDbPolyline
 62
7
  6
CONTINUOUS
 90
7
 70
0
 10
-0.7511994846
 20
12.0940064962
 10
-0.6956740272
 20
12.1175362602
 10
-0.6460374712
 20
12.1438519249
 10
-0.6022981602
 20
12.1729808183
 10
-0.5640449901
 20
12.2056443258
 10
-0.5318648499
 20
12.2412861686
 10
-0.5269183583
 20
12.2484291362
  0
LINE
  5
280
100
AcDbEntity
  8
0
100
AcDbLine
 62
7
  6
CONTINUOUS
 10
1.5882804933
 20
-8.5481577559
 11
2.0206943898
 21
-8.4339522668
  0
LINE
  5
281
100
AcDbEntity
  8
0
100
AcDbLine
 62
250
  6
CONTINUOUS
 10
1.0993808834
 20
-9.5
 11
2.1616367785
 21
-9.5
  0
LINE
  5
282
100
AcDbEntity
  8
0
100
AcDbLine
 62
250
  6
CONTINUOUS
 10
-1.0993808834
 20
-9.5
 11
-2.1616367785
 21
-9.5
  0
LINE
  5
283
100
AcDbEntity
  8
RACCORDO
100
AcDbLine
 62
7
  6
CONTINUOUS
 10
-2.4622033795
 20
-8.1680145927
 11
-2.2
 21
-8.1680145927
  0
LINE
  5
284
100
AcDbEntity
  8
RACCORDO
100
AcDbLine
 62
7
  6
CONTINUOUS
 10
2.4623735537
 20
-8.1680145927
 11
2.2
 21
-8.1680145927
  0
LINE
  5
285
100
AcDbEntity
  8
RACCORDO
100
AcDbLine
 62
7
  6
CONTINUOUS
 10
2.2382702939
 20
-7.7849923712
 11
2.2
 21
-7.7849923712
  0
LINE
  5
286
100
AcDbEntity
  8
RACCORDO
100
AcDbLine
 62
7
  6
CONTINUOUS
 10
-2.2383065437
 20
-7.7849923712
 11
-2.2
 21
-7.7849923712
  0
LINE
  5
287
100
AcDbEntity
  8
RACCORDO
100
AcDbLine
 62
250
  6
CONTINUOUS
 10
4.0
 20
-7.7046227737
 11
2.5234580332
 21
-7.7046227985
  0
LINE
  5
288
100
AcDbEntity
  8
RACCORDO
100
AcDbLine
 62
250
  6
CONTINUOUS
 10
-2.5235825655
 20
-7.7046227981
 11
-4.0
 21
-7.7046227737
  0
LINE
  5
289
100
AcDbEntity
  8
0
100
AcDbLine
 62
7
  6
CONTINUOUS
 10
-1.5882804933
 20
-8.5481577559
 11
-2.0206922508
 21
-8.433944431
  0
LWPOLYLINE
  5
28A
100
AcDbEntity
  8
0
100
AcDbPolyline
 62
7
  6
CONTINUOUS
 90
7
 70
0
 10
-0.7511994846
 20
-12.0940064962
 10
-0.6956740272
 20
-12.1175362602
 10
-0.6460374712
 20
-12.1438519249
 10
-0.6022981602
 20
-12.1729808183
 10
-0.5640449901
 20
-12.2056443258
 10
-0.5318648499
 20
-12.2412861686
 10
-0.5258635533
 20
-12.2499523245
  0
LWPOLYLINE
  5
28B
100
AcDbEntity
  8
0
100
AcDbPolyline
 62
250
  6
CONTINUOUS
 90
10
 70
0
 10
0.4932787005
 20
-11.7926288566
 10
0.4751237016
 20
-11.782313825
 10
0.4585955442
 20
-11.7732041638
 10
0.4440387535
 20
-11.7654882573
 10
0.4318916776
 20
-11.7593929937
 10
0.4221441527
 20
-11.7549076853
 10
0.414450313
 20
-11.7518850153
 10
0.4087621629
 20
-11.7503423288
 10
0.4052041493
 20
-11.7503534877
 10
0.403767237
 20
-11.7519344603
  0
LINE
  5
28C
100
AcDbEntity
  8
0
100
AcDbLine
 62
250
  6
CONTINUOUS
 10
0.8367742767
 20
-11.988151872
 11
0.6069334235
 21
-11.8577812893
  0
LINE
  5
28D
100
AcDbEntity
  8
0
100
AcDbLine
 62
250
  6
CONTINUOUS
 10
0.6069334235
 20
-11.8577812893
 11
0.4932787005
 21
-11.7926288566
  0
LINE
  5
28E
100
AcDbEntity
  8
0
100
AcDbLine
 62
7
  6
CONTINUOUS
 10
1.1848574578
 20
-11.5103336283
 11
1.5480771518
 21
-11.738281018
  0
LINE
  5
28F
100
AcDbEntity
  8
0
100
AcDbLine
 62
7
  6
CONTINUOUS
 10
0.5892019839
 20
-11.0803416993
 11
1.1848574578
 21
-11.5103336283
  0
LINE
  5
290
100
AcDbEntity
  8
0
100
AcDbLine
 62
250
  6
CONTINUOUS
 10
0.8367742767
 20
-11.988151872
 11
0.9969619941
 21
-12.1154057327
  0
LINE
  5
291
100
AcDbEntity
  8
0
100
AcDbLine
 62
7
  6
CONTINUOUS
 10
0.8418209574
 20
-12.1692442681
 11
0.751364696
 21
-12.0938060107
  0
LINE
  5
292
100
AcDbEntity
  8
0
100
AcDbLine
 62
7
  6
CONTINUOUS
 10
-0.7800196601
 20
-12.0588094537
 11
-0.7511994846
 21
-12.0940064962
  0
LWPOLYLINE
  5
293
100
AcDbEntity
  8
RACCORDO
100
AcDbPolyline
 62
250
  6
CONTINUOUS
 90
4
 70
0
 10
-2.3716537594
 20
-11.5032081873
 10
-2.4581316414
 20
-11.3962202108
 10
-2.5367472034
 20
-11.2886509753
 10
-2.609371491
 20
-11.180377096
  0
LINE
  5
294
100
AcDbEntity
  8
0
100
AcDbLine
 62
7
  6
CONTINUOUS
 10
-0.808544539
 20
-12.0235234917
 11
-0.7800196601
 21
-12.0588094537
  0
LINE
  5
295
100
AcDbEntity
  8
0
100
AcDbLine
 62
7
  6
CONTINUOUS
 10
-0.8367742767
 20
-11.988151872
 11
-0.808544539
 21
-12.0235234917
  0
LWPOLYLINE
  5
296
100
AcDbEntity
  8
0
100
AcDbPolyline
 62
7
  6
CONTINUOUS
 90
4
 70
0
 10
-1.5480771518
 20
-11.738281018
 10
-1.5083778128
 20
-11.7970685428
 10
-1.4690352476
 20
-11.8562224446
 10
-1.4405458735
 20
-11.8996699226
  0
LWPOLYLINE
  5
297
100
AcDbEntity
  8
RACCORDO
100
AcDbPolyline
 62
250
  6
CONTINUOUS
 90
6
 70
0
 10
-2.609371491
 20
-11.180377096
 10
-2.6762295236
 20
-11.071653793
 10
-2.7370962819
 20
-10.9622258382
 10
-2.7931677544
 20
-10.8512041596
 10
-2.8448149359
 20
-10.7382246059
 10
-2.8916668316
 20
-10.6236512895
  0
LINE
  5
298
100
AcDbEntity
  8
TRASH
100
AcDbLine
 62
7
  6
CONTINUOUS
 10
-3.3848722771
 20
-22.4
 11
-3.3633443637
 21
-22.5
  0
LINE
  5
299
100
AcDbEntity
  8
RACCORDO
100
AcDbLine
 62
250
  6
CONTINUOUS
 10
-4.0
 20
-7.7046227737
 11
-4.0
 21
-5.0030018011
  0
LINE
  5
29A
100
AcDbEntity
  8
RACCORDO
100
AcDbLine
 62
250
  6
CONTINUOUS
 10
-4.0
 20
5.0030018011
 11
-4.0
 21
7.7046227737
  0
LINE
  5
29B
100
AcDbEntity
  8
RACCORDO
100
AcDbLine
 62
7
  6
CONTINUOUS
 10
-3.7
 20
-7.4
 11
-3.7
 21
-5.3
  0
LINE
  5
29C
100
AcDbEntity
  8
RACCORDO
100
AcDbLine
 62
7
  6
CONTINUOUS
 10
-3.7
 20
5.3
 11
-3.7
 21
7.4
  0
LINE
  5
29D
100
AcDbEntity
  8
0
100
AcDbLine
 62
250
  6
CONTINUOUS
 10
-3.5355500439
 20
6.100783375
 11
-3.5355500439
 21
5.6109078115
  0
LINE
  5
29E
100
AcDbEntity
  8
0
100
AcDbLine
 62
250
  6
CONTINUOUS
 10
-3.5355500439
 20
-6.100783375
 11
-3.5355500439
 21
-5.6109078115
  0
LINE
  5
29F
100
AcDbEntity
  8
0
100
AcDbLine
 62
250
  6
CONTINUOUS
 10
-0.4546972678
 20
11.3419798763
 11
-0.4543094571
 21
11.3425074403
  0
LINE
  5
2A0
100
AcDbEntity
  8
SUPERFICI
100
AcDbLine
 62
250
  6
CONTINUOUS
 10
-11.0087219643
 20
-21.4755923698
 11
-11.15
 21
-21.8997711479
  0
LWPOLYLINE
  5
2A1
100
AcDbEntity
  8
0
100
AcDbPolyline
 62
7
  6
CONTINUOUS
 90
3
 70
0
 10
-3.5355500439
 20
6.100783375
 10
-3.5328771207
 20
6.1087940137
 10
-3.5306308396
 20
6.1109078115
  0
LINE
  5
2A2
100
AcDbEntity
  8
0
100
AcDbLine
 62
7
  6
CONTINUOUS
 10
-3.7
 20
5.6553975461
 11
-3.5355500439
 21
6.100783375
  0
LINE
  5
2A3
100
AcDbEntity
  8
0
100
AcDbLine
 62
7
  6
CONTINUOUS
 10
-3.6484775129
 20
5.3
 11
-3.5355500439
 21
5.6058455933
  0
LINE
  5
2A4
100
AcDbEntity
  8
0
100
AcDbLine
 62
250
  6
CONTINUOUS
 10
-0.47574662
 20
11.2857473553
 11
-0.4753715407
 21
11.2861369016
  0
LWPOLYLINE
  5
2A5
100
AcDbEntity
  8
0
100
AcDbPolyline
 62
7
  6
CONTINUOUS
 90
8
 70
0
 10
-0.5565490227
 20
11.1285430439
 10
-0.5266266415
 20
11.178993269
 10
-0.4995445314
 20
11.2315316453
 10
-0.4753715407
 20
11.2861369016
 10
-0.4543094571
 20
11.3425074403
 10
-0.4366100622
 20
11.4000299297
 10
-0.4223308356
 20
11.4584967557
 10
-0.4193767353
 20
11.4728600399
  0
LWPOLYLINE
  5
2A6
100
AcDbEntity
  8
0
100
AcDbPolyline
 62
7
  6
CONTINUOUS
 90
13
 70
0
 10
-1.1848574578
 20
11.5103336283
 10
-1.2610429016
 20
11.3820890344
 10
-1.3328475376
 20
11.2466543948
 10
-1.3997298647
 20
11.1042259639
 10
-1.4609616096
 20
10.9555521938
 10
-1.5162977446
 20
10.8004524041
 10
-1.5657510953
 20
10.6377496308
 10
-1.6087148552
 20
10.4678741721
 10
-1.6447154443
 20
10.2910517432
 10
-1.6735966767
 20
10.1057509167
 10
-1.6948349675
 20
9.9116957694
 10
-1.7078404635
 20
9.7097343491
 10
-1.7122397553
 20
9.5
  0
LWPOLYLINE
  5
2A7
100
AcDbEntity
  8
0
100
AcDbPolyline
 62
7
  6
CONTINUOUS
 90
13
 70
0
 10
-1.5480771518
 20
11.738281018
 10
-1.6372120855
 20
11.5921020353
 10
-1.7210694562
 20
11.4382610546
 10
-1.7990495005
 20
11.2770207399
 10
-1.8703421971
 20
11.1092677073
 10
-1.9346902314
 20
10.9348610741
 10
-1.9921226108
 20
10.752578896
 10
-2.0419504706
 20
10.5630262782
 10
-2.0836436808
 20
10.366590328
 10
-2.1170432624
 20
10.1617317435
 10
-2.1415702721
 20
9.9483490838
 10
-2.1565697446
 20
9.7276249507
 10
-2.1616367785
 20
9.5
  0
LWPOLYLINE
  5
2A8
100
AcDbEntity
  8
0
100
AcDbPolyline
 62
250
  6
CONTINUOUS
 90
10
 70
0
 10
-0.7049994859
 20
11.1639336303
 10
-0.6655480509
 20
11.2260950163
 10
-0.629644922
 20
11.2910819293
 10
-0.5974642538
 20
11.3586253523
 10
-0.5690781083
 20
11.4287302967
 10
-0.5448117556
 20
11.5008228197
 10
-0.5250672976
 20
11.5736967273
 10
-0.5099253984
 20
11.6466998213
 10
-0.4993217915
 20
11.719786728
 10
-0.4932787005
 20
11.7926288566
  0
LWPOLYLINE
  5
2A9
100
AcDbEntity
  8
0
100
AcDbPolyline
 62
250
  6
CONTINUOUS
 90
13
 70
0
 10
-0.7049994859
 20
11.1639336303
 10
-0.7794383323
 20
11.0480311256
 10
-0.8487969998
 20
10.9270291196
 10
-0.9127611146
 20
10.801174792
 10
-0.9710334711
 20
10.6706938355
 10
-1.0233084581
 20
10.5358985201
 10
-1.0692743253
 20
10.3972148983
 10
-1.108665503
 20
10.2550369724
 10
-1.1412997633
 20
10.1095820255
 10
-1.1669987227
 20
9.9610495959
 10
-1.1855624383
 20
9.8097247097
 10
-1.1968131636
 20
9.6559406419
 10
-1.2005967807
 20
9.5
  0
LWPOLYLINE
  5
2AA
100
AcDbEntity
  8
0
100
AcDbPolyline
 62
7
  6
CONTINUOUS
 90
10
 70
0
 10
-1.1848574578
 20
11.5103336283
 10
-1.1481591065
 20
11.5647620752
 10
-1.1109540769
 20
11.6188736164
 10
-1.0732465255
 20
11.6726621624
 10
-1.0350373741
 20
11.7261261065
 10
-0.9963339411
 20
11.7792548051
 10
-0.9571503518
 20
11.8320288683
 10
-0.9174944987
 20
11.8844380592
 10
-0.8773676319
 20
11.9364810031
 10
-0.8367742767
 20
11.988151872
  0
LINE
  5
2AB
100
AcDbEntity
  8
0
100
AcDbLine
 62
7
  6
CONTINUOUS
 10
-0.5891891892
 20
11.0803324631
 11
-0.5565490227
 21
11.1285430439
  0
LWPOLYLINE
  5
2AC
100
AcDbEntity
  8
RACCORDO
100
AcDbPolyline
 62
250
  6
CONTINUOUS
 90
10
 70
0
 10
-0.261168054
 20
7.5459767362
 10
-0.2906240459
 20
7.503864988
 10
-0.3213588286
 20
7.4608822895
 10
-0.3535402663
 20
7.417168868
 10
-0.3874958585
 20
7.3726511077
 10
-0.4232765181
 20
7.3277595687
 10
-0.4605647958
 20
7.2833634702
 10
-0.4992778793
 20
7.2398369481
 10
-0.5396499059
 20
7.1971222845
 10
-0.5817462127
 20
7.1553896542
  0
LWPOLYLINE
  5
2AD
100
AcDbEntity
  8
0
100
AcDbPolyline
 62
7
  6
CONTINUOUS
 90
3
 70
0
 10
-3.5355500439
 20
5.6058455933
 10
-3.5319891538
 20
5.6105213959
 10
-3.530631118
 20
5.6109078115
  0
LWPOLYLINE
  5
2AE
100
AcDbEntity
  8
0
100
AcDbPolyline
 62
7
  6
CONTINUOUS
 90
10
 70
0
 10
0.3883601919
 20
7.6734263276
 10
0.3744202015
 20
7.6583252245
 10
0.3609043153
 20
7.643924572
 10
0.3472690782
 20
7.6296173194
 10
0.33354148
 20
7.6154298917
 10
0.3196951889
 20
7.6013332318
 10
0.3056483419
 20
7.5872446673
 10
0.2913713196
 20
7.5731376185
 10
0.2768889454
 20
7.5590397335
 10
0.2621988624
 20
7.5449512325
  0
LWPOLYLINE
  5
2AF
100
AcDbEntity
  8
0
100
AcDbPolyline
 62
7
  6
CONTINUOUS
 90
10
 70
0
 10
0.7565937148
 20
7.3351865289
 10
0.7399998996
 20
7.3172232308
 10
0.7239245417
 20
7.3000998503
 10
0.7077210359
 20
7.2831009333
 10
0.6914218263
 20
7.2662579868
 10
0.6749960269
 20
7.2495366323
 10
0.6583470802
 20
7.2328390906
 10
0.6414405938
 20
7.2161342877
 10
0.6243066712
 20
7.1994553729
 10
0.6069432083
 20
7.1828029783
  0
LWPOLYLINE
  5
2B0
100
AcDbEntity
  8
0
100
AcDbPolyline
 62
7
  6
CONTINUOUS
 90
4
 70
0
 10
0.8610409451
 20
7.4457235718
 10
0.8242121614
 20
7.4073371288
 10
0.789174297
 20
7.3702809195
 10
0.7565937148
 20
7.3351865289
  0
LWPOLYLINE
  5
2B1
100
AcDbEntity
  8
0
100
AcDbPolyline
 62
7
  6
CONTINUOUS
 90
6
 70
0
 10
1.116200838
 20
7.7029811041
 10
1.0699994847
 20
7.657419717
 10
1.0253639725
 20
7.6129935996
 10
0.9822085226
 20
7.5696579211
 10
0.9403238146
 20
7.5271793136
 10
0.8610409451
 20
7.4457235718
  0
LWPOLYLINE
  5
2B2
100
AcDbEntity
  8
0
100
AcDbPolyline
 62
7
  6
CONTINUOUS
 90
22
 70
0
 10
2.0206922508
 20
8.433944431
 10
1.9820343261
 20
8.396808216
 10
1.9430725414
 20
8.3599421045
 10
1.9038103403
 20
8.3233555833
 10
1.8642809798
 20
8.2870837868
 10
1.824458216
 20
8.2511090145
 10
1.7842530765
 20
8.2153667804
 10
1.7436662406
 20
8.1798790225
 10
1.7026975024
 20
8.1446530063
 10
1.6612504032
 20
8.1096138434
 10
1.6193224968
 20
8.0747895079
 10
1.5769142015
 20
8.0401952159
 10
1.5339267094
 20
8.0057497624
 10
1.4903594236
 20
7.9714901043
 10
1.4462088115
 20
7.9374366236
 10
1.4013644447
 20
7.9034977534
 10
1.3558239088
 20
7.8697191267
 10
1.3095820537
 20
7.8361288374
 10
1.2625164025
 20
7.8026260347
 10
1.214580429
 20
7.7692122806
 10
1.1658094196
 20
7.7359815528
 10
1.116200838
 20
7.7029811041
  0
LINE
  5
2B3
100
AcDbEntity
  8
0
100
AcDbLine
 62
7
  6
CONTINUOUS
 10
-0.3878039639
 20
7.672820323
 11
-0.7559362426
 21
7.3344706641
  0
LWPOLYLINE
  5
2B4
100
AcDbEntity
  8
0
100
AcDbPolyline
 62
7
  6
CONTINUOUS
 90
22
 70
0
 10
1.5882804933
 20
8.5481577559
 10
1.5512719262
 20
8.5164837073
 10
1.5140598944
 20
8.4851466053
 10
1.4766502922
 20
8.4541522945
 10
1.439077244
 20
8.4235279428
 10
1.4013180316
 20
8.3932559455
 10
1.3632905287
 20
8.3632800586
 10
1.3249976134
 20
8.3336170887
 10
1.286441715
 20
8.30427047
 10
1.2475349662
 20
8.2751751937
 10
1.2082772445
 20
8.2463534056
 10
1.1686713845
 20
8.2178155017
 10
1.1286285418
 20
8.1894910992
 10
1.0881500639
 20
8.1614101005
 10
1.0472349959
 20
8.1335874284
 10
1.0057851672
 20
8.1059438262
 10
0.9638000063
 20
8.0785165974
 10
0.9212768886
 20
8.0513271239
 10
0.87810804
 20
8.0242878884
 10
0.8342535525
 20
7.9973984866
 10
0.7897459923
 20
7.970736253
 10
0.7445837329
 20
7.9443385761
  0
LWPOLYLINE
  5
2B5
100
AcDbEntity
  8
RACCORDO
100
AcDbPolyline
 62
250
  6
CONTINUOUS
 90
10
 70
0
 10
-0.261168054
 20
7.5459767362
 10
-0.3033458177
 20
7.5127599384
 10
-0.346560645
 20
7.4792407069
 10
-0.3907973636
 20
7.4454970408
 10
-0.4363011181
 20
7.4113693499
 10
-0.4828397878
 20
7.3771320788
 10
-0.5296807386
 20
7.3434772001
 10
-0.5766031019
 20
7.3105977702
 10
-0.6239178533
 20
7.2782033652
 10
-0.6716944957
 20
7.2462056095
  0
LINE
  5
2B6
100
AcDbEntity
  8
0
100
AcDbLine
 62
7
  6
CONTINUOUS
 10
-0.7445837329
 20
7.9443385761
 11
-1.1162212277
 21
7.7030117115
  0
LWPOLYLINE
  5
2B7
100
AcDbEntity
  8
RACCORDO
100
AcDbPolyline
 62
7
  6
CONTINUOUS
 90
10
 70
0
 10
3.7
 20
7.4
 10
3.7113020815
 20
7.4073283815
 10
3.7293699155
 20
7.4273182663
 10
3.7542035021
 20
7.4568398615
 10
3.7874800942
 20
7.4923617542
 10
3.8275224388
 20
7.5314227004
 10
3.8692987775
 20
7.5734397144
 10
3.9111318576
 20
7.6174729559
 10
3.9546989317
 20
7.6615920728
 10
4.0
 20
7.7046227737
  0
LINE
  5
2B8
100
AcDbEntity
  8
0
100
AcDbLine
 62
7
  6
CONTINUOUS
 10
0.3292893219
 20
6.9655449475
 11
2.2
 21
8.1680145927
  0
LINE
  5
2B9
100
AcDbEntity
  8
0
100
AcDbLine
 62
7
  6
CONTINUOUS
 10
0.3292893219
 20
6.582522726
 11
2.2
 21
7.7849923712
  0
LWPOLYLINE
  5
2BA
100
AcDbEntity
  8
0
100
AcDbPolyline
 62
7
  6
CONTINUOUS
 90
10
 70
0
 10
0.7445837329
 20
7.9443385761
 10
0.6932583398
 20
7.913547939
 10
0.6450930555
 20
7.8830767003
 10
0.5999366175
 20
7.8527835696
 10
0.5575221055
 20
7.8223839987
 10
0.5178189509
 20
7.7919372077
 10
0.4810630658
 20
7.7618110904
 10
0.4472728574
 20
7.7320507105
 10
0.4162202403
 20
7.7024112335
 10
0.3883601919
 20
7.6734263276
  0
LWPOLYLINE
  5
2BB
100
AcDbEntity
  8
RACCORDO
100
AcDbPolyline
 62
7
  6
CONTINUOUS
 90
10
 70
0
 10
-3.7
 20
5.3
 10
-3.7120859341
 20
5.2931054124
 10
-3.730648425
 20
5.2741988634
 10
-3.7556874727
 20
5.2460843086
 10
-3.7887560198
 20
5.2119646867
 10
-3.8283011237
 20
5.1741046522
 10
-3.8696639565
 20
5.133068285
 10
-3.9112915755
 20
5.089758942
 10
-3.9547369233
 20
5.0460165672
 10
-4.0
 20
5.0030018011
  0
LWPOLYLINE
  5
2BC
100
AcDbEntity
  8
0
100
AcDbPolyline
 62
7
  6
CONTINUOUS
 90
9
 70
0
 10
3.530631118
 20
5.6109078115
 10
3.5284280811
 20
5.609891227
 10
3.5248668258
 20
5.6039625978
 10
3.5213052663
 20
5.5927997472
 10
3.5177435243
 20
5.5765218723
 10
3.5141819649
 20
5.5553001078
 10
3.5106207096
 20
5.5293580369
 10
3.5070596369
 20
5.4989710584
 10
3.5034987468
 20
5.4644612021
  0
LWPOLYLINE
  5
2BD
100
AcDbEntity
  8
RACCORDO
100
AcDbPolyline
 62
250
  6
CONTINUOUS
 90
10
 70
0
 10
-2.2796388705
 20
-7.8741935478
 10
-2.2863682198
 20
-7.8756189908
 10
-2.2971817949
 20
-7.8675743683
 10
-2.3131746012
 20
-7.8527640774
 10
-2.3370857715
 20
-7.8329983841
 10
-2.3690399363
 20
-7.8119255561
 10
-2.4024780965
 20
-7.7907642904
 10
-2.4356794798
 20
-7.7664449552
 10
-2.4746999584
 20
-7.7375108276
 10
-2.5238858928
 20
-7.7046227744
  0
LWPOLYLINE
  5
2BE
100
AcDbEntity
  8
0
100
AcDbPolyline
 62
7
  6
CONTINUOUS
 90
12
 70
0
 10
-3.5306308396
 20
-6.1109078115
 10
-3.5302049902
 20
-6.1108318193
 10
-3.5275336524
 20
-6.1068910244
 10
-3.5248633716
 20
-6.0970031349
 10
-3.5221938835
 20
-6.0812334488
 10
-3.5195243953
 20
-6.0596735831
 10
-3.5168549072
 20
-6.0324521911
 10
-3.5141854191
 20
-5.9997317097
 10
-3.5115151383
 20
-5.9616928111
 10
-3.5088438005
 20
-5.9185516054
 10
-3.50617167
 20
-5.8705648671
 10
-3.5034987468
 20
-5.8180145927
  0
LWPOLYLINE
  5
2BF
100
AcDbEntity
  8
0
100
AcDbPolyline
 62
7
  6
CONTINUOUS
 90
11
 70
0
 10
0.4
 20
-6.4727920172
 10
0.3837673833
 20
-6.4737401477
 10
0.3686343666
 20
-6.4760754696
 10
0.35460095
 20
-6.4797979828
 10
0.3413804996
 20
-6.4850650472
 10
0.3292596493
 20
-6.4917193029
 10
0.3190983006
 20
-6.4992886704
 10
0.3110388354
 20
-6.507839644
 10
0.304938872
 20
-6.5173057293
 10
0.3012311659
 20
-6.5270153646
 10
0.3000901969
 20
-6.5370704535
  0
LINE
  5
2C0
100
AcDbEntity
  8
RACCORDO
100
AcDbLine
 62
7
  6
CONTINUOUS
 10
3.7
 20
-7.4
 11
2.5238858928
 21
-7.4
  0
LINE
  5
2C1
100
AcDbEntity
  8
RACCORDO
100
AcDbLine
 62
7
  6
CONTINUOUS
 10
-2.5238858928
 20
-7.4
 11
-3.7
 21
-7.4
  0
LINE
  5
2C2
100
AcDbEntity
  8
0
100
AcDbLine
 62
7
  6
CONTINUOUS
 10
0.02
 20
-6.98
 11
0.3517773915
 21
-6.98
  0
LINE
  5
2C3
100
AcDbEntity
  8
0
100
AcDbLine
 62
7
  6
CONTINUOUS
 10
-0.02
 20
-6.98
 11
-0.3517773915
 21
-6.98
  0
LINE
  5
2C4
100
AcDbEntity
  8
0
100
AcDbLine
 62
7
  6
CONTINUOUS
 10
-1.2
 20
-6.4727920172
 11
-0.4
 21
-6.4727920172
  0
LINE
  5
2C5
100
AcDbEntity
  8
0
100
AcDbLine
 62
7
  6
CONTINUOUS
 10
1.2
 20
-6.4727920172
 11
0.4
 21
-6.4727920172
  0
LINE
  5
2C6
100
AcDbEntity
  8
0
100
AcDbLine
 62
250
  6
CONTINUOUS
 10
-3.1
 20
-6.4339555569
 11
-1.2
 21
-6.4339555569
  0
LINE
  5
2C7
100
AcDbEntity
  8
0
100
AcDbLine
 62
250
  6
CONTINUOUS
 10
3.1
 20
-6.4339555569
 11
1.2
 21
-6.4339555569
  0
LINE
  5
2C8
100
AcDbEntity
  8
0
100
AcDbLine
 62
7
  6
CONTINUOUS
 10
-3.1
 20
-6.2
 11
-0.8
 21
-6.2
  0
LINE
  5
2C9
100
AcDbEntity
  8
0
100
AcDbLine
 62
7
  6
CONTINUOUS
 10
3.1
 20
-6.2
 11
0.8
 21
-6.2
  0
LINE
  5
2CA
100
AcDbEntity
  8
0
100
AcDbLine
 62
7
  6
CONTINUOUS
 10
-3.5306303703
 20
-6.1109078115
 11
3.5306303703
 21
-6.1109078115
  0
LINE
  5
2CB
100
AcDbEntity
  8
0
100
AcDbLine
 62
250
  6
CONTINUOUS
 10
3.5034987468
 20
-5.8180145927
 11
-3.5034987468
 21
-5.8180145927
  0
LINE
  5
2CC
100
AcDbEntity
  8
0
100
AcDbLine
 62
250
  6
CONTINUOUS
 10
3.5355500439
 20
-5.6058455933
 11
3.5259979182
 21
-5.6058455933
  0
LINE
  5
2CD
100
AcDbEntity
  8
0
100
AcDbLine
 62
250
  6
CONTINUOUS
 10
-3.5259979182
 20
-5.6058455933
 11
-3.5355500439
 21
-5.6058455933
  0
LINE
  5
2CE
100
AcDbEntity
  8
RACCORDO
100
AcDbLine
 62
7
  6
CONTINUOUS
 10
-3.7
 20
-5.3
 11
3.7
 21
-5.3
  0
LINE
  5
2CF
100
AcDbEntity
  8
RACCORDO
100
AcDbLine
 62
250
  6
CONTINUOUS
 10
-4.0
 20
-5.0030018011
 11
4.0
 21
-5.0030018011
  0
LWPOLYLINE
  5
2D0
100
AcDbEntity
  8
0
100
AcDbPolyline
 62
7
  6
CONTINUOUS
 90
11
 70
0
 10
-0.4
 20
-6.4727920172
 10
-0.3837673833
 20
-6.4737401477
 10
-0.3686343666
 20
-6.4760754696
 10
-0.35460095
 20
-6.4797979828
 10
-0.3413804996
 20
-6.4850650472
 10
-0.3292596493
 20
-6.4917193029
 10
-0.3190983006
 20
-6.4992886704
 10
-0.3110388354
 20
-6.507839644
 10
-0.304938872
 20
-6.5173057293
 10
-0.3012311659
 20
-6.5270153646
 10
-0.3000901969
 20
-6.5370704535
  0
LWPOLYLINE
  5
2D1
100
AcDbEntity
  8
0
100
AcDbPolyline
 62
7
  6
CONTINUOUS
 90
12
 70
0
 10
3.5306308396
 20
-6.1109078115
 10
3.5302049902
 20
-6.1108318193
 10
3.5275336524
 20
-6.1068910244
 10
3.5248633716
 20
-6.0970031349
 10
3.5221938835
 20
-6.0812334488
 10
3.5195243953
 20
-6.0596735831
 10
3.5168549072
 20
-6.0324521911
 10
3.5141854191
 20
-5.9997317097
 10
3.5115151383
 20
-5.9616928111
 10
3.5088438005
 20
-5.9185516054
 10
3.50617167
 20
-5.8705648671
 10
3.5034987468
 20
-5.8180145927
  0
LWPOLYLINE
  5
2D2
100
AcDbEntity
  8
0
100
AcDbPolyline
 62
7
  6
CONTINUOUS
 90
9
 70
0
 10
3.530631118
 20
-5.6109078115
 10
3.5284280811
 20
-5.609891227
 10
3.5248668258
 20
-5.6039625978
 10
3.5213052663
 20
-5.5927997472
 10
3.5177435243
 20
-5.5765218723
 10
3.5141819649
 20
-5.5553001078
 10
3.5106207096
 20
-5.5293580369
 10
3.5070596369
 20
-5.4989710584
 10
3.5034987468
 20
-5.4644612021
  0
LWPOLYLINE
  5
2D3
100
AcDbEntity
  8
RACCORDO
100
AcDbPolyline
 62
7
  6
CONTINUOUS
 90
10
 70
0
 10
-3.7
 20
-5.3
 10
-3.7119173604
 20
-5.2931625888
 10
-3.730400192
 20
-5.27436342
 10
-3.7554484949
 20
-5.2463198723
 10
-3.7886775728
 20
-5.212107148
 10
-3.8284721219
 20
-5.1739899137
 10
-3.8699862304
 20
-5.1327475143
 10
-3.9116045943
 20
-5.0894116925
 10
-3.9549425175
 20
-5.045774862
 10
-4.0
 20
-5.0030018011
  0
LWPOLYLINE
  5
2D4
100
AcDbEntity
  8
0
100
AcDbPolyline
 62
7
  6
CONTINUOUS
 90
10
 70
0
 10
0.7445837329
 20
-7.9443385761
 10
0.6932583398
 20
-7.913547939
 10
0.6450930555
 20
-7.8830767003
 10
0.5999366175
 20
-7.8527835696
 10
0.5575221055
 20
-7.8223839987
 10
0.5178189509
 20
-7.7919372077
 10
0.4810630658
 20
-7.7618110904
 10
0.4472728574
 20
-7.7320507105
 10
0.4162202403
 20
-7.7024112335
 10
0.388360192
 20
-7.6734263277
  0
LWPOLYLINE
  5
2D5
100
AcDbEntity
  8
RACCORDO
100
AcDbPolyline
 62
7
  6
CONTINUOUS
 90
10
 70
0
 10
3.7
 20
-7.4
 10
3.7115472821
 20
-7.4074152158
 10
3.7297308128
 20
-7.427567155
 10
3.7545505923
 20
-7.457194478
 10
3.7875929351
 20
-7.4925752019
 10
3.8272715265
 20
-7.5312523089
 10
3.8688274231
 20
-7.5729647933
 10
3.9106743103
 20
-7.6169606662
 10
3.9543985026
 20
-7.6612367416
 10
4.0
 20
-7.7046227737
  0
LINE
  5
2D6
100
AcDbEntity
  8
0
100
AcDbLine
 62
7
  6
CONTINUOUS
 10
0.3292893219
 20
-6.9655449475
 11
2.2
 21
-8.1680145927
  0
LINE
  5
2D7
100
AcDbEntity
  8
0
100
AcDbLine
 62
7
  6
CONTINUOUS
 10
0.3292893219
 20
-6.582522726
 11
2.2
 21
-7.7849923712
  0
LINE
  5
2D8
100
AcDbEntity
  8
0
100
AcDbLine
 62
7
  6
CONTINUOUS
 10
-0.7445837329
 20
-7.9443385761
 11
-1.116200838
 21
-7.7029811041
  0
LWPOLYLINE
  5
2D9
100
AcDbEntity
  8
0
100
AcDbPolyline
 62
7
  6
CONTINUOUS
 90
22
 70
0
 10
1.5882804933
 20
-8.5481577559
 10
1.5512719262
 20
-8.5164837073
 10
1.5140598944
 20
-8.4851466053
 10
1.4766502922
 20
-8.4541522945
 10
1.439077244
 20
-8.4235279428
 10
1.4013180316
 20
-8.3932559455
 10
1.3632905287
 20
-8.3632800586
 10
1.3249976134
 20
-8.3336170887
 10
1.286441715
 20
-8.30427047
 10
1.2475349662
 20
-8.2751751937
 10
1.2082772445
 20
-8.2463534056
 10
1.1686713845
 20
-8.2178155017
 10
1.1286285418
 20
-8.1894910992
 10
1.0881500639
 20
-8.1614101005
 10
1.0472349959
 20
-8.1335874284
 10
1.0057851672
 20
-8.1059438262
 10
0.9638000063
 20
-8.0785165974
 10
0.9212768886
 20
-8.0513271239
 10
0.87810804
 20
-8.0242878884
 10
0.8342535525
 20
-7.9973984866
 10
0.7897459923
 20
-7.970736253
 10
0.7445837329
 20
-7.9443385761
  0
LINE
  5
2DA
100
AcDbEntity
  8
0
100
AcDbLine
 62
7
  6
CONTINUOUS
 10
-0.3878164987
 20
-7.6728203243
 11
-0.7559463809
 21
-7.3344721356
  0
LWPOLYLINE
  5
2DB
100
AcDbEntity
  8
RACCORDO
100
AcDbPolyline
 62
7
  6
CONTINUOUS
 90
4
 70
0
 10
0.6069491422
 20
-7.1828086091
 10
0.6159386289
 20
-7.19133308
 10
0.6256703016
 20
-7.2007198929
 10
0.6361291853
 20
-7.2109364834
  0
LWPOLYLINE
  5
2DC
100
AcDbEntity
  8
0
100
AcDbPolyline
 62
7
  6
CONTINUOUS
 90
22
 70
0
 10
2.0206942232
 20
-8.4339516566
 10
1.9820386471
 20
-8.3968232805
 10
1.9430788656
 20
-8.3599632137
 10
1.9038182673
 20
-8.323380992
 10
1.8642902592
 20
-8.2871125416
 10
1.8244683539
 20
-8.2511394566
 10
1.7842628591
 20
-8.2153951207
 10
1.7436734211
 20
-8.1798990988
 10
1.7027005504
 20
-8.1446613375
 10
1.6612498027
 20
-8.1096122856
 10
1.6193190993
 20
-8.0747804381
 10
1.5769086201
 20
-8.0401803574
 10
1.5339209694
 20
-8.0057341016
 10
1.4903569097
 20
-7.9714809603
 10
1.4462119612
 20
-7.9374385211
 10
1.4013736116
 20
-7.9035108418
 10
1.3558396655
 20
-7.8697439665
 10
1.3096047948
 20
-7.8361655179
 10
1.2625434864
 20
-7.8026693864
 10
1.2146079916
 20
-7.7692556596
 10
1.1658344108
 20
-7.736020341
 10
1.1162200317
 20
-7.7030109467
  0
LWPOLYLINE
  5
2DD
100
AcDbEntity
  8
0
100
AcDbPolyline
 62
7
  6
CONTINUOUS
 90
5
 70
0
 10
1.116219292
 20
-7.703009819
 10
1.0699979726
 20
-7.6574175262
 10
1.0253466805
 20
-7.612968987
 10
0.9821800613
 20
-7.5696189521
 10
0.9402902751
 20
-7.5271349597
  0
LWPOLYLINE
  5
2DE
100
AcDbEntity
  8
RACCORDO
100
AcDbPolyline
 62
7
  6
CONTINUOUS
 90
3
 70
0
 10
0.6361291853
 20
-7.2109364834
 10
0.6591603502
 20
-7.2337174238
 10
0.6716944957
 20
-7.2462056095
  0
LWPOLYLINE
  5
2DF
100
AcDbEntity
  8
0
100
AcDbPolyline
 62
7
  6
CONTINUOUS
 90
5
 70
0
 10
0.9402902751
 20
-7.5271349597
 10
0.8610104991
 20
-7.4456861033
 10
0.824186037
 20
-7.4073063124
 10
0.7891553525
 20
-7.3702594961
 10
0.7565847093
 20
-7.3351767249
  0
LINE
  5
2E0
100
AcDbEntity
  8
0
100
AcDbLine
 62
7
  6
CONTINUOUS
 10
-0.2621988461
 20
-7.5449512535
 11
-0.6069429596
 21
-7.1828028085
  0
LWPOLYLINE
  5
2E1
100
AcDbEntity
  8
RACCORDO
100
AcDbPolyline
 62
7
  6
CONTINUOUS
 90
10
 70
0
 10
0.3878164987
 20
-7.6728203243
 10
0.3744202015
 20
-7.6583252245
 10
0.3609043153
 20
-7.643924572
 10
0.3472690782
 20
-7.6296173194
 10
0.33354148
 20
-7.6154298917
 10
0.3196951889
 20
-7.6013332318
 10
0.3056483419
 20
-7.5872446673
 10
0.2913713196
 20
-7.5731376185
 10
0.2768889454
 20
-7.5590397335
 10
0.2621988624
 20
-7.5449512325
  0
LWPOLYLINE
  5
2E2
100
AcDbEntity
  8
RACCORDO
100
AcDbPolyline
 62
7
  6
CONTINUOUS
 90
7
 70
0
 10
0.7559300036
 20
-7.3344543184
 10
0.742132147
 20
-7.3195143078
 10
0.7282372004
 20
-7.3046680339
 10
0.7142456324
 20
-7.2899148161
 10
0.700157849
 20
-7.2752539307
 10
0.6859741931
 20
-7.2606846129
 10
0.6716949432
 20
-7.2462060587
  0
LINE
  5
2E3
100
AcDbEntity
  8
0
100
AcDbLine
 62
7
  6
CONTINUOUS
 10
0.7565847093
 20
-7.3351767249
 11
0.7559326597
 21
-7.3344667622
  0
LINE
  5
2E4
100
AcDbEntity
  8
0
100
AcDbLine
 62
7
  6
CONTINUOUS
 10
0.388360192
 20
-7.6734263277
 11
0.3878039604
 21
-7.6728203192
  0
LWPOLYLINE
  5
2E5
100
AcDbEntity
  8
0
100
AcDbPolyline
 62
7
  6
CONTINUOUS
 90
16
 70
0
 10
0.38836018
 20
-7.6734263147
 10
0.4472379644
 20
-7.7396750385
 10
0.5364472754
 20
-7.8490849858
 10
0.6197911425
 20
-7.9629810495
 10
0.6970305576
 20
-8.0810573603
 10
0.7679720254
 20
-8.2029812606
 10
0.8324342359
 20
-8.3284167682
 10
0.8902337111
 20
-8.4570220029
 10
0.9412073236
 20
-8.588447775
 10
0.9852420195
 20
-8.7223326629
 10
1.0222311508
 20
-8.8583089192
 10
1.0520681623
 20
-8.9960036434
 10
1.0746738014
 20
-9.1350416771
 10
1.0900151332
 20
-9.2750423166
 10
1.0980639788
 20
-9.4156260554
 10
1.0993808834
 20
-9.5
  0
LWPOLYLINE
  5
2E6
100
AcDbEntity
  8
0
100
AcDbPolyline
 62
7
  6
CONTINUOUS
 90
3
 70
0
 10
-3.5355500439
 20
-5.6058455933
 10
-3.5319891538
 20
-5.6105213959
 10
-3.530631118
 20
-5.6109078115
  0
LWPOLYLINE
  5
2E7
100
AcDbEntity
  8
0
100
AcDbPolyline
 62
7
  6
CONTINUOUS
 90
13
 70
0
 10
-0.5891892084
 20
-11.080332477
 10
-0.6423090051
 20
-11.0039926963
 10
-0.7220387028
 20
-10.8776354526
 10
-0.7946856083
 20
-10.7470184486
 10
-0.8600263397
 20
-10.6125491035
 10
-0.9178418717
 20
-10.4746294879
 10
-0.9679174408
 20
-10.333657475
 10
-1.0100575304
 20
-10.1900534963
 10
-1.044162266
 20
-10.0442679306
 10
-1.0701635989
 20
-9.8967464324
 10
-1.0879951298
 20
-9.7479407056
 10
-1.097591122
 20
-9.5983092525
 10
-1.0993809222
 20
-9.5
  0
LINE
  5
2E8
100
AcDbEntity
  8
0
100
AcDbLine
 62
7
  6
CONTINUOUS
 10
-0.5891891892
 20
-11.0803324631
 11
-0.5564170632
 21
-11.1287655324
  0
LWPOLYLINE
  5
2E9
100
AcDbEntity
  8
0
100
AcDbPolyline
 62
7
  6
CONTINUOUS
 90
10
 70
0
 10
-1.1848574578
 20
-11.5103336283
 10
-1.1481591065
 20
-11.5647620752
 10
-1.1109540769
 20
-11.6188736164
 10
-1.0732465255
 20
-11.6726621624
 10
-1.0350373741
 20
-11.7261261065
 10
-0.9963339411
 20
-11.7792548051
 10
-0.9571503518
 20
-11.8320288683
 10
-0.9174944987
 20
-11.8844380592
 10
-0.8773676319
 20
-11.9364810031
 10
-0.8367742767
 20
-11.988151872
  0
LWPOLYLINE
  5
2EA
100
AcDbEntity
  8
0
100
AcDbPolyline
 62
250
  6
CONTINUOUS
 90
13
 70
0
 10
-0.7049994859
 20
-11.1639336303
 10
-0.7794383323
 20
-11.0480311256
 10
-0.8487969998
 20
-10.9270291196
 10
-0.9127611146
 20
-10.801174792
 10
-0.9710334711
 20
-10.6706938355
 10
-1.0233084581
 20
-10.5358985201
 10
-1.0692743253
 20
-10.3972148983
 10
-1.108665503
 20
-10.2550369724
 10
-1.1412997633
 20
-10.1095820255
 10
-1.1669987227
 20
-9.9610495959
 10
-1.1855624383
 20
-9.8097247097
 10
-1.1968131636
 20
-9.6559406419
 10
-1.2005967807
 20
-9.5
  0
LWPOLYLINE
  5
2EB
100
AcDbEntity
  8
0
100
AcDbPolyline
 62
250
  6
CONTINUOUS
 90
10
 70
0
 10
-0.7049994859
 20
-11.1639336303
 10
-0.6655480509
 20
-11.2260950163
 10
-0.629644922
 20
-11.2910819293
 10
-0.5974642538
 20
-11.3586253523
 10
-0.5690781083
 20
-11.4287302967
 10
-0.5448117556
 20
-11.5008228197
 10
-0.5250672976
 20
-11.5736967273
 10
-0.5099253984
 20
-11.6466998213
 10
-0.4993217915
 20
-11.719786728
 10
-0.4932787005
 20
-11.7926288566
  0
LWPOLYLINE
  5
2EC
100
AcDbEntity
  8
0
100
AcDbPolyline
 62
7
  6
CONTINUOUS
 90
13
 70
0
 10
-1.5480771518
 20
-11.738281018
 10
-1.6372120855
 20
-11.5921020353
 10
-1.7210694562
 20
-11.4382610546
 10
-1.7990495005
 20
-11.2770207399
 10
-1.8703421971
 20
-11.1092677073
 10
-1.9346902314
 20
-10.9348610741
 10
-1.9921226108
 20
-10.752578896
 10
-2.0419504706
 20
-10.5630262781
 10
-2.0836436808
 20
-10.366590328
 10
-2.1170432624
 20
-10.1617317435
 10
-2.1415702721
 20
-9.9483490838
 10
-2.1565697446
 20
-9.7276249507
 10
-2.1616367785
 20
-9.5
  0
LWPOLYLINE
  5
2ED
100
AcDbEntity
  8
0
100
AcDbPolyline
 62
7
  6
CONTINUOUS
 90
13
 70
0
 10
-1.1848574578
 20
-11.5103336283
 10
-1.2610429016
 20
-11.3820890344
 10
-1.3328475376
 20
-11.2466543948
 10
-1.3997298647
 20
-11.1042259639
 10
-1.4609616096
 20
-10.9555521938
 10
-1.5162977446
 20
-10.8004524041
 10
-1.5657510953
 20
-10.6377496308
 10
-1.6087148552
 20
-10.4678741721
 10
-1.6447154443
 20
-10.2910517432
 10
-1.6735966767
 20
-10.1057509167
 10
-1.6948349675
 20
-9.9116957694
 10
-1.7078404635
 20
-9.7097343491
 10
-1.7122397553
 20
-9.5
  0
LWPOLYLINE
  5
2EE
100
AcDbEntity
  8
0
100
AcDbPolyline
 62
7
  6
CONTINUOUS
 90
8
 70
0
 10
-0.5564170632
 20
-11.1287655324
 10
-0.5266266415
 20
-11.178993269
 10
-0.4995445314
 20
-11.2315316453
 10
-0.4753715407
 20
-11.2861369016
 10
-0.4543094571
 20
-11.3425074403
 10
-0.4366100622
 20
-11.4000299297
 10
-0.4223308356
 20
-11.4584967557
 10
-0.4193767353
 20
-11.4728600399
  0
LINE
  5
2EF
100
AcDbEntity
  8
0
100
AcDbLine
 62
250
  6
CONTINUOUS
 10
-0.47574662
 20
-11.2857473553
 11
-0.4753715407
 21
-11.2861369016
  0
LINE
  5
2F0
100
AcDbEntity
  8
0
100
AcDbLine
 62
7
  6
CONTINUOUS
 10
-3.7
 20
-5.6553975461
 11
-3.5355500439
 21
-6.100783375
  0
LINE
  5
2F1
100
AcDbEntity
  8
0
100
AcDbLine
 62
7
  6
CONTINUOUS
 10
-3.6484775129
 20
-5.3
 11
-3.5355500439
 21
-5.6058455933
  0
LWPOLYLINE
  5
2F2
100
AcDbEntity
  8
RACCORDO
100
AcDbPolyline
 62
250
  6
CONTINUOUS
 90
23
 70
0
 10
-2.8916668316
 20
-10.6236512895
 10
-2.9338064451
 20
-10.5076875243
 10
-2.9712785677
 20
-10.3903244834
 10
-3.0040384082
 20
-10.2715709653
 10
-3.0320345965
 20
-10.151656729
 10
-3.0553013258
 20
-10.0306367967
 10
-3.073804403
 20
-9.9084561267
 10
-3.087389879
 20
-9.7851793868
 10
-3.0961547567
 20
-9.6610275299
 10
-3.1000020331
 20
-9.5357795885
 10
-3.09848675
 20
-9.4088373423
 10
-3.0919044478
 20
-9.2805079803
 10
-3.0799595861
 20
-9.1504842842
 10
-3.0613205846
 20
-9.0172463936
 10
-3.0361392536
 20
-8.8800395828
 10
-3.0042637828
 20
-8.7396184957
 10
-2.9639071612
 20
-8.5967273157
 10
-2.915085077
 20
-8.451035314
 10
-2.857781842
 20
-8.3028731665
 10
-2.7901633809
 20
-8.1539772009
 10
-2.7116183352
 20
-8.0049262064
 10
-2.6227580634
 20
-7.8551414044
 10
-2.5235825655
 20
-7.7046227981
  0
LWPOLYLINE
  5
2F3
100
AcDbEntity
  8
0
100
AcDbPolyline
 62
7
  6
CONTINUOUS
 90
3
 70
0
 10
-3.5355500439
 20
-6.100783375
 10
-3.5328771207
 20
-6.1087940137
 10
-3.5306308396
 20
-6.1109078115
  0
LINE
  5
2F4
100
AcDbEntity
  8
SUPERFICI
100
AcDbLine
 62
250
  6
CONTINUOUS
 10
-11.15
 20
21.8997711479
 11
-11.0087219643
 21
21.4755923698
  0
LINE
  5
2F5
100
AcDbEntity
  8
0
100
AcDbLine
 62
250
  6
CONTINUOUS
 10
-0.4546972678
 20
-11.3419798763
 11
-0.4543094571
 21
-11.3425074403
  0
LWPOLYLINE
  5
2F6
100
AcDbEntity
  8
SUPERFICI
100
AcDbPolyline
 62
250
  6
CONTINUOUS
 90
7
 70
0
 10
-11.0087219643
 20
21.4755923698
 10
-11.0080031927
 20
21.4716789126
 10
-11.0073010341
 20
21.4645568007
 10
-11.0066154888
 20
21.4542260342
 10
-11.0059419622
 20
21.4405716186
 10
-11.0052850488
 20
21.4237085484
 10
-11.0046585314
 20
21.403981807
  0
LWPOLYLINE
  5
2F7
100
AcDbEntity
  8
RACCORDO
100
AcDbPolyline
 62
7
  6
CONTINUOUS
 90
4
 70
0
 10
-3.4744974521
 20
5.4267174907
 10
-3.4692552797
 20
5.3778730988
 10
-3.4609039805
 20
5.3294630046
 10
-3.4538658779
 20
5.3
  0
LINE
  5
2F8
100
AcDbEntity
  8
0
100
AcDbLine
 62
7
  6
CONTINUOUS
 10
0.4037508027
 20
-11.752449056
 11
0.4483811269
 21
-12.2634685106
  0
LINE
  5
2F9
100
AcDbEntity
  8
0
100
AcDbLine
 62
250
  6
CONTINUOUS
 10
0.403767237
 20
-11.7519344603
 11
0.4037508027
 21
-11.752449056
  0
LINE
  5
2FA
100
AcDbEntity
  8
RACCORDO
100
AcDbLine
 62
7
  6
CONTINUOUS
 10
-3.5034987468
 20
5.4644612021
 11
-3.4913095745
 21
5.3
  0
LINE
  5
2FB
100
AcDbEntity
  8
RACCORDO
100
AcDbLine
 62
7
  6
CONTINUOUS
 10
-3.5034987468
 20
5.8180145927
 11
-3.4744974521
 21
5.4267174907
  0
LINE
  5
2FC
100
AcDbEntity
  8
0
100
AcDbLine
 62
250
  6
CONTINUOUS
 10
-0.404541518
 20
-11.5760712908
 11
-0.4008029062
 21
-11.6348918301
  0
LINE
  5
2FD
100
AcDbEntity
  8
0
100
AcDbLine
 62
7
  6
CONTINUOUS
 10
0.4004765539
 20
-11.6943445345
 11
0.4037505414
 21
-11.7524460188
  0
LINE
  5
2FE
100
AcDbEntity
  8
0
100
AcDbLine
 62
7
  6
CONTINUOUS
 10
-0.4004765539
 20
11.6943445345
 11
-0.4037505414
 21
11.7524460188
  0
LINE
  5
2FF
100
AcDbEntity
  8
0
100
AcDbLine
 62
250
  6
CONTINUOUS
 10
0.400542336
 20
-11.6937394071
 11
0.4004765539
 21
-11.6943445345
  0
LINE
  5
300
100
AcDbEntity
  8
0
100
AcDbLine
 62
250
  6
CONTINUOUS
 10
-0.400542336
 20
11.6937394071
 11
-0.4004765539
 21
11.6943445345
  0
LINE
  5
301
100
AcDbEntity
  8
0
100
AcDbLine
 62
250
  6
CONTINUOUS
 10
-0.4932787005
 20
-11.7926288566
 11
-0.486829313
 21
-11.9231078644
  0
LINE
  5
302
100
AcDbEntity
  8
0
100
AcDbLine
 62
250
  6
CONTINUOUS
 10
-0.486829313
 20
-11.9231078644
 11
-0.4809507624
 21
-12.0542961419
  0
LINE
  5
303
100
AcDbEntity
  8
0
100
AcDbLine
 62
250
  6
CONTINUOUS
 10
-0.4809507624
 20
-12.0542961419
 11
-0.4756521224
 21
-12.1862671798
  0
LINE
  5
304
100
AcDbEntity
  8
0
100
AcDbLine
 62
250
  6
CONTINUOUS
 10
-0.4756521224
 20
-12.1862671798
 11
-0.4730276571
 21
-12.2582837492
  0
LINE
  5
305
100
AcDbEntity
  8
0
100
AcDbLine
 62
250
  6
CONTINUOUS
 10
-0.403767237
 20
-11.7519344603
 11
-0.4037505414
 21
-11.7524460188
  0
LWPOLYLINE
  5
306
100
AcDbEntity
  8
0
100
AcDbPolyline
 62
250
  6
CONTINUOUS
 90
13
 70
0
 10
-1.2005967807
 20
9.5
 10
-1.1972404994
 20
9.3594659246
 10
-1.1872289188
 20
9.2199610398
 10
-1.1706479434
 20
9.0817896509
 10
-1.1475864664
 20
8.9452618794
 10
-1.1181373733
 20
8.8106505725
 10
-1.0824224657
 20
8.6782054041
 10
-1.0405814181
 20
8.5482186893
 10
-0.99275181
 20
8.4209725127
 10
-0.9390548978
 20
8.2966966544
 10
-0.8796612998
 20
8.1756489493
 10
-0.8147733168
 20
8.0581103868
 10
-0.7445837329
 20
7.9443385761
  0
LWPOLYLINE
  5
307
100
AcDbEntity
  8
0
100
AcDbPolyline
 62
7
  6
CONTINUOUS
 90
7
 70
0
 10
-2.1616367785
 20
9.5
 10
-2.1575625729
 20
9.3150917287
 10
-2.1454599894
 20
9.1326472712
 10
-2.1255157064
 20
8.9530044548
 10
-2.0979248535
 20
8.776472654
 10
-2.0628978228
 20
8.6033449758
 10
-2.0206943898
 20
8.4339522668
  0
LWPOLYLINE
  5
308
100
AcDbEntity
  8
0
100
AcDbPolyline
 62
7
  6
CONTINUOUS
 90
7
 70
0
 10
-1.7122397553
 20
9.5
 10
-1.7086443144
 20
9.3340324041
 10
-1.6979740873
 20
9.1706530866
 10
-1.6804081024
 20
9.0101316629
 10
-1.6561315955
 20
8.8527139427
 10
-1.6253421752
 20
8.6986329265
 10
-1.5882804933
 20
8.5481577559
  0
LWPOLYLINE
  5
309
100
AcDbEntity
  8
0
100
AcDbPolyline
 62
7
  6
CONTINUOUS
 90
5
 70
0
 10
-0.4004765539
 20
-11.6943445345
 10
-0.4008270304
 20
-11.6304970426
 10
-0.4053459115
 20
-11.5662695552
 10
-0.4139787209
 20
-11.5023742091
 10
-0.4193767353
 20
-11.4728600399
  0
LWPOLYLINE
  5
30A
100
AcDbEntity
  8
0
100
AcDbPolyline
 62
7
  6
CONTINUOUS
 90
5
 70
0
 10
0.4004765539
 20
11.6943445345
 10
0.4008270304
 20
11.6304970426
 10
0.4053459115
 20
11.5662695552
 10
0.4139787209
 20
11.5023742091
 10
0.4193767353
 20
11.4728600399
  0
LINE
  5
30B
100
AcDbEntity
  8
0
100
AcDbLine
 62
250
  6
CONTINUOUS
 10
-3.5034987468
 20
5.8180145927
 11
-3.5034987468
 21
5.4644612021
  0
LINE
  5
30C
100
AcDbEntity
  8
0
100
AcDbLine
 62
250
  6
CONTINUOUS
 10
-3.5034987468
 20
-5.8180145927
 11
-3.5034987468
 21
-5.4644612021
  0
LINE
  5
30D
100
AcDbEntity
  8
RACCORDO
100
AcDbLine
 62
250
  6
CONTINUOUS
 10
-3.4744974521
 20
-5.3
 11
-3.4744974521
 21
-5.4267174907
  0
LINE
  5
30E
100
AcDbEntity
  8
RACCORDO
100
AcDbLine
 62
250
  6
CONTINUOUS
 10
-3.4744974521
 20
5.3
 11
-3.4744974521
 21
5.4267174907
  0
LINE
  5
30F
100
AcDbEntity
  8
TRASH
100
AcDbLine
 62
7
  6
CONTINUOUS
 10
-3.4698202597
 20
-22.4
 11
-3.4698202597
 21
-22.5
  0
LINE
  5
310
100
AcDbEntity
  8
TRASH
100
AcDbLine
 62
7
  6
CONTINUOUS
 10
-3.4698202597
 20
22.4
 11
-3.4698202597
 21
22.5
  0
LINE
  5
311
100
AcDbEntity
  8
0
100
AcDbLine
 62
7
  6
CONTINUOUS
 10
-3.1
 20
-6.2
 11
-3.1
 21
-6.4339555569
  0
LINE
  5
312
100
AcDbEntity
  8
RACCORDO
100
AcDbLine
 62
7
  6
CONTINUOUS
 10
-3.1
 20
-6.4339555569
 11
-3.1
 21
-7.4
  0
LINE
  5
313
100
AcDbEntity
  8
0
100
AcDbLine
 62
7
  6
CONTINUOUS
 10
-3.1
 20
6.2
 11
-3.1
 21
6.4339555569
  0
LINE
  5
314
100
AcDbEntity
  8
RACCORDO
100
AcDbLine
 62
7
  6
CONTINUOUS
 10
-3.1
 20
6.4339555569
 11
-3.1
 21
7.4
  0
LINE
  5
315
100
AcDbEntity
  8
RACCORDO
100
AcDbLine
 62
250
  6
CONTINUOUS
 10
-2.5238858928
 20
-7.7046227737
 11
-2.5238858928
 21
-7.4
  0
LINE
  5
316
100
AcDbEntity
  8
RACCORDO
100
AcDbLine
 62
250
  6
CONTINUOUS
 10
-2.5238858928
 20
7.4
 11
-2.5238858928
 21
7.7046227737
  0
LINE
  5
317
100
AcDbEntity
  8
0
100
AcDbLine
 62
7
  6
CONTINUOUS
 10
-2.2
 20
-7.7849923712
 11
-2.2
 21
-8.1680145927
  0
LINE
  5
318
100
AcDbEntity
  8
SMUSSO
100
AcDbLine
 62
7
  6
CONTINUOUS
 10
-2.2
 20
7.7849923712
 11
-2.2
 21
8.1680145927
  0
LINE
  5
319
100
AcDbEntity
  8
0
100
AcDbLine
 62
7
  6
CONTINUOUS
 10
-1.2
 20
-6.2
 11
-1.2
 21
-6.4727920172
  0
LINE
  5
31A
100
AcDbEntity
  8
0
100
AcDbLine
 62
7
  6
CONTINUOUS
 10
-1.2
 20
6.2
 11
-1.2
 21
6.4727920172
  0
LINE
  5
31B
100
AcDbEntity
  8
0
100
AcDbLine
 62
250
  6
CONTINUOUS
 10
-0.8
 20
-6.2
 11
-0.8
 21
-6.4727920172
  0
LINE
  5
31C
100
AcDbEntity
  8
0
100
AcDbLine
 62
250
  6
CONTINUOUS
 10
-0.8
 20
6.2
 11
-0.8
 21
6.4727920172
  0
LINE
  5
31D
100
AcDbEntity
  8
0
100
AcDbLine
 62
250
  6
CONTINUOUS
 10
-0.3292893219
 20
-6.582522726
 11
-0.3292893219
 21
-6.9655449475
  0
LINE
  5
31E
100
AcDbEntity
  8
0
100
AcDbLine
 62
250
  6
CONTINUOUS
 10
-0.3292893219
 20
6.582522726
 11
-0.3292893219
 21
6.9655449475
  0
LINE
  5
31F
100
AcDbEntity
  8
0
100
AcDbLine
 62
7
  6
CONTINUOUS
 10
-0.3
 20
6.9200929997
 11
-0.3
 21
6.5370707782
  0
LINE
  5
320
100
AcDbEntity
  8
0
100
AcDbLine
 62
7
  6
CONTINUOUS
 10
-0.3
 20
-6.5370707782
 11
-0.3
 21
-6.9200929997
  0
LINE
  5
321
100
AcDbEntity
  8
0
100
AcDbLine
 62
7
  6
CONTINUOUS
 10
0.3
 20
-6.9200929997
 11
0.3
 21
-6.5370707782
  0
LINE
  5
322
100
AcDbEntity
  8
0
100
AcDbLine
 62
7
  6
CONTINUOUS
 10
0.3
 20
6.5370707782
 11
0.3
 21
6.9200929997
  0
LINE
  5
323
100
AcDbEntity
  8
0
100
AcDbLine
 62
250
  6
CONTINUOUS
 10
0.3292893219
 20
-6.582522726
 11
0.3292893219
 21
-6.9655449475
  0
LINE
  5
324
100
AcDbEntity
  8
0
100
AcDbLine
 62
250
  6
CONTINUOUS
 10
0.3292893219
 20
6.582522726
 11
0.3292893219
 21
6.9655449475
  0
LWPOLYLINE
  5
325
100
AcDbEntity
  8
0
100
AcDbPolyline
 62
7
  6
CONTINUOUS
 90
16
 70
0
 10
-1.0993808834
 20
-9.5
 10
-1.0980639788
 20
-9.4156260554
 10
-1.0900151332
 20
-9.2750423166
 10
-1.0746738014
 20
-9.1350416771
 10
-1.0520681623
 20
-8.9960036434
 10
-1.0222311508
 20
-8.8583089192
 10
-0.9852420195
 20
-8.7223326629
 10
-0.9412073236
 20
-8.588447775
 10
-0.8902337111
 20
-8.4570220029
 10
-0.8324342359
 20
-8.3284167682
 10
-0.7679720254
 20
-8.2029812606
 10
-0.6970305576
 20
-8.0810573603
 10
-0.6197911425
 20
-7.9629810495
 10
-0.5364472754
 20
-7.8490849858
 10
-0.4472379644
 20
-7.7396750385
 10
-0.3883601799
 20
-7.6734263145
  0
LWPOLYLINE
  5
326
100
AcDbEntity
  8
0
100
AcDbPolyline
 62
7
  6
CONTINUOUS
 90
13
 70
0
 10
-1.0993809222
 20
9.5
 10
-1.097591122
 20
9.5983092525
 10
-1.0879951298
 20
9.7479407056
 10
-1.0701635989
 20
9.8967464324
 10
-1.044162266
 20
10.0442679306
 10
-1.0100575304
 20
10.1900534963
 10
-0.9679174408
 20
10.333657475
 10
-0.9178418717
 20
10.4746294879
 10
-0.8600263397
 20
10.6125491035
 10
-0.7946856083
 20
10.7470184486
 10
-0.7220387028
 20
10.8776354526
 10
-0.6423090051
 20
11.0039926963
 10
-0.5891892084
 20
11.080332477
  0
LWPOLYLINE
  5
327
100
AcDbEntity
  8
0
100
AcDbPolyline
 62
7
  6
CONTINUOUS
 90
7
 70
0
 10
-1.7122397553
 20
-9.5
 10
-1.7086443144
 20
-9.3340324041
 10
-1.6979740873
 20
-9.1706530866
 10
-1.6804081024
 20
-9.0101316629
 10
-1.6561315955
 20
-8.8527139427
 10
-1.6253421752
 20
-8.6986329265
 10
-1.5882804933
 20
-8.5481577559
  0
LWPOLYLINE
  5
328
100
AcDbEntity
  8
0
100
AcDbPolyline
 62
7
  6
CONTINUOUS
 90
7
 70
0
 10
-2.1616367785
 20
-9.5
 10
-2.1575628457
 20
-9.3150887723
 10
-2.1454605499
 20
-9.1326441467
 10
-2.125515836
 20
-8.9530001988
 10
-2.0979231803
 20
-8.7764628526
 10
-2.0628933732
 20
-8.603326024
 10
-2.0206922508
 20
-8.433944431
  0
LWPOLYLINE
  5
329
100
AcDbEntity
  8
0
100
AcDbPolyline
 62
250
  6
CONTINUOUS
 90
13
 70
0
 10
-1.2005967807
 20
-9.5
 10
-1.1972404994
 20
-9.3594659246
 10
-1.1872289188
 20
-9.2199610398
 10
-1.1706479434
 20
-9.0817896509
 10
-1.1475864664
 20
-8.9452618794
 10
-1.1181373733
 20
-8.8106505725
 10
-1.0824224657
 20
-8.6782054041
 10
-1.0405814181
 20
-8.5482186893
 10
-0.99275181
 20
-8.4209725127
 10
-0.9390548978
 20
-8.2966966544
 10
-0.8796612998
 20
-8.1756489493
 10
-0.8147733168
 20
-8.0581103868
 10
-0.7445837329
 20
-7.9443385761
  0
LINE
  5
32A
100
AcDbEntity
  8
0
100
AcDbLine
 62
250
  6
CONTINUOUS
 10
-0.403767237
 20
11.7519344603
 11
-0.4037505414
 21
11.7524460188
  0
LINE
  5
32B
100
AcDbEntity
  8
0
100
AcDbLine
 62
250
  6
CONTINUOUS
 10
-0.4756521224
 20
12.1862671798
 11
-0.4730116181
 21
12.2587519301
  0
LINE
  5
32C
100
AcDbEntity
  8
0
100
AcDbLine
 62
250
  6
CONTINUOUS
 10
-0.4809507624
 20
12.0542961419
 11
-0.4756521224
 21
12.1862671798
  0
LINE
  5
32D
100
AcDbEntity
  8
0
100
AcDbLine
 62
250
  6
CONTINUOUS
 10
-0.486829313
 20
11.9231078644
 11
-0.4809507624
 21
12.0542961419
  0
LINE
  5
32E
100
AcDbEntity
  8
0
100
AcDbLine
 62
250
  6
CONTINUOUS
 10
-0.4932787005
 20
11.7926288566
 11
-0.486829313
 21
11.9231078644
  0
LINE
  5
32F
100
AcDbEntity
  8
0
100
AcDbLine
 62
250
  6
CONTINUOUS
 10
0.400542336
 20
11.6937394071
 11
0.4004765539
 21
11.6943445345
  0
LINE
  5
330
100
AcDbEntity
  8
0
100
AcDbLine
 62
250
  6
CONTINUOUS
 10
-0.400542336
 20
-11.6937394071
 11
-0.4004765539
 21
-11.6943445345
  0
LINE
  5
331
100
AcDbEntity
  8
0
100
AcDbLine
 62
7
  6
CONTINUOUS
 10
0.4037505414
 20
11.7524460188
 11
0.4004765539
 21
11.6943445345
  0
LINE
  5
332
100
AcDbEntity
  8
0
100
AcDbLine
 62
7
  6
CONTINUOUS
 10
-0.4037505414
 20
-11.7524460188
 11
-0.4004765539
 21
-11.6943445345
  0
LINE
  5
333
100
AcDbEntity
  8
0
100
AcDbLine
 62
250
  6
CONTINUOUS
 10
-0.404541518
 20
11.5760712908
 11
-0.4008029062
 21
11.6348918301
  0
LINE
  5
334
100
AcDbEntity
  8
RACCORDO
100
AcDbLine
 62
7
  6
CONTINUOUS
 10
-3.5034987468
 20
-5.4644612021
 11
-3.4913095745
 21
-5.3
  0
LINE
  5
335
100
AcDbEntity
  8
RACCORDO
100
AcDbLine
 62
7
  6
CONTINUOUS
 10
-3.5034987468
 20
-5.8180145927
 11
-3.4744974521
 21
-5.4267174907
  0
LINE
  5
336
100
AcDbEntity
  8
0
100
AcDbLine
 62
250
  6
CONTINUOUS
 10
0.403767237
 20
11.7519344603
 11
0.4037508027
 21
11.752449056
  0
LINE
  5
337
100
AcDbEntity
  8
0
100
AcDbLine
 62
250
  6
CONTINUOUS
 10
0.4465864055
 20
12.243214557
 11
0.4482743671
 21
12.26218697
  0
LINE
  5
338
100
AcDbEntity
  8
0
100
AcDbLine
 62
7
  6
CONTINUOUS
 10
0.4482676621
 20
12.2621880273
 11
0.4037508027
 21
11.752449056
  0
LINE
  5
339
100
AcDbEntity
  8
0
100
AcDbLine
 62
250
  6
CONTINUOUS
 10
-0.4118331062
 20
11.5168455667
 11
-0.404541518
 21
11.5760712908
  0
LWPOLYLINE
  5
33A
100
AcDbEntity
  8
0
100
AcDbPolyline
 62
7
  6
CONTINUOUS
 90
6
 70
0
 10
0.3000901969
 20
6.920092675
 10
0.3013401802
 20
6.9302229001
 10
0.3048943484
 20
6.9399562293
 10
0.3107224739
 20
6.9489669048
 10
0.3188541317
 20
6.9574964775
 10
0.3292893219
 20
6.9655449475
  0
LWPOLYLINE
  5
33B
100
AcDbEntity
  8
0
100
AcDbPolyline
 62
7
  6
CONTINUOUS
 90
6
 70
0
 10
0.3000901969
 20
6.5370704535
 10
0.3013401802
 20
6.5472006785
 10
0.3048943484
 20
6.5569340077
 10
0.3107224739
 20
6.5659446832
 10
0.3188541317
 20
6.574474256
 10
0.3292893219
 20
6.582522726
  0
LWPOLYLINE
  5
33C
100
AcDbEntity
  8
0
100
AcDbPolyline
 62
7
  6
CONTINUOUS
 90
6
 70
0
 10
-0.3000901969
 20
-6.5370704535
 10
-0.3013401802
 20
-6.5472006785
 10
-0.3048943484
 20
-6.5569340077
 10
-0.3107224739
 20
-6.5659446832
 10
-0.3188541317
 20
-6.574474256
 10
-0.3292893219
 20
-6.582522726
  0
LWPOLYLINE
  5
33D
100
AcDbEntity
  8
0
100
AcDbPolyline
 62
7
  6
CONTINUOUS
 90
5
 70
0
 10
-0.4193767353
 20
11.4728600399
 10
-0.4139787209
 20
11.5023742091
 10
-0.4053459115
 20
11.5662695552
 10
-0.4008270304
 20
11.6304970426
 10
-0.4004765539
 20
11.6943445345
  0
LINE
  5
33E
100
AcDbEntity
  8
0
100
AcDbLine
 62
250
  6
CONTINUOUS
 10
-0.4226821678
 20
11.4577335901
 11
-0.4118331062
 21
11.5168455667
  0
LINE
  5
33F
100
AcDbEntity
  8
TRASH
100
AcDbLine
 62
7
  6
CONTINUOUS
 10
3.4151277229
 20
22.4
 11
3.4366556363
 21
22.5
  0
LWPOLYLINE
  5
340
100
AcDbEntity
  8
RACCORDO
100
AcDbPolyline
 62
7
  6
CONTINUOUS
 90
4
 70
0
 10
-3.4538658779
 20
-5.3
 10
-3.4609039805
 20
-5.3294630046
 10
-3.4692552797
 20
-5.3778730988
 10
-3.4744974521
 20
-5.4267174907
  0
LINE
  5
341
100
AcDbEntity
  8
0
100
AcDbLine
 62
250
  6
CONTINUOUS
 10
-0.4369896512
 20
11.3993768897
 11
-0.4366100622
 21
11.4000299297
  0
LINE
  5
342
100
AcDbEntity
  8
SUPERFICI
100
AcDbLine
 62
250
  6
CONTINUOUS
 10
-10.5087981167
 20
-21.9749071372
 11
-10.6503805997
 21
-22.4
  0
LWPOLYLINE
  5
343
100
AcDbEntity
  8
0
100
AcDbPolyline
 62
7
  6
CONTINUOUS
 90
2
 70
0
 43
0.3500000006
 10
21.0792663803
 20
-1.3571429443
 10
19.5792681885
 20
-1.3571429443
  0
LWPOLYLINE
  5
344
100
AcDbEntity
  8
0
100
AcDbPolyline
 62
7
  6
CONTINUOUS
 90
4
 70
0
 43
0.3500000006
 10
18.7221245842
 20
-0.0000003204
 10
18.0792677307
 20
-0.0000003204
 10
18.0792677307
 20
1.5000001373
 10
21.0792663803
 20
0.642857666
  0
LWPOLYLINE
  5
345
100
AcDbEntity
  8
RACCORDO
100
AcDbPolyline
 62
250
  6
CONTINUOUS
 90
3
 70
0
 10
2.5234580332
 20
-7.7046227985
 10
2.6251995023
 20
-7.8593505152
 10
2.7161025796
 20
-8.0133012915
  0
LINE
  5
346
100
AcDbEntity
  8
RACCORDO
100
AcDbLine
 62
250
  6
CONTINUOUS
 10
2.7161025796
 20
-8.0133012915
 11
2.796167265
 21
-8.1664751242
  0
LWPOLYLINE
  5
347
100
AcDbEntity
  8
RACCORDO
100
AcDbPolyline
 62
250
  6
CONTINUOUS
 90
58
 70
0
 10
2.796167265
 20
-8.1664751242
 10
2.8647227146
 20
-8.3194069358
 10
2.9224397723
 20
-8.471561793
 10
2.9713309702
 20
-8.6213349346
 10
3.0114652607
 20
-8.7685636452
 10
3.0427736913
 20
-8.9134106888
 10
3.0670619365
 20
-9.0547595665
 10
3.0844341934
 20
-9.191925913
 10
3.0947862648
 20
-9.3255941848
 10
3.0996112333
 20
-9.4567011195
 10
3.0992055204
 20
-9.585171978
 10
3.0932727047
 20
-9.7110815581
 10
3.0824166038
 20
-9.8355908721
 10
3.0667771105
 20
-9.9590579407
 10
3.0462143321
 20
-10.0811247654
 10
3.0209124081
 20
-10.2018783127
 10
2.9909009143
 20
-10.3214315598
 10
2.9561502749
 20
-10.4396715532
 10
2.9167559023
 20
-10.5563463663
 10
2.8727463682
 20
-10.6714618827
 10
2.8240931009
 20
-10.7850122523
 10
2.7708057979
 20
-10.8967279564
 10
2.7131290648
 20
-11.0063751836
 10
2.650818296
 20
-11.1141877898
 10
2.583149373
 20
-11.2205977544
 10
2.5104160648
 20
-11.3256318269
 10
2.4323246023
 20
-11.4292632882
 10
2.3472695607
 20
-11.5318439039
 10
2.2551284445
 20
-11.6338999802
 10
2.1560237492
 20
-11.7349052272
 10
2.0487175357
 20
-11.8336325294
 10
1.9330423656
 20
-11.9304126836
 10
1.8091656773
 20
-12.0249149457
 10
1.6763518482
 20
-12.1149199352
 10
1.5346477172
 20
-12.2005990668
 10
1.3840064452
 20
-12.2817810338
 10
1.2235518922
 20
-12.3557324336
 10
1.0527159624
 20
-12.4228445934
 10
0.8720667515
 20
-12.4827263316
 10
0.682432406
 20
-12.5314705386
 10
0.4820961077
 20
-12.5689270584
 10
0.2727746747
 20
-12.5952461912
 10
0.0604467084
 20
-12.6069715328
 10
-0.156000605
 20
-12.6025894041
 10
-0.3754544518
 20
-12.5836135009
 10
-0.5885977902
 20
-12.5511284497
 10
-0.794014577
 20
-12.5038712908
 10
-0.9931208554
 20
-12.4431048172
 10
-1.1808477126
 20
-12.3737022902
 10
-1.3553176604
 20
-12.2959867672
 10
-1.518408187
 20
-12.2096350078
 10
-1.6706828439
 20
-12.1185509046
 10
-1.8118358097
 20
-12.0231936692
 10
-1.9421729058
 20
-11.9231039724
 10
-2.0631751473
 20
-11.8208079772
 10
-2.1748453611
 20
-11.7166060338
 10
-2.2771807203
 20
-11.6101977392
 10
-2.3716537594
 20
-11.5032081873
  0
LINE
  5
348
100
AcDbEntity
  8
SUPERFICI
100
AcDbLine
 62
250
  6
CONTINUOUS
 10
-10.6503805997
 20
22.4
 11
-10.5087981167
 21
21.9749071372
  0
LINE
  5
349
100
AcDbEntity
  8
0
100
AcDbLine
 62
250
  6
CONTINUOUS
 10
-0.4369896512
 20
-11.3993768897
 11
-0.4366100622
 21
-11.4000299297
  0
LINE
  5
34A
100
AcDbEntity
  8
TRASH
100
AcDbLine
 62
7
  6
CONTINUOUS
 10
3.4151277229
 20
-22.4
 11
3.4366556363
 21
-22.5
  0
LINE
  5
34B
100
AcDbEntity
  8
0
100
AcDbLine
 62
250
  6
CONTINUOUS
 10
-0.4226821678
 20
-11.4577335901
 11
-0.4118331062
 21
-11.5168455667
  0
LWPOLYLINE
  5
34C
100
AcDbEntity
  8
0
100
AcDbPolyline
 62
7
  6
CONTINUOUS
 90
6
 70
0
 10
0.3000901969
 20
-6.920092675
 10
0.3013401802
 20
-6.9302229001
 10
0.3048943484
 20
-6.9399562293
 10
0.3107224739
 20
-6.9489669048
 10
0.3188541317
 20
-6.9574964775
 10
0.3292893219
 20
-6.9655449475
  0
LWPOLYLINE
  5
34D
100
AcDbEntity
  8
0
100
AcDbPolyline
 62
7
  6
CONTINUOUS
 90
6
 70
0
 10
0.3000901969
 20
-6.5370704535
 10
0.3013401802
 20
-6.5472006785
 10
0.3048943484
 20
-6.5569340077
 10
0.3107224739
 20
-6.5659446832
 10
0.3188541317
 20
-6.574474256
 10
0.3292893219
 20
-6.582522726
  0
LWPOLYLINE
  5
34E
100
AcDbEntity
  8
0
100
AcDbPolyline
 62
7
  6
CONTINUOUS
 90
6
 70
0
 10
-0.3000901969
 20
6.5370704535
 10
-0.3013401802
 20
6.5472006785
 10
-0.3048943484
 20
6.5569340077
 10
-0.3107224739
 20
6.5659446832
 10
-0.3188541317
 20
6.574474256
 10
-0.3292893219
 20
6.582522726
  0
LINE
  5
34F
100
AcDbEntity
  8
0
100
AcDbLine
 62
250
  6
CONTINUOUS
 10
-0.4118331062
 20
-11.5168455667
 11
-0.404541518
 21
-11.5760712908
  0
LWPOLYLINE
  5
350
100
AcDbEntity
  8
RACCORDO
100
AcDbPolyline
 62
7
  6
CONTINUOUS
 90
4
 70
0
 10
3.4744974521
 20
-5.4267174907
 10
3.4692552797
 20
-5.3778730988
 10
3.4609039805
 20
-5.3294630046
 10
3.4538658779
 20
-5.3
  0
LINE
  5
351
100
AcDbEntity
  8
0
100
AcDbLine
 62
7
  6
CONTINUOUS
 10
-0.4037508027
 20
11.752449056
 11
-0.4483811269
 21
12.2634685106
  0
LINE
  5
352
100
AcDbEntity
  8
0
100
AcDbLine
 62
250
  6
CONTINUOUS
 10
-0.403767237
 20
11.7519344603
 11
-0.4037508027
 21
11.752449056
  0
LINE
  5
353
100
AcDbEntity
  8
RACCORDO
100
AcDbLine
 62
7
  6
CONTINUOUS
 10
3.5034987468
 20
-5.8180145927
 11
3.4744974521
 21
-5.4267174907
  0
LINE
  5
354
100
AcDbEntity
  8
RACCORDO
100
AcDbLine
 62
7
  6
CONTINUOUS
 10
3.5034987468
 20
-5.4644612021
 11
3.4913095745
 21
-5.3
  0
LINE
  5
355
100
AcDbEntity
  8
0
100
AcDbLine
 62
250
  6
CONTINUOUS
 10
0.404541518
 20
11.5760712908
 11
0.4008029062
 21
11.6348918301
  0
LINE
  5
356
100
AcDbEntity
  8
0
100
AcDbLine
 62
250
  6
CONTINUOUS
 10
0.4932787005
 20
11.7926288566
 11
0.486829313
 21
11.9231078644
  0
LINE
  5
357
100
AcDbEntity
  8
0
100
AcDbLine
 62
250
  6
CONTINUOUS
 10
0.486829313
 20
11.9231078644
 11
0.4809507624
 21
12.0542961419
  0
LINE
  5
358
100
AcDbEntity
  8
0
100
AcDbLine
 62
250
  6
CONTINUOUS
 10
0.4809507624
 20
12.0542961419
 11
0.4756521224
 21
12.1862671798
  0
LINE
  5
359
100
AcDbEntity
  8
0
100
AcDbLine
 62
250
  6
CONTINUOUS
 10
0.4756521224
 20
12.1862671798
 11
0.4730276571
 21
12.2582837492
  0
LINE
  5
35A
100
AcDbEntity
  8
0
100
AcDbLine
 62
250
  6
CONTINUOUS
 10
0.403767237
 20
11.7519344603
 11
0.4037505414
 21
11.7524460188
  0
LWPOLYLINE
  5
35B
100
AcDbEntity
  8
0
100
AcDbPolyline
 62
250
  6
CONTINUOUS
 90
13
 70
0
 10
1.2005967807
 20
-9.5
 10
1.1972404994
 20
-9.3594659246
 10
1.1872289188
 20
-9.2199610398
 10
1.1706479434
 20
-9.0817896509
 10
1.1475864664
 20
-8.9452618794
 10
1.1181373733
 20
-8.8106505725
 10
1.0824224657
 20
-8.6782054041
 10
1.0405814181
 20
-8.5482186893
 10
0.99275181
 20
-8.4209725127
 10
0.9390548978
 20
-8.2966966544
 10
0.8796612998
 20
-8.1756489493
 10
0.8147733168
 20
-8.0581103868
 10
0.7445837329
 20
-7.9443385761
  0
LWPOLYLINE
  5
35C
100
AcDbEntity
  8
0
100
AcDbPolyline
 62
7
  6
CONTINUOUS
 90
7
 70
0
 10
2.1616367785
 20
-9.5
 10
2.1575625729
 20
-9.3150917287
 10
2.1454599894
 20
-9.1326472712
 10
2.1255157064
 20
-8.9530044548
 10
2.0979248535
 20
-8.776472654
 10
2.0628978228
 20
-8.6033449758
 10
2.0206943898
 20
-8.4339522668
  0
LWPOLYLINE
  5
35D
100
AcDbEntity
  8
0
100
AcDbPolyline
 62
7
  6
CONTINUOUS
 90
7
 70
0
 10
1.7122397553
 20
-9.5
 10
1.7086443144
 20
-9.3340324041
 10
1.6979740873
 20
-9.1706530866
 10
1.6804081024
 20
-9.0101316629
 10
1.6561315955
 20
-8.8527139427
 10
1.6253421752
 20
-8.6986329265
 10
1.5882804933
 20
-8.5481577559
  0
LINE
  5
35E
100
AcDbEntity
  8
0
100
AcDbLine
 62
250
  6
CONTINUOUS
 10
0.8
 20
-6.2
 11
0.8
 21
-6.4727920172
  0
LINE
  5
35F
100
AcDbEntity
  8
0
100
AcDbLine
 62
250
  6
CONTINUOUS
 10
0.8
 20
6.2
 11
0.8
 21
6.4727920172
  0
LINE
  5
360
100
AcDbEntity
  8
0
100
AcDbLine
 62
7
  6
CONTINUOUS
 10
1.2
 20
-6.2
 11
1.2
 21
-6.4727920172
  0
LINE
  5
361
100
AcDbEntity
  8
0
100
AcDbLine
 62
7
  6
CONTINUOUS
 10
1.2
 20
6.2
 11
1.2
 21
6.4727920172
  0
LINE
  5
362
100
AcDbEntity
  8
SMUSSO
100
AcDbLine
 62
7
  6
CONTINUOUS
 10
2.2
 20
-7.7849923712
 11
2.2
 21
-8.1680145927
  0
LINE
  5
363
100
AcDbEntity
  8
0
100
AcDbLine
 62
7
  6
CONTINUOUS
 10
2.2
 20
7.7849923712
 11
2.2
 21
8.1680145927
  0
LINE
  5
364
100
AcDbEntity
  8
RACCORDO
100
AcDbLine
 62
250
  6
CONTINUOUS
 10
2.5238858928
 20
7.7046227737
 11
2.5238858928
 21
7.4
  0
LINE
  5
365
100
AcDbEntity
  8
RACCORDO
100
AcDbLine
 62
250
  6
CONTINUOUS
 10
2.5238858928
 20
-7.4
 11
2.5238858928
 21
-7.7046227737
  0
LINE
  5
366
100
AcDbEntity
  8
0
100
AcDbLine
 62
7
  6
CONTINUOUS
 10
3.1
 20
-6.2
 11
3.1
 21
-6.4339555569
  0
LINE
  5
367
100
AcDbEntity
  8
RACCORDO
100
AcDbLine
 62
7
  6
CONTINUOUS
 10
3.1
 20
-6.4339555569
 11
3.1
 21
-7.4
  0
LINE
  5
368
100
AcDbEntity
  8
0
100
AcDbLine
 62
7
  6
CONTINUOUS
 10
3.1
 20
6.2
 11
3.1
 21
6.4339555569
  0
LINE
  5
369
100
AcDbEntity
  8
RACCORDO
100
AcDbLine
 62
7
  6
CONTINUOUS
 10
3.1
 20
6.4339555569
 11
3.1
 21
7.4
  0
LINE
  5
36A
100
AcDbEntity
  8
TRASH
100
AcDbLine
 62
7
  6
CONTINUOUS
 10
3.4698202597
 20
22.5
 11
3.4698202597
 21
22.4
  0
LINE
  5
36B
100
AcDbEntity
  8
TRASH
100
AcDbLine
 62
7
  6
CONTINUOUS
 10
3.4698202597
 20
-22.5
 11
3.4698202597
 21
-22.4
  0
LINE
  5
36C
100
AcDbEntity
  8
RACCORDO
100
AcDbLine
 62
250
  6
CONTINUOUS
 10
3.4744974521
 20
-5.3
 11
3.4744974521
 21
-5.4267174907
  0
LINE
  5
36D
100
AcDbEntity
  8
RACCORDO
100
AcDbLine
 62
250
  6
CONTINUOUS
 10
3.4744974521
 20
5.3
 11
3.4744974521
 21
5.4267174907
  0
LINE
  5
36E
100
AcDbEntity
  8
0
100
AcDbLine
 62
250
  6
CONTINUOUS
 10
3.5034987468
 20
5.8180145927
 11
3.5034987468
 21
5.4644612021
  0
LINE
  5
36F
100
AcDbEntity
  8
0
100
AcDbLine
 62
250
  6
CONTINUOUS
 10
3.5034987468
 20
-5.8180145927
 11
3.5034987468
 21
-5.4644612021
  0
LINE
  5
370
100
AcDbEntity
  8
0
100
AcDbLine
 62
250
  6
CONTINUOUS
 10
3.5355500439
 20
6.100783375
 11
3.5355500439
 21
5.6109078115
  0
LINE
  5
371
100
AcDbEntity
  8
0
100
AcDbLine
 62
250
  6
CONTINUOUS
 10
3.5355500439
 20
-6.100783375
 11
3.5355500439
 21
-5.6109078115
  0
LINE
  5
372
100
AcDbEntity
  8
RACCORDO
100
AcDbLine
 62
7
  6
CONTINUOUS
 10
3.7
 20
7.4
 11
3.7
 21
5.3
  0
LINE
  5
373
100
AcDbEntity
  8
RACCORDO
100
AcDbLine
 62
7
  6
CONTINUOUS
 10
3.7
 20
-5.3
 11
3.7
 21
-7.4
  0
LINE
  5
374
100
AcDbEntity
  8
RACCORDO
100
AcDbLine
 62
250
  6
CONTINUOUS
 10
4.0
 20
7.7046227737
 11
4.0
 21
5.0030018011
  0
LINE
  5
375
100
AcDbEntity
  8
RACCORDO
100
AcDbLine
 62
250
  6
CONTINUOUS
 10
4.0
 20
-5.0030018011
 11
4.0
 21
-7.7046227737
  0
LWPOLYLINE
  5
376
100
AcDbEntity
  8
0
100
AcDbPolyline
 62
7
  6
CONTINUOUS
 90
16
 70
0
 10
1.0993808834
 20
9.5
 10
1.0980639788
 20
9.4156260554
 10
1.0900151332
 20
9.2750423166
 10
1.0746738014
 20
9.1350416771
 10
1.0520681623
 20
8.9960036434
 10
1.0222311508
 20
8.8583089192
 10
0.9852420195
 20
8.7223326629
 10
0.9412073236
 20
8.588447775
 10
0.8902337111
 20
8.4570220029
 10
0.8324342359
 20
8.3284167682
 10
0.7679720254
 20
8.2029812606
 10
0.6970305576
 20
8.0810573603
 10
0.6197911425
 20
7.9629810495
 10
0.5364472754
 20
7.8490849858
 10
0.4472379644
 20
7.7396750385
 10
0.3883601799
 20
7.6734263145
  0
LWPOLYLINE
  5
377
100
AcDbEntity
  8
0
100
AcDbPolyline
 62
7
  6
CONTINUOUS
 90
13
 70
0
 10
1.0993809222
 20
-9.5
 10
1.097591122
 20
-9.5983092525
 10
1.0879951298
 20
-9.7479407056
 10
1.0701635989
 20
-9.8967464324
 10
1.044162266
 20
-10.0442679306
 10
1.0100575304
 20
-10.1900534963
 10
0.9679174408
 20
-10.333657475
 10
0.9178418717
 20
-10.4746294879
 10
0.8600263397
 20
-10.6125491035
 10
0.7946856083
 20
-10.7470184486
 10
0.7220387028
 20
-10.8776354526
 10
0.6423090051
 20
-11.0039926963
 10
0.5891892084
 20
-11.080332477
  0
LWPOLYLINE
  5
378
100
AcDbEntity
  8
0
100
AcDbPolyline
 62
7
  6
CONTINUOUS
 90
7
 70
0
 10
1.7122397553
 20
9.5
 10
1.7086443144
 20
9.3340324041
 10
1.6979740873
 20
9.1706530866
 10
1.6804081024
 20
9.0101316629
 10
1.6561315955
 20
8.8527139427
 10
1.6253421752
 20
8.6986329265
 10
1.5882804933
 20
8.5481577559
  0
LWPOLYLINE
  5
379
100
AcDbEntity
  8
0
100
AcDbPolyline
 62
7
  6
CONTINUOUS
 90
7
 70
0
 10
2.1616367785
 20
9.5
 10
2.1575628457
 20
9.3150887723
 10
2.1454605499
 20
9.1326441467
 10
2.125515836
 20
8.9530001988
 10
2.0979231803
 20
8.7764628526
 10
2.0628933732
 20
8.603326024
 10
2.0206922508
 20
8.433944431
  0
LWPOLYLINE
  5
37A
100
AcDbEntity
  8
0
100
AcDbPolyline
 62
250
  6
CONTINUOUS
 90
13
 70
0
 10
1.2005967807
 20
9.5
 10
1.1972404994
 20
9.3594659246
 10
1.1872289188
 20
9.2199610398
 10
1.1706479434
 20
9.0817896509
 10
1.1475864664
 20
8.9452618794
 10
1.1181373733
 20
8.8106505725
 10
1.0824224657
 20
8.6782054041
 10
1.0405814181
 20
8.5482186893
 10
0.99275181
 20
8.4209725127
 10
0.9390548978
 20
8.2966966544
 10
0.8796612998
 20
8.1756489493
 10
0.8147733168
 20
8.0581103868
 10
0.7445837329
 20
7.9443385761
  0
LINE
  5
37B
100
AcDbEntity
  8
0
100
AcDbLine
 62
250
  6
CONTINUOUS
 10
0.403767237
 20
-11.7519344603
 11
0.4037505414
 21
-11.7524460188
  0
LINE
  5
37C
100
AcDbEntity
  8
0
100
AcDbLine
 62
250
  6
CONTINUOUS
 10
0.4756521224
 20
-12.1862671798
 11
0.4730116181
 21
-12.2587519301
  0
LINE
  5
37D
100
AcDbEntity
  8
0
100
AcDbLine
 62
250
  6
CONTINUOUS
 10
0.4809507624
 20
-12.0542961419
 11
0.4756521224
 21
-12.1862671798
  0
LINE
  5
37E
100
AcDbEntity
  8
0
100
AcDbLine
 62
250
  6
CONTINUOUS
 10
0.486829313
 20
-11.9231078644
 11
0.4809507624
 21
-12.0542961419
  0
LINE
  5
37F
100
AcDbEntity
  8
0
100
AcDbLine
 62
250
  6
CONTINUOUS
 10
0.4932787005
 20
-11.7926288566
 11
0.486829313
 21
-11.9231078644
  0
LINE
  5
380
100
AcDbEntity
  8
0
100
AcDbLine
 62
250
  6
CONTINUOUS
 10
0.404541518
 20
-11.5760712908
 11
0.4008029062
 21
-11.6348918301
  0
LINE
  5
381
100
AcDbEntity
  8
RACCORDO
100
AcDbLine
 62
7
  6
CONTINUOUS
 10
3.5034987468
 20
5.8180145927
 11
3.4744974521
 21
5.4267174907
  0
LINE
  5
382
100
AcDbEntity
  8
RACCORDO
100
AcDbLine
 62
7
  6
CONTINUOUS
 10
3.5034987468
 20
5.4644612021
 11
3.4913095745
 21
5.3
  0
LINE
  5
383
100
AcDbEntity
  8
0
100
AcDbLine
 62
250
  6
CONTINUOUS
 10
-0.403767237
 20
-11.7519344603
 11
-0.4037508027
 21
-11.752449056
  0
LINE
  5
384
100
AcDbEntity
  8
0
100
AcDbLine
 62
7
  6
CONTINUOUS
 10
-0.4482676621
 20
-12.2621880273
 11
-0.4037508027
 21
-11.752449056
  0
LINE
  5
385
100
AcDbEntity
  8
0
100
AcDbLine
 62
250
  6
CONTINUOUS
 10
-0.4439433335
 20
-12.2133785201
 11
-0.4482743671
 21
-12.26218697
  0
LINE
  5
386
100
AcDbEntity
  8
0
100
AcDbLine
 62
250
  6
CONTINUOUS
 10
0.4118331062
 20
-11.5168455667
 11
0.404541518
 21
-11.5760712908
  0
LWPOLYLINE
  5
387
100
AcDbEntity
  8
0
100
AcDbPolyline
 62
7
  6
CONTINUOUS
 90
6
 70
0
 10
-0.3000901969
 20
-6.920092675
 10
-0.3013401802
 20
-6.9302229001
 10
-0.3048943484
 20
-6.9399562293
 10
-0.3107224739
 20
-6.9489669048
 10
-0.3188541317
 20
-6.9574964775
 10
-0.3292893219
 20
-6.9655449475
  0
LWPOLYLINE
  5
388
100
AcDbEntity
  8
0
100
AcDbPolyline
 62
7
  6
CONTINUOUS
 90
5
 70
0
 10
0.4193767353
 20
-11.4728600399
 10
0.4139787209
 20
-11.5023742091
 10
0.4053459115
 20
-11.5662695552
 10
0.4008270304
 20
-11.6304970426
 10
0.4004765539
 20
-11.6943445345
  0
LINE
  5
389
100
AcDbEntity
  8
0
100
AcDbLine
 62
250
  6
CONTINUOUS
 10
0.4226821678
 20
-11.4577335901
 11
0.4118331062
 21
-11.5168455667
  0
LINE
  5
38A
100
AcDbEntity
  8
TRASH
100
AcDbLine
 62
7
  6
CONTINUOUS
 10
-3.4151277229
 20
-22.4
 11
-3.4366556363
 21
-22.5
  0
LWPOLYLINE
  5
38B
100
AcDbEntity
  8
RACCORDO
100
AcDbPolyline
 62
7
  6
CONTINUOUS
 90
4
 70
0
 10
3.4538658779
 20
5.3
 10
3.4609039805
 20
5.3294630046
 10
3.4692552797
 20
5.3778730988
 10
3.4744974521
 20
5.4267174907
  0
LINE
  5
38C
100
AcDbEntity
  8
0
100
AcDbLine
 62
250
  6
CONTINUOUS
 10
0.4369896512
 20
-11.3993768897
 11
0.4366100622
 21
-11.4000299297
  0
LINE
  5
38D
100
AcDbEntity
  8
0
100
AcDbLine
 62
250
  6
CONTINUOUS
 10
0.4546972678
 20
-11.3419798763
 11
0.4543094571
 21
-11.3425074403
  0
LINE
  5
38E
100
AcDbEntity
  8
SUPERFICI
100
AcDbLine
 62
250
  6
CONTINUOUS
 10
10.6503805997
 20
22.4
 11
10.5087981167
 21
21.9749071372
  0
LINE
  5
38F
100
AcDbEntity
  8
SUPERFICI
100
AcDbLine
 62
250
  6
CONTINUOUS
 10
11.15
 20
21.8997711479
 11
11.0087219643
 21
21.4755923698
  0
LINE
  5
390
100
AcDbEntity
  8
0
100
AcDbLine
 62
250
  6
CONTINUOUS
 10
0.47574662
 20
-11.2857473553
 11
0.4753715407
 21
-11.2861369016
  0
LWPOLYLINE
  5
391
100
AcDbEntity
  8
RACCORDO
100
AcDbPolyline
 62
250
  6
CONTINUOUS
 90
10
 70
0
 10
0.261168054
 20
-7.5459767362
 10
0.2906240459
 20
-7.503864988
 10
0.3213588286
 20
-7.4608822895
 10
0.3535402663
 20
-7.417168868
 10
0.3874958585
 20
-7.3726511077
 10
0.4232765181
 20
-7.3277595687
 10
0.4605647958
 20
-7.2833634702
 10
0.4992778793
 20
-7.2398369481
 10
0.5396499059
 20
-7.1971222845
 10
0.5817462127
 20
-7.1553896542
  0
LWPOLYLINE
  5
392
100
AcDbEntity
  8
0
100
AcDbPolyline
 62
7
  6
CONTINUOUS
 90
10
 70
0
 10
-0.7565937148
 20
-7.3351865289
 10
-0.7399998996
 20
-7.3172232308
 10
-0.7239245417
 20
-7.3000998503
 10
-0.7077210359
 20
-7.2831009333
 10
-0.6914218263
 20
-7.2662579868
 10
-0.6749960269
 20
-7.2495366323
 10
-0.6583470802
 20
-7.2328390906
 10
-0.6414405938
 20
-7.2161342877
 10
-0.6243066712
 20
-7.1994553729
 10
-0.6069432083
 20
-7.1828029783
  0
LWPOLYLINE
  5
393
100
AcDbEntity
  8
0
100
AcDbPolyline
 62
7
  6
CONTINUOUS
 90
4
 70
0
 10
-0.8610409451
 20
-7.4457235718
 10
-0.8242121614
 20
-7.4073371288
 10
-0.789174297
 20
-7.3702809195
 10
-0.7565937148
 20
-7.3351865289
  0
LWPOLYLINE
  5
394
100
AcDbEntity
  8
RACCORDO
100
AcDbPolyline
 62
7
  6
CONTINUOUS
 90
10
 70
0
 10
-3.7
 20
-7.4
 10
-3.7113020815
 20
-7.4073283815
 10
-3.7293699155
 20
-7.4273182663
 10
-3.7542035021
 20
-7.4568398615
 10
-3.7874800942
 20
-7.4923617542
 10
-3.8275224388
 20
-7.5314227004
 10
-3.8692987775
 20
-7.5734397144
 10
-3.9111318576
 20
-7.6174729559
 10
-3.9546989317
 20
-7.6615920728
 10
-4.0
 20
-7.7046227737
  0
LWPOLYLINE
  5
395
100
AcDbEntity
  8
0
100
AcDbPolyline
 62
7
  6
CONTINUOUS
 90
9
 70
0
 10
-3.530631118
 20
-5.6109078115
 10
-3.5284280811
 20
-5.609891227
 10
-3.5248668258
 20
-5.6039625978
 10
-3.5213052663
 20
-5.5927997472
 10
-3.5177435243
 20
-5.5765218723
 10
-3.5141819649
 20
-5.5553001078
 10
-3.5106207096
 20
-5.5293580369
 10
-3.5070596369
 20
-5.4989710584
 10
-3.5034987468
 20
-5.4644612021
  0
LWPOLYLINE
  5
396
100
AcDbEntity
  8
0
100
AcDbPolyline
 62
7
  6
CONTINUOUS
 90
9
 70
0
 10
-3.530631118
 20
5.6109078115
 10
-3.5284280811
 20
5.609891227
 10
-3.5248668258
 20
5.6039625978
 10
-3.5213052663
 20
5.5927997472
 10
-3.5177435243
 20
5.5765218723
 10
-3.5141819649
 20
5.5553001078
 10
-3.5106207096
 20
5.5293580369
 10
-3.5070596369
 20
5.4989710584
 10
-3.5034987468
 20
5.4644612021
  0
LWPOLYLINE
  5
397
100
AcDbEntity
  8
RACCORDO
100
AcDbPolyline
 62
7
  6
CONTINUOUS
 90
10
 70
0
 10
-3.7
 20
7.4
 10
-3.7115472821
 20
7.4074152158
 10
-3.7297308128
 20
7.427567155
 10
-3.7545505923
 20
7.457194478
 10
-3.7875929351
 20
7.4925752019
 10
-3.8272715265
 20
7.5312523089
 10
-3.8688274231
 20
7.5729647933
 10
-3.9106743103
 20
7.6169606662
 10
-3.9543985026
 20
7.6612367416
 10
-4.0
 20
7.7046227737
  0
LWPOLYLINE
  5
398
100
AcDbEntity
  8
0
100
AcDbPolyline
 62
7
  6
CONTINUOUS
 90
5
 70
0
 10
-0.9402902751
 20
7.5271349597
 10
-0.8610104991
 20
7.4456861033
 10
-0.824186037
 20
7.4073063124
 10
-0.7891553525
 20
7.3702594961
 10
-0.7565847093
 20
7.3351767249
  0
LWPOLYLINE
  5
399
100
AcDbEntity
  8
RACCORDO
100
AcDbPolyline
 62
7
  6
CONTINUOUS
 90
7
 70
0
 10
-0.7559300036
 20
7.3344543184
 10
-0.742132147
 20
7.3195143078
 10
-0.7282372004
 20
7.3046680339
 10
-0.7142456324
 20
7.2899148161
 10
-0.700157849
 20
7.2752539307
 10
-0.6859741931
 20
7.2606846129
 10
-0.6716949432
 20
7.2462060587
  0
LINE
  5
39A
100
AcDbEntity
  8
0
100
AcDbLine
 62
7
  6
CONTINUOUS
 10
-0.7565847093
 20
7.3351767249
 11
-0.7559326597
 21
7.3344667622
  0
LWPOLYLINE
  5
39B
100
AcDbEntity
  8
RACCORDO
100
AcDbPolyline
 62
250
  6
CONTINUOUS
 90
3
 70
0
 10
-2.523458033
 20
7.7046227982
 10
-2.6251995022
 20
7.859350515
 10
-2.7161025796
 20
8.0133012914
  0
LINE
  5
39C
100
AcDbEntity
  8
RACCORDO
100
AcDbLine
 62
250
  6
CONTINUOUS
 10
-2.7161025796
 20
8.0133012914
 11
-2.796167265
 21
8.1664751242
  0
LWPOLYLINE
  5
39D
100
AcDbEntity
  8
RACCORDO
100
AcDbPolyline
 62
250
  6
CONTINUOUS
 90
58
 70
0
 10
-2.796167265
 20
8.1664751242
 10
-2.8647227146
 20
8.3194069358
 10
-2.9224397723
 20
8.471561793
 10
-2.9713309702
 20
8.6213349346
 10
-3.0114652607
 20
8.7685636452
 10
-3.0427736913
 20
8.9134106888
 10
-3.0670619365
 20
9.0547595665
 10
-3.0844341934
 20
9.191925913
 10
-3.0947862648
 20
9.3255941848
 10
-3.0996112333
 20
9.4567011195
 10
-3.0992055204
 20
9.585171978
 10
-3.0932727047
 20
9.7110815581
 10
-3.0824166038
 20
9.8355908721
 10
-3.0667771105
 20
9.9590579407
 10
-3.0462143321
 20
10.0811247654
 10
-3.0209124081
 20
10.2018783127
 10
-2.9909009143
 20
10.3214315598
 10
-2.9561502749
 20
10.4396715532
 10
-2.9167559023
 20
10.5563463663
 10
-2.8727463682
 20
10.6714618827
 10
-2.8240931009
 20
10.7850122523
 10
-2.7708057979
 20
10.8967279564
 10
-2.7131290648
 20
11.0063751836
 10
-2.650818296
 20
11.1141877898
 10
-2.583149373
 20
11.2205977544
 10
-2.5104160648
 20
11.3256318269
 10
-2.4323246023
 20
11.4292632882
 10
-2.3472695607
 20
11.5318439039
 10
-2.2551284445
 20
11.6338999802
 10
-2.1560237492
 20
11.7349052272
 10
-2.0487175357
 20
11.8336325294
 10
-1.9330423656
 20
11.9304126836
 10
-1.8091656773
 20
12.0249149457
 10
-1.6763518482
 20
12.1149199352
 10
-1.5346477172
 20
12.2005990668
 10
-1.3840064452
 20
12.2817810338
 10
-1.2235518922
 20
12.3557324336
 10
-1.0527159624
 20
12.4228445934
 10
-0.8720667515
 20
12.4827263316
 10
-0.682432406
 20
12.5314705386
 10
-0.4820961077
 20
12.5689270584
 10
-0.2727746747
 20
12.5952461912
 10
-0.0604467084
 20
12.6069715328
 10
0.156000605
 20
12.6025894041
 10
0.3754544518
 20
12.5836135009
 10
0.5885977902
 20
12.5511284497
 10
0.794014577
 20
12.5038712908
 10
0.9931208554
 20
12.4431048172
 10
1.1808477126
 20
12.3737022902
 10
1.3553176604
 20
12.2959867672
 10
1.518408187
 20
12.2096350078
 10
1.6706828439
 20
12.1185509046
 10
1.8118358097
 20
12.0231936692
 10
1.9421729058
 20
11.9231039724
 10
2.0631751473
 20
11.8208079772
 10
2.1748453611
 20
11.7166060338
 10
2.2771807203
 20
11.6101977392
 10
2.3716537594
 20
11.5032081873
  0
LINE
  5
39E
100
AcDbEntity
  8
0
100
AcDbLine
 62
250
  6
CONTINUOUS
 10
0.47574662
 20
11.2857473553
 11
0.4753715407
 21
11.2861369016
  0
LINE
  5
39F
100
AcDbEntity
  8
SUPERFICI
100
AcDbLine
 62
250
  6
CONTINUOUS
 10
10.5087981167
 20
-21.9749071372
 11
10.6503805997
 21
-22.4
  0
LINE
  5
3A0
100
AcDbEntity
  8
SUPERFICI
100
AcDbLine
 62
250
  6
CONTINUOUS
 10
11.0087219643
 20
-21.4755923698
 11
11.15
 21
-21.8997711479
  0
LINE
  5
3A1
100
AcDbEntity
  8
0
100
AcDbLine
 62
250
  6
CONTINUOUS
 10
0.4546972678
 20
11.3419798763
 11
0.4543094571
 21
11.3425074403
  0
LINE
  5
3A2
100
AcDbEntity
  8
0
100
AcDbLine
 62
250
  6
CONTINUOUS
 10
0.4369896512
 20
11.3993768897
 11
0.4366100622
 21
11.4000299297
  0
LINE
  5
3A3
100
AcDbEntity
  8
TRASH
100
AcDbLine
 62
7
  6
CONTINUOUS
 10
-3.4151277229
 20
22.4
 11
-3.4366556363
 21
22.5
  0
LINE
  5
3A4
100
AcDbEntity
  8
0
100
AcDbLine
 62
250
  6
CONTINUOUS
 10
0.4226821678
 20
11.4577335901
 11
0.4118331062
 21
11.5168455667
  0
LWPOLYLINE
  5
3A5
100
AcDbEntity
  8
0
100
AcDbPolyline
 62
7
  6
CONTINUOUS
 90
6
 70
0
 10
-0.3000901969
 20
6.920092675
 10
-0.3013401802
 20
6.9302229001
 10
-0.3048943484
 20
6.9399562293
 10
-0.3107224739
 20
6.9489669048
 10
-0.3188541317
 20
6.9574964775
 10
-0.3292893219
 20
6.9655449475
  0
LINE
  5
3A6
100
AcDbEntity
  8
0
100
AcDbLine
 62
250
  6
CONTINUOUS
 10
0.4118331062
 20
11.5168455667
 11
0.404541518
 21
11.5760712908
  0
LWPOLYLINE
  5
3A7
100
AcDbEntity
  8
SUPERFICI
100
AcDbPolyline
 62
250
  6
CONTINUOUS
 90
6
 70
0
 10
10.5087981167
 20
21.9749071372
 10
10.5080778269
 20
21.9672621499
 10
10.5073747238
 20
21.952953371
 10
10.5066888073
 20
21.9320760821
 10
10.5060157159
 20
21.9047687004
 10
10.5047341778
 20
21.8316431047
  0
LWPOLYLINE
  5
3A8
100
AcDbEntity
  8
SUPERFICI
100
AcDbPolyline
 62
250
  6
CONTINUOUS
 90
8
 70
0
 10
11.0087219643
 20
21.4755923698
 10
11.0080045641
 20
21.4716950654
 10
11.0073035089
 20
21.4645922224
 10
11.0066187988
 20
21.4542838406
 10
11.0059457953
 20
21.4406561355
 10
11.0052891369
 20
21.4238228918
 10
11.0046627389
 20
21.4041254635
 10
11.0035024636
 20
21.3560260412
  0
LINE
  5
3A9
100
AcDbEntity
  8
TRASH
100
AcDbLine
 62
7
  6
CONTINUOUS
 10
3.3848722771
 20
-22.4
 11
3.3633443637
 21
-22.5
  0
LWPOLYLINE
  5
3AA
100
AcDbEntity
  8
0
100
AcDbPolyline
 62
7
  6
CONTINUOUS
 90
3
 70
0
 10
3.5355500439
 20
-6.100783375
 10
3.5328771207
 20
-6.1087940137
 10
3.5306308396
 20
-6.1109078115
  0
LINE
  5
3AB
100
AcDbEntity
  8
0
100
AcDbLine
 62
7
  6
CONTINUOUS
 10
3.6484775129
 20
-5.3
 11
3.5355500439
 21
-5.6058455933
  0
LINE
  5
3AC
100
AcDbEntity
  8
0
100
AcDbLine
 62
7
  6
CONTINUOUS
 10
3.7
 20
-5.6553975461
 11
3.5355500439
 21
-6.100783375
  0
LWPOLYLINE
  5
3AD
100
AcDbEntity
  8
0
100
AcDbPolyline
 62
7
  6
CONTINUOUS
 90
8
 70
0
 10
0.5565490227
 20
-11.1285430439
 10
0.5266266415
 20
-11.178993269
 10
0.4995445314
 20
-11.2315316453
 10
0.4753715407
 20
-11.2861369016
 10
0.4543094571
 20
-11.3425074403
 10
0.4366100622
 20
-11.4000299297
 10
0.4223308356
 20
-11.4584967557
 10
0.4193767353
 20
-11.4728600399
  0
LWPOLYLINE
  5
3AE
100
AcDbEntity
  8
0
100
AcDbPolyline
 62
7
  6
CONTINUOUS
 90
13
 70
0
 10
1.1848574578
 20
-11.5103336283
 10
1.2610429016
 20
-11.3820890344
 10
1.3328475376
 20
-11.2466543948
 10
1.3997298647
 20
-11.1042259639
 10
1.4609616096
 20
-10.9555521938
 10
1.5162977446
 20
-10.8004524041
 10
1.5657510953
 20
-10.6377496308
 10
1.6087148552
 20
-10.4678741721
 10
1.6447154443
 20
-10.2910517432
 10
1.6735966767
 20
-10.1057509167
 10
1.6948349675
 20
-9.9116957694
 10
1.7078404635
 20
-9.7097343491
 10
1.7122397553
 20
-9.5
  0
LWPOLYLINE
  5
3AF
100
AcDbEntity
  8
0
100
AcDbPolyline
 62
7
  6
CONTINUOUS
 90
13
 70
0
 10
1.5480771518
 20
-11.738281018
 10
1.6372120855
 20
-11.5921020353
 10
1.7210694562
 20
-11.4382610546
 10
1.7990495005
 20
-11.2770207399
 10
1.8703421971
 20
-11.1092677073
 10
1.9346902314
 20
-10.9348610741
 10
1.9921226108
 20
-10.752578896
 10
2.0419504706
 20
-10.5630262781
 10
2.0836436808
 20
-10.366590328
 10
2.1170432624
 20
-10.1617317435
 10
2.1415702721
 20
-9.9483490838
 10
2.1565697446
 20
-9.7276249507
 10
2.1616367785
 20
-9.5
  0
LWPOLYLINE
  5
3B0
100
AcDbEntity
  8
0
100
AcDbPolyline
 62
250
  6
CONTINUOUS
 90
10
 70
0
 10
0.7049994859
 20
-11.1639336303
 10
0.6655480509
 20
-11.2260950163
 10
0.629644922
 20
-11.2910819293
 10
0.5974642538
 20
-11.3586253523
 10
0.5690781083
 20
-11.4287302967
 10
0.5448117556
 20
-11.5008228197
 10
0.5250672976
 20
-11.5736967273
 10
0.5099253984
 20
-11.6466998213
 10
0.4993217915
 20
-11.719786728
 10
0.4932787005
 20
-11.7926288566
  0
LWPOLYLINE
  5
3B1
100
AcDbEntity
  8
0
100
AcDbPolyline
 62
250
  6
CONTINUOUS
 90
13
 70
0
 10
0.7049994859
 20
-11.1639336303
 10
0.7794383323
 20
-11.0480311256
 10
0.8487969998
 20
-10.9270291196
 10
0.9127611146
 20
-10.801174792
 10
0.9710334711
 20
-10.6706938355
 10
1.0233084581
 20
-10.5358985201
 10
1.0692743253
 20
-10.3972148983
 10
1.108665503
 20
-10.2550369724
 10
1.1412997633
 20
-10.1095820255
 10
1.1669987227
 20
-9.9610495959
 10
1.1855624383
 20
-9.8097247097
 10
1.1968131636
 20
-9.6559406419
 10
1.2005967807
 20
-9.5
  0
LWPOLYLINE
  5
3B2
100
AcDbEntity
  8
0
100
AcDbPolyline
 62
7
  6
CONTINUOUS
 90
10
 70
0
 10
1.1848574578
 20
-11.5103336283
 10
1.1481591065
 20
-11.5647620752
 10
1.1109540769
 20
-11.6188736164
 10
1.0732465255
 20
-11.6726621624
 10
1.0350373741
 20
-11.7261261065
 10
0.9963339411
 20
-11.7792548051
 10
0.9571503518
 20
-11.8320288683
 10
0.9174944987
 20
-11.8844380592
 10
0.8773676319
 20
-11.9364810031
 10
0.8367742767
 20
-11.988151872
  0
LWPOLYLINE
  5
3B3
100
AcDbEntity
  8
0
100
AcDbPolyline
 62
7
  6
CONTINUOUS
 90
4
 70
0
 10
1.5480771518
 20
-11.738281018
 10
1.5083778128
 20
-11.7970685428
 10
1.4690352476
 20
-11.8562224446
 10
1.440328552
 20
-11.9000013468
  0
LINE
  5
3B4
100
AcDbEntity
  8
0
100
AcDbLine
 62
7
  6
CONTINUOUS
 10
0.5891891892
 20
-11.0803324631
 11
0.5565490227
 21
-11.1285430439
  0
LWPOLYLINE
  5
3B5
100
AcDbEntity
  8
0
100
AcDbPolyline
 62
7
  6
CONTINUOUS
 90
3
 70
0
 10
3.5355500439
 20
-5.6058455933
 10
3.5319891538
 20
-5.6105213959
 10
3.530631118
 20
-5.6109078115
  0
LINE
  5
3B6
100
AcDbEntity
  8
0
100
AcDbLine
 62
7
  6
CONTINUOUS
 10
0.8367742767
 20
-11.988151872
 11
0.8085264615
 21
-12.0235459978
  0
LINE
  5
3B7
100
AcDbEntity
  8
0
100
AcDbLine
 62
7
  6
CONTINUOUS
 10
0.8085264615
 20
-12.0235459978
 11
0.7800560952
 21
-12.0587646701
  0
LINE
  5
3B8
100
AcDbEntity
  8
0
100
AcDbLine
 62
7
  6
CONTINUOUS
 10
0.7800560952
 20
-12.0587646701
 11
0.751364696
 21
-12.0938060107
  0
LWPOLYLINE
  5
3B9
100
AcDbEntity
  8
0
100
AcDbPolyline
 62
7
  6
CONTINUOUS
 90
10
 70
0
 10
-0.3883601919
 20
-7.6734263276
 10
-0.3744202015
 20
-7.6583252245
 10
-0.3609043153
 20
-7.643924572
 10
-0.3472690782
 20
-7.6296173194
 10
-0.33354148
 20
-7.6154298917
 10
-0.3196951889
 20
-7.6013332318
 10
-0.3056483419
 20
-7.5872446673
 10
-0.2913713196
 20
-7.5731376185
 10
-0.2768889454
 20
-7.5590397335
 10
-0.2621988624
 20
-7.5449512325
  0
LWPOLYLINE
  5
3BA
100
AcDbEntity
  8
0
100
AcDbPolyline
 62
7
  6
CONTINUOUS
 90
6
 70
0
 10
-1.116200838
 20
-7.7029811041
 10
-1.0699994847
 20
-7.657419717
 10
-1.0253639725
 20
-7.6129935996
 10
-0.9822085226
 20
-7.5696579211
 10
-0.9403238146
 20
-7.5271793136
 10
-0.8610409451
 20
-7.4457235718
  0
LWPOLYLINE
  5
3BB
100
AcDbEntity
  8
0
100
AcDbPolyline
 62
7
  6
CONTINUOUS
 90
22
 70
0
 10
-2.0206922508
 20
-8.433944431
 10
-1.9820343261
 20
-8.396808216
 10
-1.9430725414
 20
-8.3599421045
 10
-1.9038103403
 20
-8.3233555833
 10
-1.8642809798
 20
-8.2870837868
 10
-1.824458216
 20
-8.2511090145
 10
-1.7842530765
 20
-8.2153667804
 10
-1.7436662406
 20
-8.1798790225
 10
-1.7026975024
 20
-8.1446530063
 10
-1.6612504032
 20
-8.1096138434
 10
-1.6193224968
 20
-8.0747895079
 10
-1.5769142015
 20
-8.0401952159
 10
-1.5339267094
 20
-8.0057497624
 10
-1.4903594236
 20
-7.9714901043
 10
-1.4462088115
 20
-7.9374366236
 10
-1.4013644447
 20
-7.9034977534
 10
-1.3558239088
 20
-7.8697191267
 10
-1.3095820537
 20
-7.8361288374
 10
-1.2625164025
 20
-7.8026260347
 10
-1.214580429
 20
-7.7692122806
 10
-1.1658094196
 20
-7.7359815528
 10
-1.116200838
 20
-7.7029811041
  0
LINE
  5
3BC
100
AcDbEntity
  8
0
100
AcDbLine
 62
7
  6
CONTINUOUS
 10
0.3878039639
 20
-7.672820323
 11
0.7559362426
 21
-7.3344706641
  0
LWPOLYLINE
  5
3BD
100
AcDbEntity
  8
0
100
AcDbPolyline
 62
7
  6
CONTINUOUS
 90
22
 70
0
 10
-1.5882804933
 20
-8.5481577559
 10
-1.5512719262
 20
-8.5164837073
 10
-1.5140598944
 20
-8.4851466053
 10
-1.4766502922
 20
-8.4541522945
 10
-1.439077244
 20
-8.4235279428
 10
-1.4013180316
 20
-8.3932559455
 10
-1.3632905287
 20
-8.3632800586
 10
-1.3249976134
 20
-8.3336170887
 10
-1.286441715
 20
-8.30427047
 10
-1.2475349662
 20
-8.2751751937
 10
-1.2082772445
 20
-8.2463534056
 10
-1.1686713845
 20
-8.2178155017
 10
-1.1286285418
 20
-8.1894910992
 10
-1.0881500639
 20
-8.1614101005
 10
-1.0472349959
 20
-8.1335874284
 10
-1.0057851672
 20
-8.1059438262
 10
-0.9638000063
 20
-8.0785165974
 10
-0.9212768886
 20
-8.0513271239
 10
-0.87810804
 20
-8.0242878884
 10
-0.8342535525
 20
-7.9973984866
 10
-0.7897459923
 20
-7.970736253
 10
-0.7445837329
 20
-7.9443385761
  0
LWPOLYLINE
  5
3BE
100
AcDbEntity
  8
RACCORDO
100
AcDbPolyline
 62
250
  6
CONTINUOUS
 90
10
 70
0
 10
0.261168054
 20
-7.5459767362
 10
0.3033458177
 20
-7.5127599384
 10
0.346560645
 20
-7.4792407069
 10
0.3907973636
 20
-7.4454970408
 10
0.4363011181
 20
-7.4113693499
 10
0.4828397878
 20
-7.3771320788
 10
0.5296807386
 20
-7.3434772001
 10
0.5766031019
 20
-7.3105977702
 10
0.6239178533
 20
-7.2782033652
 10
0.6716944957
 20
-7.2462056095
  0
LINE
  5
3BF
100
AcDbEntity
  8
0
100
AcDbLine
 62
7
  6
CONTINUOUS
 10
-0.5891885979
 20
-11.0803332823
 11
-1.1848574578
 21
-11.5103336283
  0
LINE
  5
3C0
100
AcDbEntity
  8
RACCORDO
100
AcDbLine
 62
250
  6
CONTINUOUS
 10
2.5238858931
 20
-7.7046227748
 11
2.4408722313
 21
-7.763685987
  0
LWPOLYLINE
  5
3C1
100
AcDbEntity
  8
RACCORDO
100
AcDbPolyline
 62
250
  6
CONTINUOUS
 90
7
 70
0
 10
2.4408722313
 20
-7.763685987
 10
2.3677365
 20
-7.8151234593
 10
2.3376675505
 20
-7.8359991092
 10
2.3131819431
 20
-7.8527743137
 10
2.2950168785
 20
-7.8649474297
 10
2.2837212237
 20
-7.8721572398
 10
2.2796388703
 20
-7.8741935475
  0
LINE
  5
3C2
100
AcDbEntity
  8
0
100
AcDbLine
 62
7
  6
CONTINUOUS
 10
0.7445837329
 20
-7.9443385761
 11
1.1162212277
 21
-7.7030117115
  0
LINE
  5
3C3
100
AcDbEntity
  8
0
100
AcDbLine
 62
7
  6
CONTINUOUS
 10
-0.3292893219
 20
-6.582522726
 11
-2.2
 21
-7.7849923712
  0
LINE
  5
3C4
100
AcDbEntity
  8
0
100
AcDbLine
 62
7
  6
CONTINUOUS
 10
-0.3292893219
 20
-6.9655449475
 11
-2.2
 21
-8.1680145927
  0
LWPOLYLINE
  5
3C5
100
AcDbEntity
  8
0
100
AcDbPolyline
 62
7
  6
CONTINUOUS
 90
10
 70
0
 10
-0.7445837329
 20
-7.9443385761
 10
-0.6932583398
 20
-7.913547939
 10
-0.6450930555
 20
-7.8830767003
 10
-0.5999366175
 20
-7.8527835696
 10
-0.5575221055
 20
-7.8223839987
 10
-0.5178189509
 20
-7.7919372077
 10
-0.4810630658
 20
-7.7618110904
 10
-0.4472728574
 20
-7.7320507105
 10
-0.4162202403
 20
-7.7024112335
 10
-0.3883601919
 20
-7.6734263276
  0
LWPOLYLINE
  5
3C6
100
AcDbEntity
  8
RACCORDO
100
AcDbPolyline
 62
7
  6
CONTINUOUS
 90
10
 70
0
 10
3.7
 20
-5.3
 10
3.7120859341
 20
-5.2931054124
 10
3.730648425
 20
-5.2741988634
 10
3.7556874727
 20
-5.2460843086
 10
3.7887560198
 20
-5.2119646867
 10
3.8283011237
 20
-5.1741046522
 10
3.8696639565
 20
-5.133068285
 10
3.9112915755
 20
-5.089758942
 10
3.9547369233
 20
-5.0460165672
 10
4.0
 20
-5.0030018011
  0
LWPOLYLINE
  5
3C7
100
AcDbEntity
  8
RACCORDO
100
AcDbPolyline
 62
250
  6
CONTINUOUS
 90
10
 70
0
 10
2.2796388705
 20
7.8741935478
 10
2.2863682198
 20
7.8756189908
 10
2.2971817949
 20
7.8675743683
 10
2.3131746012
 20
7.8527640774
 10
2.3370857715
 20
7.8329983841
 10
2.3690399363
 20
7.8119255561
 10
2.4024780965
 20
7.7907642904
 10
2.4356794798
 20
7.7664449552
 10
2.4746999584
 20
7.7375108276
 10
2.5238858928
 20
7.7046227744
  0
LWPOLYLINE
  5
3C8
100
AcDbEntity
  8
0
100
AcDbPolyline
 62
7
  6
CONTINUOUS
 90
12
 70
0
 10
3.5306308396
 20
6.1109078115
 10
3.5302049902
 20
6.1108318193
 10
3.5275336524
 20
6.1068910244
 10
3.5248633716
 20
6.0970031349
 10
3.5221938835
 20
6.0812334488
 10
3.5195243953
 20
6.0596735831
 10
3.5168549072
 20
6.0324521911
 10
3.5141854191
 20
5.9997317097
 10
3.5115151383
 20
5.9616928111
 10
3.5088438005
 20
5.9185516054
 10
3.50617167
 20
5.8705648671
 10
3.5034987468
 20
5.8180145927
  0
LWPOLYLINE
  5
3C9
100
AcDbEntity
  8
0
100
AcDbPolyline
 62
7
  6
CONTINUOUS
 90
11
 70
0
 10
-0.4
 20
6.4727920172
 10
-0.3837673833
 20
6.4737401477
 10
-0.3686343666
 20
6.4760754696
 10
-0.35460095
 20
6.4797979828
 10
-0.3413804996
 20
6.4850650472
 10
-0.3292596493
 20
6.4917193029
 10
-0.3190983006
 20
6.4992886704
 10
-0.3110388354
 20
6.507839644
 10
-0.304938872
 20
6.5173057293
 10
-0.3012311659
 20
6.5270153646
 10
-0.3000901969
 20
6.5370704535
  0
LINE
  5
3CA
100
AcDbEntity
  8
RACCORDO
100
AcDbLine
 62
250
  6
CONTINUOUS
 10
4.0
 20
5.0030018011
 11
-4.0
 21
5.0030018011
  0
LINE
  5
3CB
100
AcDbEntity
  8
RACCORDO
100
AcDbLine
 62
7
  6
CONTINUOUS
 10
3.7
 20
5.3
 11
-3.7
 21
5.3
  0
LINE
  5
3CC
100
AcDbEntity
  8
0
100
AcDbLine
 62
250
  6
CONTINUOUS
 10
-3.5355500439
 20
5.6058455933
 11
-3.5259979182
 21
5.6058455933
  0
LINE
  5
3CD
100
AcDbEntity
  8
0
100
AcDbLine
 62
250
  6
CONTINUOUS
 10
3.5259979182
 20
5.6058455933
 11
3.5355500439
 21
5.6058455933
  0
LINE
  5
3CE
100
AcDbEntity
  8
0
100
AcDbLine
 62
250
  6
CONTINUOUS
 10
-3.5034987468
 20
5.8180145927
 11
3.5034987468
 21
5.8180145927
  0
LINE
  5
3CF
100
AcDbEntity
  8
0
100
AcDbLine
 62
7
  6
CONTINUOUS
 10
3.5306303703
 20
6.1109078115
 11
-3.5306303703
 21
6.1109078115
  0
LINE
  5
3D0
100
AcDbEntity
  8
0
100
AcDbLine
 62
7
  6
CONTINUOUS
 10
-3.1
 20
6.2
 11
-0.8
 21
6.2
  0
LINE
  5
3D1
100
AcDbEntity
  8
0
100
AcDbLine
 62
7
  6
CONTINUOUS
 10
3.1
 20
6.2
 11
0.8
 21
6.2
  0
LINE
  5
3D2
100
AcDbEntity
  8
0
100
AcDbLine
 62
250
  6
CONTINUOUS
 10
-3.1
 20
6.4339555569
 11
-1.2
 21
6.4339555569
  0
LINE
  5
3D3
100
AcDbEntity
  8
0
100
AcDbLine
 62
250
  6
CONTINUOUS
 10
3.1
 20
6.4339555569
 11
1.2
 21
6.4339555569
  0
LINE
  5
3D4
100
AcDbEntity
  8
0
100
AcDbLine
 62
7
  6
CONTINUOUS
 10
-1.2
 20
6.4727920172
 11
-0.4
 21
6.4727920172
  0
LINE
  5
3D5
100
AcDbEntity
  8
0
100
AcDbLine
 62
7
  6
CONTINUOUS
 10
1.2
 20
6.4727920172
 11
0.4
 21
6.4727920172
  0
LINE
  5
3D6
100
AcDbEntity
  8
0
100
AcDbLine
 62
7
  6
CONTINUOUS
 10
-0.02
 20
6.98
 11
-0.3517773915
 21
6.98
  0
LINE
  5
3D7
100
AcDbEntity
  8
0
100
AcDbLine
 62
7
  6
CONTINUOUS
 10
0.02
 20
6.98
 11
0.3517773915
 21
6.98
  0
LINE
  5
3D8
100
AcDbEntity
  8
RACCORDO
100
AcDbLine
 62
7
  6
CONTINUOUS
 10
-3.7
 20
7.4
 11
-2.5238858928
 21
7.4
  0
LINE
  5
3D9
100
AcDbEntity
  8
RACCORDO
100
AcDbLine
 62
7
  6
CONTINUOUS
 10
2.5238858928
 20
7.4
 11
3.7
 21
7.4
  0
LINE
  5
3DA
100
AcDbEntity
  8
RACCORDO
100
AcDbLine
 62
250
  6
CONTINUOUS
 10
-4.0
 20
7.7046227737
 11
-2.523458033
 21
7.7046227982
  0
LINE
  5
3DB
100
AcDbEntity
  8
RACCORDO
100
AcDbLine
 62
250
  6
CONTINUOUS
 10
2.5235825654
 20
7.704622798
 11
4.0
 21
7.7046227737
  0
LINE
  5
3DC
100
AcDbEntity
  8
RACCORDO
100
AcDbLine
 62
7
  6
CONTINUOUS
 10
-2.2382702939
 20
7.7849923712
 11
-2.2
 21
7.7849923712
  0
LINE
  5
3DD
100
AcDbEntity
  8
RACCORDO
100
AcDbLine
 62
7
  6
CONTINUOUS
 10
2.2383065437
 20
7.7849923712
 11
2.2
 21
7.7849923712
  0
LINE
  5
3DE
100
AcDbEntity
  8
RACCORDO
100
AcDbLine
 62
7
  6
CONTINUOUS
 10
-2.4623735537
 20
8.1680145927
 11
-2.2
 21
8.1680145927
  0
LINE
  5
3DF
100
AcDbEntity
  8
RACCORDO
100
AcDbLine
 62
7
  6
CONTINUOUS
 10
2.4622033795
 20
8.1680145927
 11
2.2
 21
8.1680145927
  0
LWPOLYLINE
  5
3E0
100
AcDbEntity
  8
0
100
AcDbPolyline
 62
7
  6
CONTINUOUS
 90
11
 70
0
 10
0.4
 20
6.4727920172
 10
0.3837673833
 20
6.4737401477
 10
0.3686343666
 20
6.4760754696
 10
0.35460095
 20
6.4797979828
 10
0.3413804996
 20
6.4850650472
 10
0.3292596493
 20
6.4917193029
 10
0.3190983006
 20
6.4992886704
 10
0.3110388354
 20
6.507839644
 10
0.304938872
 20
6.5173057293
 10
0.3012311659
 20
6.5270153646
 10
0.3000901969
 20
6.5370704535
  0
LWPOLYLINE
  5
3E1
100
AcDbEntity
  8
0
100
AcDbPolyline
 62
7
  6
CONTINUOUS
 90
12
 70
0
 10
-3.5306308396
 20
6.1109078115
 10
-3.5302049902
 20
6.1108318193
 10
-3.5275336524
 20
6.1068910244
 10
-3.5248633716
 20
6.0970031349
 10
-3.5221938835
 20
6.0812334488
 10
-3.5195243953
 20
6.0596735831
 10
-3.5168549072
 20
6.0324521911
 10
-3.5141854191
 20
5.9997317097
 10
-3.5115151383
 20
5.9616928111
 10
-3.5088438005
 20
5.9185516054
 10
-3.50617167
 20
5.8705648671
 10
-3.5034987468
 20
5.8180145927
  0
LWPOLYLINE
  5
3E2
100
AcDbEntity
  8
RACCORDO
100
AcDbPolyline
 62
7
  6
CONTINUOUS
 90
10
 70
0
 10
3.7
 20
5.3
 10
3.7119173604
 20
5.2931625888
 10
3.730400192
 20
5.27436342
 10
3.7554484949
 20
5.2463198723
 10
3.7886775728
 20
5.212107148
 10
3.8284721219
 20
5.1739899137
 10
3.8699862304
 20
5.1327475143
 10
3.9116045943
 20
5.0894116925
 10
3.9549425175
 20
5.045774862
 10
4.0
 20
5.0030018011
  0
LWPOLYLINE
  5
3E3
100
AcDbEntity
  8
0
100
AcDbPolyline
 62
7
  6
CONTINUOUS
 90
10
 70
0
 10
-0.7445837329
 20
7.9443385761
 10
-0.6932583398
 20
7.913547939
 10
-0.6450930555
 20
7.8830767003
 10
-0.5999366175
 20
7.8527835696
 10
-0.5575221055
 20
7.8223839987
 10
-0.5178189509
 20
7.7919372077
 10
-0.4810630658
 20
7.7618110904
 10
-0.4472728574
 20
7.7320507105
 10
-0.4162202403
 20
7.7024112335
 10
-0.388360192
 20
7.6734263277
  0
LINE
  5
3E4
100
AcDbEntity
  8
0
100
AcDbLine
 62
7
  6
CONTINUOUS
 10
-0.3292893219
 20
6.582522726
 11
-2.2
 21
7.7849923712
  0
LINE
  5
3E5
100
AcDbEntity
  8
0
100
AcDbLine
 62
7
  6
CONTINUOUS
 10
-0.3292893219
 20
6.9655449475
 11
-2.2
 21
8.1680145927
  0
LINE
  5
3E6
100
AcDbEntity
  8
0
100
AcDbLine
 62
7
  6
CONTINUOUS
 10
0.7445837329
 20
7.9443385761
 11
1.116200838
 21
7.7029811041
  0
LINE
  5
3E7
100
AcDbEntity
  8
0
100
AcDbLine
 62
7
  6
CONTINUOUS
 10
-1.1848574578
 20
11.5103336283
 11
-0.5893587983
 21
11.0804549006
  0
LWPOLYLINE
  5
3E8
100
AcDbEntity
  8
0
100
AcDbPolyline
 62
7
  6
CONTINUOUS
 90
22
 70
0
 10
-1.5882804933
 20
8.5481577559
 10
-1.5512719262
 20
8.5164837073
 10
-1.5140598944
 20
8.4851466053
 10
-1.4766502922
 20
8.4541522945
 10
-1.439077244
 20
8.4235279428
 10
-1.4013180316
 20
8.3932559455
 10
-1.3632905287
 20
8.3632800586
 10
-1.3249976134
 20
8.3336170887
 10
-1.286441715
 20
8.30427047
 10
-1.2475349662
 20
8.2751751937
 10
-1.2082772445
 20
8.2463534056
 10
-1.1686713845
 20
8.2178155017
 10
-1.1286285418
 20
8.1894910992
 10
-1.0881500639
 20
8.1614101005
 10
-1.0472349959
 20
8.1335874284
 10
-1.0057851672
 20
8.1059438262
 10
-0.9638000063
 20
8.0785165974
 10
-0.9212768886
 20
8.0513271239
 10
-0.87810804
 20
8.0242878884
 10
-0.8342535525
 20
7.9973984866
 10
-0.7897459923
 20
7.970736253
 10
-0.7445837329
 20
7.9443385761
  0
LINE
  5
3E9
100
AcDbEntity
  8
0
100
AcDbLine
 62
7
  6
CONTINUOUS
 10
0.3878164987
 20
7.6728203243
 11
0.7559463809
 21
7.3344721356
  0
LWPOLYLINE
  5
3EA
100
AcDbEntity
  8
RACCORDO
100
AcDbPolyline
 62
7
  6
CONTINUOUS
 90
4
 70
0
 10
-0.6069491422
 20
7.1828086091
 10
-0.6159386289
 20
7.19133308
 10
-0.6256703016
 20
7.2007198929
 10
-0.6361291853
 20
7.2109364834
  0
LWPOLYLINE
  5
3EB
100
AcDbEntity
  8
0
100
AcDbPolyline
 62
7
  6
CONTINUOUS
 90
22
 70
0
 10
-2.0206942232
 20
8.4339516566
 10
-1.9820386471
 20
8.3968232805
 10
-1.9430788656
 20
8.3599632137
 10
-1.9038182673
 20
8.323380992
 10
-1.8642902592
 20
8.2871125416
 10
-1.8244683539
 20
8.2511394566
 10
-1.7842628591
 20
8.2153951207
 10
-1.7436734211
 20
8.1798990988
 10
-1.7027005504
 20
8.1446613375
 10
-1.6612498027
 20
8.1096122856
 10
-1.6193190993
 20
8.0747804381
 10
-1.5769086201
 20
8.0401803574
 10
-1.5339209694
 20
8.0057341016
 10
-1.4903569097
 20
7.9714809603
 10
-1.4462119612
 20
7.9374385211
 10
-1.4013736116
 20
7.9035108418
 10
-1.3558396655
 20
7.8697439665
 10
-1.3096047948
 20
7.8361655179
 10
-1.2625434864
 20
7.8026693864
 10
-1.2146079916
 20
7.7692556596
 10
-1.1658344108
 20
7.736020341
 10
-1.1162200317
 20
7.7030109467
  0
LWPOLYLINE
  5
3EC
100
AcDbEntity
  8
0
100
AcDbPolyline
 62
7
  6
CONTINUOUS
 90
5
 70
0
 10
-1.116219292
 20
7.703009819
 10
-1.0699979726
 20
7.6574175262
 10
-1.0253466805
 20
7.612968987
 10
-0.9821800613
 20
7.5696189521
 10
-0.9402902751
 20
7.5271349597
  0
LWPOLYLINE
  5
3ED
100
AcDbEntity
  8
RACCORDO
100
AcDbPolyline
 62
7
  6
CONTINUOUS
 90
3
 70
0
 10
-0.6361291853
 20
7.2109364834
 10
-0.6591603502
 20
7.2337174238
 10
-0.6716944957
 20
7.2462056095
  0
LINE
  5
3EE
100
AcDbEntity
  8
0
100
AcDbLine
 62
7
  6
CONTINUOUS
 10
0.2621988461
 20
7.5449512535
 11
0.6069429596
 21
7.1828028085
  0
LWPOLYLINE
  5
3EF
100
AcDbEntity
  8
RACCORDO
100
AcDbPolyline
 62
7
  6
CONTINUOUS
 90
10
 70
0
 10
-0.3878164987
 20
7.6728203243
 10
-0.3744202015
 20
7.6583252245
 10
-0.3609043153
 20
7.643924572
 10
-0.3472690782
 20
7.6296173194
 10
-0.33354148
 20
7.6154298917
 10
-0.3196951889
 20
7.6013332318
 10
-0.3056483419
 20
7.5872446673
 10
-0.2913713196
 20
7.5731376185
 10
-0.2768889454
 20
7.5590397335
 10
-0.2621988624
 20
7.5449512325
  0
LINE
  5
3F0
100
AcDbEntity
  8
0
100
AcDbLine
 62
7
  6
CONTINUOUS
 10
-0.388360192
 20
7.6734263277
 11
-0.3878039604
 21
7.6728203192
  0
LWPOLYLINE
  5
3F1
100
AcDbEntity
  8
0
100
AcDbPolyline
 62
7
  6
CONTINUOUS
 90
16
 70
0
 10
-0.38836018
 20
7.6734263147
 10
-0.4472379644
 20
7.7396750385
 10
-0.5364472754
 20
7.8490849858
 10
-0.6197911425
 20
7.9629810495
 10
-0.6970305576
 20
8.0810573603
 10
-0.7679720254
 20
8.2029812606
 10
-0.8324342359
 20
8.3284167682
 10
-0.8902337111
 20
8.4570220029
 10
-0.9412073236
 20
8.588447775
 10
-0.9852420195
 20
8.7223326629
 10
-1.0222311508
 20
8.8583089192
 10
-1.0520681623
 20
8.9960036434
 10
-1.0746738014
 20
9.1350416771
 10
-1.0900151332
 20
9.2750423166
 10
-1.0980639788
 20
9.4156260554
 10
-1.0993808834
 20
9.5
  0
LINE
  5
3F2
100
AcDbEntity
  8
0
100
AcDbLine
 62
7
  6
CONTINUOUS
 10
0.7800196601
 20
12.0588094537
 11
0.7511994846
 21
12.0940064962
  0
LINE
  5
3F3
100
AcDbEntity
  8
0
100
AcDbLine
 62
7
  6
CONTINUOUS
 10
0.808544539
 20
12.0235234917
 11
0.7800196601
 21
12.0588094537
  0
LINE
  5
3F4
100
AcDbEntity
  8
0
100
AcDbLine
 62
7
  6
CONTINUOUS
 10
0.8367742767
 20
11.988151872
 11
0.808544539
 21
12.0235234917
  0
LWPOLYLINE
  5
3F5
100
AcDbEntity
  8
0
100
AcDbPolyline
 62
7
  6
CONTINUOUS
 90
3
 70
0
 10
3.5355500439
 20
5.6058455933
 10
3.5319891538
 20
5.6105213959
 10
3.530631118
 20
5.6109078115
  0
LWPOLYLINE
  5
3F6
100
AcDbEntity
  8
0
100
AcDbPolyline
 62
7
  6
CONTINUOUS
 90
13
 70
0
 10
0.5891892084
 20
11.080332477
 10
0.6423090051
 20
11.0039926963
 10
0.7220387028
 20
10.8776354526
 10
0.7946856083
 20
10.7470184486
 10
0.8600263397
 20
10.6125491035
 10
0.9178418717
 20
10.4746294879
 10
0.9679174408
 20
10.333657475
 10
1.0100575304
 20
10.1900534963
 10
1.044162266
 20
10.0442679306
 10
1.0701635989
 20
9.8967464324
 10
1.0879951298
 20
9.7479407056
 10
1.097591122
 20
9.5983092525
 10
1.0993809222
 20
9.5
  0
LINE
  5
3F7
100
AcDbEntity
  8
0
100
AcDbLine
 62
7
  6
CONTINUOUS
 10
0.5891891892
 20
11.0803324631
 11
0.5564170632
 21
11.1287655324
  0
LWPOLYLINE
  5
3F8
100
AcDbEntity
  8
0
100
AcDbPolyline
 62
7
  6
CONTINUOUS
 90
4
 70
0
 10
1.5480771518
 20
11.738281018
 10
1.5083778128
 20
11.7970685428
 10
1.4690352476
 20
11.8562224446
 10
1.4405458735
 20
11.8996699226
  0
LWPOLYLINE
  5
3F9
100
AcDbEntity
  8
0
100
AcDbPolyline
 62
7
  6
CONTINUOUS
 90
10
 70
0
 10
1.1848574578
 20
11.5103336283
 10
1.1481591065
 20
11.5647620752
 10
1.1109540769
 20
11.6188736164
 10
1.0732465255
 20
11.6726621624
 10
1.0350373741
 20
11.7261261065
 10
0.9963339411
 20
11.7792548051
 10
0.9571503518
 20
11.8320288683
 10
0.9174944987
 20
11.8844380592
 10
0.8773676319
 20
11.9364810031
 10
0.8367742767
 20
11.988151872
  0
LWPOLYLINE
  5
3FA
100
AcDbEntity
  8
0
100
AcDbPolyline
 62
250
  6
CONTINUOUS
 90
13
 70
0
 10
0.7049994859
 20
11.1639336303
 10
0.7794383323
 20
11.0480311256
 10
0.8487969998
 20
10.9270291196
 10
0.9127611146
 20
10.801174792
 10
0.9710334711
 20
10.6706938355
 10
1.0233084581
 20
10.5358985201
 10
1.0692743253
 20
10.3972148983
 10
1.108665503
 20
10.2550369724
 10
1.1412997633
 20
10.1095820255
 10
1.1669987227
 20
9.9610495959
 10
1.1855624383
 20
9.8097247097
 10
1.1968131636
 20
9.6559406419
 10
1.2005967807
 20
9.5
  0
LWPOLYLINE
  5
3FB
100
AcDbEntity
  8
0
100
AcDbPolyline
 62
250
  6
CONTINUOUS
 90
10
 70
0
 10
0.7049994859
 20
11.1639336303
 10
0.6655480509
 20
11.2260950163
 10
0.629644922
 20
11.2910819293
 10
0.5974642538
 20
11.3586253523
 10
0.5690781083
 20
11.4287302967
 10
0.5448117556
 20
11.5008228197
 10
0.5250672976
 20
11.5736967273
 10
0.5099253984
 20
11.6466998213
 10
0.4993217915
 20
11.719786728
 10
0.4932787005
 20
11.7926288566
  0
LWPOLYLINE
  5
3FC
100
AcDbEntity
  8
RACCORDO
100
AcDbPolyline
 62
250
  6
CONTINUOUS
 90
6
 70
0
 10
2.609371491
 20
11.180377096
 10
2.6762295236
 20
11.071653793
 10
2.7370962819
 20
10.9622258382
 10
2.7931677544
 20
10.8512041596
 10
2.8448149359
 20
10.7382246059
 10
2.8916668316
 20
10.6236512895
  0
LWPOLYLINE
  5
3FD
100
AcDbEntity
  8
0
100
AcDbPolyline
 62
7
  6
CONTINUOUS
 90
13
 70
0
 10
1.5480771518
 20
11.738281018
 10
1.6372120855
 20
11.5921020353
 10
1.7210694562
 20
11.4382610546
 10
1.7990495005
 20
11.2770207399
 10
1.8703421971
 20
11.1092677073
 10
1.9346902314
 20
10.9348610741
 10
1.9921226108
 20
10.752578896
 10
2.0419504706
 20
10.5630262782
 10
2.0836436808
 20
10.366590328
 10
2.1170432624
 20
10.1617317435
 10
2.1415702721
 20
9.9483490838
 10
2.1565697446
 20
9.7276249507
 10
2.1616367785
 20
9.5
  0
LWPOLYLINE
  5
3FE
100
AcDbEntity
  8
0
100
AcDbPolyline
 62
7
  6
CONTINUOUS
 90
13
 70
0
 10
1.1848574578
 20
11.5103336283
 10
1.2610429016
 20
11.3820890344
 10
1.3328475376
 20
11.2466543948
 10
1.3997298647
 20
11.1042259639
 10
1.4609616096
 20
10.9555521938
 10
1.5162977446
 20
10.8004524041
 10
1.5657510953
 20
10.6377496308
 10
1.6087148552
 20
10.4678741721
 10
1.6447154443
 20
10.2910517432
 10
1.6735966767
 20
10.1057509167
 10
1.6948349675
 20
9.9116957694
 10
1.7078404635
 20
9.7097343491
 10
1.7122397553
 20
9.5
  0
LWPOLYLINE
  5
3FF
100
AcDbEntity
  8
0
100
AcDbPolyline
 62
7
  6
CONTINUOUS
 90
8
 70
0
 10
0.5564170632
 20
11.1287655324
 10
0.5266266415
 20
11.178993269
 10
0.4995445314
 20
11.2315316453
 10
0.4753715407
 20
11.2861369016
 10
0.4543094571
 20
11.3425074403
 10
0.4366100622
 20
11.4000299297
 10
0.4223308356
 20
11.4584967557
 10
0.4193767353
 20
11.4728600399
  0
LINE
  5
400
100
AcDbEntity
  8
0
100
AcDbLine
 62
7
  6
CONTINUOUS
 10
3.6484775129
 20
5.3
 11
3.5355500439
 21
5.6058455933
  0
LINE
  5
401
100
AcDbEntity
  8
0
100
AcDbLine
 62
7
  6
CONTINUOUS
 10
3.7
 20
5.6553975461
 11
3.5355500439
 21
6.100783375
  0
LWPOLYLINE
  5
402
100
AcDbEntity
  8
RACCORDO
100
AcDbPolyline
 62
250
  6
CONTINUOUS
 90
23
 70
0
 10
2.8916668316
 20
10.6236512895
 10
2.9338064451
 20
10.5076875243
 10
2.9712785677
 20
10.3903244834
 10
3.0040384082
 20
10.2715709653
 10
3.0320345965
 20
10.151656729
 10
3.0553013258
 20
10.0306367967
 10
3.073804403
 20
9.9084561267
 10
3.087389879
 20
9.7851793868
 10
3.0961547567
 20
9.6610275299
 10
3.1000020331
 20
9.5357795885
 10
3.09848675
 20
9.4088373423
 10
3.0919044478
 20
9.2805079803
 10
3.0799595861
 20
9.1504842842
 10
3.0613205846
 20
9.0172463936
 10
3.0361392536
 20
8.8800395828
 10
3.0042637828
 20
8.7396184957
 10
2.9639071612
 20
8.5967273157
 10
2.915085077
 20
8.451035314
 10
2.857781842
 20
8.3028731665
 10
2.7901633809
 20
8.1539772009
 10
2.7116183352
 20
8.0049262063
 10
2.6227580634
 20
7.8551414043
 10
2.5235825654
 20
7.704622798
  0
LWPOLYLINE
  5
403
100
AcDbEntity
  8
0
100
AcDbPolyline
 62
7
  6
CONTINUOUS
 90
3
 70
0
 10
3.5355500439
 20
6.100783375
 10
3.5328771207
 20
6.1087940137
 10
3.5306308396
 20
6.1109078115
  0
LINE
  5
404
100
AcDbEntity
  8
TRASH
100
AcDbLine
 62
7
  6
CONTINUOUS
 10
3.3848722771
 20
22.4
 11
3.3633443637
 21
22.5
  0
LWPOLYLINE
  5
405
100
AcDbEntity
  8
SUPERFICI
100
AcDbPolyline
 62
250
  6
CONTINUOUS
 90
16
 70
0
 10
11.0087219643
 20
21.4755923698
 10
11.0059389623
 20
21.5277533032
 10
10.9977157646
 20
21.5793436708
 10
10.9841422864
 20
21.6297989097
 10
10.9653669917
 20
21.6785668706
 10
10.9415952756
 20
21.7251138478
 10
10.9130872219
 20
21.7689304222
 10
10.8801547429
 20
21.8095370623
 10
10.843158184
 20
21.8464893433
 10
10.8025023985
 20
21.8793828084
 10
10.7586322667
 20
21.9078574436
 10
10.7120278628
 20
21.9316015798
 10
10.6631992385
 20
21.9503553003
 10
10.6126807679
 20
21.9639133265
 10
10.5610252917
 20
21.9721272495
 10
10.5087981166
 20
21.974907137
  0
LWPOLYLINE
  5
406
100
AcDbEntity
  8
SUPERFICI
100
AcDbPolyline
 62
250
  6
CONTINUOUS
 90
7
 70
0
 10
11.0046627389
 20
-21.4041254633
 10
11.0052891369
 20
-21.4238228917
 10
11.0059457953
 20
-21.4406561357
 10
11.0066187988
 20
-21.4542838409
 10
11.0073035089
 20
-21.4645922227
 10
11.0080045641
 20
-21.4716950656
 10
11.0087219643
 20
-21.4755923698
  0
LWPOLYLINE
  5
407
100
AcDbEntity
  8
SUPERFICI
100
AcDbPolyline
 62
250
  6
CONTINUOUS
 90
5
 70
0
 10
10.5060157159
 20
-21.9047687004
 10
10.5066888073
 20
-21.9320760821
 10
10.5073747238
 20
-21.952953371
 10
10.5080778269
 20
-21.9672621499
 10
10.5087981167
 20
-21.9749071372
  0
LINE
  5
408
100
AcDbEntity
  8
SUPERFICI
100
AcDbLine
 62
250
  6
CONTINUOUS
 10
11.0035024636
 20
-21.3560260411
 11
11.0046627389
 21
-21.4041254633
  0
LINE
  5
409
100
AcDbEntity
  8
SUPERFICI
100
AcDbLine
 62
250
  6
CONTINUOUS
 10
11.0024980441
 20
-21.2979562724
 11
11.0035024636
 21
-21.3560260411
  0
LINE
  5
40A
100
AcDbEntity
  8
SUPERFICI
100
AcDbLine
 62
250
  6
CONTINUOUS
 10
10.5047341778
 20
-21.8316431047
 11
10.5060157159
 21
-21.9047687004
  0
LINE
  5
40B
100
AcDbEntity
  8
SUPERFICI
100
AcDbLine
 62
250
  6
CONTINUOUS
 10
10.5030519894
 20
-21.6796926689
 11
10.5047341778
 21
-21.8316431047
  0
LINE
  5
40C
100
AcDbEntity
  8
SUPERFICI
100
AcDbLine
 62
250
  6
CONTINUOUS
 10
11.0013312402
 20
-21.1949860367
 11
11.0024980441
 21
-21.2979562724
  0
LINE
  5
40D
100
AcDbEntity
  8
SUPERFICI
100
AcDbLine
 62
250
  6
CONTINUOUS
 10
11.0006377707
 20
-21.0790132523
 11
11.0013312402
 21
-21.1949860367
  0
LINE
  5
40E
100
AcDbEntity
  8
SUPERFICI
100
AcDbLine
 62
250
  6
CONTINUOUS
 10
10.5011186535
 20
-21.3380089963
 11
10.5030519894
 21
-21.6796926689
  0
LINE
  5
40F
100
AcDbEntity
  8
SUPERFICI
100
AcDbLine
 62
250
  6
CONTINUOUS
 10
10.5005350625
 20
-21.0183142309
 11
10.5011186535
 21
-21.3380089963
  0
LINE
  5
410
100
AcDbEntity
  8
SUPERFICI
100
AcDbLine
 62
7
  6
CONTINUOUS
 10
11.15
 20
21.8997711479
 11
11.15
 21
-21.8997711479
  0
LINE
  5
411
100
AcDbEntity
  8
TRASH
100
AcDbLine
 62
7
  6
CONTINUOUS
 10
11.15
 20
-16.119659166
 11
11.15
 21
16.119659166
  0
LWPOLYLINE
  5
412
100
AcDbEntity
  8
SUPERFICI
100
AcDbPolyline
 62
250
  6
CONTINUOUS
 90
9
 70
0
 10
10.497490446
 20
16.349481053
 10
10.4952069837
 20
11.6792204116
 10
10.4936846755
 20
7.0079400855
 10
10.4929235215
 20
2.3360479917
 10
10.4929235217
 20
-2.3360479976
 10
10.4936846759
 20
-7.0079400907
 10
10.4952069841
 20
-11.6792204157
 10
10.4974904463
 20
-16.3494810554
 10
10.5005350625
 20
-21.0183142309
  0
LWPOLYLINE
  5
413
100
AcDbEntity
  8
SUPERFICI
100
AcDbPolyline
 62
250
  6
CONTINUOUS
 90
9
 70
0
 10
10.9974142989
 20
16.3324771154
 10
10.99513084
 20
11.6670364005
 10
10.9936085333
 20
7.0009737718
 10
10.9928473781
 20
2.3338756638
 10
10.9928473752
 20
-2.3338443579
 10
10.9936085267
 20
-7.0009455965
 10
10.9951308334
 20
-11.6670144863
 10
10.9974142946
 20
-16.3324645931
 10
11.0006377707
 20
-21.0790132523
  0
LINE
  5
414
100
AcDbEntity
  8
SUPERFICI
100
AcDbLine
 62
250
  6
CONTINUOUS
 10
11.00081144
 20
21.1184484404
 11
10.9974142989
 21
16.3324771154
  0
LINE
  5
415
100
AcDbEntity
  8
SUPERFICI
100
AcDbLine
 62
250
  6
CONTINUOUS
 10
10.5017441538
 20
21.4854586496
 11
10.497490446
 21
16.349481053
  0
LINE
  5
416
100
AcDbEntity
  8
SUPERFICI
100
AcDbLine
 62
250
  6
CONTINUOUS
 10
10.5035748986
 20
21.7355556626
 11
10.5017441538
 21
21.4854586496
  0
LINE
  5
417
100
AcDbEntity
  8
SUPERFICI
100
AcDbLine
 62
250
  6
CONTINUOUS
 10
11.0016694038
 20
21.2310600855
 11
11.00081144
 21
21.1184484404
  0
LINE
  5
418
100
AcDbEntity
  8
SUPERFICI
100
AcDbLine
 62
250
  6
CONTINUOUS
 10
10.5047341778
 20
21.8316431047
 11
10.5035748986
 21
21.7355556626
  0
LINE
  5
419
100
AcDbEntity
  8
SUPERFICI
100
AcDbLine
 62
250
  6
CONTINUOUS
 10
11.0024980441
 20
21.2979562723
 11
11.0016694038
 21
21.2310600855
  0
LINE
  5
41A
100
AcDbEntity
  8
SUPERFICI
100
AcDbLine
 62
250
  6
CONTINUOUS
 10
11.0035024636
 20
21.3560260412
 11
11.0024980441
 21
21.2979562723
  0
LWPOLYLINE
  5
41B
100
AcDbEntity
  8
SUPERFICI
100
AcDbPolyline
 62
250
  6
CONTINUOUS
 90
16
 70
0
 10
11.0087219643
 20
-21.4755923698
 10
11.0059388076
 20
-21.5277547588
 10
10.9977152003
 20
-21.5793463095
 10
10.9841411372
 20
-21.6298024308
 10
10.9653651658
 20
-21.6785709568
 10
10.9415927608
 20
-21.7251181902
 10
10.913084075
 20
-21.768934742
 10
10.8801510927
 20
-21.8095411066
 10
10.8431542155
 20
-21.8464929089
 10
10.8024983179
 20
-21.8793857675
 10
10.7586283172
 20
-21.90785972
 10
10.712024304
 20
-21.931603162
 10
10.6631962884
 20
-21.9503562578
 10
10.612678619
 20
-21.9639137831
 10
10.5610241352
 20
-21.9721273713
 10
10.5087981167
 20
-21.9749071372
  0
LINE
  5
41C
100
AcDbEntity
  8
0
100
AcDbLine
 62
7
  6
CONTINUOUS
 10
-0.7511994846
 20
-12.0940064962
 11
-0.8415742238
 21
-12.1691140947
  0
LINE
  5
41D
100
AcDbEntity
  8
0
100
AcDbLine
 62
250
  6
CONTINUOUS
 10
-0.8367742767
 20
-11.988151872
 11
-0.9965978454
 21
-12.1151164512
  0
LINE
  5
41E
100
AcDbEntity
  8
0
100
AcDbLine
 62
7
  6
CONTINUOUS
 10
-1.1848574578
 20
-11.5103336283
 11
-1.5480771518
 21
-11.738281018
  0
LINE
  5
41F
100
AcDbEntity
  8
0
100
AcDbLine
 62
250
  6
CONTINUOUS
 10
-0.6448010379
 20
-11.8793696336
 11
-0.4932787005
 21
-11.7926288566
  0
LWPOLYLINE
  5
420
100
AcDbEntity
  8
0
100
AcDbPolyline
 62
250
  6
CONTINUOUS
 90
10
 70
0
 10
-0.4932787005
 20
-11.7926288566
 10
-0.4751237016
 20
-11.782313825
 10
-0.4585955442
 20
-11.7732041638
 10
-0.4440387535
 20
-11.7654882573
 10
-0.4318916776
 20
-11.7593929937
 10
-0.4221441527
 20
-11.7549076853
 10
-0.414450313
 20
-11.7518850153
 10
-0.4087621629
 20
-11.7503423288
 10
-0.4052041493
 20
-11.7503534877
 10
-0.403767237
 20
-11.7519344603
  0
LINE
  5
421
100
AcDbEntity
  8
0
100
AcDbLine
 62
250
  6
CONTINUOUS
 10
-0.8367742767
 20
-11.988151872
 11
-0.6448010379
 21
-11.8793696336
  0
LWPOLYLINE
  5
422
100
AcDbEntity
  8
0
100
AcDbPolyline
 62
7
  6
CONTINUOUS
 90
7
 70
0
 10
0.7511994846
 20
-12.0940064962
 10
0.6956740272
 20
-12.1175362602
 10
0.6460374712
 20
-12.1438519249
 10
0.6022981602
 20
-12.1729808183
 10
0.5640449901
 20
-12.2056443258
 10
0.5318648499
 20
-12.2412861686
 10
0.5269183583
 20
-12.2484291362
  0
LINE
  5
423
100
AcDbEntity
  8
0
100
AcDbLine
 62
7
  6
CONTINUOUS
 10
-1.5882804933
 20
8.5481577559
 11
-2.0206943898
 21
8.4339522668
  0
LINE
  5
424
100
AcDbEntity
  8
0
100
AcDbLine
 62
250
  6
CONTINUOUS
 10
1.0993808834
 20
9.5
 11
2.1616367785
 21
9.5
  0
LINE
  5
425
100
AcDbEntity
  8
0
100
AcDbLine
 62
250
  6
CONTINUOUS
 10
-1.0993808834
 20
9.5
 11
-2.1616367785
 21
9.5
  0
LINE
  5
426
100
AcDbEntity
  8
0
100
AcDbLine
 62
7
  6
CONTINUOUS
 10
1.5882804933
 20
8.5481577559
 11
2.0206922508
 21
8.433944431
  0
LWPOLYLINE
  5
427
100
AcDbEntity
  8
0
100
AcDbPolyline
 62
7
  6
CONTINUOUS
 90
7
 70
0
 10
0.7511994846
 20
12.0940064962
 10
0.6956740272
 20
12.1175362602
 10
0.6460374712
 20
12.1438519249
 10
0.6022981602
 20
12.1729808183
 10
0.5640449901
 20
12.2056443258
 10
0.5318648499
 20
12.2412861686
 10
0.5258635533
 20
12.2499523245
  0
LWPOLYLINE
  5
428
100
AcDbEntity
  8
0
100
AcDbPolyline
 62
250
  6
CONTINUOUS
 90
10
 70
0
 10
-0.4932787005
 20
11.7926288566
 10
-0.4751237016
 20
11.782313825
 10
-0.4585955442
 20
11.7732041638
 10
-0.4440387535
 20
11.7654882573
 10
-0.4318916776
 20
11.7593929937
 10
-0.4221441527
 20
11.7549076853
 10
-0.414450313
 20
11.7518850153
 10
-0.4087621629
 20
11.7503423288
 10
-0.4052041493
 20
11.7503534877
 10
-0.403767237
 20
11.7519344603
  0
LINE
  5
429
100
AcDbEntity
  8
0
100
AcDbLine
 62
250
  6
CONTINUOUS
 10
-0.8367742767
 20
11.988151872
 11
-0.6069334235
 21
11.8577812893
  0
LINE
  5
42A
100
AcDbEntity
  8
0
100
AcDbLine
 62
250
  6
CONTINUOUS
 10
-0.6069334235
 20
11.8577812893
 11
-0.4932787005
 21
11.7926288566
  0
LINE
  5
42B
100
AcDbEntity
  8
0
100
AcDbLine
 62
7
  6
CONTINUOUS
 10
-1.1848574578
 20
11.5103336283
 11
-1.5480771518
 21
11.738281018
  0
LINE
  5
42C
100
AcDbEntity
  8
0
100
AcDbLine
 62
250
  6
CONTINUOUS
 10
-0.8367742767
 20
11.988151872
 11
-0.9969619941
 21
12.1154057327
  0
LINE
  5
42D
100
AcDbEntity
  8
0
100
AcDbLine
 62
7
  6
CONTINUOUS
 10
-0.8418209574
 20
12.1692442681
 11
-0.751364696
 21
12.0938060107
  0
LWPOLYLINE
  5
42E
100
AcDbEntity
  8
RACCORDO
100
AcDbPolyline
 62
250
  6
CONTINUOUS
 90
4
 70
0
 10
2.3716537594
 20
11.5032081873
 10
2.4581316414
 20
11.3962202108
 10
2.5367472034
 20
11.2886509753
 10
2.609371491
 20
11.180377096
  0
LINE
  5
42F
100
AcDbEntity
  8
0
100
AcDbLine
 62
7
  6
CONTINUOUS
 10
3.3
 20
-22.4
 11
3.2333672024
 21
-22.5
  0
LINE
  5
430
100
AcDbEntity
  8
0
100
AcDbLine
 62
7
  6
CONTINUOUS
 10
3.2333672024
 20
22.5
 11
3.3
 21
22.4
  0
LWPOLYLINE
  5
431
100
AcDbEntity
  8
0
100
AcDbPolyline
 62
7
  6
CONTINUOUS
 90
3
 70
0
 43
0.3500000006
 10
20.4364106598
 20
-0.8571427917
 10
20.4364106598
 20
-2.3571432495
 10
18.0792677307
 20
-1.7142852631
  0
LWPOLYLINE
  5
432
100
AcDbEntity
  8
0
100
AcDbPolyline
 62
7
  6
CONTINUOUS
 90
10
 70
0
 43
0.3500000006
 10
1.0714285848
 20
38.0391982727
 10
1.1428571477
 20
37.8963404388
 10
1.1428571477
 20
37.8249137878
 10
1.0000000219
 20
37.682055954
 10
0.9285714591
 20
37.682055954
 10
0.8571428254
 20
37.753482605
 10
0.8571428254
 20
37.8249137878
 10
0.9285714591
 20
37.9677670898
 10
1.0000000219
 20
38.0391982727
 10
1.0714285848
 20
38.0391982727
  0
LWPOLYLINE
  5
433
100
AcDbEntity
  8
SUPERFICI
100
AcDbPolyline
 62
250
  6
CONTINUOUS
 90
15
 70
0
 10
11.0004589101
 20
-20.9972959167
 10
10.9968791436
 20
-20.9994689314
 10
10.9879813308
 20
-21.0016186628
 10
10.9738608069
 20
-21.0037220776
 10
10.9546688652
 20
-21.005756639
 10
10.9306111366
 20
-21.0077005477
 10
10.9019453861
 20
-21.009532976
 10
10.868978751
 20
-21.0112342904
 10
10.8320644502
 20
-21.0127862623
 10
10.7915979997
 20
-21.014172263
 10
10.7480129745
 20
-21.0153774425
 10
10.7017763638
 20
-21.0163888878
 10
10.6533835666
 20
-21.0171957618
 10
10.6033530845
 20
-21.0177894192
 10
10.5522209659
 20
-21.0181634993
  0
LWPOLYLINE
  5
434
100
AcDbEntity
  8
SUPERFICI
100
AcDbPolyline
 62
250
  6
CONTINUOUS
 90
16
 70
0
 10
-10.5087981167
 20
21.9749071372
 10
-10.5610250031
 20
21.97212728
 10
-10.6126802316
 20
21.9639134406
 10
-10.6631985021
 20
21.9503555394
 10
-10.7120269743
 20
21.931601975
 10
-10.7586312804
 20
21.9078580123
 10
-10.8025013793
 20
21.8793835478
 10
-10.8431571925
 20
21.8464902344
 10
-10.8801538308
 20
21.8095380733
 10
-10.9130864355
 20
21.7689315022
 10
-10.941594647
 20
21.7251149336
 10
-10.9653665353
 20
21.6785678925
 10
-10.9841419991
 20
21.6297997904
 10
-10.9977156235
 20
21.5793443309
 10
-11.0059389237
 20
21.5277536674
 10
-11.0087219643
 20
21.4755923698
  0
LWPOLYLINE
  5
435
100
AcDbEntity
  8
SUPERFICI
100
AcDbPolyline
 62
250
  6
CONTINUOUS
 90
15
 70
0
 10
-10.5522211666
 20
21.0181637394
 10
-10.6033534788
 20
21.0177896594
 10
-10.6533841411
 20
21.0171959985
 10
-10.701777099
 20
21.0163891176
 10
-10.7480138452
 20
21.015377662
 10
-10.7915989752
 20
21.0141724692
 10
-10.8320654952
 20
21.0127864523
 10
-10.868979826
 20
21.0112344618
 10
-10.9019464483
 20
21.0095331264
 10
-10.9306121405
 20
21.0077006753
 10
-10.9546697635
 20
21.0057567422
 10
-10.9738615515
 20
21.0037221554
 10
-10.9879818737
 20
21.0016187147
 10
-10.9968794376
 20
20.9994689572
 10
-11.0004589101
 20
20.9972959167
  0
LINE
  5
436
100
AcDbEntity
  8
SUPERFICI
100
AcDbLine
 62
250
  6
CONTINUOUS
 10
-10.5522211666
 20
21.0181637394
 11
10.5005350625
 21
21.0183142309
  0
LINE
  5
437
100
AcDbEntity
  8
SUPERFICI
100
AcDbLine
 62
250
  6
CONTINUOUS
 10
-10.5087981167
 20
21.9749071372
 11
10.5087981167
 21
21.9749071372
  0
LINE
  5
438
100
AcDbEntity
  8
SUPERFICI
100
AcDbLine
 62
7
  6
CONTINUOUS
 10
-10.6503805997
 20
22.4
 11
-3.3
 21
22.4
  0
LINE
  5
439
100
AcDbEntity
  8
SUPERFICI
100
AcDbLine
 62
7
  6
CONTINUOUS
 10
3.3
 20
22.4
 11
10.6503805997
 21
22.4
  0
LINE
  5
43A
100
AcDbEntity
  8
TRASH
100
AcDbLine
 62
7
  6
CONTINUOUS
 10
-3.4698202597
 20
22.5
 11
3.4698202597
 21
22.5
  0
LINE
  5
43B
100
AcDbEntity
  8
TRASH
100
AcDbLine
 62
7
  6
CONTINUOUS
 10
3.6748574782
 20
23.5
 11
-3.6748574782
 21
23.5
  0
LWPOLYLINE
  5
43C
100
AcDbEntity
  8
TRASH
100
AcDbPolyline
 62
7
  6
CONTINUOUS
 90
10
 70
0
 10
3.6748574782
 20
23.5
 10
3.7403303995
 20
23.497809388
 10
3.8049842417
 20
23.491478198
 10
3.8688190046
 20
23.4810064299
 10
3.9320970679
 20
23.4663149736
 10
3.994556052
 20
23.4474829393
 10
4.0554088181
 20
23.4247476575
 10
4.1143929866
 20
23.3981882383
 10
4.1717709372
 20
23.3677255716
 10
4.2275426698
 20
23.3333596575
  0
LWPOLYLINE
  5
43D
100
AcDbEntity
  8
SUPERFICI
100
AcDbPolyline
 62
250
  6
CONTINUOUS
 90
16
 70
0
 10
11.0004589101
 20
20.9972959167
 10
10.9968794369
 20
20.9994689572
 10
10.9879818724
 20
21.0016187146
 10
10.9738615497
 20
21.0037221553
 10
10.9546697613
 20
21.005756742
 10
10.9306121379
 20
21.007700675
 10
10.9019464456
 20
21.009533126
 10
10.8689798232
 20
21.0112344612
 10
10.8320654925
 20
21.0127864516
 10
10.7915989726
 20
21.0141724684
 10
10.7480138429
 20
21.0153776611
 10
10.701777097
 20
21.0163891165
 10
10.6533841395
 20
21.0171959974
 10
10.6033534777
 20
21.0177896584
 10
10.552221166
 20
21.0181637387
 10
10.5005350625
 20
21.0183142302
  0
LWPOLYLINE
  5
43E
100
AcDbEntity
  8
0
100
AcDbPolyline
 62
7
  6
CONTINUOUS
 90
7
 70
0
 43
0.3500000006
 10
-0.4285714127
 20
37.5391981201
 10
-1.9285714102
 20
37.5391981201
 10
-0.4285714127
 20
39.6820565643
 10
-0.4285714127
 20
40.1106255341
 10
-0.8571428254
 20
40.5391990356
 10
-1.5000000329
 20
40.5391990356
 10
-1.9285714102
 20
39.8963410492
  0
LWPOLYLINE
  5
43F
100
AcDbEntity
  8
0
100
AcDbPolyline
 62
7
  6
CONTINUOUS
 90
6
 70
0
 43
0.3500000006
 10
2.1428571696
 20
37.5391981201
 10
3.2142856836
 20
37.5391981201
 10
3.4285713015
 20
37.753482605
 10
3.4285713015
 20
38.824914093
 10
3.0000000658
 20
39.2534830627
 10
2.5714285469
 20
39.2534830627
  0
LWPOLYLINE
  5
440
100
AcDbEntity
  8
0
100
AcDbPolyline
 62
7
  6
CONTINUOUS
 90
7
 70
0
 43
0.3500000006
 10
-2.7857141647
 20
37.5391981201
 10
-4.2857143393
 20
37.5391981201
 10
-2.7857141647
 20
39.6820565643
 10
-2.7857141647
 20
40.1106255341
 10
-3.2142856836
 20
40.5391990356
 10
-3.8571428204
 20
40.5391990356
 10
-4.2857143393
 20
39.8963410492
  0
LWPOLYLINE
  5
441
100
AcDbEntity
  8
0
100
AcDbPolyline
 62
7
  6
CONTINUOUS
 90
5
 70
0
 43
0.3500000006
 10
-43.3856064606
 20
47.0503629913
 10
-43.0284641418
 20
47.2646474762
 10
-43.0284641418
 20
47.9075054626
 10
-43.3856064606
 20
48.3360789642
 10
-44.2427489319
 20
48.3360789642
  0
LWPOLYLINE
  5
442
100
AcDbEntity
  8
0
100
AcDbPolyline
 62
7
  6
CONTINUOUS
 90
10
 70
0
 43
0.3500000006
 10
-41.6713215179
 20
45.3360780487
 10
-40.8141790466
 20
46.19322052
 10
-40.5998945618
 20
47.0503629913
 10
-40.5998945618
 20
47.9075054626
 10
-41.0284635315
 20
48.3360789642
 10
-41.6713215179
 20
48.3360789642
 10
-42.0998950195
 20
47.9075054626
 10
-42.0998950195
 20
47.0503629913
 10
-41.6713215179
 20
46.6217940216
 10
-40.7427523956
 20
46.6217940216
  0
LWPOLYLINE
  5
443
100
AcDbEntity
  8
0
100
AcDbPolyline
 62
7
  6
CONTINUOUS
 90
5
 70
0
 43
0.3500000006
 10
-36.7070355835
 20
39.0503650818
 10
-36.3498932648
 20
39.2646495667
 10
-36.3498932648
 20
39.9075075531
 10
-36.7070355835
 20
40.3360765228
 10
-37.5641780548
 20
40.3360765228
  0
LWPOLYLINE
  5
444
100
AcDbEntity
  8
SUPERFICI
100
AcDbPolyline
 62
250
  6
CONTINUOUS
 90
19
 70
0
 10
-58.8813820619
 20
-20.9972959167
 10
-58.8778672852
 20
-21.0386290777
 10
-58.8711351434
 20
-21.0790132523
 10
-58.8611856363
 20
-21.1184484403
 10
-58.8479046533
 20
-21.1571917317
 10
-58.8314063051
 20
-21.1949860367
 10
-58.812032924
 20
-21.2310600856
 10
-58.7897340558
 20
-21.265368307
 10
-58.7645601548
 20
-21.2979562724
 10
-58.7370049163
 20
-21.3281894263
 10
-58.7070169988
 20
-21.3560260411
 10
-58.6746477439
 20
-21.3815078444
 10
-58.6405448721
 20
-21.4041254633
 10
-58.6046585542
 20
-21.4238228917
 10
-58.5670386194
 20
-21.4406561357
 10
-58.5284822763
 20
-21.4542838409
 10
-58.4892552609
 20
-21.4645922227
 10
-58.4490918371
 20
-21.4716950656
 10
-58.4079920049
 20
-21.4755923698
  0
LWPOLYLINE
  5
445
100
AcDbEntity
  8
SUPERFICI
100
AcDbPolyline
 62
250
  6
CONTINUOUS
 90
7
 70
0
 10
-58.4255542744
 20
-21.8793857675
 10
-58.4262807777
 20
-21.90785972
 10
-58.426711643
 20
-21.931603162
 10
-58.4268421549
 20
-21.9503562578
 10
-58.4266708851
 20
-21.9639137831
 10
-58.426199708
 20
-21.9721273713
 10
-58.4254337798
 20
-21.9749071372
  0
LWPOLYLINE
  5
446
100
AcDbEntity
  8
SUPERFICI
100
AcDbPolyline
 62
250
  6
CONTINUOUS
 90
10
 70
0
 10
-58.8813820619
 20
20.9972959167
 10
-59.0558077213
 20
16.3324771154
 10
-59.1866269969
 20
11.6670364005
 10
-59.2738398887
 20
7.0009737718
 10
-59.3174464384
 20
2.3338756638
 10
-59.3174466043
 20
-2.3338443579
 10
-59.273840262
 20
-7.0009455965
 10
-59.1866273701
 20
-11.6670144863
 10
-59.0558079701
 20
-16.3324645931
 10
-58.8813820619
 20
-20.9972959167
  0
LINE
  5
447
100
AcDbEntity
  8
SUPERFICI
100
AcDbLine
 62
250
  6
CONTINUOUS
 10
-58.4079920049
 20
21.4755923698
 11
-58.415644551
 21
21.6297989097
  0
LINE
  5
448
100
AcDbEntity
  8
SUPERFICI
100
AcDbLine
 62
250
  6
CONTINUOUS
 10
-58.415644551
 20
21.6297989097
 11
-58.4198971202
 21
21.7251138478
  0
LINE
  5
449
100
AcDbEntity
  8
SUPERFICI
100
AcDbLine
 62
250
  6
CONTINUOUS
 10
-58.4198971202
 20
21.7251138478
 11
-58.4232490993
 21
21.8095370623
  0
LWPOLYLINE
  5
44A
100
AcDbEntity
  8
SUPERFICI
100
AcDbPolyline
 62
250
  6
CONTINUOUS
 90
8
 70
0
 10
-58.4232490993
 20
21.8095370623
 10
-58.4255541364
 20
21.8793828084
 10
-58.4262806779
 20
21.9078574436
 10
-58.4267115797
 20
21.9316015798
 10
-58.4268421226
 20
21.9503553003
 10
-58.4266708759
 20
21.9639133265
 10
-58.4261997117
 20
21.9721272495
 10
-58.4254337844
 20
21.974907137
  0
LINE
  5
44B
100
AcDbEntity
  8
SUPERFICI
100
AcDbLine
 62
250
  6
CONTINUOUS
 10
-58.4232493046
 20
-21.8095411066
 11
-58.4255542744
 21
-21.8793857675
  0
LINE
  5
44C
100
AcDbEntity
  8
SUPERFICI
100
AcDbLine
 62
250
  6
CONTINUOUS
 10
-58.4198973549
 20
-21.7251181902
 11
-58.4232493046
 21
-21.8095411066
  0
LINE
  5
44D
100
AcDbEntity
  8
SUPERFICI
100
AcDbLine
 62
250
  6
CONTINUOUS
 10
-58.4132373948
 20
-21.5793463095
 11
-58.4198973549
 21
-21.7251181902
  0
LINE
  5
44E
100
AcDbEntity
  8
SUPERFICI
100
AcDbLine
 62
250
  6
CONTINUOUS
 10
-58.4079920049
 20
-21.4755923698
 11
-58.4132373948
 21
-21.5793463095
  0
LWPOLYLINE
  5
44F
100
AcDbEntity
  8
0
100
AcDbPolyline
 62
7
  6
CONTINUOUS
 90
3
 70
0
 43
0.3500000006
 10
-39.0284629211
 20
45.6217937164
 10
-39.099894104
 20
45.4075046997
 10
-39.2427519379
 20
45.1217935638
  0
LINE
  5
450
100
AcDbEntity
  8
TRASH
100
AcDbLine
 62
7
  6
CONTINUOUS
 10
-46.3141787599
 20
-23.0998904748
 11
-47.6353987359
 21
-23.1272645049
  0
LINE
  5
451
100
AcDbEntity
  8
TRASH
100
AcDbLine
 62
7
  6
CONTINUOUS
 10
-47.6353987359
 20
-23.1272645049
 11
-48.9687625513
 21
-23.1539170037
  0
LINE
  5
452
100
AcDbEntity
  8
TRASH
100
AcDbLine
 62
7
  6
CONTINUOUS
 10
-48.9687625513
 20
-23.1539170037
 11
-50.3141787599
 21
-23.1799085618
  0
LINE
  5
453
100
AcDbEntity
  8
TRASH
100
AcDbLine
 62
7
  6
CONTINUOUS
 10
-46.3141787599
 20
-23.4301797403
 11
-50.3141787599
 21
-23.5
  0
LINE
  5
454
100
AcDbEntity
  8
TRASH
100
AcDbLine
 62
250
  6
CONTINUOUS
 10
-46.3141787599
 20
-23.2631073618
 11
-50.3141787599
 21
-23.3333596575
  0
LINE
  5
455
100
AcDbEntity
  8
RACCORDO
100
AcDbLine
 62
7
  6
CONTINUOUS
 10
-42.343323962
 20
-21.1306884717
 11
-46.1176692412
 21
-21.1965699136
  0
LINE
  5
456
100
AcDbEntity
  8
RACCORDO
100
AcDbLine
 62
250
  6
CONTINUOUS
 10
-42.3432134987
 20
-21.0077166688
 11
-46.1176692171
 21
-21.0738952232
  0
LINE
  5
457
100
AcDbEntity
  8
TRASH
100
AcDbLine
 62
7
  6
CONTINUOUS
 10
-48.0785074124
 20
-22.6434802059
 11
-50.3141787599
 21
-22.663166622
  0
LINE
  5
458
100
AcDbEntity
  8
TRASH
100
AcDbLine
 62
7
  6
CONTINUOUS
 10
-46.3141787599
 20
-22.6298666026
 11
-48.0785074124
 21
-22.6434802059
  0
LINE
  5
459
100
AcDbEntity
  8
TRASH
100
AcDbLine
 62
7
  6
CONTINUOUS
 10
-44.164683276
 20
-22.2
 11
-44.7141787599
 21
-22.2
  0
LINE
  5
45A
100
AcDbEntity
  8
SUPERFICI
100
AcDbLine
 62
7
  6
CONTINUOUS
 10
-58.4254337798
 20
-21.9749071372
 11
-50.3141787599
 21
-22.4
  0
LINE
  5
45B
100
AcDbEntity
  8
SUPERFICI
100
AcDbLine
 62
250
  6
CONTINUOUS
 10
-58.4079920049
 20
-21.4755923698
 11
-50.3141787599
 21
-21.8997711479
  0
LINE
  5
45C
100
AcDbEntity
  8
TRASH
100
AcDbLine
 62
7
  6
CONTINUOUS
 10
-50.3141787599
 20
23.5
 11
-50.3141787599
 21
22.4
  0
LINE
  5
45D
100
AcDbEntity
  8
TRASH
100
AcDbLine
 62
7
  6
CONTINUOUS
 10
-50.3141787599
 20
-23.5
 11
-50.3141787599
 21
-22.1502874375
  0
LINE
  5
45E
100
AcDbEntity
  8
SUPERFICI
100
AcDbLine
 62
7
  6
CONTINUOUS
 10
-50.3141787599
 20
22.4
 11
-50.3141787599
 21
-22.4
  0
LINE
  5
45F
100
AcDbEntity
  8
TRASH
100
AcDbLine
 62
7
  6
CONTINUOUS
 10
-50.3141787599
 20
-16.119659166
 11
-50.3141787599
 21
16.119659166
  0
LWPOLYLINE
  5
460
100
AcDbEntity
  8
RACCORDO
100
AcDbPolyline
 62
250
  6
CONTINUOUS
 90
15
 70
0
 10
-40.1893260726
 20
-19.2432045692
 10
-40.2472594156
 20
-19.2485330045
 10
-40.3052035053
 20
-19.2568532209
 10
-40.3632724267
 20
-19.2680991024
 10
-40.4213520949
 20
-19.2823296814
 10
-40.4791002553
 20
-19.2997287308
 10
-40.5366252599
 20
-19.3203332922
 10
-40.5938187567
 20
-19.3440901122
 10
-40.6500134348
 20
-19.3710447026
 10
-40.7052047446
 20
-19.401235134
 10
-40.7593972357
 20
-19.4345973977
 10
-40.8119372456
 20
-19.4710216556
 10
-40.8626068869
 20
-19.510459997
 10
-40.9116240471
 20
-19.5529260186
 10
-40.9589887261
 20
-19.598400205
  0
LINE
  5
461
100
AcDbEntity
  8
SUPERFICI
100
AcDbLine
 62
250
  6
CONTINUOUS
 10
-59.3695336059
 20
-21.0181634993
 11
-59.3722082243
 21
-21.018313994
  0
LINE
  5
462
100
AcDbEntity
  8
SUPERFICI
100
AcDbLine
 62
250
  6
CONTINUOUS
 10
-59.0336535225
 20
-21.0037220776
 11
-59.3695336059
 21
-21.0181634993
  0
LWPOLYLINE
  5
463
100
AcDbEntity
  8
SUPERFICI
100
AcDbPolyline
 62
250
  6
CONTINUOUS
 90
3
 70
0
 10
-58.8813820619
 20
-20.9972959167
 10
-58.9329673808
 20
-20.9994689314
 10
-59.0336535225
 20
-21.0037220776
  0
LINE
  5
464
100
AcDbEntity
  8
RACCORDO
100
AcDbLine
 62
250
  6
CONTINUOUS
 10
-40.1314034764
 20
-19.2408695706
 11
-40.1893260726
 21
-19.2432045692
  0
LINE
  5
465
100
AcDbEntity
  8
RACCORDO
100
AcDbLine
 62
7
  6
CONTINUOUS
 10
-22.8054525567
 20
-19.0926385408
 11
-40.1314034764
 21
-19.3950641391
  0
LINE
  5
466
100
AcDbEntity
  8
RACCORDO
100
AcDbLine
 62
250
  6
CONTINUOUS
 10
-22.8054525567
 20
-18.9367180268
 11
-40.1314034764
 21
-19.2408695706
  0
LINE
  5
467
100
AcDbEntity
  8
RACCORDO
100
AcDbLine
 62
250
  6
CONTINUOUS
 10
-50.3141787599
 20
-17.3594295692
 11
-22.8054525567
 21
-17.2019339448
  0
LWPOLYLINE
  5
468
100
AcDbEntity
  8
RACCORDO
100
AcDbPolyline
 62
250
  6
CONTINUOUS
 90
5
 70
0
 10
-46.1176692412
 20
-21.1965699136
 10
-46.1177102673
 20
-21.1963274809
 10
-46.1177463903
 20
-21.1955712603
 10
-46.1177784553
 20
-21.1942597476
 10
-46.1178086705
 20
-21.1923535055
  0
LINE
  5
469
100
AcDbEntity
  8
RACCORDO
100
AcDbLine
 62
250
  6
CONTINUOUS
 10
-46.1178086705
 20
-21.1923535055
 11
-46.1178591288
 21
-21.1865731017
  0
LINE
  5
46A
100
AcDbEntity
  8
RACCORDO
100
AcDbLine
 62
250
  6
CONTINUOUS
 10
-46.1178591288
 20
-21.1865731017
 11
-46.1179047266
 21
-21.1656955728
  0
LINE
  5
46B
100
AcDbEntity
  8
RACCORDO
100
AcDbLine
 62
7
  6
CONTINUOUS
 10
-46.3141787599
 20
-22.6298666026
 11
-46.3141787599
 21
-21.3965394526
  0
LINE
  5
46C
100
AcDbEntity
  8
TRASH
100
AcDbLine
 62
7
  6
CONTINUOUS
 10
-46.3141787599
 20
-22.6298666026
 11
-46.3141787599
 21
-23.4301797403
  0
LINE
  5
46D
100
AcDbEntity
  8
RACCORDO
100
AcDbLine
 62
7
  6
CONTINUOUS
 10
-46.3141787599
 20
21.3965394526
 11
-46.3141787599
 21
22.6298666026
  0
LINE
  5
46E
100
AcDbEntity
  8
TRASH
100
AcDbLine
 62
7
  6
CONTINUOUS
 10
-46.3141787599
 20
22.6906290168
 11
-46.3141787599
 21
23.4301797403
  0
LINE
  5
46F
100
AcDbEntity
  8
TRASH
100
AcDbLine
 62
7
  6
CONTINUOUS
 10
-44.7141787599
 20
22.2
 11
-44.7141787599
 21
21.1720718961
  0
LINE
  5
470
100
AcDbEntity
  8
TRASH
100
AcDbLine
 62
7
  6
CONTINUOUS
 10
-44.7141787599
 20
-22.2
 11
-44.7141787599
 21
-21.1720718961
  0
LINE
  5
471
100
AcDbEntity
  8
RACCORDO
100
AcDbLine
 62
250
  6
CONTINUOUS
 10
-46.1176692412
 20
21.0738952237
 11
-46.11790156
 21
21.1722161998
  0
LINE
  5
472
100
AcDbEntity
  8
RACCORDO
100
AcDbLine
 62
250
  6
CONTINUOUS
 10
-46.1179047266
 20
-21.1656955728
 11
-46.1176692412
 21
-21.0738952237
  0
LINE
  5
473
100
AcDbEntity
  8
RACCORDO
100
AcDbLine
 62
250
  6
CONTINUOUS
 10
-46.11790156
 20
21.1722161998
 11
-46.1178591288
 21
21.1865730872
  0
LWPOLYLINE
  5
474
100
AcDbEntity
  8
RACCORDO
100
AcDbPolyline
 62
250
  6
CONTINUOUS
 90
6
 70
0
 10
-46.1178591288
 20
21.1865730872
 10
-46.1178086705
 20
21.1923534999
 10
-46.1177784554
 20
21.1942597449
 10
-46.1177463904
 20
21.1955712592
 10
-46.1177102673
 20
21.1963274806
 10
-46.1176692412
 20
21.1965699136
  0
LINE
  5
475
100
AcDbEntity
  8
DRAFT
100
AcDbLine
 62
7
  6
CONTINUOUS
 10
-22.0685418615
 20
-16.845712392
 11
-20.5598156583
 21
-16.8193774782
  0
LWPOLYLINE
  5
476
100
AcDbEntity
  8
RACCORDO
100
AcDbPolyline
 62
250
  6
CONTINUOUS
 90
3
 70
0
 10
-50.3141787599
 20
-16.119659166
 10
-32.0018407295
 20
-16.0082288043
 10
-22.8054525567
 20
-15.9519762322
  0
LINE
  5
477
100
AcDbEntity
  8
RACCORDO
100
AcDbLine
 62
250
  6
CONTINUOUS
 10
-22.3141787599
 20
-15.9519762322
 11
-22.8054525567
 21
-15.9519762303
  0
LINE
  5
478
100
AcDbEntity
  8
RACCORDO
100
AcDbLine
 62
250
  6
CONTINUOUS
 10
-20.3141787599
 20
-14.1
 11
-22.3141787599
 21
-14.1
  0
LINE
  5
479
100
AcDbEntity
  8
RACCORDO
100
AcDbLine
 62
250
  6
CONTINUOUS
 10
-42.3427987201
 20
-21.0747030544
 11
-42.343323962
 21
-21.0077183978
  0
LINE
  5
47A
100
AcDbEntity
  8
RACCORDO
100
AcDbLine
 62
250
  6
CONTINUOUS
 10
-42.3427397389
 20
21.1055350074
 11
-42.3427987201
 21
21.0747030544
  0
LINE
  5
47B
100
AcDbEntity
  8
RACCORDO
100
AcDbLine
 62
250
  6
CONTINUOUS
 10
-42.3427987201
 20
21.0747030544
 11
-42.343323962
 21
21.0077183978
  0
LWPOLYLINE
  5
47C
100
AcDbEntity
  8
RACCORDO
100
AcDbPolyline
 62
7
  6
CONTINUOUS
 90
3
 70
0
 10
-46.310646475
 20
-21.3591170407
 10
-46.3064628097
 20
-21.3414231162
 10
-46.3008621268
 20
-21.3235223222
  0
LINE
  5
47D
100
AcDbEntity
  8
RACCORDO
100
AcDbLine
 62
250
  6
CONTINUOUS
 10
-20.3141787599
 20
-12.0
 11
-22.3141787599
 21
-12.0
  0
LINE
  5
47E
100
AcDbEntity
  8
RACCORDO
100
AcDbLine
 62
250
  6
CONTINUOUS
 10
-40.1307267309
 20
-19.3244056028
 11
-40.1314035515
 21
-19.2408665386
  0
LINE
  5
47F
100
AcDbEntity
  8
RACCORDO
100
AcDbLine
 62
250
  6
CONTINUOUS
 10
-40.1306510091
 20
19.3632278846
 11
-40.1307271702
 21
19.3244067438
  0
LINE
  5
480
100
AcDbEntity
  8
RACCORDO
100
AcDbLine
 62
250
  6
CONTINUOUS
 10
-40.1307271702
 20
19.3244067438
 11
-40.1314034764
 21
19.2408695706
  0
LWPOLYLINE
  5
481
100
AcDbEntity
  8
RACCORDO
100
AcDbPolyline
 62
250
  6
CONTINUOUS
 90
6
 70
0
 10
-42.343323962
 20
-21.1306884717
 10
-42.3430917598
 20
-21.1291004534
 10
-42.3429163087
 20
-21.1243555294
 10
-42.3427987201
 20
-21.1164837585
 10
-42.342739739
 20
-21.1055350074
 10
-42.3427987201
 20
-21.0747030544
  0
LWPOLYLINE
  5
482
100
AcDbEntity
  8
RACCORDO
100
AcDbPolyline
 62
250
  6
CONTINUOUS
 90
6
 70
0
 10
-40.1314034574
 20
-19.3950652145
 10
-40.1311047286
 20
-19.3930507626
 10
-40.1308785478
 20
-19.3870355212
 10
-40.1307267374
 20
-19.3770678238
 10
-40.130650522
 20
-19.3632277629
 10
-40.1307267309
 20
-19.3244056028
  0
LWPOLYLINE
  5
483
100
AcDbEntity
  8
RACCORDO
100
AcDbPolyline
 62
7
  6
CONTINUOUS
 90
13
 70
0
 10
-46.3008621268
 20
-21.3235223222
 10
-46.2938444264
 20
-21.3054141375
 10
-46.2853519294
 20
-21.2870832818
 10
-46.2754424148
 20
-21.2685439506
 10
-46.2642892199
 20
-21.2498399744
 10
-46.2518701347
 20
-21.2309829023
 10
-46.2382073692
 20
-21.2119604346
 10
-46.2235408904
 20
-21.1927807808
 10
-46.2078497526
 20
-21.173464907
 10
-46.1911549015
 20
-21.1539911332
 10
-46.173759142
 20
-21.1343034807
 10
-46.1557634088
 20
-21.1143827747
 10
-46.1370667672
 20
-21.0942468979
  0
LINE
  5
484
100
AcDbEntity
  8
0
100
AcDbLine
 62
7
  6
CONTINUOUS
 10
-22.3141787599
 20
-7.5695900352
 11
-22.1341787599
 21
-7.5695900352
  0
LINE
  5
485
100
AcDbEntity
  8
0
100
AcDbLine
 62
7
  6
CONTINUOUS
 10
-22.3141787599
 20
-6.81
 11
-22.2341787599
 21
-6.81
  0
LINE
  5
486
100
AcDbEntity
  8
0
100
AcDbLine
 62
7
  6
CONTINUOUS
 10
-22.3141787599
 20
-6.6225
 11
-22.2341787599
 21
-6.6225
  0
LINE
  5
487
100
AcDbEntity
  8
DRAFT
100
AcDbLine
 62
7
  6
CONTINUOUS
 10
-22.0685418615
 20
-9.254287608
 11
-20.5598156583
 21
-9.2806225218
  0
LWPOLYLINE
  5
488
100
AcDbEntity
  8
RACCORDO
100
AcDbPolyline
 62
250
  6
CONTINUOUS
 90
5
 70
0
 10
-40.1314034764
 20
19.3950641391
 10
-40.1311049216
 20
19.393049869
 10
-40.1308788809
 20
19.3870348901
 10
-40.1307271704
 20
19.3770675327
 10
-40.1306510091
 20
19.3632278846
  0
LWPOLYLINE
  5
489
100
AcDbEntity
  8
RACCORDO
100
AcDbPolyline
 62
250
  6
CONTINUOUS
 90
5
 70
0
 10
-42.343323962
 20
21.1306884717
 10
-42.3430917598
 20
21.1291004534
 10
-42.3429163087
 20
21.1243555294
 10
-42.3427987201
 20
21.1164837585
 10
-42.3427397389
 20
21.1055350074
  0
LWPOLYLINE
  5
48A
100
AcDbEntity
  8
0
100
AcDbPolyline
 62
7
  6
CONTINUOUS
 90
13
 70
0
 43
0.3500000006
 10
-35.4213218765
 20
38.1932226105
 10
-35.4213218765
 20
39.4789340515
 10
-35.2070351257
 20
39.9075075531
 10
-34.7784638901
 20
40.3360765228
 10
-34.5641794052
 20
40.3360765228
 10
-34.1356081696
 20
39.9075075531
 10
-33.9213214188
 20
39.4789340515
 10
-33.9213214188
 20
38.1932226105
 10
-34.1356081696
 20
37.7646491089
 10
-34.5641794052
 20
37.3360801392
 10
-34.7784638901
 20
37.3360801392
 10
-35.2070351257
 20
37.7646491089
 10
-35.4213218765
 20
38.1932226105
  0
LINE
  5
48B
100
AcDbEntity
  8
0
100
AcDbLine
 62
7
  6
CONTINUOUS
 10
-22.3141787599
 20
-6.31
 11
-22.2341787599
 21
-6.31
  0
LINE
  5
48C
100
AcDbEntity
  8
0
100
AcDbLine
 62
7
  6
CONTINUOUS
 10
-22.3141787599
 20
-5.9975
 11
-22.2341787599
 21
-5.9975
  0
LINE
  5
48D
100
AcDbEntity
  8
0
100
AcDbLine
 62
7
  6
CONTINUOUS
 10
-22.3141787599
 20
-5.81
 11
-22.2341787599
 21
-5.81
  0
LINE
  5
48E
100
AcDbEntity
  8
0
100
AcDbLine
 62
7
  6
CONTINUOUS
 10
-22.3141787599
 20
-5.6433333731
 11
-22.2341787599
 21
-5.6433333731
  0
LINE
  5
48F
100
AcDbEntity
  8
0
100
AcDbLine
 62
7
  6
CONTINUOUS
 10
-22.3141787599
 20
-5.31
 11
-22.2341787599
 21
-5.31
  0
LINE
  5
490
100
AcDbEntity
  8
0
100
AcDbLine
 62
7
  6
CONTINUOUS
 10
-22.3141787599
 20
-5.1433333731
 11
-22.2341787599
 21
-5.1433333731
  0
LINE
  5
491
100
AcDbEntity
  8
0
100
AcDbLine
 62
7
  6
CONTINUOUS
 10
-22.3141787599
 20
-4.81
 11
-22.2341787599
 21
-4.81
  0
LINE
  5
492
100
AcDbEntity
  8
0
100
AcDbLine
 62
7
  6
CONTINUOUS
 10
-22.3141787599
 20
-4.76459
 11
-22.1341787599
 21
-4.76459
  0
LINE
  5
493
100
AcDbEntity
  8
0
100
AcDbLine
 62
7
  6
CONTINUOUS
 10
-22.3141787599
 20
-4.6433332539
 11
-22.2341787599
 21
-4.6433332539
  0
LINE
  5
494
100
AcDbEntity
  8
0
100
AcDbLine
 62
7
  6
CONTINUOUS
 10
-22.2341787599
 20
-4.6222713217
 11
-22.1341787599
 21
-4.6222713217
  0
LINE
  5
495
100
AcDbEntity
  8
0
100
AcDbLine
 62
7
  6
CONTINUOUS
 10
-22.2341787599
 20
-4.5035810247
 11
-22.1341787599
 21
-4.5035810247
  0
LINE
  5
496
100
AcDbEntity
  8
ASSI
100
AcDbLine
 62
7
  6
CONTINUOUS
 10
-22.2341787599
 20
-4.369462
 11
-22.2141787599
 21
-4.369462
  0
LINE
  5
497
100
AcDbEntity
  8
0
100
AcDbLine
 62
7
  6
CONTINUOUS
 10
-22.3141787599
 20
-4.1433332539
 11
-22.2341787599
 21
-4.1433332539
  0
LINE
  5
498
100
AcDbEntity
  8
0
100
AcDbLine
 62
7
  6
CONTINUOUS
 10
-22.2341787599
 20
-4.0400748327
 11
-22.1341787599
 21
-4.0400748327
  0
LINE
  5
499
100
AcDbEntity
  8
0
100
AcDbLine
 62
7
  6
CONTINUOUS
 10
-22.3141787599
 20
-4.0391667461
 11
-22.2341787599
 21
-4.0391667461
  0
LINE
  5
49A
100
AcDbEntity
  8
0
100
AcDbLine
 62
7
  6
CONTINUOUS
 10
-22.3141787599
 20
-3.9558332539
 11
-22.2341787599
 21
-3.9558332539
  0
LINE
  5
49B
100
AcDbEntity
  8
0
100
AcDbLine
 62
250
  6
CONTINUOUS
 10
-22.2341787599
 20
-3.8794872663
 11
-22.1341787599
 21
-3.8794872663
  0
LINE
  5
49C
100
AcDbEntity
  8
0
100
AcDbLine
 62
7
  6
CONTINUOUS
 10
-22.3141787599
 20
-3.8725
 11
-22.2341787599
 21
-3.8725
  0
LINE
  5
49D
100
AcDbEntity
  8
0
100
AcDbLine
 62
7
  6
CONTINUOUS
 10
-22.3141787599
 20
-3.8308332539
 11
-22.2341787599
 21
-3.8308332539
  0
LINE
  5
49E
100
AcDbEntity
  8
0
100
AcDbLine
 62
7
  6
CONTINUOUS
 10
-22.3141787599
 20
-3.81
 11
-22.2341787599
 21
-3.81
  0
LINE
  5
49F
100
AcDbEntity
  8
0
100
AcDbLine
 62
7
  6
CONTINUOUS
 10
-22.3141787599
 20
-3.6433332539
 11
-22.2341787599
 21
-3.6433332539
  0
LINE
  5
4A0
100
AcDbEntity
  8
0
100
AcDbLine
 62
250
  6
CONTINUOUS
 10
-22.2341787599
 20
-3.5018757358
 11
-22.1341787599
 21
-3.5018757358
  0
LINE
  5
4A1
100
AcDbEntity
  8
0
100
AcDbLine
 62
7
  6
CONTINUOUS
 10
-22.3141787599
 20
-3.243211
 11
-22.1341787599
 21
-3.243211
  0
LINE
  5
4A2
100
AcDbEntity
  8
0
100
AcDbLine
 62
7
  6
CONTINUOUS
 10
-22.3141787599
 20
-2.988583
 11
-22.1341787599
 21
-2.988583
  0
LINE
  5
4A3
100
AcDbEntity
  8
0
100
AcDbLine
 62
7
  6
CONTINUOUS
 10
-22.3141787599
 20
-2.035628
 11
-22.1341787599
 21
-2.035628
  0
LINE
  5
4A4
100
AcDbEntity
  8
0
100
AcDbLine
 62
7
  6
CONTINUOUS
 10
-22.3141787599
 20
-1.808728
 11
-22.1341787599
 21
-1.808728
  0
LINE
  5
4A5
100
AcDbEntity
  8
0
100
AcDbLine
 62
7
  6
CONTINUOUS
 10
-22.3141787599
 20
-1.7576347112
 11
-22.1341787599
 21
-1.7576347112
  0
LINE
  5
4A6
100
AcDbEntity
  8
0
100
AcDbLine
 62
7
  6
CONTINUOUS
 10
-22.3141787599
 20
-1.7266665077
 11
-22.2341787599
 21
-1.7266665077
  0
LINE
  5
4A7
100
AcDbEntity
  8
0
100
AcDbLine
 62
7
  6
CONTINUOUS
 10
-22.3141787599
 20
-1.6016665077
 11
-22.2341787599
 21
-1.6016665077
  0
LINE
  5
4A8
100
AcDbEntity
  8
0
100
AcDbLine
 62
7
  6
CONTINUOUS
 10
-22.3141787599
 20
-1.5729638615
 11
-22.1341787599
 21
-1.5729638615
  0
LINE
  5
4A9
100
AcDbEntity
  8
0
100
AcDbLine
 62
7
  6
CONTINUOUS
 10
-22.3141787599
 20
-1.307101
 11
-22.1341787599
 21
-1.307101
  0
LINE
  5
4AA
100
AcDbEntity
  8
0
100
AcDbLine
 62
7
  6
CONTINUOUS
 10
-22.3141787599
 20
-0.064229
 11
-22.1341787599
 21
-0.064229
  0
LINE
  5
4AB
100
AcDbEntity
  8
0
100
AcDbLine
 62
7
  6
CONTINUOUS
 10
-22.3141787599
 20
0.147504
 11
-22.1341787599
 21
0.147504
  0
LINE
  5
4AC
100
AcDbEntity
  8
0
100
AcDbLine
 62
7
  6
CONTINUOUS
 10
-22.3141787599
 20
0.407133
 11
-22.1341787599
 21
0.407133
  0
LINE
  5
4AD
100
AcDbEntity
  8
RACCORDO
100
AcDbLine
 62
7
  6
CONTINUOUS
 10
-46.1370667672
 20
-21.0942468979
 11
-46.1176692171
 21
-21.0738952232
  0
LINE
  5
4AE
100
AcDbEntity
  8
0
100
AcDbLine
 62
7
  6
CONTINUOUS
 10
-22.3141787599
 20
0.9239835
 11
-22.1341787599
 21
0.9239835
  0
LINE
  5
4AF
100
AcDbEntity
  8
0
100
AcDbLine
 62
7
  6
CONTINUOUS
 10
-22.3141787599
 20
1.445817
 11
-22.1341787599
 21
1.445817
  0
LINE
  5
4B0
100
AcDbEntity
  8
0
100
AcDbLine
 62
7
  6
CONTINUOUS
 10
-22.3141787599
 20
1.695412
 11
-22.1341787599
 21
1.695412
  0
LINE
  5
4B1
100
AcDbEntity
  8
0
100
AcDbLine
 62
7
  6
CONTINUOUS
 10
-22.3141787599
 20
1.7108330154
 11
-22.2341787599
 21
1.7108330154
  0
LINE
  5
4B2
100
AcDbEntity
  8
0
100
AcDbLine
 62
7
  6
CONTINUOUS
 10
-22.3141787599
 20
1.7733330154
 11
-22.2341787599
 21
1.7733330154
  0
LINE
  5
4B3
100
AcDbEntity
  8
0
100
AcDbLine
 62
7
  6
CONTINUOUS
 10
-22.3141787599
 20
1.8496053552
 11
-22.1341787599
 21
1.849605
  0
LINE
  5
4B4
100
AcDbEntity
  8
0
100
AcDbLine
 62
7
  6
CONTINUOUS
 10
-22.3141787599
 20
1.868072612
 11
-22.1341787599
 21
1.868073
  0
LINE
  5
4B5
100
AcDbEntity
  8
0
100
AcDbLine
 62
7
  6
CONTINUOUS
 10
-22.3141787599
 20
2.000444
 11
-22.1341787599
 21
2.000444
  0
LINE
  5
4B6
100
AcDbEntity
  8
0
100
AcDbLine
 62
7
  6
CONTINUOUS
 10
-22.3141787599
 20
3.243299
 11
-22.1341787599
 21
3.243299
  0
LINE
  5
4B7
100
AcDbEntity
  8
0
100
AcDbLine
 62
7
  6
CONTINUOUS
 10
-22.3141787599
 20
3.2733330154
 11
-22.2341787599
 21
3.2733330154
  0
LINE
  5
4B8
100
AcDbEntity
  8
0
100
AcDbLine
 62
250
  6
CONTINUOUS
 10
-22.3141787599
 20
3.2962143049
 11
-22.1341787599
 21
3.2962143049
  0
LINE
  5
4B9
100
AcDbEntity
  8
0
100
AcDbLine
 62
7
  6
CONTINUOUS
 10
-22.3141787599
 20
3.44
 11
-22.2341787599
 21
3.44
  0
LINE
  5
4BA
100
AcDbEntity
  8
0
100
AcDbLine
 62
7
  6
CONTINUOUS
 10
-22.3141787599
 20
3.565
 11
-22.2341787599
 21
3.565
  0
LINE
  5
4BB
100
AcDbEntity
  8
0
100
AcDbLine
 62
7
  6
CONTINUOUS
 10
-22.3141787599
 20
3.7013988122
 11
-22.1341787599
 21
3.7013988122
  0
LINE
  5
4BC
100
AcDbEntity
  8
0
100
AcDbLine
 62
7
  6
CONTINUOUS
 10
-22.3141787599
 20
3.7316669846
 11
-22.2341787599
 21
3.7316669846
  0
LINE
  5
4BD
100
AcDbEntity
  8
0
100
AcDbLine
 62
7
  6
CONTINUOUS
 10
-22.3141787599
 20
3.7941669846
 11
-22.2341787599
 21
3.7941669846
  0
LINE
  5
4BE
100
AcDbEntity
  8
0
100
AcDbLine
 62
7
  6
CONTINUOUS
 10
-22.3141787599
 20
3.815
 11
-22.2341787599
 21
3.815
  0
LINE
  5
4BF
100
AcDbEntity
  8
0
100
AcDbLine
 62
7
  6
CONTINUOUS
 10
-22.3141787599
 20
3.8674116336
 11
-22.1341787599
 21
3.8674116336
  0
LWPOLYLINE
  5
4C0
100
AcDbEntity
  8
RACCORDO
100
AcDbPolyline
 62
7
  6
CONTINUOUS
 90
5
 70
0
 10
-46.1176692166
 20
21.0738952232
 10
-46.1371369371
 20
21.0943216306
 10
-46.1558881919
 20
21.1145180984
 10
-46.173922981
 20
21.1344853063
 10
-46.191340307
 20
21.1542043502
  0
LWPOLYLINE
  5
4C1
100
AcDbEntity
  8
RACCORDO
100
AcDbPolyline
 62
7
  6
CONTINUOUS
 90
12
 70
0
 10
-46.191340307
 20
21.1542043502
 10
-46.2080411673
 20
21.1736955315
 10
-46.223728554
 20
21.1930180919
 10
-46.2383807941
 20
21.2121932845
 10
-46.2520195606
 20
21.2312006472
 10
-46.2644128642
 20
21.2500366011
 10
-46.2755392088
 20
21.2687132808
 10
-46.2854200906
 20
21.2872193451
 10
-46.2938880082
 20
21.30551612
 10
-46.3008871279
 20
21.3235911225
 10
-46.3064732835
 20
21.3414579215
 10
-46.310646475
 20
21.3591170407
  0
LWPOLYLINE
  5
4C2
100
AcDbEntity
  8
RACCORDO
100
AcDbPolyline
 62
250
  6
CONTINUOUS
 90
5
 70
0
 10
-22.804455615
 20
-19.0600621474
 10
-22.804772783
 20
-19.0205284475
 10
-22.8047266002
 20
-18.9959779624
 10
-22.8048759681
 20
-18.968111112
 10
-22.8054525567
 20
-18.9367181196
  0
LWPOLYLINE
  5
4C3
100
AcDbEntity
  8
RACCORDO
100
AcDbPolyline
 62
250
  6
CONTINUOUS
 90
3
 70
0
 10
-40.9589887261
 20
-19.598400205
 10
-41.4542064789
 20
-20.1027799768
 10
-42.3432134987
 20
-21.0077166688
  0
LINE
  5
4C4
100
AcDbEntity
  8
RACCORDO
100
AcDbLine
 62
7
  6
CONTINUOUS
 10
-40.6141615387
 20
-19.5999827788
 11
-42.6702492616
 21
-21.6560705017
  0
LINE
  5
4C5
100
AcDbEntity
  8
0
100
AcDbLine
 62
7
  6
CONTINUOUS
 10
-22.3141787599
 20
3.9785326484
 11
-22.1341787599
 21
3.9785326484
  0
LINE
  5
4C6
100
AcDbEntity
  8
0
100
AcDbLine
 62
250
  6
CONTINUOUS
 10
-22.3141787599
 20
4.5443048685
 11
-22.1341787599
 21
4.5443048685
  0
LINE
  5
4C7
100
AcDbEntity
  8
0
100
AcDbLine
 62
7
  6
CONTINUOUS
 10
-22.3141787599
 20
5.135282488
 11
-22.1341787599
 21
5.135282488
  0
LINE
  5
4C8
100
AcDbEntity
  8
0
100
AcDbLine
 62
7
  6
CONTINUOUS
 10
-22.3141787599
 20
5.2464024613
 11
-22.1341787599
 21
5.2464024613
  0
LINE
  5
4C9
100
AcDbEntity
  8
0
100
AcDbLine
 62
7
  6
CONTINUOUS
 10
-22.3141787599
 20
5.2941669846
 11
-22.2341787599
 21
5.2941669846
  0
LINE
  5
4CA
100
AcDbEntity
  8
0
100
AcDbLine
 62
7
  6
CONTINUOUS
 10
-22.3141787599
 20
5.4608330154
 11
-22.2341787599
 21
5.4608330154
  0
LINE
  5
4CB
100
AcDbEntity
  8
0
100
AcDbLine
 62
7
  6
CONTINUOUS
 10
-22.3141787599
 20
5.5644741674
 11
-22.1341787599
 21
5.5644741674
  0
LINE
  5
4CC
100
AcDbEntity
  8
0
100
AcDbLine
 62
250
  6
CONTINUOUS
 10
-22.3141787599
 20
6.3322853537
 11
-22.1341787599
 21
6.3322853537
  0
LINE
  5
4CD
100
AcDbEntity
  8
0
100
AcDbLine
 62
7
  6
CONTINUOUS
 10
-22.3141787599
 20
6.8576170774
 11
-22.1341787599
 21
6.8576170774
  0
LWPOLYLINE
  5
4CE
100
AcDbEntity
  8
RACCORDO
100
AcDbPolyline
 62
250
  6
CONTINUOUS
 90
15
 70
0
 10
-40.9589887261
 20
19.598400205
 10
-40.9116240046
 20
19.5529260494
 10
-40.8626068211
 20
19.510460044
 10
-40.8119371758
 20
19.4710217043
 10
-40.7593971928
 20
19.4345974239
 10
-40.705204748
 20
19.4012351228
 10
-40.6500134683
 20
19.3710446684
 10
-40.5938187852
 20
19.3440900864
 10
-40.5366252673
 20
19.3203332894
 10
-40.4791002472
 20
19.299728744
 10
-40.4213520864
 20
19.2823296935
 10
-40.3632724234
 20
19.2680991062
 10
-40.305203506
 20
19.2568532185
 10
-40.2472594171
 20
19.2485330009
 10
-40.1893260739
 20
19.2432045664
  0
LINE
  5
4CF
100
AcDbEntity
  8
RACCORDO
100
AcDbLine
 62
7
  6
CONTINUOUS
 10
-42.6702492616
 20
21.6560705017
 11
-40.6141615387
 21
19.5999827788
  0
LINE
  5
4D0
100
AcDbEntity
  8
RACCORDO
100
AcDbLine
 62
250
  6
CONTINUOUS
 10
-42.3432155109
 20
21.0077167158
 11
-40.9589887261
 21
19.598400205
  0
LINE
  5
4D1
100
AcDbEntity
  8
RACCORDO
100
AcDbLine
 62
250
  6
CONTINUOUS
 10
-22.8054525567
 20
-19.0926385408
 11
-22.8057246549
 21
-19.0905768239
  0
LWPOLYLINE
  5
4D2
100
AcDbEntity
  8
RACCORDO
100
AcDbPolyline
 62
250
  6
CONTINUOUS
 90
13
 70
0
 10
-22.3141787599
 20
16.8894445167
 10
-22.3183617809
 20
16.9297873396
 10
-22.3308409152
 20
16.9694552886
 10
-22.3514074507
 20
17.0077846202
 10
-22.3797173569
 20
17.0441339848
 10
-22.4152970195
 20
17.0778951334
 10
-22.4575511448
 20
17.1085031025
 10
-22.5057727729
 20
17.1354457111
 10
-22.5591550657
 20
17.1582720937
 10
-22.6168047573
 20
17.1766002411
 10
-22.6777571954
 20
17.1901234385
 10
-22.740992499
 20
17.1986153821
 10
-22.8054525567
 20
17.2019339463
  0
LWPOLYLINE
  5
4D3
100
AcDbEntity
  8
RACCORDO
100
AcDbPolyline
 62
250
  6
CONTINUOUS
 90
16
 70
0
 10
-22.3141787599
 20
18.5927146932
 10
-22.3168156586
 20
18.628003119
 10
-22.3247230522
 20
18.663000205
 10
-22.3378536511
 20
18.6973311819
 10
-22.3561188234
 20
18.7306482058
 10
-22.3793498456
 20
18.7625595737
 10
-22.407263227
 20
18.7926460636
 10
-22.4395358111
 20
18.8205645173
 10
-22.4758398332
 20
18.8460358481
 10
-22.5157813225
 20
18.8687829707
 10
-22.5589343811
 20
18.8885629417
 10
-22.6048316304
 20
18.9051611689
 10
-22.6529615205
 20
18.9183951133
 10
-22.7027984766
 20
18.9281254944
 10
-22.7538115697
 20
18.9342537007
 10
-22.8054525567
 20
18.9367181196
  0
LWPOLYLINE
  5
4D4
100
AcDbEntity
  8
RACCORDO
100
AcDbPolyline
 62
250
  6
CONTINUOUS
 90
6
 70
0
 10
-22.8047707647
 20
19.0746295528
 10
-22.8044686642
 20
19.0429139992
 10
-22.8047659807
 20
19.0213590832
 10
-22.8053737568
 20
18.9964567698
 10
-22.805723104
 20
18.968191353
 10
-22.8054525567
 20
18.9367181196
  0
LINE
  5
4D5
100
AcDbEntity
  8
RACCORDO
100
AcDbLine
 62
250
  6
CONTINUOUS
 10
-22.8054525566
 20
17.2019339451
 11
-22.8049449637
 21
16.7193725896
  0
LINE
  5
4D6
100
AcDbEntity
  8
RACCORDO
100
AcDbLine
 62
250
  6
CONTINUOUS
 10
-22.8054525567
 20
-15.9519762322
 11
-22.8049306358
 21
-16.6143523459
  0
LINE
  5
4D7
100
AcDbEntity
  8
RACCORDO
100
AcDbLine
 62
250
  6
CONTINUOUS
 10
-22.8054525567
 20
18.9367180248
 11
-22.8054525567
 21
17.2019339448
  0
LINE
  5
4D8
100
AcDbEntity
  8
RACCORDO
100
AcDbLine
 62
7
  6
CONTINUOUS
 10
-22.3141787599
 20
18.5927146932
 11
-22.3141787599
 21
-18.5927146932
  0
LINE
  5
4D9
100
AcDbEntity
  8
0
100
AcDbLine
 62
7
  6
CONTINUOUS
 10
-22.2341787599
 20
5.565
 11
-22.2341787599
 21
5.2464024613
  0
LINE
  5
4DA
100
AcDbEntity
  8
0
100
AcDbLine
 62
7
  6
CONTINUOUS
 10
-22.2341787599
 20
3.8674116336
 11
-22.2341787599
 21
3.7316669846
  0
LINE
  5
4DB
100
AcDbEntity
  8
0
100
AcDbLine
 62
7
  6
CONTINUOUS
 10
-22.2341787599
 20
3.565
 11
-22.2341787599
 21
3.44
  0
LINE
  5
4DC
100
AcDbEntity
  8
0
100
AcDbLine
 62
7
  6
CONTINUOUS
 10
-22.2341787599
 20
3.2733330154
 11
-22.2341787599
 21
3.250892
  0
LINE
  5
4DD
100
AcDbEntity
  8
0
100
AcDbLine
 62
7
  6
CONTINUOUS
 10
-22.2341787599
 20
1.8566669846
 11
-22.2341787599
 21
1.695412
  0
LINE
  5
4DE
100
AcDbEntity
  8
0
100
AcDbLine
 62
7
  6
CONTINUOUS
 10
-22.2341787599
 20
-1.6016665077
 11
-22.2341787599
 21
-1.7266665077
  0
LINE
  5
4DF
100
AcDbEntity
  8
0
100
AcDbLine
 62
7
  6
CONTINUOUS
 10
-22.2341787599
 20
-3.243211
 11
-22.2341787599
 21
-3.6433332539
  0
LINE
  5
4E0
100
AcDbEntity
  8
0
100
AcDbLine
 62
7
  6
CONTINUOUS
 10
-22.2341787599
 20
-3.81
 11
-22.2341787599
 21
-4.6433332539
  0
LINE
  5
4E1
100
AcDbEntity
  8
0
100
AcDbLine
 62
7
  6
CONTINUOUS
 10
-22.2341787599
 20
-4.81
 11
-22.2341787599
 21
-5.6433333731
  0
LINE
  5
4E2
100
AcDbEntity
  8
0
100
AcDbLine
 62
7
  6
CONTINUOUS
 10
-22.2341787599
 20
-5.81
 11
-22.2341787599
 21
-6.81
  0
LINE
  5
4E3
100
AcDbEntity
  8
ASSI
100
AcDbLine
 62
7
  6
CONTINUOUS
 10
-22.2141787599
 20
-4.0391667461
 11
-22.2141787599
 21
-4.369462
  0
LINE
  5
4E4
100
AcDbEntity
  8
0
100
AcDbLine
 62
7
  6
CONTINUOUS
 10
-22.1341787599
 20
6.8576170774
 11
-22.1341787599
 21
5.5644741674
  0
LINE
  5
4E5
100
AcDbEntity
  8
0
100
AcDbLine
 62
7
  6
CONTINUOUS
 10
-22.1341787599
 20
5.2464024613
 11
-22.1341787599
 21
3.250892
  0
LINE
  5
4E6
100
AcDbEntity
  8
0
100
AcDbLine
 62
7
  6
CONTINUOUS
 10
-22.1341787599
 20
3.243299
 11
-22.1341787599
 21
-0.056669
  0
LINE
  5
4E7
100
AcDbEntity
  8
0
100
AcDbLine
 62
7
  6
CONTINUOUS
 10
-22.1341787599
 20
-0.064229
 11
-22.1341787599
 21
-4.0400748327
  0
LINE
  5
4E8
100
AcDbEntity
  8
0
100
AcDbLine
 62
7
  6
CONTINUOUS
 10
-22.1341787599
 20
-4.5035810247
 11
-22.1341787599
 21
-7.5695900352
  0
LINE
  5
4E9
100
AcDbEntity
  8
0
100
AcDbLine
 62
7
  6
CONTINUOUS
 10
-22.1141787599
 20
16.65
 11
-22.1141787599
 21
10.5500000015
  0
LINE
  5
4EA
100
AcDbEntity
  8
RACCORDO
100
AcDbLine
 62
250
  6
CONTINUOUS
 10
-22.0685418599
 20
-9.254287608
 11
-22.0685417999
 21
-16.8457123909
  0
LINE
  5
4EB
100
AcDbEntity
  8
RACCORDO
100
AcDbLine
 62
250
  6
CONTINUOUS
 10
-22.0685418599
 20
16.845712392
 11
-22.0685417999
 21
9.2542876091
  0
LINE
  5
4EC
100
AcDbEntity
  8
RACCORDO
100
AcDbLine
 62
250
  6
CONTINUOUS
 10
-20.5598156563
 20
16.8193774781
 11
-20.5598155952
 21
9.2806225229
  0
LINE
  5
4ED
100
AcDbEntity
  8
RACCORDO
100
AcDbLine
 62
250
  6
CONTINUOUS
 10
-20.5598156563
 20
-9.2806225219
 11
-20.5598155952
 21
-16.8193774771
  0
LINE
  5
4EE
100
AcDbEntity
  8
RACCORDO
100
AcDbLine
 62
7
  6
CONTINUOUS
 10
-20.3141787599
 20
16.569300184
 11
-20.3141787599
 21
9.5307012078
  0
LINE
  5
4EF
100
AcDbEntity
  8
RACCORDO
100
AcDbLine
 62
7
  6
CONTINUOUS
 10
-20.3141787599
 20
-9.530699816
 11
-20.3141787599
 21
-16.5692987922
  0
LINE
  5
4F0
100
AcDbEntity
  8
RACCORDO
100
AcDbLine
 62
250
  6
CONTINUOUS
 10
-22.8049449637
 20
16.7193725896
 11
-22.8054525567
 21
-15.9519762322
  0
LINE
  5
4F1
100
AcDbEntity
  8
RACCORDO
100
AcDbLine
 62
250
  6
CONTINUOUS
 10
-22.8049306358
 20
-16.6143523459
 11
-22.8054525567
 21
-18.9367180268
  0
LWPOLYLINE
  5
4F2
100
AcDbEntity
  8
RACCORDO
100
AcDbPolyline
 62
250
  6
CONTINUOUS
 90
3
 70
0
 10
-22.8057246549
 20
-19.0905768239
 10
-22.8047648929
 20
-19.074262642
 10
-22.804455615
 20
-19.0600621474
  0
LWPOLYLINE
  5
4F3
100
AcDbEntity
  8
RACCORDO
100
AcDbPolyline
 62
250
  6
CONTINUOUS
 90
16
 70
0
 10
-22.3141787599
 20
-18.5927146932
 10
-22.3168573366
 20
-18.6282801618
 10
-22.3248643678
 20
-18.6634645711
 10
-22.3381140635
 20
-18.6978909444
 10
-22.3564644626
 20
-18.7311904271
 10
-22.3797189531
 20
-18.7630062383
 10
-22.4076283794
 20
-18.7929974936
 10
-22.4398937112
 20
-18.8208428575
 10
-22.476169248
 20
-18.8462439862
 10
-22.5160663224
 20
-18.8689287242
 10
-22.559157465
 20
-18.8886540203
 10
-22.6049809841
 20
-18.9052085316
 10
-22.6530459123
 20
-18.918414888
 10
-22.7028372673
 20
-18.9281315926
 10
-22.7538215693
 20
-18.9342545375
 10
-22.8054525567
 20
-18.9367181196
  0
LWPOLYLINE
  5
4F4
100
AcDbEntity
  8
RACCORDO
100
AcDbPolyline
 62
250
  6
CONTINUOUS
 90
13
 70
0
 10
-22.3141787599
 20
-16.8894445167
 10
-22.3183619306
 20
-16.9297880565
 10
-22.3308414478
 20
-16.9694565422
 10
-22.3514084967
 20
-17.0077862134
 10
-22.3797189362
 20
-17.0441357118
 10
-22.4152990576
 20
-17.0778968122
 10
-22.4575535103
 20
-17.1085045999
 10
-22.5057752642
 20
-17.1354469242
 10
-22.5591574402
 20
-17.1582729669
 10
-22.6168068104
 20
-17.1766007864
 10
-22.6777587456
 20
-17.1901237083
 10
-22.7409933561
 20
-17.1986154579
 10
-22.8054525567
 20
-17.2019339448
  0
LWPOLYLINE
  5
4F5
100
AcDbEntity
  8
RACCORDO
100
AcDbPolyline
 62
250
  6
CONTINUOUS
 90
10
 70
0
 10
-41.9984967746
 20
-20.9843180147
 10
-42.0242940989
 20
-21.0058483512
 10
-42.0547439551
 20
-21.0234501204
 10
-42.0891819647
 20
-21.0365422058
 10
-42.1264783012
 20
-21.0443748706
 10
-42.1661536649
 20
-21.0468999593
 10
-42.2084675491
 20
-21.0446281798
 10
-42.2529168053
 20
-21.0375375226
 10
-42.2981882259
 20
-21.0252350681
 10
-42.343323962
 20
-21.0077183978
  0
LWPOLYLINE
  5
4F6
100
AcDbEntity
  8
RACCORDO
100
AcDbPolyline
 62
250
  6
CONTINUOUS
 90
10
 70
0
 10
-40.6141615387
 20
-19.5999827788
 10
-40.6394058176
 20
-19.6205520215
 10
-40.6689913227
 20
-19.6361742461
 10
-40.7025268454
 20
-19.64664288
 10
-40.7395689461
 20
-19.6518194968
 10
-40.7796278175
 20
-19.6516356461
 10
-40.8221737618
 20
-19.6460937589
 10
-40.8666441947
 20
-19.6352671155
 10
-40.9124510842
 20
-19.6192988766
 10
-40.9589887265
 20
-19.5984001898
  0
LINE
  5
4F7
100
AcDbEntity
  8
DRAFT
100
AcDbLine
 62
7
  6
CONTINUOUS
 10
-22.0685418615
 20
9.254287608
 11
-20.5598156583
 21
9.2806225218
  0
LINE
  5
4F8
100
AcDbEntity
  8
0
100
AcDbLine
 62
7
  6
CONTINUOUS
 10
-22.3141787599
 20
10.5500000015
 11
-22.1141787599
 21
10.5500000015
  0
LWPOLYLINE
  5
4F9
100
AcDbEntity
  8
RACCORDO
100
AcDbPolyline
 62
250
  6
CONTINUOUS
 90
10
 70
0
 10
-40.6141621188
 20
19.5999821987
 10
-40.6394064236
 20
19.6205515886
 10
-40.6689919251
 20
19.6361739901
 10
-40.7025274159
 20
19.6466428286
 10
-40.7395694586
 20
19.6518196741
 10
-40.7796282492
 20
19.6516360723
 10
-40.8221740935
 20
19.6460944495
 10
-40.8666444115
 20
19.6352680807
 10
-40.9124511761
 20
19.6193001203
 10
-40.9589886886
 20
19.5984017095
  0
LWPOLYLINE
  5
4FA
100
AcDbEntity
  8
RACCORDO
100
AcDbPolyline
 62
250
  6
CONTINUOUS
 90
10
 70
0
 10
-41.9984967746
 20
20.9843180147
 10
-42.0242941054
 20
21.0058483577
 10
-42.0547439665
 20
21.0234501319
 10
-42.0891819793
 20
21.0365422205
 10
-42.1264783174
 20
21.044374887
 10
-42.1661536811
 20
21.0468999758
 10
-42.2084675638
 20
21.0446281945
 10
-42.2529168169
 20
21.0375375339
 10
-42.2981882326
 20
21.0252350744
 10
-42.343323962
 20
21.0077183978
  0
LINE
  5
4FB
100
AcDbEntity
  8
0
100
AcDbLine
 62
7
  6
CONTINUOUS
 10
-22.3141787599
 20
11.5666659382
 11
-22.1141787599
 21
11.5666659382
  0
LINE
  5
4FC
100
AcDbEntity
  8
RACCORDO
100
AcDbLine
 62
250
  6
CONTINUOUS
 10
-20.3141787599
 20
12.0
 11
-22.1141787599
 21
12.000000002
  0
LINE
  5
4FD
100
AcDbEntity
  8
0
100
AcDbLine
 62
7
  6
CONTINUOUS
 10
-22.3141787599
 20
12.0750000011
 11
-22.1141787599
 21
12.0750000011
  0
LINE
  5
4FE
100
AcDbEntity
  8
RACCORDO
100
AcDbLine
 62
250
  6
CONTINUOUS
 10
-20.3141787599
 20
14.1
 11
-22.1007714574
 21
14.1
  0
LWPOLYLINE
  5
4FF
100
AcDbEntity
  8
0
100
AcDbPolyline
 62
7
  6
CONTINUOUS
 90
10
 70
0
 43
0.3500000006
 10
-39.099894104
 20
45.8360782013
 10
-39.0284629211
 20
45.6932203674
 10
-39.0284629211
 20
45.6217937164
 10
-39.171320755
 20
45.4789358826
 10
-39.2427519379
 20
45.4789358826
 10
-39.3141785889
 20
45.5503625336
 10
-39.3141785889
 20
45.6217937164
 10
-39.2427519379
 20
45.7646515503
 10
-39.171320755
 20
45.8360782013
 10
-39.099894104
 20
45.8360782013
  0
LWPOLYLINE
  5
500
100
AcDbEntity
  8
RACCORDO
100
AcDbPolyline
 62
250
  6
CONTINUOUS
 90
4
 70
0
 10
-22.8054525567
 20
19.0926385408
 10
-22.8048394208
 20
19.0905570238
 10
-22.804696527
 20
19.0845115381
 10
-22.8047707647
 20
19.0746295528
  0
LINE
  5
501
100
AcDbEntity
  8
TRASH
100
AcDbLine
 62
7
  6
CONTINUOUS
 10
-42.6702492616
 20
-21.6560705017
 11
-44.164683276
 21
-22.2
  0
LINE
  5
502
100
AcDbEntity
  8
0
100
AcDbLine
 62
7
  6
CONTINUOUS
 10
-22.1141787599
 20
15.1250000101
 11
-22.3141787599
 21
15.1250000101
  0
LINE
  5
503
100
AcDbEntity
  8
0
100
AcDbLine
 62
7
  6
CONTINUOUS
 10
-22.3141787599
 20
15.6333329687
 11
-22.1141787599
 21
15.6333329687
  0
LINE
  5
504
100
AcDbEntity
  8
RACCORDO
100
AcDbLine
 62
250
  6
CONTINUOUS
 10
-22.3141787599
 20
15.9519762322
 11
-22.8054525567
 21
15.9519762322
  0
LINE
  5
505
100
AcDbEntity
  8
0
100
AcDbLine
 62
7
  6
CONTINUOUS
 10
-22.3141787599
 20
16.65
 11
-22.1141787599
 21
16.65
  0
LINE
  5
506
100
AcDbEntity
  8
0
100
AcDbLine
 62
7
  6
CONTINUOUS
 10
-22.3141787599
 20
15.1535843673
 11
-22.1141787599
 21
15.1535192193
  0
LINE
  5
507
100
AcDbEntity
  8
RACCORDO
100
AcDbLine
 62
250
  6
CONTINUOUS
 10
-50.3141787599
 20
17.3594295692
 11
-22.8054525567
 21
17.2019339448
  0
LINE
  5
508
100
AcDbEntity
  8
RACCORDO
100
AcDbLine
 62
250
  6
CONTINUOUS
 10
-50.3141787599
 20
16.119659166
 11
-22.8054525567
 21
15.9519762322
  0
LINE
  5
509
100
AcDbEntity
  8
DRAFT
100
AcDbLine
 62
7
  6
CONTINUOUS
 10
-22.0685418615
 20
16.845712392
 11
-20.5598156583
 21
16.8193774782
  0
LINE
  5
50A
100
AcDbEntity
  8
TRASH
100
AcDbLine
 62
7
  6
CONTINUOUS
 10
-42.6702492616
 20
21.6560705017
 11
-44.164683276
 21
22.2
  0
LINE
  5
50B
100
AcDbEntity
  8
RACCORDO
100
AcDbLine
 62
7
  6
CONTINUOUS
 10
-40.1314034764
 20
19.3950641391
 11
-22.8054525567
 21
19.0926385408
  0
LINE
  5
50C
100
AcDbEntity
  8
RACCORDO
100
AcDbLine
 62
7
  6
CONTINUOUS
 10
-46.1176692412
 20
21.1965699136
 11
-42.343323962
 21
21.1306884717
  0
LINE
  5
50D
100
AcDbEntity
  8
RACCORDO
100
AcDbLine
 62
250
  6
CONTINUOUS
 10
-40.1314034764
 20
19.2408695706
 11
-22.8054525567
 21
18.9367180248
  0
LINE
  5
50E
100
AcDbEntity
  8
RACCORDO
100
AcDbLine
 62
250
  6
CONTINUOUS
 10
-46.1176692166
 20
21.0738952232
 11
-42.3432155109
 21
21.0077167158
  0
LINE
  5
50F
100
AcDbEntity
  8
RACCORDO
100
AcDbLine
 62
250
  6
CONTINUOUS
 10
-40.1893260739
 20
19.2432045664
 11
-40.1314034764
 21
19.2408695706
  0
LWPOLYLINE
  5
510
100
AcDbEntity
  8
SUPERFICI
100
AcDbPolyline
 62
250
  6
CONTINUOUS
 90
4
 70
0
 10
-58.8813820619
 20
20.9972959167
 10
-59.3615406737
 20
21.0177896584
 10
-59.3695392079
 20
21.0181637387
 10
-59.3722138757
 20
21.0183142302
  0
LWPOLYLINE
  5
511
100
AcDbEntity
  8
SUPERFICI
100
AcDbPolyline
 62
250
  6
CONTINUOUS
 90
19
 70
0
 10
-58.4079920049
 20
21.4755923698
 10
-58.449091837
 20
21.4716950654
 10
-58.4892552608
 20
21.4645922224
 10
-58.5284822762
 20
21.4542838406
 10
-58.5670386194
 20
21.4406561355
 10
-58.6046585543
 20
21.4238228918
 10
-58.6405448723
 20
21.4041254635
 10
-58.674647744
 20
21.3815078446
 10
-58.7070169988
 20
21.3560260412
 10
-58.7370049163
 20
21.3281894262
 10
-58.7645601547
 20
21.2979562723
 10
-58.7897340556
 20
21.2653683069
 10
-58.8120329239
 20
21.2310600855
 10
-58.831406305
 20
21.1949860366
 10
-58.8479046534
 20
21.1571917318
 10
-58.8611856365
 20
21.1184484404
 10
-58.8711351436
 20
21.0790132523
 10
-58.8778672854
 20
21.0386290778
 10
-58.8813820619
 20
20.9972959167
  0
LINE
  5
512
100
AcDbEntity
  8
SUPERFICI
100
AcDbLine
 62
250
  6
CONTINUOUS
 10
-50.3141787599
 20
21.8997711479
 11
-58.4079920049
 21
21.4755923698
  0
LINE
  5
513
100
AcDbEntity
  8
SUPERFICI
100
AcDbLine
 62
7
  6
CONTINUOUS
 10
-50.3141787599
 20
22.4
 11
-58.4254337798
 21
21.9749071372
  0
LINE
  5
514
100
AcDbEntity
  8
TRASH
100
AcDbLine
 62
7
  6
CONTINUOUS
 10
-44.164683276
 20
22.2
 11
-44.7141787599
 21
22.2
  0
LINE
  5
515
100
AcDbEntity
  8
TRASH
100
AcDbLine
 62
7
  6
CONTINUOUS
 10
-46.3141787599
 20
22.6298666026
 11
-47.6353987359
 21
22.6398908175
  0
LINE
  5
516
100
AcDbEntity
  8
TRASH
100
AcDbLine
 62
7
  6
CONTINUOUS
 10
-47.6353987359
 20
22.6398908175
 11
-48.9687625513
 21
22.651011599
  0
LINE
  5
517
100
AcDbEntity
  8
TRASH
100
AcDbLine
 62
7
  6
CONTINUOUS
 10
-48.9687625513
 20
22.651011599
 11
-50.3141787599
 21
22.663166622
  0
LINE
  5
518
100
AcDbEntity
  8
TRASH
100
AcDbLine
 62
7
  6
CONTINUOUS
 10
-46.3141787599
 20
23.4301797403
 11
-50.3141787599
 21
23.5
  0
LINE
  5
519
100
AcDbEntity
  8
TRASH
100
AcDbLine
 62
250
  6
CONTINUOUS
 10
-46.3141787599
 20
23.2631073618
 11
-50.3141787599
 21
23.3333596575
  0
LINE
  5
51A
100
AcDbEntity
  8
TRASH
100
AcDbLine
 62
7
  6
CONTINUOUS
 10
-48.0785074124
 20
23.136227616
 11
-50.3141787599
 21
23.1799085618
  0
LINE
  5
51B
100
AcDbEntity
  8
TRASH
100
AcDbLine
 62
7
  6
CONTINUOUS
 10
-46.3141787599
 20
23.0998904748
 11
-48.0785074124
 21
23.136227616
  0
LWPOLYLINE
  5
51C
100
AcDbEntity
  8
0
100
AcDbPolyline
 62
7
  6
CONTINUOUS
 90
6
 70
0
 43
0.3500000006
 10
-37.5641780548
 20
37.3360801392
 10
-36.4927510986
 20
37.3360801392
 10
-36.2784643478
 20
37.550364624
 10
-36.2784643478
 20
38.6217915802
 10
-36.7070355835
 20
39.0503650818
 10
-37.1356068192
 20
39.0503650818
  0
LWPOLYLINE
  5
51D
100
AcDbEntity
  8
0
100
AcDbPolyline
 62
7
  6
CONTINUOUS
 90
6
 70
0
 43
0.3500000006
 10
-44.2427489319
 20
45.3360780487
 10
-43.1713219757
 20
45.3360780487
 10
-42.9570374908
 20
45.5503625336
 10
-42.9570374908
 20
46.6217940216
 10
-43.3856064606
 20
47.0503629913
 10
-43.8141799622
 20
47.0503629913
  0
LWPOLYLINE
  5
51E
100
AcDbEntity
  8
0
100
AcDbPolyline
 62
7
  6
CONTINUOUS
 90
8
 70
0
 43
0.3500000006
 10
-38.028462616
 20
45.3360780487
 10
-37.1713224106
 20
45.3360780487
 10
-36.7427511749
 20
45.7646515503
 10
-36.7427511749
 20
46.6217940216
 10
-37.1713224106
 20
47.0503629913
 10
-38.028462616
 20
47.0503629913
 10
-38.028462616
 20
48.3360789642
 10
-36.7427511749
 20
48.3360789642
  0
ARC
  5
51F
100
AcDbEntity
  8
0
100
AcDbCircle
 62
7
  6
CONTINUOUS
 10
-1.4
 20
-11.6656407828
 40
1.0
100
AcDbArc
 50
358.3552945259
 51
35.8247743687
  0
ARC
  5
520
100
AcDbEntity
  8
0
100
AcDbCircle
 62
7
  6
CONTINUOUS
 10
-0.8
 20
-6.98
 40
0.78
100
AcDbArc
 50
313.589645406
 51
90.0
  0
ARC
  5
521
100
AcDbEntity
  8
TRASH
100
AcDbCircle
 62
7
  6
CONTINUOUS
 10
-4.95
 20
-23.1
 40
0.5
100
AcDbArc
 50
350.803718421
 51
119.112422776
  0
ARC
  5
522
100
AcDbEntity
  8
RACCORDO
100
AcDbCircle
 62
7
  6
CONTINUOUS
 10
-2.5238858928
 20
-7.7
 40
0.3
100
AcDbArc
 50
324.5040673497
 51
90.0
  0
ARC
  5
523
100
AcDbEntity
  8
0
100
AcDbCircle
 62
7
  6
CONTINUOUS
 10
-0.8
 20
-6.98
 40
0.28
100
AcDbArc
 50
313.5896455052
 51
332.7559449262
  0
ARC
  5
524
100
AcDbEntity
  8
TRASH
100
AcDbCircle
 62
7
  6
CONTINUOUS
 10
-11.25
 20
0.0
 40
28.0
100
AcDbArc
 50
55.8789063483
 51
56.4427876864
  0
ARC
  5
525
100
AcDbEntity
  8
TRASH
100
AcDbCircle
 62
7
  6
CONTINUOUS
 10
-11.25
 20
0.0
 40
28.0
100
AcDbArc
 50
53.1385891949
 51
54.0372348486
  0
ARC
  5
526
100
AcDbEntity
  8
TRASH
100
AcDbCircle
 62
7
  6
CONTINUOUS
 10
-11.25
 20
0.0
 40
28.0
100
AcDbArc
 50
305.9627651514
 51
306.8614108051
  0
ARC
  5
527
100
AcDbEntity
  8
TRASH
100
AcDbCircle
 62
7
  6
CONTINUOUS
 10
-11.25
 20
0.0
 40
28.0
100
AcDbArc
 50
303.5572123136
 51
304.1210936517
  0
ARC
  5
528
100
AcDbEntity
  8
0
100
AcDbCircle
 62
7
  6
CONTINUOUS
 10
-1.4
 20
11.6656407828
 40
1.0
100
AcDbArc
 50
324.1752256313
 51
1.6447054741
  0
ARC
  5
529
100
AcDbEntity
  8
0
100
AcDbCircle
 62
7
  6
CONTINUOUS
 10
-0.8
 20
6.98
 40
0.78
100
AcDbArc
 50
270.0
 51
360.0
  0
ARC
  5
52A
100
AcDbEntity
  8
RACCORDO
100
AcDbCircle
 62
7
  6
CONTINUOUS
 10
-0.8
 20
6.98
 40
0.78
100
AcDbArc
 50
0.0
 51
46.410354594
  0
ARC
  5
52B
100
AcDbEntity
  8
TRASH
100
AcDbCircle
 62
7
  6
CONTINUOUS
 10
-4.95
 20
23.1
 40
0.5
100
AcDbArc
 50
240.887577224
 51
9.196281579
  0
ARC
  5
52C
100
AcDbEntity
  8
RACCORDO
100
AcDbCircle
 62
7
  6
CONTINUOUS
 10
-2.5238858928
 20
7.7
 40
0.3
100
AcDbArc
 50
270.0
 51
35.4959326503
  0
ARC
  5
52D
100
AcDbEntity
  8
RACCORDO
100
AcDbCircle
 62
7
  6
CONTINUOUS
 10
-0.8
 20
6.98
 40
0.28
100
AcDbArc
 50
27.2455541896
 51
46.4120283183
  0
ARC
  5
52E
100
AcDbEntity
  8
RACCORDO
100
AcDbCircle
 62
7
  6
CONTINUOUS
 10
-0.0
 20
-9.5
 40
2.8
100
AcDbArc
 50
144.5040673497
 51
35.4959326503
  0
ARC
  5
52F
100
AcDbEntity
  8
0
100
AcDbCircle
 62
7
  6
CONTINUOUS
 10
1.4
 20
-11.6656407828
 40
1.0
100
AcDbArc
 50
144.1752256313
 51
181.6447054741
  0
ARC
  5
530
100
AcDbEntity
  8
0
100
AcDbCircle
 62
7
  6
CONTINUOUS
 10
0.8
 20
-6.98
 40
0.78
100
AcDbArc
 50
90.0
 51
180.0
  0
ARC
  5
531
100
AcDbEntity
  8
RACCORDO
100
AcDbCircle
 62
7
  6
CONTINUOUS
 10
0.8
 20
-6.98
 40
0.78
100
AcDbArc
 50
180.0
 51
226.410354594
  0
ARC
  5
532
100
AcDbEntity
  8
TRASH
100
AcDbCircle
 62
7
  6
CONTINUOUS
 10
4.95
 20
-23.1
 40
0.5
100
AcDbArc
 50
60.887577224
 51
189.196281579
  0
ARC
  5
533
100
AcDbEntity
  8
RACCORDO
100
AcDbCircle
 62
7
  6
CONTINUOUS
 10
2.5238858928
 20
-7.7
 40
0.3
100
AcDbArc
 50
90.0
 51
215.4959326503
  0
ARC
  5
534
100
AcDbEntity
  8
RACCORDO
100
AcDbCircle
 62
7
  6
CONTINUOUS
 10
0.8
 20
-6.98
 40
0.28
100
AcDbArc
 50
207.2455541896
 51
226.4120283183
  0
ARC
  5
535
100
AcDbEntity
  8
TRASH
100
AcDbCircle
 62
7
  6
CONTINUOUS
 10
11.25
 20
0.0
 40
28.0
100
AcDbArc
 50
125.9627651514
 51
126.8614108051
  0
ARC
  5
536
100
AcDbEntity
  8
TRASH
100
AcDbCircle
 62
7
  6
CONTINUOUS
 10
11.25
 20
0.0
 40
28.0
100
AcDbArc
 50
123.5572123136
 51
124.1210936517
  0
ARC
  5
537
100
AcDbEntity
  8
TRASH
100
AcDbCircle
 62
7
  6
CONTINUOUS
 10
11.25
 20
0.0
 40
28.0
100
AcDbArc
 50
235.8789063483
 51
236.4427876864
  0
ARC
  5
538
100
AcDbEntity
  8
TRASH
100
AcDbCircle
 62
7
  6
CONTINUOUS
 10
11.25
 20
0.0
 40
28.0
100
AcDbArc
 50
233.1385891949
 51
234.0372348486
  0
ARC
  5
539
100
AcDbEntity
  8
RACCORDO
100
AcDbCircle
 62
7
  6
CONTINUOUS
 10
0.0
 20
9.5
 40
2.8
100
AcDbArc
 50
324.5040673497
 51
215.4959326503
  0
ARC
  5
53A
100
AcDbEntity
  8
0
100
AcDbCircle
 62
7
  6
CONTINUOUS
 10
1.4
 20
11.6656407828
 40
1.0
100
AcDbArc
 50
178.3552945259
 51
215.8247743687
  0
ARC
  5
53B
100
AcDbEntity
  8
0
100
AcDbCircle
 62
7
  6
CONTINUOUS
 10
0.8
 20
6.98
 40
0.78
100
AcDbArc
 50
133.589645406
 51
270.0
  0
ARC
  5
53C
100
AcDbEntity
  8
TRASH
100
AcDbCircle
 62
7
  6
CONTINUOUS
 10
4.95
 20
23.1
 40
0.5
100
AcDbArc
 50
170.803718421
 51
299.112422776
  0
ARC
  5
53D
100
AcDbEntity
  8
RACCORDO
100
AcDbCircle
 62
7
  6
CONTINUOUS
 10
2.5238858928
 20
7.7
 40
0.3
100
AcDbArc
 50
144.5040673497
 51
270.0
  0
ARC
  5
53E
100
AcDbEntity
  8
0
100
AcDbCircle
 62
7
  6
CONTINUOUS
 10
0.8
 20
6.98
 40
0.28
100
AcDbArc
 50
133.5896455052
 51
152.7559449262
  0
ARC
  5
53F
100
AcDbEntity
  8
SUPERFICI
100
AcDbCircle
 62
7
  6
CONTINUOUS
 10
-58.3730978236
 20
-20.9762776025
 40
1.0
100
AcDbArc
 50
182.4092313014
 51
267.0
  0
ARC
  5
540
100
AcDbEntity
  8
RACCORDO
100
AcDbCircle
 62
7
  6
CONTINUOUS
 10
-40.1191867919
 20
-20.0949575257
 40
0.7
100
AcDbArc
 50
91.0
 51
135.0
  0
ARC
  5
541
100
AcDbEntity
  8
RACCORDO
100
AcDbCircle
 62
7
  6
CONTINUOUS
 10
-42.3520501652
 20
-20.6307646241
 40
0.5
100
AcDbArc
 50
271.0
 51
315.0
  0
ARC
  5
542
100
AcDbEntity
  8
RACCORDO
100
AcDbCircle
 62
7
  6
CONTINUOUS
 10
-22.8141787599
 20
-18.5927146932
 40
0.5
100
AcDbArc
 50
271.0
 51
360.0
  0
ARC
  5
543
100
AcDbEntity
  8
RACCORDO
100
AcDbCircle
 62
7
  6
CONTINUOUS
 10
-20.5641787599
 20
-16.5694155544
 40
0.25
100
AcDbArc
 50
271.0
 51
360.0
  0
ARC
  5
544
100
AcDbEntity
  8
RACCORDO
100
AcDbCircle
 62
7
  6
CONTINUOUS
 10
-20.5641787599
 20
-9.5305844456
 40
0.25
100
AcDbArc
 50
0.0
 51
89.0
  0
ARC
  5
545
100
AcDbEntity
  8
RACCORDO
100
AcDbCircle
 62
7
  6
CONTINUOUS
 10
-22.0641787599
 20
-17.0956743158
 40
0.25
100
AcDbArc
 50
91.0
 51
180.0
  0
ARC
  5
546
100
AcDbEntity
  8
RACCORDO
100
AcDbCircle
 62
7
  6
CONTINUOUS
 10
-22.0641787599
 20
-9.0043256842
 40
0.25
100
AcDbArc
 50
180.0
 51
269.0
  0
ARC
  5
547
100
AcDbEntity
  8
RACCORDO
100
AcDbCircle
 62
7
  6
CONTINUOUS
 10
-46.1141787599
 20
-21.3965394526
 40
0.2
100
AcDbArc
 50
91.0
 51
180.0
  0
ARC
  5
548
100
AcDbEntity
  8
SUPERFICI
100
AcDbCircle
 62
7
  6
CONTINUOUS
 10
-58.3730978236
 20
20.9762776025
 40
1.0
100
AcDbArc
 50
93.0
 51
177.5907686986
  0
ARC
  5
549
100
AcDbEntity
  8
RACCORDO
100
AcDbCircle
 62
7
  6
CONTINUOUS
 10
-40.1191867919
 20
20.0949575257
 40
0.7
100
AcDbArc
 50
225.0
 51
269.0
  0
ARC
  5
54A
100
AcDbEntity
  8
RACCORDO
100
AcDbCircle
 62
7
  6
CONTINUOUS
 10
-42.3520501652
 20
20.6307646241
 40
0.5
100
AcDbArc
 50
45.0
 51
89.0
  0
ARC
  5
54B
100
AcDbEntity
  8
RACCORDO
100
AcDbCircle
 62
7
  6
CONTINUOUS
 10
-22.8141787599
 20
18.5927146932
 40
0.5
100
AcDbArc
 50
0.0
 51
89.0
  0
ARC
  5
54C
100
AcDbEntity
  8
RACCORDO
100
AcDbCircle
 62
7
  6
CONTINUOUS
 10
-20.5641787599
 20
9.5305844456
 40
0.25
100
AcDbArc
 50
271.0
 51
360.0
  0
ARC
  5
54D
100
AcDbEntity
  8
RACCORDO
100
AcDbCircle
 62
7
  6
CONTINUOUS
 10
-20.5641787599
 20
16.5694155544
 40
0.25
100
AcDbArc
 50
0.0
 51
89.0
  0
ARC
  5
54E
100
AcDbEntity
  8
RACCORDO
100
AcDbCircle
 62
7
  6
CONTINUOUS
 10
-22.0641787599
 20
9.0043256842
 40
0.25
100
AcDbArc
 50
91.0
 51
180.0
  0
ARC
  5
54F
100
AcDbEntity
  8
RACCORDO
100
AcDbCircle
 62
7
  6
CONTINUOUS
 10
-22.0641787599
 20
17.0956743158
 40
0.25
100
AcDbArc
 50
180.0
 51
269.0
  0
ARC
  5
550
100
AcDbEntity
  8
RACCORDO
100
AcDbCircle
 62
7
  6
CONTINUOUS
 10
-46.1141787599
 20
21.3965394526
 40
0.2
100
AcDbArc
 50
180.0
 51
269.0
  0
ARC
  5
551
100
AcDbEntity
  8
RACCORDO
100
AcDbCircle
 62
7
  6
CONTINUOUS
 10
440.1858212401
 20
-0.0
 40
500.0
100
AcDbArc
 50
180.5733113431
 51
181.4448403517
  0
ARC
  5
552
100
AcDbEntity
  8
RACCORDO
100
AcDbCircle
 62
7
  6
CONTINUOUS
 10
440.1858212401
 20
-0.0
 40
500.0
100
AcDbArc
 50
178.5551596479
 51
179.4266886569
  0
ARC
  5
553
100
AcDbEntity
  8
SUPERFICI
100
AcDbCircle
 62
7
  6
CONTINUOUS
 10
440.1858212401
 20
0.0
 40
500.0
100
AcDbArc
 50
177.5907686986
 51
182.4092313014
  0
ELLIPSE
  5
554
100
AcDbEntity
  8
SUPERFICI
100
AcDbEllipse
 62
7
  6
CONTINUOUS
 10
-10.649923836
 20
21.899313827
 30
0.0
 11
-0.1582391023
 21
0.4751033573
 31
0.0
 40
0.9984778551
 41
-0.3210503505
 42
1.2488325878
  0
ELLIPSE
  5
555
100
AcDbEntity
  8
SUPERFICI
100
AcDbEllipse
 62
7
  6
CONTINUOUS
 10
-10.649923836
 20
-21.899313827
 30
0.0
 11
0.1582391023
 21
0.4751033573
 31
0.0
 40
0.9984778551
 41
-4.3904252414
 42
-2.8205423031
  0
ELLIPSE
  5
556
100
AcDbEntity
  8
SUPERFICI
100
AcDbEllipse
 62
7
  6
CONTINUOUS
 10
10.649923836
 20
21.899313827
 30
0.0
 11
0.1582391023
 21
0.4751033573
 31
0.0
 40
0.9984778551
 41
-1.2488325878
 42
0.3210503505
  0
ELLIPSE
  5
557
100
AcDbEntity
  8
SUPERFICI
100
AcDbEllipse
 62
7
  6
CONTINUOUS
 10
10.649923836
 20
-21.899313827
 30
0.0
 11
-0.1582391023
 21
0.4751033573
 31
0.0
 40
0.9984778551
 41
-3.4626430041
 42
-1.8927600658
  0
ENDSEC
  0
SECTION
  2
OBJECTS
  0
DICTIONARY
  5
C
100
AcDbDictionary
280
0
281
1
  3
ACAD_GROUP
350
D
  3
ACAD_MLINESTYLE
350
17
  3
ACAD_LAYOUT
350
1A
  3
ACAD_PLOTSETTINGS
350
19
  3
ACAD_PLOTSTYLENAME
350
E
  0
DICTIONARY
  5
D
102
{ACAD_REACTORS
330
C
102
}
100
AcDbDictionary
280
0
281
1
  0
ACDBDICTIONARYWDFLT
  5
E
102
{ACAD_REACTORS
330
C
102
}
100
AcDbDictionary
281
1
  3
Normal
350
F
100
AcDbDictionaryWithDefault
340
F
  0
DICTIONARY
  5
17
102
{ACAD_REACTORS
330
C
102
}
100
AcDbDictionary
280
0
281
1
  3
Standard
350
18
  0
DICTIONARY
  5
19
102
{ACAD_REACTORS
330
C
102
}
100
AcDbDictionary
281
1
  0
DICTIONARY
  5
1A
102
{ACAD_REACTORS
330
C
102
}
100
AcDbDictionary
281
1
  3
Model
350
558
  3
Layout1
350
559
  0
ACDBPLACEHOLDER
  5
F
102
{ACAD_REACTORS
330
E
102
}
  0
MLINESTYLE
  5
18
102
{ACAD_REACTORS
330
17
102
}
100
AcDbMlineStyle
  2
STANDARD
 70
0
  3

 62
256
 51
90.0
 52
90.0
 71
2
 49
0.5
 62
256
  6
BYLAYER
 49
-0.5
 62
256
  6
BYLAYER
  0
LAYOUT
  5
558
102
{ACAD_REACTORS
330
1A
102
}
100
AcDbPlotSettings
  1

  2
none_device
  4
ISO_A4_(297.00_x_210.00_MM)
  6

 40
0.0
 41
0.0
 42
0.0
 43
0.0
 44
297.0
 45
210.0
 46
0.0
 47
0.0
 48
0.0
 49
0.0
140
0.0
141
0.0
142
1.0
143
1.0
 70
1024
 72
1
 73
0
 74
0
  7

 75
0
147
1.0
148
0.0
149
0.0
100
AcDbLayout
  1
Model
 70
0
 71
0
 10
0.0
 20
0.0
 11
297.0
 21
210.0
 12
0.0
 22
0.0
 32
0.0
 14
0.0
 24
0.0
 34
0.0
 15
0.0
 25
0.0
 35
0.0
146
0.0
 13
0.0
 23
0.0
 33
0.0
 16
1.0
 26
0.0
 36
0.0
 17
0.0
 27
1.0
 37
0.0
 76
0
330
21C
345
0
346
0
  0
LAYOUT
  5
559
102
{ACAD_REACTORS
330
1A
102
}
100
AcDbPlotSettings
  1

  2
none_device
  4
ISO_A4_(297.00_x_210.00_MM)
  6

 40
0.0
 41
0.0
 42
0.0
 43
0.0
 44
297.0
 45
210.0
 46
0.0
 47
0.0
 48
0.0
 49
0.0
140
0.0
141
0.0
142
1.0
143
1.0
 70
0
 72
1
 73
0
 74
0
  7

 75
0
147
1.0
148
0.0
149
0.0
100
AcDbLayout
  1
Layout1
 70
0
 71
1
 10
0.0
 20
0.0
 11
297.0
 21
210.0
 12
0.0
 22
0.0
 32
0.0
 14
0.0
 24
0.0
 34
0.0
 15
0.0
 25
0.0
 35
0.0
146
0.0
 13
0.0
 23
0.0
 33
0.0
 16
1.0
 26
0.0
 36
0.0
 17
0.0
 27
1.0
 37
0.0
 76
0
330
21D
345
0
346
0
  0
ENDSEC
  0
EOF
