  0
SECTION
  2
HEADER
  9
$ACADVER
  1
AC1024
  9
$DWGCODEPAGE
  3
ANSI_1252
  9
$EXTMAX
 10
297.0
 20
210.0
 30
0.0
  9
$EXTMIN
 10
0.0
 20
0.0
 30
0.0
  9
$LIMMIN
 10
0.0
 20
0.0
  9
$LIMMAX
 10
297.0
 20
210.0
  9
$VIEWCTR
 10
148.5
 20
105.0
  9
$VIEWSIZE
 40
210.0
  9
$CLAYER
  8
0
  9
$LTSCALE
 40
16.335
  9
$CELTYPE
  6
BYLAYER
  9
$DIMSCALE
 40
1.0
  9
$DIMASZ
 40
3.0
  9
$DIMEXO
 40
0.5
  9
$DIMDLI
 40
11.286
  9
$DIMEXE
 40
1.5
  9
$DIMCEN
 40
2.673
  9
$DIMLFAC
 40
1.0
  9
$DIMBLK
  1
_FILLED
  9
$DIMALT
 70
0
  9
$DIMALTF
 40
0.0393700787
  9
$DIMTXT
 40
3.0
  9
$DIMTOL
 70
1
  9
$DIMLIM
 70
0
  9
$DIMTFAC
 40
1.0
  9
$DIMTP
 40
0.01
  9
$DIMTM
 40
0.01
  9
$DIMGAP
 40
0.625
  9
$DIMDSEP
 70
44
  9
$AUNITS
 70
0
  9
$PDMODE
 70
3
  9
$PDSIZE
 40
3.0
  9
$HANDSEED
  5
40E
  9
$TILEMODE
 70
1
  9
$MEASUREMENT
 70
1
  9
$INSUNITS
 70
4
  0
ENDSEC
  0
SECTION
  2
CLASSES
  0
CLASS
  1
ACDBDICTIONARYWDFLT
  2
AcDbDictionaryWithDefault
  3
AutoCAD 2000
 90
0
 91
1
280
0
281
0
  0
CLASS
  1
ACDBPLACEHOLDER
  2
AcDbPlaceHolder
  3
AutoCAD 2000
 90
0
 91
1
280
0
281
0
  0
CLASS
  1
LAYOUT
  2
AcDbLayout
  3
AutoCAD 2000
 90
0
 91
0
280
0
281
0
  0
ENDSEC
  0
SECTION
  2
TABLES
  0
TABLE
  2
VPORT
  5
8
100
AcDbSymbolTable
 70
2
  0
VPORT
  5
1F4
100
AcDbSymbolTableRecord
100
AcDbViewportTableRecord
  2
*ACTIVE
 70
0
 10
0.0
 20
0.0
 11
1.0
 21
1.0
 12
148.5
 22
105.0
 13
0.0
 23
0.0
 14
1.0
 24
1.0
 15
0.0
 25
0.0
 16
0.0
 26
0.0
 36
1.0
 17
0.0
 27
0.0
 37
0.0
 40
210.0
 41
1.4142857143
 42
50.0
 43
0.0
 44
0.0
 50
0.0
 51
0.0
 71
0
 72
100
 73
1
 74
1
 75
0
 76
0
 77
0
 78
0
  0
ENDTAB
  0
TABLE
  2
LTYPE
  5
5
100
AcDbSymbolTable
 70
6
  0
LTYPE
  5
14
100
AcDbSymbolTableRecord
100
AcDbLinetypeTableRecord
  2
BYBLOCK
 70
0
  3

 72
65
 73
0
 40
0.0
  0
LTYPE
  5
15
100
AcDbSymbolTableRecord
100
AcDbLinetypeTableRecord
  2
BYLAYER
 70
0
  3

 72
65
 73
0
 40
0.0
  0
LTYPE
  5
16
100
AcDbSymbolTableRecord
100
AcDbLinetypeTableRecord
  2
CONTINUOUS
 70
64
  3
Solid line
 72
65
 73
0
 40
0.0
  0
LTYPE
  5
1F5
100
AcDbSymbolTableRecord
100
AcDbLinetypeTableRecord
  2
CENTER
 70
64
  3
____ _ ____ _ ____ _ ____ _ ____ _ ____ _ ____
 72
65
 73
4
 40
0.6
 49
0.375
 74
0
 49
-0.075
 74
0
 49
0.075
 74
0
 49
-0.075
 74
0
  0
LTYPE
  5
1F6
100
AcDbSymbolTableRecord
100
AcDbLinetypeTableRecord
  2
HIDDEN
 70
64
  3
- - - - - - - - - - - - - - - - - - - -
 72
65
 73
2
 40
0.2
 49
0.1
 74
0
 49
-0.1
 74
0
  0
LTYPE
  5
1F7
100
AcDbSymbolTableRecord
100
AcDbLinetypeTableRecord
  2
PHANTOM
 70
64
  3
_____ _ _ _____ _ _ _____ _ _ _____
 72
65
 73
6
 40
0.8
 49
0.45
 74
0
 49
-0.05
 74
0
 49
0.1
 74
0
 49
-0.05
 74
0
 49
0.1
 74
0
 49
-0.05
 74
0
  0
LTYPE
  5
1F8
100
AcDbSymbolTableRecord
100
AcDbLinetypeTableRecord
  2
DOT
 70
64
  3
. . . . . . . . . . . . . . . . . . . .
 72
65
 73
2
 40
0.2
 49
0.1
 74
0
 49
-0.1
 74
0
  0
LTYPE
  5
1F9
100
AcDbSymbolTableRecord
100
AcDbLinetypeTableRecord
  2
DASHED
 70
64
  3
- - - - - - - - - - - - - - - - - - - -
 72
65
 73
2
 40
0.2
 49
0.1
 74
0
 49
-0.1
 74
0
  0
ENDTAB
  0
TABLE
  2
LAYER
  5
2
100
AcDbSymbolTable
 70
36
  0
LAYER
  5
10
100
AcDbSymbolTableRecord
100
AcDbLayerTableRecord
  2
0
 70
0
 62
7
  6
CONTINUOUS
370
-3
390
F
  0
LAYER
  5
1FA
100
AcDbSymbolTableRecord
100
AcDbLayerTableRecord
  2
DEFAULT_1
 70
0
 62
7
  6
CENTER
370
-3
390
F
  0
LAYER
  5
1FB
100
AcDbSymbolTableRecord
100
AcDbLayerTableRecord
  2
DEFAULT_2
 70
0
 62
7
  6
HIDDEN
370
-3
390
F
  0
LAYER
  5
1FC
100
AcDbSymbolTableRecord
100
AcDbLayerTableRecord
  2
DEFAULT_3
 70
0
 62
7
  6
PHANTOM
370
-3
390
F
  0
LAYER
  5
1FD
100
AcDbSymbolTableRecord
100
AcDbLayerTableRecord
  2
ASSI
 70
0
 62
7
  6
CONTINUOUS
370
-3
390
F
  0
LAYER
  5
1FE
100
AcDbSymbolTableRecord
100
AcDbLayerTableRecord
  2
COORDINATE
 70
0
 62
7
  6
CONTINUOUS
370
-3
390
F
  0
LAYER
  5
1FF
100
AcDbSymbolTableRecord
100
AcDbLayerTableRecord
  2
COORD_ORIGINE
 70
0
 62
7
  6
CONTINUOUS
370
-3
390
F
  0
LAYER
  5
200
100
AcDbSymbolTableRecord
100
AcDbLayerTableRecord
  2
COPY_PUBLISH
 70
0
 62
7
  6
CONTINUOUS
370
-3
390
F
  0
LAYER
  5
201
100
AcDbSymbolTableRecord
100
AcDbLayerTableRecord
  2
COSMETICI
 70
0
 62
7
  6
CONTINUOUS
370
-3
390
F
  0
LAYER
  5
202
100
AcDbSymbolTableRecord
100
AcDbLayerTableRecord
  2
CURVE
 70
0
 62
7
  6
CONTINUOUS
370
-3
390
F
  0
LAYER
  5
203
100
AcDbSymbolTableRecord
100
AcDbLayerTableRecord
  2
DRAFT
 70
0
 62
7
  6
CONTINUOUS
370
-3
390
F
  0
LAYER
  5
204
100
AcDbSymbolTableRecord
100
AcDbLayerTableRecord
  2
IMPORT_IGES
 70
0
 62
7
  6
CONTINUOUS
370
-3
390
F
  0
LAYER
  5
205
100
AcDbSymbolTableRecord
100
AcDbLayerTableRecord
  2
NOTE
 70
0
 62
7
  6
CONTINUOUS
370
-3
390
F
  0
LAYER
  5
206
100
AcDbSymbolTableRecord
100
AcDbLayerTableRecord
  2
PIANI
 70
0
 62
7
  6
CONTINUOUS
370
-3
390
F
  0
LAYER
  5
207
100
AcDbSymbolTableRecord
100
AcDbLayerTableRecord
  2
PIANI_ORIGINE
 70
0
 62
7
  6
CONTINUOUS
370
-3
390
F
  0
LAYER
  5
208
100
AcDbSymbolTableRecord
100
AcDbLayerTableRecord
  2
PIANI_RIFERIMENTO
 70
0
 62
7
  6
CONTINUOUS
370
-3
390
F
  0
LAYER
  5
209
100
AcDbSymbolTableRecord
100
AcDbLayerTableRecord
  2
PUNTI
 70
0
 62
7
  6
CONTINUOUS
370
-3
390
F
  0
LAYER
  5
20A
100
AcDbSymbolTableRecord
100
AcDbLayerTableRecord
  2
RACCORDO
 70
0
 62
7
  6
CONTINUOUS
370
-3
390
F
  0
LAYER
  5
20B
100
AcDbSymbolTableRecord
100
AcDbLayerTableRecord
  2
SIMBOLI
 70
0
 62
7
  6
CONTINUOUS
370
-3
390
F
  0
LAYER
  5
20C
100
AcDbSymbolTableRecord
100
AcDbLayerTableRecord
  2
SMUSSO
 70
0
 62
7
  6
CONTINUOUS
370
-3
390
F
  0
LAYER
  5
20D
100
AcDbSymbolTableRecord
100
AcDbLayerTableRecord
  2
SNAPLINE
 70
0
 62
7
  6
CONTINUOUS
370
-3
390
F
  0
LAYER
  5
20E
100
AcDbSymbolTableRecord
100
AcDbLayerTableRecord
  2
SUPERFICI
 70
0
 62
7
  6
CONTINUOUS
370
-3
390
F
  0
LAYER
  5
20F
100
AcDbSymbolTableRecord
100
AcDbLayerTableRecord
  2
TRASH
 70
0
 62
7
  6
CONTINUOUS
370
-3
390
F
  0
ENDTAB
  0
TABLE
  2
STYLE
  5
3
100
AcDbSymbolTable
 70
1
  0
STYLE
  5
11
100
AcDbSymbolTableRecord
100
AcDbTextStyleTableRecord
  2
STANDARD
 70
0
 40
0.0
 41
0.8
 50
0.0
 71
0
 42
0.2
  3
txt
  4

  0
STYLE
  5
210
100
AcDbSymbolTableRecord
100
AcDbTextStyleTableRecord
  2
TEXTSTYLE_1
 70
0
 40
0.0
 41
0.8
 50
0.0
 71
0
 42
0.2
  3
gdt
  4

  0
ENDTAB
  0
TABLE
  2
VIEW
  5
6
100
AcDbSymbolTable
 70
0
  0
ENDTAB
  0
TABLE
  2
UCS
  5
7
100
AcDbSymbolTable
 70
0
  0
ENDTAB
  0
TABLE
  2
APPID
  5
9
100
AcDbSymbolTable
 70
1
  0
APPID
  5
211
100
AcDbSymbolTableRecord
100
AcDbRegAppTableRecord
  2
ACAD
 70
0
  0
ENDTAB
  0
TABLE
  2
BLOCK_RECORD
  5
1
100
AcDbSymbolTable
 70
0
  0
BLOCK_RECORD
  5
212
100
AcDbSymbolTableRecord
100
AcDbBlockTableRecord
  2
*Model_Space
  0
BLOCK_RECORD
  5
213
100
AcDbSymbolTableRecord
100
AcDbBlockTableRecord
  2
*Paper_Space
  0
BLOCK_RECORD
  5
214
100
AcDbSymbolTableRecord
100
AcDbBlockTableRecord
  2
_FILLED
  0
BLOCK_RECORD
  5
215
100
AcDbSymbolTableRecord
100
AcDbBlockTableRecord
  2
*D0
  0
BLOCK_RECORD
  5
216
100
AcDbSymbolTableRecord
100
AcDbBlockTableRecord
  2
*D1
  0
BLOCK_RECORD
  5
217
100
AcDbSymbolTableRecord
100
AcDbBlockTableRecord
  2
*D2
  0
BLOCK_RECORD
  5
218
100
AcDbSymbolTableRecord
100
AcDbBlockTableRecord
  2
*D3
  0
BLOCK_RECORD
  5
219
100
AcDbSymbolTableRecord
100
AcDbBlockTableRecord
  2
*D4
  0
ENDTAB
  0
TABLE
  2
DIMSTYLE
  5
A
100
AcDbSymbolTable
 70
1
100
AcDbDimStyleTable
 71
0
  0
DIMSTYLE
105
21A
100
AcDbSymbolTableRecord
100
AcDbDimStyleTableRecord
  2
STANDARD
 70
0
  3

  4

 40
1.0
 41
3.0
 42
0.5
 43
0.38
 44
1.5
 45
0.0
 46
0.0
 47
0.01
 48
0.01
140
3.0
141
0.09
142
0.0
143
25.4
144
1.0
145
0.0
146
1.0
147
0.625
 71
1
 72
0
 73
0
 74
0
 75
0
 76
0
 77
1
 78
8
 79
2
170
0
171
1
172
0
173
0
174
0
175
0
176
0
177
0
178
0
270
2
179
2
271
2
272
2
273
2
274
2
275
0
280
0
281
0
282
0
283
1
284
8
285
0
286
0
287
3
288
0
340
11
278
44
341
214
342
214
343
214
344
214
  0
DIMSTYLE
105
21B
100
AcDbSymbolTableRecord
100
AcDbDimStyleTableRecord
  2
DIMSTYLE_1
 70
0
  3

  4

 40
1.0
 41
3.0
 42
0.5
 43
0.38
 44
1.5
 45
0.0
 46
0.0
 47
0.0
 48
0.0
140
3.0
141
0.09
142
0.0
143
25.4
144
1.0
145
0.0
146
1.0
147
0.75
 71
0
 72
0
 73
0
 74
0
 75
0
 76
0
 77
1
 78
8
 79
2
170
0
171
1
172
0
173
0
174
0
175
0
176
0
177
0
178
0
270
2
179
2
271
2
272
2
273
2
274
2
275
0
280
0
281
0
282
0
283
1
284
8
285
0
286
0
287
3
288
0
340
11
278
44
341
214
342
214
343
214
344
214
  0
ENDTAB
  0
ENDSEC
  0
SECTION
  2
BLOCKS
  0
BLOCK
  5
20
100
AcDbEntity
  8
0
100
AcDbBlockBegin
  2
*Model_Space
 70
0
 10
0.0
 20
0.0
 30
0.0
  3
*Model_Space
  1

  0
ENDBLK
  5
21
100
AcDbEntity
  8
0
100
AcDbBlockEnd
  0
BLOCK
  5
1C
100
AcDbEntity
  8
0
100
AcDbBlockBegin
  2
*Paper_Space
 70
0
 10
0.0
 20
0.0
 30
0.0
  3
*Paper_Space
  1

  0
ENDBLK
  5
1D
100
AcDbEntity
  8
0
100
AcDbBlockEnd
  0
BLOCK
  5
21C
100
AcDbEntity
  8
0
100
AcDbBlockBegin
  2
_FILLED
 70
64
 10
0.0
 20
0.0
  3
_FILLED
  1

  0
SOLID
  5
21D
100
AcDbEntity
  8
0
  6
BYBLOCK
 62
0
100
AcDbTrace
 10
0.0
 20
0.0
 11
-1.0
 21
0.3166666667
 12
-1.0
 22
-0.3166666667
 13
-1.0
 23
-0.3166666667
  0
ENDBLK
  5
21E
100
AcDbEntity
  8
0
  6
BYBLOCK
 62
0
100
AcDbBlockEnd
  0
BLOCK
  5
21F
100
AcDbEntity
  8
0
100
AcDbBlockBegin
 62
7
  6
CONTINUOUS
  2
*D0
 70
65
 10
0.0
 20
0.0
  3
*D0
  1

  0
MTEXT
  5
220
100
AcDbEntity
  8
0
100
AcDbMText
 62
7
  6
CONTINUOUS
  7
STANDARD
 71
2
 72
1
 10
60.6613291449
 20
41.7507832898
 30
0.0
 11
1.0
 21
0.0
 31
0.0
 73
2
 44
0.9
  1
{\ftxt;\W0.0001;\H0.0001;\~}{\ftxt;\W2.9285714286;\H3.0; }{\ftxt;\W0.0001;\H0.0001;\~}
 40
3.0
 41
13.1785714286
  0
LINE
  5
221
100
AcDbEntity
  8
0
100
AcDbLine
 62
7
  6
CONTINUOUS
 10
38.2613291449
 20
26.9005544378
 11
38.2613291449
 21
39.5007832898
  0
LINE
  5
222
100
AcDbEntity
  8
0
100
AcDbLine
 62
7
  6
CONTINUOUS
 10
83.0613291449
 20
26.9005544378
 11
83.0613291449
 21
39.5007832898
  0
LINE
  5
223
100
AcDbEntity
  8
0
100
AcDbLine
 62
7
  6
CONTINUOUS
 10
38.2613291449
 20
38.0007832898
 11
60.6613291449
 21
38.0007832898
  0
LINE
  5
224
100
AcDbEntity
  8
0
100
AcDbLine
 62
7
  6
CONTINUOUS
 10
83.0613291449
 20
38.0007832898
 11
60.6613291449
 21
38.0007832898
  0
INSERT
  5
225
100
AcDbEntity
  8
0
100
AcDbBlockReference
 62
7
  6
CONTINUOUS
  2
_FILLED
 10
38.2613291449
 20
38.0007832898
 41
3.0
 42
3.0
 43
3.0
 50
180.0
  0
INSERT
  5
226
100
AcDbEntity
  8
0
100
AcDbBlockReference
 62
7
  6
CONTINUOUS
  2
_FILLED
 10
83.0613291449
 20
38.0007832898
 41
3.0
 42
3.0
 43
3.0
 50
0.0
  0
ENDBLK
  5
227
100
AcDbEntity
  8
0
  6
BYBLOCK
 62
0
100
AcDbBlockEnd
  0
BLOCK
  5
228
100
AcDbEntity
  8
0
100
AcDbBlockBegin
 62
7
  6
CONTINUOUS
  2
*D1
 70
65
 10
0.0
 20
0.0
  3
*D1
  1

  0
MTEXT
  5
229
100
AcDbEntity
  8
0
100
AcDbMText
 62
7
  6
CONTINUOUS
  7
STANDARD
 71
2
 72
1
 10
89.3113291449
 20
4.5007832898
 30
0.0
 11
0.0
 21
1.0
 31
0.0
 73
2
 44
0.9
  1
{\ftxt;\W0.0001;\H0.0001;\~}{\ftxt;\W2.9285714286;\H3.0; }{\ftxt;\W0.0001;\H0.0001;\~}
 40
3.0
 41
13.1785714286
  0
LINE
  5
22A
100
AcDbEntity
  8
0
100
AcDbLine
 62
7
  6
CONTINUOUS
 10
83.0617097446
 20
26.9007832898
 11
94.5613291449
 21
26.9007832898
  0
LINE
  5
22B
100
AcDbEntity
  8
0
100
AcDbLine
 62
7
  6
CONTINUOUS
 10
83.0617097446
 20
-17.8992167102
 11
94.5613291449
 21
-17.8992167102
  0
LINE
  5
22C
100
AcDbEntity
  8
0
100
AcDbLine
 62
7
  6
CONTINUOUS
 10
93.0613291449
 20
26.9007832898
 11
93.0613291449
 21
4.5007832898
  0
LINE
  5
22D
100
AcDbEntity
  8
0
100
AcDbLine
 62
7
  6
CONTINUOUS
 10
93.0613291449
 20
-17.8992167102
 11
93.0613291449
 21
4.5007832898
  0
INSERT
  5
22E
100
AcDbEntity
  8
0
100
AcDbBlockReference
 62
7
  6
CONTINUOUS
  2
_FILLED
 10
93.0613291449
 20
26.9007832898
 41
3.0
 42
3.0
 43
3.0
 50
90.0
  0
INSERT
  5
22F
100
AcDbEntity
  8
0
100
AcDbBlockReference
 62
7
  6
CONTINUOUS
  2
_FILLED
 10
93.0613291449
 20
-17.8992167102
 41
3.0
 42
3.0
 43
3.0
 50
270.0
  0
ENDBLK
  5
230
100
AcDbEntity
  8
0
  6
BYBLOCK
 62
0
100
AcDbBlockEnd
  0
BLOCK
  5
231
100
AcDbEntity
  8
0
100
AcDbBlockBegin
 62
7
  6
CONTINUOUS
  2
*D2
 70
65
 10
0.0
 20
0.0
  3
*D2
  1

  0
MTEXT
  5
232
100
AcDbEntity
  8
0
100
AcDbMText
 62
7
  6
CONTINUOUS
  7
STANDARD
 71
2
 72
1
 10
97.3113291449
 20
4.5007832898
 30
0.0
 11
0.0
 21
1.0
 31
0.0
 73
2
 44
0.9
  1
{\ftxt;\W0.0001;\H0.0001;\~}{\ftxt;\W1.5714285714;\H3.0; }{\ftxt;\W0.0001;\H0.0001;\~}
 40
3.0
 41
7.0714285714
  0
LINE
  5
233
100
AcDbEntity
  8
0
100
AcDbLine
 62
7
  6
CONTINUOUS
 10
76.3846664925
 20
-18.9992167102
 11
102.5613291449
 21
-18.9992167102
  0
LINE
  5
234
100
AcDbEntity
  8
0
100
AcDbLine
 62
7
  6
CONTINUOUS
 10
76.3846664925
 20
28.0007832898
 11
102.5613291449
 21
28.0007832898
  0
LINE
  5
235
100
AcDbEntity
  8
0
100
AcDbLine
 62
7
  6
CONTINUOUS
 10
101.0613291449
 20
-18.9992167102
 11
101.0613291449
 21
4.5007832898
  0
LINE
  5
236
100
AcDbEntity
  8
0
100
AcDbLine
 62
7
  6
CONTINUOUS
 10
101.0613291449
 20
28.0007832898
 11
101.0613291449
 21
4.5007832898
  0
INSERT
  5
237
100
AcDbEntity
  8
0
100
AcDbBlockReference
 62
7
  6
CONTINUOUS
  2
_FILLED
 10
101.0613291449
 20
-18.9992167102
 41
3.0
 42
3.0
 43
3.0
 50
270.0
  0
INSERT
  5
238
100
AcDbEntity
  8
0
100
AcDbBlockReference
 62
7
  6
CONTINUOUS
  2
_FILLED
 10
101.0613291449
 20
28.0007832898
 41
3.0
 42
3.0
 43
3.0
 50
90.0
  0
ENDBLK
  5
239
100
AcDbEntity
  8
0
  6
BYBLOCK
 62
0
100
AcDbBlockEnd
  0
BLOCK
  5
23A
100
AcDbEntity
  8
0
100
AcDbBlockBegin
 62
7
  6
CONTINUOUS
  2
*D3
 70
65
 10
0.0
 20
0.0
  3
*D3
  1

  0
MTEXT
  5
23B
100
AcDbEntity
  8
0
100
AcDbMText
 62
7
  6
CONTINUOUS
  7
STANDARD
 71
2
 72
1
 10
4.9599908622
 20
49.7507832898
 30
0.0
 11
1.0
 21
0.0
 31
0.0
 73
2
 44
0.9
  1
{\ftxt;\W0.0001;\H0.0001;\~}{\ftxt;\W2.6428571429;\H3.0; }{\ftxt;\W0.0001;\H0.0001;\~}
 40
3.0
 41
11.8928571429
  0
LINE
  5
23C
100
AcDbEntity
  8
0
100
AcDbLine
 62
7
  6
CONTINUOUS
 10
14.2099908622
 20
25.0328340974
 11
14.2099908622
 21
47.5007832898
  0
LINE
  5
23D
100
AcDbEntity
  8
0
100
AcDbLine
 62
7
  6
CONTINUOUS
 10
-4.2900091378
 20
5.0007832898
 11
-4.2900091378
 21
47.5007832898
  0
LINE
  5
23E
100
AcDbEntity
  8
0
100
AcDbLine
 62
7
  6
CONTINUOUS
 10
14.2099908622
 20
46.0007832898
 11
4.9599908622
 21
46.0007832898
  0
LINE
  5
23F
100
AcDbEntity
  8
0
100
AcDbLine
 62
7
  6
CONTINUOUS
 10
-4.2900091378
 20
46.0007832898
 11
4.9599908622
 21
46.0007832898
  0
INSERT
  5
240
100
AcDbEntity
  8
0
100
AcDbBlockReference
 62
7
  6
CONTINUOUS
  2
_FILLED
 10
14.2099908622
 20
46.0007832898
 41
3.0
 42
3.0
 43
3.0
 50
0.0
  0
INSERT
  5
241
100
AcDbEntity
  8
0
100
AcDbBlockReference
 62
7
  6
CONTINUOUS
  2
_FILLED
 10
-4.2900091378
 20
46.0007832898
 41
3.0
 42
3.0
 43
3.0
 50
180.0
  0
ENDBLK
  5
242
100
AcDbEntity
  8
0
  6
BYBLOCK
 62
0
100
AcDbBlockEnd
  0
BLOCK
  5
243
100
AcDbEntity
  8
0
100
AcDbBlockBegin
 62
7
  6
CONTINUOUS
  2
*D4
 70
65
 10
0.0
 20
0.0
  3
*D4
  1

  0
MTEXT
  5
244
100
AcDbEntity
  8
0
100
AcDbMText
 62
7
  6
CONTINUOUS
  7
STANDARD
 71
2
 72
1
 10
9.7099908622
 20
41.7507832898
 30
0.0
 11
1.0
 21
0.0
 31
0.0
 73
2
 44
0.9
  1
{\ftxt;\W0.0001;\H0.0001;\~}{\ftxt;\W0.7857142857;\H3.0; }{\ftxt;\W0.0001;\H0.0001;\~}
 40
3.0
 41
3.5357142857
  0
LINE
  5
245
100
AcDbEntity
  8
0
100
AcDbLine
 62
7
  6
CONTINUOUS
 10
5.2099908622
 20
26.9005544378
 11
5.2099908622
 21
39.5007832898
  0
LINE
  5
246
100
AcDbEntity
  8
0
100
AcDbLine
 62
7
  6
CONTINUOUS
 10
14.2099908622
 20
25.0328340974
 11
14.2099908622
 21
39.5007832898
  0
LINE
  5
247
100
AcDbEntity
  8
0
100
AcDbLine
 62
7
  6
CONTINUOUS
 10
5.2099908622
 20
38.0007832898
 11
9.7099908622
 21
38.0007832898
  0
LINE
  5
248
100
AcDbEntity
  8
0
100
AcDbLine
 62
7
  6
CONTINUOUS
 10
14.2099908622
 20
38.0007832898
 11
9.7099908622
 21
38.0007832898
  0
INSERT
  5
249
100
AcDbEntity
  8
0
100
AcDbBlockReference
 62
7
  6
CONTINUOUS
  2
_FILLED
 10
5.2099908622
 20
38.0007832898
 41
3.0
 42
3.0
 43
3.0
 50
180.0
  0
INSERT
  5
24A
100
AcDbEntity
  8
0
100
AcDbBlockReference
 62
7
  6
CONTINUOUS
  2
_FILLED
 10
14.2099908622
 20
38.0007832898
 41
3.0
 42
3.0
 43
3.0
  0
ENDBLK
  5
24B
100
AcDbEntity
  8
0
  6
BYBLOCK
 62
0
100
AcDbBlockEnd
  0
ENDSEC
  0
SECTION
  2
ENTITIES
  0
DIMENSION
  5
24C
100
AcDbEntity
  8
0
100
AcDbDimension
 62
7
  6
CONTINUOUS
  2
*D0
 10
83.0613291449
 20
38.0007832898
 11
60.2327565308
 21
38.0007832898
 70
160
 71
2
 72
2
 41
0.9
 42
44.8
  1
{\ftxt;\W0.0001;\H0.0001;\~}{\ftxt;\W2.9285714286;\H3.0; }{\ftxt;\W0.0001;\H0.0001;\~}
  3
DIMSTYLE_1
100
AcDbAlignedDimension
 13
38.2613291449
 23
26.4005544378
 14
83.0613291449
 24
26.4005544378
100
AcDbRotatedDimension
  0
DIMENSION
  5
24D
100
AcDbEntity
  8
0
100
AcDbDimension
 62
7
  6
CONTINUOUS
  2
*D1
 10
93.0613291449
 20
-17.8992167102
 11
93.0613291449
 21
4.0722132588
 70
160
 71
2
 72
2
 41
0.9
 42
44.8
  1
{\ftxt;\W0.0001;\H0.0001;\~}{\ftxt;\W2.9285714286;\H3.0; }{\ftxt;\W0.0001;\H0.0001;\~}
  3
DIMSTYLE_1
100
AcDbAlignedDimension
 13
82.5617097446
 23
26.9007832898
 14
82.5617097446
 24
-17.8992167102
 50
270.0
100
AcDbRotatedDimension
  0
DIMENSION
  5
24E
100
AcDbEntity
  8
0
100
AcDbDimension
 62
7
  6
CONTINUOUS
  2
*D2
 10
101.0613291449
 20
28.0007832898
 11
101.0613291449
 21
4.0722137841
 70
160
 71
2
 72
2
 41
0.9
 42
47.0
  1
{\ftxt;\W0.0001;\H0.0001;\~}{\ftxt;\W1.5714285714;\H3.0; }{\ftxt;\W0.0001;\H0.0001;\~}
  3
DIMSTYLE_1
100
AcDbAlignedDimension
 13
75.8846664925
 23
-18.9992167102
 14
75.8846664925
 24
28.0007832898
 50
90.0
100
AcDbRotatedDimension
  0
DIMENSION
  5
24F
100
AcDbEntity
  8
0
100
AcDbDimension
 62
7
  6
CONTINUOUS
  2
*D3
 10
-4.2900091378
 20
46.0007832898
 11
4.5314193095
 21
46.0007832898
 70
160
 71
2
 72
2
 41
0.9
 42
18.5
  1
{\ftxt;\W0.0001;\H0.0001;\~}{\ftxt;\W2.6428571429;\H3.0; }{\ftxt;\W0.0001;\H0.0001;\~}
  3
DIMSTYLE_1
100
AcDbAlignedDimension
 13
14.2099908622
 23
24.5328340974
 14
-4.2900091378
 24
4.5007832898
 50
180.0
100
AcDbRotatedDimension
  0
DIMENSION
  5
250
100
AcDbEntity
  8
0
100
AcDbDimension
 62
7
  6
CONTINUOUS
  2
*D4
 10
14.2099908622
 20
38.0007832898
 11
9.2814193783
 21
38.0007832898
 70
160
 71
2
 72
2
 41
0.9
 42
9.0
  1
{\ftxt;\W0.0001;\H0.0001;\~}{\ftxt;\W0.7857142857;\H3.0; }{\ftxt;\W0.0001;\H0.0001;\~}
  3
DIMSTYLE_1
100
AcDbAlignedDimension
 13
5.2099908622
 23
26.4005544378
 14
14.2099908622
 24
24.5328340974
100
AcDbRotatedDimension
  0
LWPOLYLINE
  5
251
100
AcDbEntity
  8
ASSI
100
AcDbPolyline
 62
250
  6
CONTINUOUS
 90
15
 70
0
 10
38.4108702348
 20
25.4980792065
 10
38.4121988465
 20
25.4992879338
 10
38.4151773044
 20
25.5004926615
 10
38.4197957541
 20
25.5016894032
 10
38.4260389151
 20
25.502874199
 10
38.4338861298
 20
25.5040431283
 10
38.4433114295
 20
25.5051923227
 10
38.4542836255
 20
25.5063179795
 10
38.4667664106
 20
25.5074163739
 10
38.4807184751
 20
25.5084838712
 10
38.4960936496
 20
25.5095169389
 10
38.5128410569
 20
25.5105121586
 10
38.5309052747
 20
25.5114662372
 10
38.5502265258
 20
25.5123760176
 10
38.5707408753
 20
25.5132384894
  0
LWPOLYLINE
  5
252
100
AcDbEntity
  8
ASSI
100
AcDbPolyline
 62
250
  6
CONTINUOUS
 90
17
 70
0
 10
38.4108702348
 20
-16.4965126269
 10
38.4121986591
 20
-16.4977213577
 10
38.4151769161
 20
-16.49892609
 10
38.419795155
 20
-16.5001228371
 10
38.4260380987
 20
-16.5013076393
 10
38.4338850932
 20
-16.5024765758
 10
38.4433101749
 20
-16.5036257785
 10
38.4542821595
 20
-16.5047514446
 10
38.4667647438
 20
-16.5058498493
 10
38.480716623
 20
-16.5069173576
 10
38.4960916324
 20
-16.5079504373
 10
38.512838898
 20
-16.5089456697
 10
38.5309030016
 20
-16.5098997615
 10
38.5502241695
 20
-16.5108095555
 10
38.5707384694
 20
-16.5116720411
 10
38.5923780173
 20
-16.5124843642
 10
38.6387429501
 20
-16.5139479461
  0
LINE
  5
253
100
AcDbEntity
  8
RACCORDO
100
AcDbLine
 62
7
  6
CONTINUOUS
 10
46.4322794223
 20
26.9007832898
 11
46.6212399462
 21
27.0157231986
  0
LINE
  5
254
100
AcDbEntity
  8
RACCORDO
100
AcDbLine
 62
7
  6
CONTINUOUS
 10
46.6212399462
 20
-18.014156619
 11
46.4322794223
 21
-17.8992167102
  0
LWPOLYLINE
  5
255
100
AcDbEntity
  8
RACCORDO
100
AcDbPolyline
 62
250
  6
CONTINUOUS
 90
5
 70
0
 10
68.949301729
 20
-18.9562510196
 10
68.9610398696
 20
-18.9535273352
 10
68.9854746467
 20
-18.9453390699
 10
69.0086470822
 20
-18.9340519929
 10
69.0301694391
 20
-18.9198549672
  0
LINE
  5
256
100
AcDbEntity
  8
RACCORDO
100
AcDbLine
 62
7
  6
CONTINUOUS
 10
68.949301729
 20
-18.9562510196
 11
68.7534757972
 21
-18.9953207531
  0
LINE
  5
257
100
AcDbEntity
  8
RACCORDO
100
AcDbLine
 62
250
  6
CONTINUOUS
 10
69.1092418353
 20
-18.7639380615
 11
68.9150723777
 21
-18.8026772576
  0
LINE
  5
258
100
AcDbEntity
  8
RACCORDO
100
AcDbLine
 62
7
  6
CONTINUOUS
 10
68.9400181955
 20
-18.9581032492
 11
68.9417390357
 21
-18.9580036364
  0
LINE
  5
259
100
AcDbEntity
  8
RACCORDO
100
AcDbLine
 62
7
  6
CONTINUOUS
 10
68.9417390357
 20
-18.9580036364
 11
68.9478992513
 21
-18.9576890178
  0
LINE
  5
25A
100
AcDbEntity
  8
RACCORDO
100
AcDbLine
 62
7
  6
CONTINUOUS
 10
68.9478992513
 20
-18.9576890178
 11
68.9556068304
 21
-18.9573470386
  0
LINE
  5
25B
100
AcDbEntity
  8
RACCORDO
100
AcDbLine
 62
7
  6
CONTINUOUS
 10
68.9556068304
 20
-18.9573470386
 11
68.9647405206
 21
-18.9569925246
  0
LWPOLYLINE
  5
25C
100
AcDbEntity
  8
RACCORDO
100
AcDbPolyline
 62
250
  6
CONTINUOUS
 90
3
 70
0
 10
69.1180928425
 20
-18.7635471869
 10
69.1126233894
 20
-18.7637503765
 10
69.1092418386
 20
-18.7639378519
  0
LINE
  5
25D
100
AcDbEntity
  8
RACCORDO
100
AcDbLine
 62
7
  6
CONTINUOUS
 10
68.9647405206
 20
-18.9569925246
 11
68.9810272713
 21
-18.9564540264
  0
LINE
  5
25E
100
AcDbEntity
  8
RACCORDO
100
AcDbLine
 62
7
  6
CONTINUOUS
 10
68.9810272713
 20
-18.9564540264
 11
69.0075299859
 21
-18.9557375121
  0
LINE
  5
25F
100
AcDbEntity
  8
RACCORDO
100
AcDbLine
 62
7
  6
CONTINUOUS
 10
69.0075299859
 20
-18.9557375121
 11
69.0392347843
 21
-18.9550483827
  0
LINE
  5
260
100
AcDbEntity
  8
RACCORDO
100
AcDbLine
 62
7
  6
CONTINUOUS
 10
69.0392347843
 20
-18.9550483827
 11
69.0963194443
 21
-18.954099618
  0
LINE
  5
261
100
AcDbEntity
  8
RACCORDO
100
AcDbLine
 62
7
  6
CONTINUOUS
 10
69.0963194443
 20
-18.954099618
 11
69.1760455443
 21
-18.953184289
  0
LINE
  5
262
100
AcDbEntity
  8
RACCORDO
100
AcDbLine
 62
7
  6
CONTINUOUS
 10
69.1760455443
 20
-18.953184289
 11
69.2139789073
 21
-18.9528674416
  0
LINE
  5
263
100
AcDbEntity
  8
RACCORDO
100
AcDbLine
 62
7
  6
CONTINUOUS
 10
52.1136622122
 20
-18.9529063539
 11
52.2066158412
 21
-18.9538349858
  0
LINE
  5
264
100
AcDbEntity
  8
RACCORDO
100
AcDbLine
 62
7
  6
CONTINUOUS
 10
52.2066158412
 20
-18.9538349858
 11
52.2708701213
 21
-18.9548121015
  0
LINE
  5
265
100
AcDbEntity
  8
RACCORDO
100
AcDbLine
 62
7
  6
CONTINUOUS
 10
52.2708701213
 20
-18.9548121015
 11
52.3029562203
 21
-18.9554540451
  0
LINE
  5
266
100
AcDbEntity
  8
RACCORDO
100
AcDbLine
 62
7
  6
CONTINUOUS
 10
52.3029562203
 20
-18.9554540451
 11
52.3301219409
 21
-18.9561238447
  0
LINE
  5
267
100
AcDbEntity
  8
RACCORDO
100
AcDbLine
 62
7
  6
CONTINUOUS
 10
52.3301219409
 20
-18.9561238447
 11
52.3454174249
 21
-18.9565694957
  0
LINE
  5
268
100
AcDbEntity
  8
RACCORDO
100
AcDbLine
 62
7
  6
CONTINUOUS
 10
52.3454174249
 20
-18.9565694957
 11
52.3584423582
 21
-18.9570103121
  0
LINE
  5
269
100
AcDbEntity
  8
RACCORDO
100
AcDbLine
 62
7
  6
CONTINUOUS
 10
52.3584423582
 20
-18.9570103121
 11
52.3692101659
 21
-18.9574375233
  0
LWPOLYLINE
  5
26A
100
AcDbEntity
  8
RACCORDO
100
AcDbPolyline
 62
7
  6
CONTINUOUS
 90
3
 70
0
 10
52.3692101659
 20
-18.9574375233
 10
52.3777845183
 20
-18.9578379654
 10
52.3811064284
 20
-18.9580148112
  0
LWPOLYLINE
  5
26B
100
AcDbEntity
  8
RACCORDO
100
AcDbPolyline
 62
250
  6
CONTINUOUS
 90
6
 70
0
 10
52.2134164507
 20
-18.7639378225
 10
52.2101620748
 20
-18.763763865
 10
52.2048026169
 20
-18.7635613687
 10
52.1973674201
 20
-18.7633360628
 10
52.1878611198
 20
-18.7630936696
 10
52.1631258354
 20
-18.7625754725
  0
LINE
  5
26C
100
AcDbEntity
  8
RACCORDO
100
AcDbLine
 62
7
  6
CONTINUOUS
 10
52.5691824926
 20
-18.9953207531
 11
52.3734940315
 21
-18.9562784972
  0
LINE
  5
26D
100
AcDbEntity
  8
RACCORDO
100
AcDbLine
 62
250
  6
CONTINUOUS
 10
52.4075859121
 20
-18.8026772576
 11
52.2134164545
 21
-18.7639380615
  0
LWPOLYLINE
  5
26E
100
AcDbEntity
  8
RACCORDO
100
AcDbPolyline
 62
250
  6
CONTINUOUS
 90
5
 70
0
 10
52.3734627787
 20
-18.9562722592
 10
52.3616170102
 20
-18.9535269626
 10
52.337181849
 20
-18.945338336
 10
52.3140092591
 20
-18.9340508819
 10
52.2924869519
 20
-18.9198535297
  0
LWPOLYLINE
  5
26F
100
AcDbEntity
  8
ASSI
100
AcDbPolyline
 62
250
  6
CONTINUOUS
 90
8
 70
0
 10
38.405819669
 20
25.930705402
 10
38.4053794554
 20
25.9415804475
 10
38.4049298923
 20
25.9510158927
 10
38.4044712275
 20
25.9590387677
 10
38.4040090637
 20
25.9655918993
 10
38.4035452684
 20
25.9706562296
 10
38.403077974
 20
25.9742508164
 10
38.4026071806
 20
25.9763756596
  0
LINE
  5
270
100
AcDbEntity
  8
ASSI
100
AcDbLine
 62
250
  6
CONTINUOUS
 10
38.4066679322
 20
25.9048558642
 11
38.405819669
 21
25.930705402
  0
LWPOLYLINE
  5
271
100
AcDbEntity
  8
ASSI
100
AcDbPolyline
 62
250
  6
CONTINUOUS
 90
28
 70
0
 10
38.4026071806
 20
-16.97480908
 10
38.4034784776
 20
-17.0038240108
 10
38.4060363682
 20
-17.0327409894
 10
38.4102722263
 20
-17.0614622866
 10
38.4161717564
 20
-17.0898908394
 10
38.4237150373
 20
-17.1179305591
 10
38.4328765864
 20
-17.1454866564
 10
38.443625455
 20
-17.1724659969
 10
38.4559253287
 20
-17.1987773916
 10
38.4697346387
 20
-17.2243318878
 10
38.4850067232
 20
-17.2490431138
 10
38.5016899749
 20
-17.272827545
 10
38.5197279987
 20
-17.2956047676
 10
38.5390598321
 20
-17.3172977935
 10
38.5596201443
 20
-17.3378333038
 10
38.5813394361
 20
-17.3571418775
 10
38.6041442997
 20
-17.3751582512
 10
38.6279576635
 20
-17.3918215337
 10
38.6526990388
 20
-17.4070754007
 10
38.6782848065
 20
-17.4208682964
 10
38.7046284912
 20
-17.4331536014
 10
38.731641047
 20
-17.4438897887
 10
38.7592311777
 20
-17.4530405727
 10
38.7873056327
 20
-17.4605750253
 10
38.8157695121
 20
-17.4664676794
 10
38.8445266084
 20
-17.4706986212
 10
38.8734797324
 20
-17.4732535546
 10
38.9025310283
 20
-17.4741238472
  0
LINE
  5
272
100
AcDbEntity
  8
ASSI
100
AcDbLine
 62
250
  6
CONTINUOUS
 10
38.4074592983
 20
25.8739059087
 11
38.4066679322
 21
25.9048558642
  0
LINE
  5
273
100
AcDbEntity
  8
ASSI
100
AcDbLine
 62
250
  6
CONTINUOUS
 10
38.4085215823
 20
25.8187712321
 11
38.4074592983
 21
25.8739059087
  0
LINE
  5
274
100
AcDbEntity
  8
ASSI
100
AcDbLine
 62
250
  6
CONTINUOUS
 10
38.9069585112
 20
26.3058337241
 11
38.905840142
 21
26.3791576999
  0
LINE
  5
275
100
AcDbEntity
  8
ASSI
100
AcDbLine
 62
250
  6
CONTINUOUS
 10
38.409412261
 20
25.754381629
 11
38.4085215823
 21
25.8187712321
  0
LINE
  5
276
100
AcDbEntity
  8
ASSI
100
AcDbLine
 62
250
  6
CONTINUOUS
 10
38.9085727065
 20
26.1445040369
 11
38.9069585112
 21
26.3058337241
  0
LINE
  5
277
100
AcDbEntity
  8
ASSI
100
AcDbLine
 62
250
  6
CONTINUOUS
 10
38.4102928838
 20
25.6570398359
 11
38.409412261
 21
25.754381629
  0
LINE
  5
278
100
AcDbEntity
  8
ASSI
100
AcDbLine
 62
250
  6
CONTINUOUS
 10
38.9103110682
 20
25.8076993156
 11
38.9085727065
 21
26.1445040369
  0
LINE
  5
279
100
AcDbEntity
  8
ASSI
100
AcDbLine
 62
250
  6
CONTINUOUS
 10
38.4108380025
 20
25.5250460941
 11
38.4102928838
 21
25.6570398359
  0
LINE
  5
27A
100
AcDbEntity
  8
ASSI
100
AcDbLine
 62
7
  6
CONTINUOUS
 10
38.2613291449
 20
-17.3989878581
 11
38.2613291449
 21
26.4005544378
  0
LINE
  5
27B
100
AcDbEntity
  8
ASSI
100
AcDbLine
 62
250
  6
CONTINUOUS
 10
38.4127879793
 20
-13.6985598562
 11
38.4108380025
 21
25.5250460941
  0
LINE
  5
27C
100
AcDbEntity
  8
ASSI
100
AcDbLine
 62
250
  6
CONTINUOUS
 10
38.9127120631
 20
-13.7164245751
 11
38.9103110682
 21
25.8076993156
  0
LINE
  5
27D
100
AcDbEntity
  8
ASSI
100
AcDbLine
 62
250
  6
CONTINUOUS
 10
38.410587423
 20
-16.6033475595
 11
38.4127879793
 21
-13.6985598562
  0
LINE
  5
27E
100
AcDbEntity
  8
ASSI
100
AcDbLine
 62
250
  6
CONTINUOUS
 10
38.9095871255
 20
-16.9843492686
 11
38.9127120631
 21
-13.7164245751
  0
LINE
  5
27F
100
AcDbEntity
  8
ASSI
100
AcDbLine
 62
250
  6
CONTINUOUS
 10
38.4098986639
 20
-16.7055751254
 11
38.410587423
 21
-16.6033475595
  0
LINE
  5
280
100
AcDbEntity
  8
ASSI
100
AcDbLine
 62
250
  6
CONTINUOUS
 10
38.9079693224
 20
-17.2129025017
 11
38.9095871255
 21
-16.9843492686
  0
LINE
  5
281
100
AcDbEntity
  8
ASSI
100
AcDbLine
 62
250
  6
CONTINUOUS
 10
38.4088384421
 20
-16.7967212944
 11
38.4098986639
 21
-16.7055751254
  0
LINE
  5
282
100
AcDbEntity
  8
ASSI
100
AcDbLine
 62
250
  6
CONTINUOUS
 10
38.906595374
 20
-17.3308012902
 11
38.9079693224
 21
-17.2129025017
  0
LINE
  5
283
100
AcDbEntity
  8
ASSI
100
AcDbLine
 62
250
  6
CONTINUOUS
 10
38.9058401421
 20
-17.3775911212
 11
38.906595374
 21
-17.3308012902
  0
LINE
  5
284
100
AcDbEntity
  8
ASSI
100
AcDbLine
 62
250
  6
CONTINUOUS
 10
38.4078307622
 20
-16.8550959357
 11
38.4088384421
 21
-16.7967212944
  0
LINE
  5
285
100
AcDbEntity
  8
ASSI
100
AcDbLine
 62
250
  6
CONTINUOUS
 10
38.4070705958
 20
-16.8884514532
 11
38.4078307622
 21
-16.8550959357
  0
LWPOLYLINE
  5
286
100
AcDbEntity
  8
ASSI
100
AcDbPolyline
 62
250
  6
CONTINUOUS
 90
28
 70
0
 10
38.4026071806
 20
25.9763756596
 10
38.4034784777
 20
26.0053905899
 10
38.4060363685
 20
26.034307568
 10
38.4102722267
 20
26.0630288647
 10
38.4161717568
 20
26.0914574172
 10
38.4237150378
 20
26.1194971366
 10
38.4328765869
 20
26.1470532336
 10
38.4436254556
 20
26.1740325739
 10
38.4559253294
 20
26.2003439684
 10
38.4697346394
 20
26.2258984645
 10
38.485006724
 20
26.2506096904
 10
38.5016899757
 20
26.2743941216
 10
38.5197279995
 20
26.2971713442
 10
38.539059833
 20
26.31886437
 10
38.5596201452
 20
26.3393998804
 10
38.581339437
 20
26.3587084541
 10
38.6041443006
 20
26.376724828
 10
38.6279576644
 20
26.3933881106
 10
38.6526990396
 20
26.4086419777
 10
38.6782848072
 20
26.4224348736
 10
38.7046284918
 20
26.4347201788
 10
38.7316410476
 20
26.4454563664
 10
38.7592311782
 20
26.4546071506
 10
38.7873056331
 20
26.4621416035
 10
38.8157695124
 20
26.468034258
 10
38.8445266086
 20
26.4722652002
 10
38.8734797325
 20
26.474820134
 10
38.9025310282
 20
26.475690427
  0
LWPOLYLINE
  5
287
100
AcDbEntity
  8
RACCORDO
100
AcDbPolyline
 62
250
  6
CONTINUOUS
 90
8
 70
0
 10
52.2924888507
 20
27.9214215469
 10
52.2729766993
 20
27.904552127
 10
52.2558012443
 20
27.8852925838
 10
52.2412498771
 20
27.863965181
 10
52.2295660813
 20
27.8409267836
 10
52.2209453582
 20
27.8165628858
 10
52.2155319557
 20
27.7912811613
 10
52.2134164545
 20
27.7655046411
  0
LINE
  5
288
100
AcDbEntity
  8
RACCORDO
100
AcDbLine
 62
7
  6
CONTINUOUS
 10
46.4400181955
 20
-18.9581032492
 11
46.4417390357
 21
-18.9580036364
  0
LINE
  5
289
100
AcDbEntity
  8
RACCORDO
100
AcDbLine
 62
7
  6
CONTINUOUS
 10
46.4417390357
 20
-18.9580036364
 11
46.4478992513
 21
-18.9576890178
  0
LINE
  5
28A
100
AcDbEntity
  8
RACCORDO
100
AcDbLine
 62
7
  6
CONTINUOUS
 10
46.4478992513
 20
-18.9576890178
 11
46.4556068304
 21
-18.9573470386
  0
LWPOLYLINE
  5
28B
100
AcDbEntity
  8
ASSI
100
AcDbPolyline
 62
250
  6
CONTINUOUS
 90
15
 70
0
 10
82.7519212054
 20
-16.5116719868
 10
82.7724355092
 20
-16.5108094944
 10
82.7917566525
 20
-16.5098996941
 10
82.8098207063
 20
-16.5089455967
 10
82.8265678988
 20
-16.5079503595
 10
82.8419428067
 20
-16.5069172765
 10
82.8558945619
 20
-16.5058497665
 10
82.8683770058
 20
-16.504751362
 10
82.8793488346
 20
-16.5036256986
 10
82.8887737545
 20
-16.5024765013
 10
82.8966205909
 20
-16.5013075728
 10
82.9028633869
 20
-16.5001227822
 10
82.9074815009
 20
-16.4989260501
 10
82.9104596696
 20
-16.4977213362
 10
82.911788055
 20
-16.4965126269
  0
LINE
  5
28C
100
AcDbEntity
  8
RACCORDO
100
AcDbLine
 62
7
  6
CONTINUOUS
 10
46.4556068304
 20
-18.9573470386
 11
46.4647405206
 21
-18.9569925246
  0
LWPOLYLINE
  5
28D
100
AcDbEntity
  8
RACCORDO
100
AcDbPolyline
 62
250
  6
CONTINUOUS
 90
3
 70
0
 10
46.6180928425
 20
-18.7635471869
 10
46.6126233894
 20
-18.7637503765
 10
46.6092418386
 20
-18.7639378519
  0
LINE
  5
28E
100
AcDbEntity
  8
ASSI
100
AcDbLine
 62
250
  6
CONTINUOUS
 10
82.7075883938
 20
-16.5132437964
 11
82.7519212054
 21
-16.5116719868
  0
LINE
  5
28F
100
AcDbEntity
  8
RACCORDO
100
AcDbLine
 62
7
  6
CONTINUOUS
 10
46.4647405206
 20
-18.9569925246
 11
46.4810272713
 21
-18.9564540264
  0
LWPOLYLINE
  5
290
100
AcDbEntity
  8
ASSI
100
AcDbPolyline
 62
250
  6
CONTINUOUS
 90
28
 70
0
 10
82.4201272616
 20
-17.4741238474
 10
82.4491785131
 20
-17.4732535573
 10
82.4781315895
 20
-17.470698632
 10
82.5068886354
 20
-17.4664677044
 10
82.5353524613
 20
-17.4605750716
 10
82.5634268615
 20
-17.4530406475
 10
82.5910169397
 20
-17.4438898987
 10
82.6180294465
 20
-17.4331537529
 10
82.6443730857
 20
-17.4208684956
 10
82.6699588142
 20
-17.4070756523
 10
82.6947001574
 20
-17.3918218414
 10
82.7185134959
 20
-17.3751586183
 10
82.7413183425
 20
-17.3571423054
 10
82.7630376249
 20
-17.3378337939
 10
82.7835979357
 20
-17.3172983454
 10
82.8029297786
 20
-17.295605377
 10
82.820967821
 20
-17.2728282068
 10
82.8376511001
 20
-17.2490438211
 10
82.8529232234
 20
-17.2243326265
 10
82.8667325811
 20
-17.1987781459
 10
82.8790325089
 20
-17.1724667499
 10
82.8897814374
 20
-17.1454873845
 10
82.8989430485
 20
-17.1179312374
 10
82.9064863897
 20
-17.0898914429
 10
82.912385975
 20
-17.0614627848
 10
82.916621879
 20
-17.0327413505
 10
82.9191798007
 20
-17.0038242055
 10
82.9200511092
 20
-16.97480908
  0
LINE
  5
291
100
AcDbEntity
  8
ASSI
100
AcDbLine
 62
250
  6
CONTINUOUS
 10
82.6593445322
 20
-16.5145943342
 11
82.7075883938
 21
-16.5132437964
  0
LINE
  5
292
100
AcDbEntity
  8
RACCORDO
100
AcDbLine
 62
250
  6
CONTINUOUS
 10
69.1345716291
 20
-18.763103951
 11
69.1180928425
 21
-18.7635471869
  0
LINE
  5
293
100
AcDbEntity
  8
RACCORDO
100
AcDbLine
 62
7
  6
CONTINUOUS
 10
46.4810272713
 20
-18.9564540264
 11
46.5075299859
 21
-18.9557375121
  0
LINE
  5
294
100
AcDbEntity
  8
RACCORDO
100
AcDbLine
 62
250
  6
CONTINUOUS
 10
46.6345716291
 20
-18.763103951
 11
46.6180928425
 21
-18.7635471869
  0
LINE
  5
295
100
AcDbEntity
  8
RACCORDO
100
AcDbLine
 62
7
  6
CONTINUOUS
 10
46.5075299859
 20
-18.9557375121
 11
46.5392347843
 21
-18.9550483827
  0
LINE
  5
296
100
AcDbEntity
  8
RACCORDO
100
AcDbLine
 62
250
  6
CONTINUOUS
 10
69.1711013675
 20
-18.762361288
 11
69.1345716291
 21
-18.763103951
  0
LINE
  5
297
100
AcDbEntity
  8
RACCORDO
100
AcDbLine
 62
250
  6
CONTINUOUS
 10
46.6711013675
 20
-18.762361288
 11
46.6345716291
 21
-18.763103951
  0
LWPOLYLINE
  5
298
100
AcDbEntity
  8
ASSI
100
AcDbPolyline
 62
250
  6
CONTINUOUS
 90
3
 70
0
 10
82.5810533325
 20
-16.5161670417
 10
82.6078276684
 20
-16.5157057378
 10
82.6593445322
 20
-16.5145943342
  0
LINE
  5
299
100
AcDbEntity
  8
RACCORDO
100
AcDbLine
 62
7
  6
CONTINUOUS
 10
46.5392347843
 20
-18.9550483827
 11
46.5963194443
 21
-18.954099618
  0
LINE
  5
29A
100
AcDbEntity
  8
RACCORDO
100
AcDbLine
 62
250
  6
CONTINUOUS
 10
69.2849054179
 20
-18.7606226112
 11
69.1711013675
 21
-18.762361288
  0
LINE
  5
29B
100
AcDbEntity
  8
RACCORDO
100
AcDbLine
 62
250
  6
CONTINUOUS
 10
46.7849054179
 20
-18.7606226112
 11
46.6711013675
 21
-18.762361288
  0
LINE
  5
29C
100
AcDbEntity
  8
RACCORDO
100
AcDbLine
 62
250
  6
CONTINUOUS
 10
69.4080550766
 20
-18.7591590827
 11
69.2849054179
 21
-18.7606226112
  0
LINE
  5
29D
100
AcDbEntity
  8
RACCORDO
100
AcDbLine
 62
250
  6
CONTINUOUS
 10
46.9080550766
 20
-18.7591590827
 11
46.7849054179
 21
-18.7606226112
  0
LINE
  5
29E
100
AcDbEntity
  8
RACCORDO
100
AcDbLine
 62
7
  6
CONTINUOUS
 10
46.5963194443
 20
-18.954099618
 11
46.6760455443
 21
-18.953184289
  0
LINE
  5
29F
100
AcDbEntity
  8
RACCORDO
100
AcDbLine
 62
7
  6
CONTINUOUS
 10
46.6760455443
 20
-18.953184289
 11
46.7814261571
 21
-18.9524662181
  0
LINE
  5
2A0
100
AcDbEntity
  8
RACCORDO
100
AcDbLine
 62
7
  6
CONTINUOUS
 10
69.2139789073
 20
-18.9528674416
 11
69.3384994088
 21
-18.9522564501
  0
LINE
  5
2A1
100
AcDbEntity
  8
RACCORDO
100
AcDbLine
 62
7
  6
CONTINUOUS
 10
46.7814261571
 20
-18.9524662181
 11
46.897489005
 21
-18.9521804258
  0
LINE
  5
2A2
100
AcDbEntity
  8
RACCORDO
100
AcDbLine
 62
7
  6
CONTINUOUS
 10
75.8846664925
 20
-18.9992167102
 11
75.1086191181
 21
-18.9992167102
  0
LINE
  5
2A3
100
AcDbEntity
  8
RACCORDO
100
AcDbLine
 62
7
  6
CONTINUOUS
 10
68.7140391717
 20
-18.9992167102
 11
67.9379917973
 21
-18.9992167102
  0
LINE
  5
2A4
100
AcDbEntity
  8
RACCORDO
100
AcDbLine
 62
7
  6
CONTINUOUS
 10
53.3846664925
 20
-18.9992167102
 11
52.6086191181
 21
-18.9992167102
  0
LINE
  5
2A5
100
AcDbEntity
  8
RACCORDO
100
AcDbLine
 62
7
  6
CONTINUOUS
 10
46.2140391717
 20
-18.9992167102
 11
45.4379917973
 21
-18.9992167102
  0
LINE
  5
2A6
100
AcDbEntity
  8
RACCORDO
100
AcDbLine
 62
250
  6
CONTINUOUS
 10
74.414603217
 20
-18.7591593218
 11
69.4080550728
 21
-18.7591593218
  0
LINE
  5
2A7
100
AcDbEntity
  8
RACCORDO
100
AcDbLine
 62
250
  6
CONTINUOUS
 10
51.914603217
 20
-18.7591593218
 11
46.9080550728
 21
-18.7591593218
  0
LINE
  5
2A8
100
AcDbEntity
  8
RACCORDO
100
AcDbLine
 62
7
  6
CONTINUOUS
 10
46.9197465557
 20
-18.0285395649
 11
51.9029117341
 21
-18.0285395649
  0
LINE
  5
2A9
100
AcDbEntity
  8
RACCORDO
100
AcDbLine
 62
7
  6
CONTINUOUS
 10
69.4197465557
 20
-18.0285395649
 11
74.4029117341
 21
-18.0285395649
  0
LINE
  5
2AA
100
AcDbEntity
  8
DRAFT
100
AcDbLine
 62
7
  6
CONTINUOUS
 10
38.7609485452
 20
-17.8992167102
 11
46.4322794223
 21
-17.8992167102
  0
LINE
  5
2AB
100
AcDbEntity
  8
DRAFT
100
AcDbLine
 62
7
  6
CONTINUOUS
 10
52.3903788675
 20
-17.8992167102
 11
68.9322794223
 21
-17.8992167102
  0
LINE
  5
2AC
100
AcDbEntity
  8
DRAFT
100
AcDbLine
 62
7
  6
CONTINUOUS
 10
74.8903788675
 20
-17.8992167102
 11
82.5617097446
 21
-17.8992167102
  0
LINE
  5
2AD
100
AcDbEntity
  8
ASSI
100
AcDbLine
 62
250
  6
CONTINUOUS
 10
82.4201272616
 20
-17.4741238474
 11
38.9025310282
 21
-17.4741238474
  0
LINE
  5
2AE
100
AcDbEntity
  8
RACCORDO
100
AcDbLine
 62
7
  6
CONTINUOUS
 10
69.3384994088
 20
-18.9522564501
 11
74.4306752164
 21
-18.9521820719
  0
LINE
  5
2AF
100
AcDbEntity
  8
RACCORDO
100
AcDbLine
 62
7
  6
CONTINUOUS
 10
46.897489005
 20
-18.9521804258
 11
52.0254661566
 21
-18.9523954463
  0
LINE
  5
2B0
100
AcDbEntity
  8
RACCORDO
100
AcDbLine
 62
7
  6
CONTINUOUS
 10
74.4306752164
 20
-18.9521820719
 11
74.5437466862
 21
-18.9524781713
  0
LINE
  5
2B1
100
AcDbEntity
  8
RACCORDO
100
AcDbLine
 62
7
  6
CONTINUOUS
 10
52.0254661566
 20
-18.9523954463
 11
52.1136622122
 21
-18.9529063539
  0
LINE
  5
2B2
100
AcDbEntity
  8
RACCORDO
100
AcDbLine
 62
7
  6
CONTINUOUS
 10
74.5437466862
 20
-18.9524781713
 11
74.6463881954
 21
-18.9531822791
  0
LINE
  5
2B3
100
AcDbEntity
  8
RACCORDO
100
AcDbLine
 62
7
  6
CONTINUOUS
 10
74.6463881954
 20
-18.9531822791
 11
74.7204928501
 21
-18.9540195083
  0
LINE
  5
2B4
100
AcDbEntity
  8
RACCORDO
100
AcDbLine
 62
250
  6
CONTINUOUS
 10
52.0963372772
 20
-18.7614555512
 11
51.9146032137
 21
-18.7591591122
  0
LINE
  5
2B5
100
AcDbEntity
  8
RACCORDO
100
AcDbLine
 62
250
  6
CONTINUOUS
 10
74.5963372772
 20
-18.7614555512
 11
74.4146032137
 21
-18.7591591122
  0
LINE
  5
2B6
100
AcDbEntity
  8
RACCORDO
100
AcDbLine
 62
250
  6
CONTINUOUS
 10
52.1631258354
 20
-18.7625754725
 11
52.0963372772
 21
-18.7614555512
  0
LINE
  5
2B7
100
AcDbEntity
  8
RACCORDO
100
AcDbLine
 62
7
  6
CONTINUOUS
 10
74.7204928501
 20
-18.9540195083
 11
74.7821145493
 21
-18.9550213832
  0
LINE
  5
2B8
100
AcDbEntity
  8
RACCORDO
100
AcDbLine
 62
250
  6
CONTINUOUS
 10
74.6631258354
 20
-18.7625754725
 11
74.5963372772
 21
-18.7614555512
  0
LINE
  5
2B9
100
AcDbEntity
  8
ASSI
100
AcDbLine
 62
250
  6
CONTINUOUS
 10
38.6887057862
 20
-16.5151809447
 11
38.7416057608
 21
-16.5161670534
  0
LINE
  5
2BA
100
AcDbEntity
  8
RACCORDO
100
AcDbLine
 62
7
  6
CONTINUOUS
 10
74.7821145493
 20
-18.9550213832
 11
74.8125650226
 21
-18.9556761394
  0
LINE
  5
2BB
100
AcDbEntity
  8
ASSI
100
AcDbLine
 62
250
  6
CONTINUOUS
 10
38.6387429501
 20
-16.5139479461
 11
38.6887057862
 21
-16.5151809447
  0
LINE
  5
2BC
100
AcDbEntity
  8
RACCORDO
100
AcDbLine
 62
7
  6
CONTINUOUS
 10
74.8125650226
 20
-18.9556761394
 11
74.8380488949
 21
-18.9563468524
  0
LINE
  5
2BD
100
AcDbEntity
  8
RACCORDO
100
AcDbLine
 62
7
  6
CONTINUOUS
 10
74.8380488949
 20
-18.9563468524
 11
74.8522112757
 21
-18.9567908338
  0
LINE
  5
2BE
100
AcDbEntity
  8
RACCORDO
100
AcDbLine
 62
7
  6
CONTINUOUS
 10
74.8522112757
 20
-18.9567908338
 11
74.8641162391
 21
-18.9572267881
  0
LWPOLYLINE
  5
2BF
100
AcDbEntity
  8
RACCORDO
100
AcDbPolyline
 62
7
  6
CONTINUOUS
 90
4
 70
0
 10
74.8641162391
 20
-18.9572267881
 10
74.8737746717
 20
-18.9576424355
 10
74.8777845183
 20
-18.9578379654
 10
74.8811064284
 20
-18.9580148112
  0
LWPOLYLINE
  5
2C0
100
AcDbEntity
  8
RACCORDO
100
AcDbPolyline
 62
250
  6
CONTINUOUS
 90
6
 70
0
 10
74.7134164507
 20
-18.7639378225
 10
74.7101620748
 20
-18.763763865
 10
74.7048026169
 20
-18.7635613687
 10
74.6973674201
 20
-18.7633360628
 10
74.6878611198
 20
-18.7630936696
 10
74.6631258354
 20
-18.7625754725
  0
LWPOLYLINE
  5
2C1
100
AcDbEntity
  8
RACCORDO
100
AcDbPolyline
 62
250
  6
CONTINUOUS
 90
8
 70
0
 10
52.2924869519
 20
-18.9198535297
 10
52.2729750014
 20
-18.9029838754
 10
52.2557998646
 20
-18.8837242392
 10
52.2412488796
 20
-18.8623969146
 10
52.229565455
 20
-18.839358742
 10
52.2209450455
 20
-18.8149952004
 10
52.2155318653
 20
-18.7897139693
 10
52.2134164544
 20
-18.7639380615
  0
LWPOLYLINE
  5
2C2
100
AcDbEntity
  8
ASSI
100
AcDbPolyline
 62
250
  6
CONTINUOUS
 90
6
 70
0
 10
38.9046414752
 20
26.4328374104
 10
38.904226998
 20
26.4461509969
 10
38.903808391
 20
26.4571169524
 10
38.9033867331
 20
26.4657086213
 10
38.9029609455
 20
26.4719048459
 10
38.9025310282
 20
26.475690427
  0
LWPOLYLINE
  5
2C3
100
AcDbEntity
  8
ASSI
100
AcDbPolyline
 62
250
  6
CONTINUOUS
 90
3
 70
0
 10
38.905840142
 20
26.3791576999
 10
38.9054480473
 20
26.3993002501
 10
38.9046414752
 20
26.4328374104
  0
LWPOLYLINE
  5
2C4
100
AcDbEntity
  8
RACCORDO
100
AcDbPolyline
 62
250
  6
CONTINUOUS
 90
5
 70
0
 10
46.449301729
 20
-18.9562510196
 10
46.4610398696
 20
-18.9535273352
 10
46.4854746467
 20
-18.9453390699
 10
46.5086470822
 20
-18.9340519929
 10
46.5301694391
 20
-18.9198549672
  0
LINE
  5
2C5
100
AcDbEntity
  8
RACCORDO
100
AcDbLine
 62
7
  6
CONTINUOUS
 10
46.449301729
 20
-18.9562510196
 11
46.2534757972
 21
-18.9953207531
  0
LINE
  5
2C6
100
AcDbEntity
  8
RACCORDO
100
AcDbLine
 62
250
  6
CONTINUOUS
 10
46.6092418353
 20
-18.7639380615
 11
46.4150723777
 21
-18.8026772576
  0
LINE
  5
2C7
100
AcDbEntity
  8
ASSI
100
AcDbLine
 62
250
  6
CONTINUOUS
 10
82.5259155542
 20
-16.516893226
 11
82.5810533325
 21
-16.5161670417
  0
LINE
  5
2C8
100
AcDbEntity
  8
ASSI
100
AcDbLine
 62
250
  6
CONTINUOUS
 10
82.469269457
 20
-16.5173498719
 11
82.5259155542
 21
-16.516893226
  0
LINE
  5
2C9
100
AcDbEntity
  8
ASSI
100
AcDbLine
 62
250
  6
CONTINUOUS
 10
82.4118642074
 20
-16.5175309406
 11
82.469269457
 21
-16.5173498719
  0
LINE
  5
2CA
100
AcDbEntity
  8
ASSI
100
AcDbLine
 62
250
  6
CONTINUOUS
 10
38.882044018
 20
-16.5174750889
 11
82.4118642074
 21
-16.5175309411
  0
LINE
  5
2CB
100
AcDbEntity
  8
ASSI
100
AcDbLine
 62
250
  6
CONTINUOUS
 10
38.8249241031
 20
-16.5171557057
 11
38.882044018
 21
-16.5174750889
  0
LWPOLYLINE
  5
2CC
100
AcDbEntity
  8
ASSI
100
AcDbPolyline
 62
250
  6
CONTINUOUS
 90
3
 70
0
 10
38.7416057608
 20
-16.5161670534
 10
38.7689398133
 20
-16.5165633159
 10
38.8249241031
 20
-16.5171557057
  0
LINE
  5
2CD
100
AcDbEntity
  8
RACCORDO
100
AcDbLine
 62
7
  6
CONTINUOUS
 10
75.0691824926
 20
-18.9953207531
 11
74.8734940315
 21
-18.9562784972
  0
LINE
  5
2CE
100
AcDbEntity
  8
RACCORDO
100
AcDbLine
 62
250
  6
CONTINUOUS
 10
74.9075859121
 20
-18.8026772576
 11
74.7134164545
 21
-18.7639380615
  0
LWPOLYLINE
  5
2CF
100
AcDbEntity
  8
RACCORDO
100
AcDbPolyline
 62
250
  6
CONTINUOUS
 90
5
 70
0
 10
74.8734627787
 20
-18.9562722592
 10
74.8616170102
 20
-18.9535269626
 10
74.837181849
 20
-18.945338336
 10
74.8140092591
 20
-18.9340508819
 10
74.7924869519
 20
-18.9198535297
  0
LWPOLYLINE
  5
2D0
100
AcDbEntity
  8
ASSI
100
AcDbPolyline
 62
250
  6
CONTINUOUS
 90
8
 70
0
 10
38.9025310282
 20
-17.4741238474
 10
38.9029609454
 20
-17.4703382664
 10
38.903386733
 20
-17.464142042
 10
38.9038083909
 20
-17.4555503732
 10
38.9042269979
 20
-17.4445844178
 10
38.9046414752
 20
-17.4312708313
 10
38.9050485869
 20
-17.4156414016
 10
38.9058401421
 20
-17.3775911212
  0
LWPOLYLINE
  5
2D1
100
AcDbEntity
  8
ASSI
100
AcDbPolyline
 62
250
  6
CONTINUOUS
 90
10
 70
0
 10
38.4026071806
 20
-16.97480908
 10
38.4030779741
 20
-16.9726842364
 10
38.4035452685
 20
-16.9690896491
 10
38.4040090638
 20
-16.9640253181
 10
38.4044712277
 20
-16.9574721854
 10
38.4049298925
 20
-16.949449309
 10
38.4053794556
 20
-16.9400138627
 10
38.4058196692
 20
-16.9291388165
 10
38.4062507812
 20
-16.9168512003
 10
38.4070705958
 20
-16.8884514532
  0
LINE
  5
2D2
100
AcDbEntity
  8
RACCORDO
100
AcDbLine
 62
7
  6
CONTINUOUS
 10
46.4150723777
 20
27.8042438372
 11
46.4322794223
 21
26.9007832898
  0
LINE
  5
2D3
100
AcDbEntity
  8
RACCORDO
100
AcDbLine
 62
250
  6
CONTINUOUS
 10
46.6212399462
 20
27.0157231986
 11
46.6092418353
 21
27.7655046411
  0
LINE
  5
2D4
100
AcDbEntity
  8
RACCORDO
100
AcDbLine
 62
250
  6
CONTINUOUS
 10
46.9197465557
 20
27.0301061445
 11
46.9080550728
 21
27.7607259014
  0
LINE
  5
2D5
100
AcDbEntity
  8
RACCORDO
100
AcDbLine
 62
250
  6
CONTINUOUS
 10
46.9080550728
 20
27.9537460021
 11
46.9080550728
 21
27.7607259014
  0
LINE
  5
2D6
100
AcDbEntity
  8
RACCORDO
100
AcDbLine
 62
250
  6
CONTINUOUS
 10
46.9080550728
 20
-18.9521794224
 11
46.9080550728
 21
-18.7591593218
  0
LINE
  5
2D7
100
AcDbEntity
  8
RACCORDO
100
AcDbLine
 62
250
  6
CONTINUOUS
 10
46.6092418353
 20
-18.7639380615
 11
46.6212399462
 21
-18.014156619
  0
LINE
  5
2D8
100
AcDbEntity
  8
RACCORDO
100
AcDbLine
 62
250
  6
CONTINUOUS
 10
46.9080550728
 20
-18.7591593218
 11
46.9197465557
 21
-18.0285395649
  0
LINE
  5
2D9
100
AcDbEntity
  8
RACCORDO
100
AcDbLine
 62
7
  6
CONTINUOUS
 10
46.4322794223
 20
-17.8992167102
 11
46.4150723777
 21
-18.8026772576
  0
LINE
  5
2DA
100
AcDbEntity
  8
ASSI
100
AcDbLine
 62
250
  6
CONTINUOUS
 10
38.2613291449
 20
-17.3989878581
 11
38.4026071806
 21
-16.97480908
  0
LINE
  5
2DB
100
AcDbEntity
  8
ASSI
100
AcDbLine
 62
250
  6
CONTINUOUS
 10
38.7609485452
 20
-17.8992167102
 11
38.9025310282
 21
-17.4741238474
  0
LINE
  5
2DC
100
AcDbEntity
  8
RACCORDO
100
AcDbLine
 62
7
  6
CONTINUOUS
 10
68.9322794223
 20
26.9007832898
 11
69.1212399462
 21
27.0157231986
  0
LINE
  5
2DD
100
AcDbEntity
  8
RACCORDO
100
AcDbLine
 62
7
  6
CONTINUOUS
 10
69.1212399462
 20
-18.014156619
 11
68.9322794223
 21
-17.8992167102
  0
LINE
  5
2DE
100
AcDbEntity
  8
ASSI
100
AcDbLine
 62
250
  6
CONTINUOUS
 10
38.4026071806
 20
25.9763756596
 11
38.2613291449
 21
26.4005544378
  0
LINE
  5
2DF
100
AcDbEntity
  8
ASSI
100
AcDbLine
 62
250
  6
CONTINUOUS
 10
38.9025310282
 20
26.475690427
 11
38.7609485452
 21
26.9007832898
  0
LINE
  5
2E0
100
AcDbEntity
  8
RACCORDO
100
AcDbLine
 62
7
  6
CONTINUOUS
 10
52.3903788675
 20
-17.8992167102
 11
52.4075859121
 21
-18.8026772576
  0
LINE
  5
2E1
100
AcDbEntity
  8
RACCORDO
100
AcDbLine
 62
250
  6
CONTINUOUS
 10
51.914603217
 20
-18.7591593218
 11
51.9029117341
 21
-18.0285395649
  0
LINE
  5
2E2
100
AcDbEntity
  8
RACCORDO
100
AcDbLine
 62
250
  6
CONTINUOUS
 10
52.2134164545
 20
-18.7639380615
 11
52.2014183436
 21
-18.014156619
  0
LINE
  5
2E3
100
AcDbEntity
  8
RACCORDO
100
AcDbLine
 62
250
  6
CONTINUOUS
 10
51.914603217
 20
27.953746002
 11
51.914603217
 21
27.7607259014
  0
LINE
  5
2E4
100
AcDbEntity
  8
RACCORDO
100
AcDbLine
 62
250
  6
CONTINUOUS
 10
51.914603217
 20
-18.9521794224
 11
51.914603217
 21
-18.7591593218
  0
LINE
  5
2E5
100
AcDbEntity
  8
RACCORDO
100
AcDbLine
 62
250
  6
CONTINUOUS
 10
51.9029117341
 20
27.0301061445
 11
51.914603217
 21
27.7607259014
  0
LINE
  5
2E6
100
AcDbEntity
  8
RACCORDO
100
AcDbLine
 62
250
  6
CONTINUOUS
 10
52.2014183436
 20
27.0157231986
 11
52.2134164545
 21
27.7655046411
  0
LINE
  5
2E7
100
AcDbEntity
  8
RACCORDO
100
AcDbLine
 62
7
  6
CONTINUOUS
 10
52.4075859121
 20
27.8042438372
 11
52.3903788675
 21
26.9007832898
  0
LWPOLYLINE
  5
2E8
100
AcDbEntity
  8
0
100
AcDbPolyline
 62
7
  6
CONTINUOUS
 90
3
 70
0
 43
0.3500000006
 10
61.6970413971
 20
39.0364975891
 10
61.6256147461
 20
38.8222131042
 10
61.4827569122
 20
38.5364974365
  0
LWPOLYLINE
  5
2E9
100
AcDbEntity
  8
RACCORDO
100
AcDbPolyline
 62
250
  6
CONTINUOUS
 90
8
 70
0
 10
74.7924888507
 20
27.9214215469
 10
74.7729766993
 20
27.904552127
 10
74.7558012443
 20
27.8852925838
 10
74.7412498771
 20
27.863965181
 10
74.7295660813
 20
27.8409267836
 10
74.7209453582
 20
27.8165628858
 10
74.7155319557
 20
27.7912811613
 10
74.7134164545
 20
27.7655046411
  0
LWPOLYLINE
  5
2EA
100
AcDbEntity
  8
RACCORDO
100
AcDbPolyline
 62
250
  6
CONTINUOUS
 90
8
 70
0
 10
74.7924869519
 20
-18.9198535297
 10
74.7729750014
 20
-18.9029838754
 10
74.7557998646
 20
-18.8837242392
 10
74.7412488796
 20
-18.8623969146
 10
74.729565455
 20
-18.839358742
 10
74.7209450455
 20
-18.8149952004
 10
74.7155318653
 20
-18.7897139693
 10
74.7134164544
 20
-18.7639380615
  0
LWPOLYLINE
  5
2EB
100
AcDbEntity
  8
0
100
AcDbPolyline
 62
7
  6
CONTINUOUS
 90
2
 70
0
 43
0.3500000006
 10
57.2684712067
 20
38.7507819214
 10
57.2684712067
 20
40.2507823792
  0
LWPOLYLINE
  5
2EC
100
AcDbEntity
  8
0
100
AcDbPolyline
 62
7
  6
CONTINUOUS
 90
2
 70
0
 43
0.3500000006
 10
92.3113306274
 20
1.107926239
 10
90.8113301697
 20
1.107926239
  0
LWPOLYLINE
  5
2ED
100
AcDbEntity
  8
0
100
AcDbPolyline
 62
7
  6
CONTINUOUS
 90
2
 70
0
 43
0.3500000006
 10
59.6256141357
 20
38.7507819214
 10
59.6256141357
 20
40.2507823792
  0
LWPOLYLINE
  5
2EE
100
AcDbEntity
  8
0
100
AcDbPolyline
 62
7
  6
CONTINUOUS
 90
2
 70
0
 43
0.3500000006
 10
100.3113330688
 20
3.1436401749
 10
98.8113326111
 20
3.1436401749
  0
LWPOLYLINE
  5
2EF
100
AcDbEntity
  8
0
100
AcDbPolyline
 62
7
  6
CONTINUOUS
 90
2
 70
0
 43
0.3500000006
 10
92.3113306274
 20
3.4650691681
 10
90.8113301697
 20
3.4650691681
  0
LWPOLYLINE
  5
2F0
100
AcDbEntity
  8
0
100
AcDbPolyline
 62
7
  6
CONTINUOUS
 90
4
 70
0
 43
0.3500000006
 10
97.9541856079
 20
4.5007827988
 10
97.3113321533
 20
4.5007827988
 10
97.3113321533
 20
6.0007832565
 10
100.3113330688
 20
5.1436407852
  0
LWPOLYLINE
  5
2F1
100
AcDbEntity
  8
0
100
AcDbPolyline
 62
7
  6
CONTINUOUS
 90
4
 70
0
 43
0.3500000006
 10
62.6970417023
 20
39.179355423
 10
62.6970417023
 20
40.0364978943
 10
63.1256152039
 20
40.465066864
 10
63.7684731903
 20
40.465066864
  0
LWPOLYLINE
  5
2F2
100
AcDbEntity
  8
0
100
AcDbPolyline
 62
7
  6
CONTINUOUS
 90
4
 70
0
 43
0.3500000006
 10
91.8827616577
 20
6.5364967346
 10
91.0256146545
 20
6.5364967346
 10
90.5970456848
 20
6.9650679703
 10
90.5970456848
 20
7.6079259567
  0
LINE
  5
2F3
100
AcDbEntity
  8
RACCORDO
100
AcDbLine
 62
7
  6
CONTINUOUS
 10
68.9150723777
 20
27.8042438372
 11
68.9322794223
 21
26.9007832898
  0
LINE
  5
2F4
100
AcDbEntity
  8
RACCORDO
100
AcDbLine
 62
250
  6
CONTINUOUS
 10
69.1212399462
 20
27.0157231986
 11
69.1092418353
 21
27.7655046411
  0
LINE
  5
2F5
100
AcDbEntity
  8
RACCORDO
100
AcDbLine
 62
250
  6
CONTINUOUS
 10
69.4080550728
 20
27.9537460021
 11
69.4080550728
 21
27.7607259014
  0
LINE
  5
2F6
100
AcDbEntity
  8
RACCORDO
100
AcDbLine
 62
250
  6
CONTINUOUS
 10
69.4080550728
 20
-18.9521794224
 11
69.4080550728
 21
-18.7591593218
  0
LINE
  5
2F7
100
AcDbEntity
  8
RACCORDO
100
AcDbLine
 62
250
  6
CONTINUOUS
 10
69.1092418353
 20
-18.7639380615
 11
69.1212399462
 21
-18.014156619
  0
LINE
  5
2F8
100
AcDbEntity
  8
RACCORDO
100
AcDbLine
 62
7
  6
CONTINUOUS
 10
68.9322794223
 20
-17.8992167102
 11
68.9150723777
 21
-18.8026772576
  0
LWPOLYLINE
  5
2F9
100
AcDbEntity
  8
RACCORDO
100
AcDbPolyline
 62
250
  6
CONTINUOUS
 90
8
 70
0
 10
46.5301694391
 20
-18.9198549672
 10
46.5496815905
 20
-18.9029855474
 10
46.5668570455
 20
-18.8837260041
 10
46.5814084127
 20
-18.8623986013
 10
46.5930922085
 20
-18.8393602039
 10
46.6017129316
 20
-18.8149963061
 10
46.6071263341
 20
-18.7897145816
 10
46.6092418353
 20
-18.7639380615
  0
LWPOLYLINE
  5
2FA
100
AcDbEntity
  8
RACCORDO
100
AcDbPolyline
 62
250
  6
CONTINUOUS
 90
8
 70
0
 10
46.5301691707
 20
27.9214217501
 10
46.5496813521
 20
27.9045523618
 10
46.5668568533
 20
27.8852928297
 10
46.581408275
 20
27.8639654138
 10
46.5930921228
 20
27.8409269836
 10
46.6017128891
 20
27.8165630361
 10
46.6071263219
 20
27.7912812441
 10
46.6092418352
 20
27.7655046411
  0
LINE
  5
2FB
100
AcDbEntity
  8
RACCORDO
100
AcDbLine
 62
250
  6
CONTINUOUS
 10
69.4197465557
 20
27.0301061445
 11
69.4080550728
 21
27.7607259014
  0
LINE
  5
2FC
100
AcDbEntity
  8
RACCORDO
100
AcDbLine
 62
250
  6
CONTINUOUS
 10
69.4080550728
 20
-18.7591593218
 11
69.4197465557
 21
-18.0285395649
  0
LWPOLYLINE
  5
2FD
100
AcDbEntity
  8
0
100
AcDbPolyline
 62
7
  6
CONTINUOUS
 90
3
 70
0
 43
0.3500000006
 10
92.0256149597
 20
5.5364986954
 10
92.2398994446
 20
5.4650697784
 10
92.5256151123
 20
5.3222119446
  0
LWPOLYLINE
  5
2FE
100
AcDbEntity
  8
0
100
AcDbPolyline
 62
7
  6
CONTINUOUS
 90
10
 70
0
 43
0.3500000006
 10
91.8113304749
 20
5.4650697784
 10
91.9541837769
 20
5.5364986954
 10
92.0256149597
 20
5.5364986954
 10
92.1684682617
 20
5.3936408615
 10
92.1684682617
 20
5.3222119446
 10
92.0970461426
 20
5.2507830276
 10
92.0256149597
 20
5.2507830276
 10
91.8827616577
 20
5.3222119446
 10
91.8113304749
 20
5.3936408615
 10
91.8113304749
 20
5.4650697784
  0
LINE
  5
2FF
100
AcDbEntity
  8
RACCORDO
100
AcDbLine
 62
7
  6
CONTINUOUS
 10
74.8903788675
 20
-17.8992167102
 11
74.9075859121
 21
-18.8026772576
  0
LINE
  5
300
100
AcDbEntity
  8
RACCORDO
100
AcDbLine
 62
250
  6
CONTINUOUS
 10
74.414603217
 20
-18.7591593218
 11
74.4029117341
 21
-18.0285395649
  0
LINE
  5
301
100
AcDbEntity
  8
RACCORDO
100
AcDbLine
 62
250
  6
CONTINUOUS
 10
74.7134164545
 20
-18.7639380615
 11
74.7014183436
 21
-18.014156619
  0
LINE
  5
302
100
AcDbEntity
  8
RACCORDO
100
AcDbLine
 62
250
  6
CONTINUOUS
 10
74.414603217
 20
27.953746002
 11
74.414603217
 21
27.7607259014
  0
LINE
  5
303
100
AcDbEntity
  8
RACCORDO
100
AcDbLine
 62
250
  6
CONTINUOUS
 10
74.414603217
 20
-18.9521794224
 11
74.414603217
 21
-18.7591593218
  0
LINE
  5
304
100
AcDbEntity
  8
RACCORDO
100
AcDbLine
 62
250
  6
CONTINUOUS
 10
74.4029117341
 20
27.0301061445
 11
74.414603217
 21
27.7607259014
  0
LINE
  5
305
100
AcDbEntity
  8
RACCORDO
100
AcDbLine
 62
250
  6
CONTINUOUS
 10
74.7014183436
 20
27.0157231986
 11
74.7134164545
 21
27.7655046411
  0
LINE
  5
306
100
AcDbEntity
  8
RACCORDO
100
AcDbLine
 62
7
  6
CONTINUOUS
 10
74.9075859121
 20
27.8042438372
 11
74.8903788675
 21
26.9007832898
  0
LINE
  5
307
100
AcDbEntity
  8
ASSI
100
AcDbLine
 62
250
  6
CONTINUOUS
 10
82.4201272616
 20
26.475690427
 11
82.5617097446
 21
26.9007832898
  0
LINE
  5
308
100
AcDbEntity
  8
ASSI
100
AcDbLine
 62
250
  6
CONTINUOUS
 10
82.9200511092
 20
25.9763756596
 11
83.0613291449
 21
26.4005544378
  0
LINE
  5
309
100
AcDbEntity
  8
RACCORDO
100
AcDbLine
 62
7
  6
CONTINUOUS
 10
52.2014183436
 20
-18.014156619
 11
52.3903788675
 21
-17.8992167102
  0
LINE
  5
30A
100
AcDbEntity
  8
RACCORDO
100
AcDbLine
 62
7
  6
CONTINUOUS
 10
52.3903788675
 20
26.9007832898
 11
52.2014183436
 21
27.0157231986
  0
LINE
  5
30B
100
AcDbEntity
  8
ASSI
100
AcDbLine
 62
250
  6
CONTINUOUS
 10
82.5617097446
 20
-17.8992167102
 11
82.4201272616
 21
-17.4741238474
  0
LINE
  5
30C
100
AcDbEntity
  8
ASSI
100
AcDbLine
 62
250
  6
CONTINUOUS
 10
83.0613291449
 20
-17.3989878581
 11
82.9200511092
 21
-16.97480908
  0
LWPOLYLINE
  5
30D
100
AcDbEntity
  8
0
100
AcDbPolyline
 62
7
  6
CONTINUOUS
 90
10
 70
0
 43
0.3500000006
 10
61.6256147461
 20
39.250782074
 10
61.6970413971
 20
39.1079242401
 10
61.6970413971
 20
39.0364975891
 10
61.5541880951
 20
38.8936397552
 10
61.4827569122
 20
38.8936397552
 10
61.4113302612
 20
38.9650709381
 10
61.4113302612
 20
39.0364975891
 10
61.4827569122
 20
39.179355423
 10
61.5541880951
 20
39.250782074
 10
61.6256147461
 20
39.250782074
  0
LWPOLYLINE
  5
30E
100
AcDbEntity
  8
ASSI
100
AcDbPolyline
 62
250
  6
CONTINUOUS
 90
8
 70
0
 10
82.9200511092
 20
-16.97480908
 10
82.9195804602
 20
-16.9726840635
 10
82.9191133394
 20
-16.9690913605
 10
82.9186497467
 20
-16.9640309711
 10
82.9181878337
 20
-16.9574840938
 10
82.917729449
 20
-16.94946953
 10
82.9172801374
 20
-16.9400436839
 10
82.9168401304
 20
-16.9291798494
  0
LWPOLYLINE
  5
30F
100
AcDbEntity
  8
RACCORDO
100
AcDbPolyline
 62
250
  6
CONTINUOUS
 90
5
 70
0
 10
74.873283647
 20
27.9578029842
 10
74.8616184201
 20
27.9550939148
 10
74.837183643
 20
27.9469056495
 10
74.8140112075
 20
27.9356185725
 10
74.7924888507
 20
27.9214215469
  0
LWPOLYLINE
  5
310
100
AcDbEntity
  8
RACCORDO
100
AcDbPolyline
 62
250
  6
CONTINUOUS
 90
5
 70
0
 10
46.4491935019
 20
27.95783924
 10
46.4610396668
 20
27.9550939684
 10
46.4854743895
 20
27.9469057548
 10
46.5086468046
 20
27.9356187308
 10
46.5301691707
 20
27.9214217501
  0
LWPOLYLINE
  5
311
100
AcDbEntity
  8
ASSI
100
AcDbPolyline
 62
250
  6
CONTINUOUS
 90
6
 70
0
 10
82.4201272616
 20
-17.4741238474
 10
82.4196975092
 20
-17.4703397063
 10
82.4192718755
 20
-17.4641464021
 10
82.4188503605
 20
-17.4555592094
 10
82.4184318996
 20
-17.4445994418
 10
82.4180175574
 20
-17.4312937575
  0
LINE
  5
312
100
AcDbEntity
  8
ASSI
100
AcDbLine
 62
250
  6
CONTINUOUS
 10
82.9168401304
 20
-16.9291798494
 11
82.9159921873
 21
-16.9033548562
  0
LINE
  5
313
100
AcDbEntity
  8
ASSI
100
AcDbLine
 62
250
  6
CONTINUOUS
 10
82.9159921873
 20
-16.9033548562
 11
82.9152009827
 21
-16.872425193
  0
LINE
  5
314
100
AcDbEntity
  8
ASSI
100
AcDbLine
 62
250
  6
CONTINUOUS
 10
82.4180175574
 20
-17.4312937575
 11
82.4172110278
 21
-17.3977762446
  0
LWPOLYLINE
  5
315
100
AcDbEntity
  8
ASSI
100
AcDbPolyline
 62
250
  6
CONTINUOUS
 90
3
 70
0
 10
82.9152009827
 20
-16.872425193
 10
82.9141387478
 20
-16.8173328582
 10
82.9138218556
 20
-16.7968634175
  0
LINE
  5
316
100
AcDbEntity
  8
ASSI
100
AcDbLine
 62
250
  6
CONTINUOUS
 10
82.4172110278
 20
-17.3977762446
 11
82.4160639047
 21
-17.33088222
  0
LINE
  5
317
100
AcDbEntity
  8
ASSI
100
AcDbLine
 62
250
  6
CONTINUOUS
 10
82.4160639047
 20
-17.33088222
 11
82.4146901776
 21
-17.2130501682
  0
LINE
  5
318
100
AcDbEntity
  8
ASSI
100
AcDbLine
 62
250
  6
CONTINUOUS
 10
82.4146901776
 20
-17.2130501682
 11
82.412862878
 21
-16.9416614834
  0
LINE
  5
319
100
AcDbEntity
  8
ASSI
100
AcDbLine
 62
250
  6
CONTINUOUS
 10
82.412862878
 20
-16.9416614834
 11
82.4058360095
 21
-5.3100235135
  0
LINE
  5
31A
100
AcDbEntity
  8
ASSI
100
AcDbLine
 62
250
  6
CONTINUOUS
 10
82.4058360095
 20
-5.3100235135
 11
82.4041916536
 21
5.9024075355
  0
LINE
  5
31B
100
AcDbEntity
  8
ASSI
100
AcDbLine
 62
250
  6
CONTINUOUS
 10
82.4041916536
 20
5.9024075355
 11
82.4118642074
 21
25.5190975207
  0
LINE
  5
31C
100
AcDbEntity
  8
ASSI
100
AcDbLine
 62
250
  6
CONTINUOUS
 10
82.4118642074
 20
25.5190975207
 11
82.4130723802
 21
25.9861859169
  0
LINE
  5
31D
100
AcDbEntity
  8
ASSI
100
AcDbLine
 62
250
  6
CONTINUOUS
 10
82.4130723802
 20
25.9861859169
 11
82.4146901776
 21
26.2146167477
  0
LINE
  5
31E
100
AcDbEntity
  8
ASSI
100
AcDbLine
 62
250
  6
CONTINUOUS
 10
82.4146901776
 20
26.2146167477
 11
82.4160639047
 21
26.3324487998
  0
LINE
  5
31F
100
AcDbEntity
  8
ASSI
100
AcDbLine
 62
250
  6
CONTINUOUS
 10
82.9138218557
 20
25.7984300055
 11
82.9148295571
 21
25.8567597783
  0
LINE
  5
320
100
AcDbEntity
  8
ASSI
100
AcDbLine
 62
250
  6
CONTINUOUS
 10
82.4160639047
 20
26.3324487998
 11
82.4172110278
 21
26.3993428247
  0
LINE
  5
321
100
AcDbEntity
  8
ASSI
100
AcDbLine
 62
250
  6
CONTINUOUS
 10
82.9148295571
 20
25.8567597783
 11
82.915589623
 21
25.8900939906
  0
LWPOLYLINE
  5
322
100
AcDbEntity
  8
ASSI
100
AcDbPolyline
 62
250
  6
CONTINUOUS
 90
7
 70
0
 10
82.4172110278
 20
26.3993428247
 10
82.4180175574
 20
26.4328603372
 10
82.4184318996
 20
26.4461660212
 10
82.4188503604
 20
26.4571257887
 10
82.4192718754
 20
26.4657129815
 10
82.4196975092
 20
26.4719062858
 10
82.4201272616
 20
26.475690427
  0
LWPOLYLINE
  5
323
100
AcDbEntity
  8
ASSI
100
AcDbPolyline
 62
250
  6
CONTINUOUS
 90
10
 70
0
 10
82.915589623
 20
25.8900939906
 10
82.9164091968
 20
25.9184713179
 10
82.9168401306
 20
25.9307464341
 10
82.9172801376
 20
25.9416102678
 10
82.9177294491
 20
25.9510361129
 10
82.9181878339
 20
25.9590506755
 10
82.9186497468
 20
25.9655975519
 10
82.9191133394
 20
25.9706579408
 10
82.9195804602
 20
25.9742506433
 10
82.9200511092
 20
25.9763756596
  0
LINE
  5
324
100
AcDbEntity
  8
RACCORDO
100
AcDbLine
 62
250
  6
CONTINUOUS
 10
74.7134164545
 20
27.7655046411
 11
74.9075859121
 21
27.8042438372
  0
LINE
  5
325
100
AcDbEntity
  8
RACCORDO
100
AcDbLine
 62
7
  6
CONTINUOUS
 10
74.873283647
 20
27.9578029842
 11
75.0691824926
 21
27.9968873327
  0
LINE
  5
326
100
AcDbEntity
  8
ASSI
100
AcDbLine
 62
250
  6
CONTINUOUS
 10
38.5707408753
 20
25.5132384894
 11
38.6150736057
 21
25.514810258
  0
LINE
  5
327
100
AcDbEntity
  8
ASSI
100
AcDbLine
 62
250
  6
CONTINUOUS
 10
38.6150736057
 20
25.514810258
 11
38.6633171511
 21
25.5161607571
  0
LINE
  5
328
100
AcDbEntity
  8
ASSI
100
AcDbLine
 62
250
  6
CONTINUOUS
 10
38.6633171511
 20
25.5161607571
 11
38.7148334837
 21
25.5172721274
  0
LINE
  5
329
100
AcDbEntity
  8
ASSI
100
AcDbLine
 62
250
  6
CONTINUOUS
 10
38.7148334837
 20
25.5172721274
 11
38.7689413045
 21
25.5181296723
  0
LINE
  5
32A
100
AcDbEntity
  8
ASSI
100
AcDbLine
 62
250
  6
CONTINUOUS
 10
38.7689413045
 20
25.5181296723
 11
38.8249250461
 21
25.5187220516
  0
LINE
  5
32B
100
AcDbEntity
  8
ASSI
100
AcDbLine
 62
250
  6
CONTINUOUS
 10
38.8249250461
 20
25.5187220516
 11
38.8820443454
 21
25.5190414314
  0
LINE
  5
32C
100
AcDbEntity
  8
ASSI
100
AcDbLine
 62
250
  6
CONTINUOUS
 10
38.8820443454
 20
25.5190414314
 11
82.4118642074
 21
25.5190975207
  0
LINE
  5
32D
100
AcDbEntity
  8
ASSI
100
AcDbLine
 62
250
  6
CONTINUOUS
 10
82.4118642075
 20
25.5190965776
 11
82.4692668848
 21
25.518915518
  0
LINE
  5
32E
100
AcDbEntity
  8
ASSI
100
AcDbLine
 62
250
  6
CONTINUOUS
 10
82.4692668848
 20
25.518915518
 11
82.525910657
 21
25.5184589104
  0
LINE
  5
32F
100
AcDbEntity
  8
ASSI
100
AcDbLine
 62
250
  6
CONTINUOUS
 10
82.525910657
 20
25.5184589104
 11
82.5810464623
 21
25.5177327906
  0
LINE
  5
330
100
AcDbEntity
  8
ASSI
100
AcDbLine
 62
250
  6
CONTINUOUS
 10
82.5810464623
 20
25.5177327906
 11
82.6339451931
 21
25.5167467581
  0
LINE
  5
331
100
AcDbEntity
  8
ASSI
100
AcDbLine
 62
250
  6
CONTINUOUS
 10
82.6339451931
 20
25.5167467581
 11
82.6839072915
 21
25.5155138487
  0
LWPOLYLINE
  5
332
100
AcDbEntity
  8
ASSI
100
AcDbPolyline
 62
250
  6
CONTINUOUS
 90
17
 70
0
 10
82.6839072915
 20
25.5155138487
 10
82.7302720031
 20
25.5140503631
 10
82.7519116339
 20
25.5132380886
 10
82.7724261345
 20
25.5123756514
 10
82.7917476081
 20
25.5114659049
 10
82.8098121164
 20
25.5105118592
 10
82.8265598726
 20
25.5095166709
 10
82.8419354369
 20
25.5084836337
 10
82.855887927
 20
25.5074161657
 10
82.8683711679
 20
25.5063177991
 10
82.8793438358
 20
25.5051921694
 10
82.8887696215
 20
25.5040430014
 10
82.8966173331
 20
25.5028740975
 10
82.9028609952
 20
25.501689327
 10
82.9074799502
 20
25.5004926109
 10
82.9104589211
 20
25.4992879086
 10
82.9117880549
 20
25.4980792065
  0
LINE
  5
333
100
AcDbEntity
  8
RACCORDO
100
AcDbLine
 62
250
  6
CONTINUOUS
 10
46.4150723777
 20
27.8042438372
 11
46.6092418353
 21
27.7655046411
  0
LINE
  5
334
100
AcDbEntity
  8
RACCORDO
100
AcDbLine
 62
7
  6
CONTINUOUS
 10
46.2534757972
 20
27.9968873327
 11
46.4491642582
 21
27.9578450768
  0
LINE
  5
335
100
AcDbEntity
  8
ASSI
100
AcDbLine
 62
250
  6
CONTINUOUS
 10
82.9138218556
 20
-16.7968634175
 11
82.9127611092
 21
-16.7057353328
  0
LINE
  5
336
100
AcDbEntity
  8
ASSI
100
AcDbLine
 62
250
  6
CONTINUOUS
 10
82.9127611092
 20
-16.7057353328
 11
82.9119616858
 21
-16.5768942046
  0
LINE
  5
337
100
AcDbEntity
  8
ASSI
100
AcDbLine
 62
250
  6
CONTINUOUS
 10
82.9119616858
 20
-16.5768942046
 11
82.9068564295
 21
-8.1009664944
  0
LINE
  5
338
100
AcDbEntity
  8
ASSI
100
AcDbLine
 62
250
  6
CONTINUOUS
 10
82.9068564295
 20
-8.1009664944
 11
82.9041155337
 21
3.1003448625
  0
LINE
  5
339
100
AcDbEntity
  8
ASSI
100
AcDbLine
 62
7
  6
CONTINUOUS
 10
83.0613291449
 20
26.4005544378
 11
83.0613291449
 21
-17.3989878581
  0
LINE
  5
33A
100
AcDbEntity
  8
ASSI
100
AcDbLine
 62
250
  6
CONTINUOUS
 10
82.9041155337
 20
3.1003448625
 11
82.9068564291
 21
17.1025322554
  0
LINE
  5
33B
100
AcDbEntity
  8
ASSI
100
AcDbLine
 62
250
  6
CONTINUOUS
 10
82.9068564291
 20
17.1025322554
 11
82.9120711861
 21
25.6049893631
  0
LINE
  5
33C
100
AcDbEntity
  8
ASSI
100
AcDbLine
 62
250
  6
CONTINUOUS
 10
82.9120711861
 20
25.6049893631
 11
82.9127611093
 21
25.7073019236
  0
LINE
  5
33D
100
AcDbEntity
  8
ASSI
100
AcDbLine
 62
250
  6
CONTINUOUS
 10
82.9127611093
 20
25.7073019236
 11
82.9138218557
 21
25.7984300055
  0
LWPOLYLINE
  5
33E
100
AcDbEntity
  8
0
100
AcDbPolyline
 62
7
  6
CONTINUOUS
 90
13
 70
0
 43
0.3500000006
 10
90.5970456848
 20
6.9650679703
 10
90.3827612
 20
6.6793545685
 10
89.7398986816
 20
6.6793545685
 10
89.3113297119
 20
6.9650679703
 10
89.3113297119
 20
7.6079259567
 10
89.7398986816
 20
7.8936393585
 10
90.3827612
 20
7.8936393585
 10
90.5970456848
 20
7.6079259567
 10
91.0256146545
 20
8.0364971924
 10
91.8827616577
 20
8.0364971924
 10
92.3113306274
 20
7.6079259567
 10
92.3113306274
 20
6.9650679703
 10
91.8827616577
 20
6.5364967346
  0
LWPOLYLINE
  5
33F
100
AcDbEntity
  8
RACCORDO
100
AcDbPolyline
 62
250
  6
CONTINUOUS
 90
8
 70
0
 10
69.0301694391
 20
-18.9198549672
 10
69.0496815905
 20
-18.9029855474
 10
69.0668570455
 20
-18.8837260041
 10
69.0814084127
 20
-18.8623986013
 10
69.0930922085
 20
-18.8393602039
 10
69.1017129316
 20
-18.8149963061
 10
69.1071263341
 20
-18.7897145816
 10
69.1092418353
 20
-18.7639380615
  0
LWPOLYLINE
  5
340
100
AcDbEntity
  8
RACCORDO
100
AcDbPolyline
 62
7
  6
CONTINUOUS
 90
3
 70
0
 10
74.8825862659
 20
27.9596590894
 10
74.881804161
 20
27.9596122076
 10
74.8790038063
 20
27.9594598781
  0
LWPOLYLINE
  5
341
100
AcDbEntity
  8
RACCORDO
100
AcDbPolyline
 62
7
  6
CONTINUOUS
 90
3
 70
0
 10
52.3825862659
 20
27.9596590894
 10
52.381804161
 20
27.9596122076
 10
52.3790038063
 20
27.9594598781
  0
LINE
  5
342
100
AcDbEntity
  8
RACCORDO
100
AcDbLine
 62
7
  6
CONTINUOUS
 10
74.8790038063
 20
27.9594598781
 11
74.8719563872
 21
27.959123014
  0
LINE
  5
343
100
AcDbEntity
  8
RACCORDO
100
AcDbLine
 62
7
  6
CONTINUOUS
 10
52.3790038063
 20
27.9594598781
 11
52.3719563872
 21
27.959123014
  0
LINE
  5
344
100
AcDbEntity
  8
RACCORDO
100
AcDbLine
 62
7
  6
CONTINUOUS
 10
74.8719563872
 20
27.959123014
 11
74.8632317374
 21
27.9587601752
  0
LINE
  5
345
100
AcDbEntity
  8
RACCORDO
100
AcDbLine
 62
7
  6
CONTINUOUS
 10
52.3719563872
 20
27.959123014
 11
52.3632317374
 21
27.9587601752
  0
LINE
  5
346
100
AcDbEntity
  8
RACCORDO
100
AcDbLine
 62
7
  6
CONTINUOUS
 10
74.8632317374
 20
27.9587601752
 11
74.8529555714
 21
27.9583837416
  0
LINE
  5
347
100
AcDbEntity
  8
RACCORDO
100
AcDbLine
 62
7
  6
CONTINUOUS
 10
52.3632317374
 20
27.9587601752
 11
52.3529555714
 21
27.9583837416
  0
LINE
  5
348
100
AcDbEntity
  8
RACCORDO
100
AcDbLine
 62
7
  6
CONTINUOUS
 10
74.8529555714
 20
27.9583837416
 11
74.8348368192
 21
27.9578188018
  0
LINE
  5
349
100
AcDbEntity
  8
RACCORDO
100
AcDbLine
 62
7
  6
CONTINUOUS
 10
52.3529555714
 20
27.9583837416
 11
52.3348368192
 21
27.9578188018
  0
LWPOLYLINE
  5
34A
100
AcDbEntity
  8
RACCORDO
100
AcDbPolyline
 62
250
  6
CONTINUOUS
 90
4
 70
0
 10
74.6925102041
 20
27.7647764667
 10
74.7023764464
 20
27.7650544541
 10
74.7093599213
 20
27.7653002325
 10
74.7134164486
 20
27.7655042725
  0
LWPOLYLINE
  5
34B
100
AcDbEntity
  8
RACCORDO
100
AcDbPolyline
 62
250
  6
CONTINUOUS
 90
4
 70
0
 10
52.1925102041
 20
27.7647764667
 10
52.2023764464
 20
27.7650544541
 10
52.2093599213
 20
27.7653002325
 10
52.2134164486
 20
27.7655042725
  0
LINE
  5
34C
100
AcDbEntity
  8
RACCORDO
100
AcDbLine
 62
7
  6
CONTINUOUS
 10
74.8348368192
 20
27.9578188018
 11
74.8134138111
 21
27.957264301
  0
LINE
  5
34D
100
AcDbEntity
  8
RACCORDO
100
AcDbLine
 62
7
  6
CONTINUOUS
 10
52.3348368192
 20
27.9578188018
 11
52.3134138111
 21
27.957264301
  0
LINE
  5
34E
100
AcDbEntity
  8
RACCORDO
100
AcDbLine
 62
250
  6
CONTINUOUS
 10
74.6643466036
 20
27.7641623745
 11
74.6925102041
 21
27.7647764667
  0
LINE
  5
34F
100
AcDbEntity
  8
RACCORDO
100
AcDbLine
 62
250
  6
CONTINUOUS
 10
52.1643466036
 20
27.7641623745
 11
52.1925102041
 21
27.7647764667
  0
LINE
  5
350
100
AcDbEntity
  8
RACCORDO
100
AcDbLine
 62
7
  6
CONTINUOUS
 10
74.8134138111
 20
27.957264301
 11
74.7705156512
 21
27.9563675457
  0
LINE
  5
351
100
AcDbEntity
  8
RACCORDO
100
AcDbLine
 62
7
  6
CONTINUOUS
 10
52.3134138111
 20
27.957264301
 11
52.2705156512
 21
27.9563675457
  0
LINE
  5
352
100
AcDbEntity
  8
RACCORDO
100
AcDbLine
 62
250
  6
CONTINUOUS
 10
74.5559036214
 20
27.7624366557
 11
74.6643466036
 21
27.7641623745
  0
LINE
  5
353
100
AcDbEntity
  8
RACCORDO
100
AcDbLine
 62
250
  6
CONTINUOUS
 10
52.0559036214
 20
27.7624366557
 11
52.1643466036
 21
27.7641623745
  0
LINE
  5
354
100
AcDbEntity
  8
RACCORDO
100
AcDbLine
 62
7
  6
CONTINUOUS
 10
74.7705156512
 20
27.9563675457
 11
74.7191713965
 21
27.9555626978
  0
LINE
  5
355
100
AcDbEntity
  8
RACCORDO
100
AcDbLine
 62
7
  6
CONTINUOUS
 10
52.2705156512
 20
27.9563675457
 11
52.2191713965
 21
27.9555626978
  0
LINE
  5
356
100
AcDbEntity
  8
RACCORDO
100
AcDbLine
 62
250
  6
CONTINUOUS
 10
74.4146032118
 20
27.7607255745
 11
74.5559036214
 21
27.7624366557
  0
LINE
  5
357
100
AcDbEntity
  8
RACCORDO
100
AcDbLine
 62
250
  6
CONTINUOUS
 10
51.9146032118
 20
27.7607255745
 11
52.0559036214
 21
27.7624366557
  0
LINE
  5
358
100
AcDbEntity
  8
RACCORDO
100
AcDbLine
 62
7
  6
CONTINUOUS
 10
74.7191713965
 20
27.9555626978
 11
74.6342597382
 21
27.9546388911
  0
LINE
  5
359
100
AcDbEntity
  8
RACCORDO
100
AcDbLine
 62
7
  6
CONTINUOUS
 10
52.2191713965
 20
27.9555626978
 11
52.1342597382
 21
27.9546388911
  0
LINE
  5
35A
100
AcDbEntity
  8
RACCORDO
100
AcDbLine
 62
7
  6
CONTINUOUS
 10
74.6342597382
 20
27.9546388911
 11
74.5221484135
 21
27.9539409177
  0
LINE
  5
35B
100
AcDbEntity
  8
RACCORDO
100
AcDbLine
 62
7
  6
CONTINUOUS
 10
52.1342597382
 20
27.9546388911
 11
52.0221484135
 21
27.9539409177
  0
LINE
  5
35C
100
AcDbEntity
  8
ASSI
100
AcDbLine
 62
250
  6
CONTINUOUS
 10
38.9025310282
 20
26.475690427
 11
82.4201272616
 21
26.475690427
  0
LINE
  5
35D
100
AcDbEntity
  8
DRAFT
100
AcDbLine
 62
7
  6
CONTINUOUS
 10
38.7609485452
 20
26.9007832898
 11
46.4322794223
 21
26.9007832898
  0
LINE
  5
35E
100
AcDbEntity
  8
DRAFT
100
AcDbLine
 62
7
  6
CONTINUOUS
 10
52.3903788675
 20
26.9007832898
 11
68.9322794223
 21
26.9007832898
  0
LINE
  5
35F
100
AcDbEntity
  8
DRAFT
100
AcDbLine
 62
7
  6
CONTINUOUS
 10
74.8903788675
 20
26.9007832898
 11
82.5617097446
 21
26.9007832898
  0
LINE
  5
360
100
AcDbEntity
  8
RACCORDO
100
AcDbLine
 62
7
  6
CONTINUOUS
 10
46.9197465557
 20
27.0301061445
 11
51.9029117341
 21
27.0301061445
  0
LINE
  5
361
100
AcDbEntity
  8
RACCORDO
100
AcDbLine
 62
7
  6
CONTINUOUS
 10
69.4197465557
 20
27.0301061445
 11
74.4029117341
 21
27.0301061445
  0
LINE
  5
362
100
AcDbEntity
  8
RACCORDO
100
AcDbLine
 62
250
  6
CONTINUOUS
 10
46.9080550728
 20
27.7607259014
 11
51.914603217
 21
27.7607259014
  0
LINE
  5
363
100
AcDbEntity
  8
RACCORDO
100
AcDbLine
 62
250
  6
CONTINUOUS
 10
69.4080550728
 20
27.7607259014
 11
74.414603217
 21
27.7607259014
  0
LINE
  5
364
100
AcDbEntity
  8
RACCORDO
100
AcDbLine
 62
7
  6
CONTINUOUS
 10
45.4379917973
 20
28.0007832898
 11
46.2140391717
 21
28.0007832898
  0
LINE
  5
365
100
AcDbEntity
  8
RACCORDO
100
AcDbLine
 62
7
  6
CONTINUOUS
 10
52.6086191181
 20
28.0007832898
 11
53.3846664925
 21
28.0007832898
  0
LINE
  5
366
100
AcDbEntity
  8
RACCORDO
100
AcDbLine
 62
7
  6
CONTINUOUS
 10
67.9379917973
 20
28.0007832898
 11
68.7140391717
 21
28.0007832898
  0
LINE
  5
367
100
AcDbEntity
  8
RACCORDO
100
AcDbLine
 62
7
  6
CONTINUOUS
 10
75.1086191181
 20
28.0007832898
 11
75.8846664925
 21
28.0007832898
  0
LINE
  5
368
100
AcDbEntity
  8
RACCORDO
100
AcDbLine
 62
7
  6
CONTINUOUS
 10
74.5221484135
 20
27.9539409177
 11
69.3918905761
 21
27.9537478995
  0
LINE
  5
369
100
AcDbEntity
  8
RACCORDO
100
AcDbLine
 62
7
  6
CONTINUOUS
 10
52.0221484135
 20
27.9539409177
 11
46.7970915284
 21
27.9539546279
  0
LINE
  5
36A
100
AcDbEntity
  8
RACCORDO
100
AcDbLine
 62
7
  6
CONTINUOUS
 10
69.3918905761
 20
27.9537478995
 11
69.2788006051
 21
27.9540403059
  0
LINE
  5
36B
100
AcDbEntity
  8
RACCORDO
100
AcDbLine
 62
7
  6
CONTINUOUS
 10
46.7970915284
 20
27.9539546279
 11
46.6761043975
 21
27.9547478039
  0
LINE
  5
36C
100
AcDbEntity
  8
RACCORDO
100
AcDbLine
 62
7
  6
CONTINUOUS
 10
69.2788006051
 20
27.9540403059
 11
69.1761043975
 21
27.9547478039
  0
LINE
  5
36D
100
AcDbEntity
  8
RACCORDO
100
AcDbLine
 62
7
  6
CONTINUOUS
 10
46.6761043975
 20
27.9547478039
 11
46.5886104558
 21
27.9557707734
  0
LINE
  5
36E
100
AcDbEntity
  8
RACCORDO
100
AcDbLine
 62
7
  6
CONTINUOUS
 10
69.1761043975
 20
27.9547478039
 11
69.0886104558
 21
27.9557707734
  0
LINE
  5
36F
100
AcDbEntity
  8
RACCORDO
100
AcDbLine
 62
250
  6
CONTINUOUS
 10
46.7150784778
 20
27.7631909782
 11
46.9080550787
 21
27.7607255328
  0
LINE
  5
370
100
AcDbEntity
  8
RACCORDO
100
AcDbLine
 62
250
  6
CONTINUOUS
 10
69.2150784778
 20
27.7631909782
 11
69.4080550787
 21
27.7607255328
  0
LINE
  5
371
100
AcDbEntity
  8
RACCORDO
100
AcDbLine
 62
250
  6
CONTINUOUS
 10
46.6567539672
 20
27.7641958271
 11
46.7150784778
 21
27.7631909782
  0
LINE
  5
372
100
AcDbEntity
  8
RACCORDO
100
AcDbLine
 62
250
  6
CONTINUOUS
 10
69.1567539672
 20
27.7641958271
 11
69.2150784778
 21
27.7631909782
  0
LINE
  5
373
100
AcDbEntity
  8
RACCORDO
100
AcDbLine
 62
7
  6
CONTINUOUS
 10
46.5886104558
 20
27.9557707734
 11
46.5404200657
 21
27.9565893312
  0
LINE
  5
374
100
AcDbEntity
  8
RACCORDO
100
AcDbLine
 62
7
  6
CONTINUOUS
 10
69.0886104558
 20
27.9557707734
 11
69.0404200657
 21
27.9565893312
  0
LINE
  5
375
100
AcDbEntity
  8
RACCORDO
100
AcDbLine
 62
7
  6
CONTINUOUS
 10
46.5404200657
 20
27.9565893312
 11
46.5008786187
 21
27.95747036
  0
LINE
  5
376
100
AcDbEntity
  8
RACCORDO
100
AcDbLine
 62
7
  6
CONTINUOUS
 10
69.0404200657
 20
27.9565893312
 11
69.0008786187
 21
27.95747036
  0
LWPOLYLINE
  5
377
100
AcDbEntity
  8
ASSI
100
AcDbPolyline
 62
250
  6
CONTINUOUS
 90
28
 70
0
 10
82.4201272616
 20
26.475690427
 10
82.449178513
 20
26.4748201366
 10
82.4781315893
 20
26.472265211
 10
82.5068886352
 20
26.4680342832
 10
82.535352461
 20
26.46214165
 10
82.563426861
 20
26.4546072257
 10
82.5910169392
 20
26.4454564767
 10
82.6180294459
 20
26.4347203307
 10
82.6443730851
 20
26.4224350733
 10
82.6699588135
 20
26.4086422298
 10
82.6947001566
 20
26.3933884188
 10
82.7185134951
 20
26.3767251956
 10
82.7413183417
 20
26.3587088826
 10
82.7630376241
 20
26.339400371
 10
82.7835979349
 20
26.3188649225
 10
82.8029297778
 20
26.2971719541
 10
82.8209678202
 20
26.2743947839
 10
82.8376510994
 20
26.2506103982
 10
82.8529232227
 20
26.2258992037
 10
82.8667325805
 20
26.2003447232
 10
82.8790325083
 20
26.1740333274
 10
82.8897814369
 20
26.1470539622
 10
82.898943048
 20
26.1194978153
 10
82.9064863893
 20
26.0914580211
 10
82.9123859747
 20
26.0630293633
 10
82.9166218788
 20
26.0343079294
 10
82.9191798006
 20
26.0053907847
 10
82.9200511092
 20
25.9763756596
  0
LINE
  5
378
100
AcDbEntity
  8
RACCORDO
100
AcDbLine
 62
7
  6
CONTINUOUS
 10
46.5008786187
 20
27.95747036
 11
46.4771393428
 21
27.9581394146
  0
LINE
  5
379
100
AcDbEntity
  8
RACCORDO
100
AcDbLine
 62
7
  6
CONTINUOUS
 10
69.0008786187
 20
27.95747036
 11
68.9771393428
 21
27.9581394146
  0
LINE
  5
37A
100
AcDbEntity
  8
RACCORDO
100
AcDbLine
 62
7
  6
CONTINUOUS
 10
46.4771393428
 20
27.9581394146
 11
46.464094572
 21
27.9585834302
  0
LINE
  5
37B
100
AcDbEntity
  8
RACCORDO
100
AcDbLine
 62
7
  6
CONTINUOUS
 10
68.9771393428
 20
27.9581394146
 11
68.964094572
 21
27.9585834302
  0
LINE
  5
37C
100
AcDbEntity
  8
RACCORDO
100
AcDbLine
 62
7
  6
CONTINUOUS
 10
46.464094572
 20
27.9585834302
 11
46.4532655512
 21
27.9590118806
  0
LINE
  5
37D
100
AcDbEntity
  8
RACCORDO
100
AcDbLine
 62
7
  6
CONTINUOUS
 10
68.964094572
 20
27.9585834302
 11
68.9532655512
 21
27.9590118806
  0
LWPOLYLINE
  5
37E
100
AcDbEntity
  8
RACCORDO
100
AcDbPolyline
 62
7
  6
CONTINUOUS
 90
3
 70
0
 10
46.4532655512
 20
27.9590118806
 10
46.4447416968
 20
27.9594048727
 10
46.4414634899
 20
27.9595785441
  0
LWPOLYLINE
  5
37F
100
AcDbEntity
  8
RACCORDO
100
AcDbPolyline
 62
7
  6
CONTINUOUS
 90
3
 70
0
 10
68.9532655512
 20
27.9590118806
 10
68.9447416968
 20
27.9594048727
 10
68.9414634899
 20
27.9595785441
  0
LWPOLYLINE
  5
380
100
AcDbEntity
  8
RACCORDO
100
AcDbPolyline
 62
250
  6
CONTINUOUS
 90
5
 70
0
 10
46.6092418405
 20
27.7655043142
 10
46.613235156
 20
27.765300942
 10
46.6200642098
 20
27.765059554
 10
46.6296621756
 20
27.764788673
 10
46.6567539672
 20
27.7641958271
  0
LWPOLYLINE
  5
381
100
AcDbEntity
  8
RACCORDO
100
AcDbPolyline
 62
250
  6
CONTINUOUS
 90
5
 70
0
 10
69.1092418405
 20
27.7655043142
 10
69.113235156
 20
27.765300942
 10
69.1200642098
 20
27.765059554
 10
69.1296621756
 20
27.764788673
 10
69.1567539672
 20
27.7641958271
  0
LWPOLYLINE
  5
382
100
AcDbEntity
  8
RACCORDO
100
AcDbPolyline
 62
250
  6
CONTINUOUS
 90
8
 70
0
 10
69.0301691707
 20
27.9214217501
 10
69.0496813521
 20
27.9045523618
 10
69.0668568533
 20
27.8852928297
 10
69.081408275
 20
27.8639654138
 10
69.0930921228
 20
27.8409269836
 10
69.1017128891
 20
27.8165630361
 10
69.1071263219
 20
27.7912812441
 10
69.1092418352
 20
27.7655046411
  0
LWPOLYLINE
  5
383
100
AcDbEntity
  8
RACCORDO
100
AcDbPolyline
 62
250
  6
CONTINUOUS
 90
5
 70
0
 10
52.373283647
 20
27.9578029842
 10
52.3616184201
 20
27.9550939148
 10
52.337183643
 20
27.9469056495
 10
52.3140112075
 20
27.9356185725
 10
52.2924888507
 20
27.9214215469
  0
LINE
  5
384
100
AcDbEntity
  8
RACCORDO
100
AcDbLine
 62
250
  6
CONTINUOUS
 10
52.2134164545
 20
27.7655046411
 11
52.4075859121
 21
27.8042438372
  0
LINE
  5
385
100
AcDbEntity
  8
RACCORDO
100
AcDbLine
 62
7
  6
CONTINUOUS
 10
52.373283647
 20
27.9578029842
 11
52.5691824926
 21
27.9968873327
  0
LINE
  5
386
100
AcDbEntity
  8
RACCORDO
100
AcDbLine
 62
250
  6
CONTINUOUS
 10
68.9150723777
 20
27.8042438372
 11
69.1092418353
 21
27.7655046411
  0
LINE
  5
387
100
AcDbEntity
  8
RACCORDO
100
AcDbLine
 62
7
  6
CONTINUOUS
 10
68.7534757972
 20
27.9968873327
 11
68.9491642582
 21
27.9578450768
  0
LWPOLYLINE
  5
388
100
AcDbEntity
  8
RACCORDO
100
AcDbPolyline
 62
250
  6
CONTINUOUS
 90
5
 70
0
 10
68.9491935019
 20
27.95783924
 10
68.9610396668
 20
27.9550939684
 10
68.9854743895
 20
27.9469057548
 10
69.0086468046
 20
27.9356187308
 10
69.0301691707
 20
27.9214217501
  0
LINE
  5
389
100
AcDbEntity
  8
RACCORDO
100
AcDbLine
 62
7
  6
CONTINUOUS
 10
74.7014183436
 20
-18.014156619
 11
74.8903788675
 21
-17.8992167102
  0
LINE
  5
38A
100
AcDbEntity
  8
RACCORDO
100
AcDbLine
 62
7
  6
CONTINUOUS
 10
74.8903788675
 20
26.9007832898
 11
74.7014183436
 21
27.0157231986
  0
LWPOLYLINE
  5
38B
100
AcDbEntity
  8
0
100
AcDbPolyline
 62
7
  6
CONTINUOUS
 90
3
 70
0
 43
0.3500000006
 10
91.6684681091
 20
3.9650693207
 10
91.6684681091
 20
2.4650688629
 10
89.3113297119
 20
3.1079268494
  0
LWPOLYLINE
  5
38C
100
AcDbEntity
  8
0
100
AcDbPolyline
 62
7
  6
CONTINUOUS
 90
3
 70
0
 43
0.3500000006
 10
91.6684681091
 20
1.6079263916
 10
91.6684681091
 20
0.1079259338
 10
89.3113297119
 20
0.7507839203
  0
LWPOLYLINE
  5
38D
100
AcDbEntity
  8
0
100
AcDbPolyline
 62
7
  6
CONTINUOUS
 90
3
 70
0
 43
0.3500000006
 10
99.6684705505
 20
3.6436403275
 10
99.6684705505
 20
2.1436398697
 10
97.3113321533
 20
2.7864978561
  0
LWPOLYLINE
  5
38E
100
AcDbEntity
  8
0
100
AcDbPolyline
 62
7
  6
CONTINUOUS
 90
3
 70
0
 43
0.3500000006
 10
60.1256142883
 20
39.3936399078
 10
58.6256138306
 20
39.3936399078
 10
59.268471817
 20
41.7507828369
  0
LWPOLYLINE
  5
38F
100
AcDbEntity
  8
0
100
AcDbPolyline
 62
7
  6
CONTINUOUS
 90
3
 70
0
 43
0.3500000006
 10
57.7684713593
 20
39.3936399078
 10
56.2684709015
 20
39.3936399078
 10
56.9113288879
 20
41.7507828369
  0
LWPOLYLINE
  5
390
100
AcDbEntity
  8
0
100
AcDbPolyline
 62
7
  6
CONTINUOUS
 90
13
 70
0
 43
0.3500000006
 10
63.1256152039
 20
40.465066864
 10
62.8398995361
 20
40.6793558807
 10
62.8398995361
 20
41.3222138672
 10
63.1256152039
 20
41.7507828369
 10
63.7684731903
 20
41.7507828369
 10
64.0541843262
 20
41.3222138672
 10
64.0541843262
 20
40.6793558807
 10
63.7684731903
 20
40.465066864
 10
64.19704216
 20
40.0364978943
 10
64.19704216
 20
39.179355423
 10
63.7684731903
 20
38.7507819214
 10
63.1256152039
 20
38.7507819214
 10
62.6970417023
 20
39.179355423
  0
LWPOLYLINE
  5
391
100
AcDbEntity
  8
0
100
AcDbPolyline
 62
7
  6
CONTINUOUS
 90
3
 70
0
 43
0.3500000006
 10
0.9957051637
 20
48.8936382751
 10
1.8528479891
 20
49.7507852783
 10
1.8528479891
 20
46.7507843628
  0
LINE
  5
392
100
AcDbEntity
  8
RACCORDO
100
AcDbLine
 62
7
  6
CONTINUOUS
 10
5.2099908622
 20
-18.9992167102
 11
8.9779427268
 21
-18.9334468657
  0
LINE
  5
393
100
AcDbEntity
  8
DRAFT
100
AcDbLine
 62
7
  6
CONTINUOUS
 10
5.2099908622
 20
-18.6791252719
 11
9.1768159334
 21
-18.5998071096
  0
LINE
  5
394
100
AcDbEntity
  8
DRAFT
100
AcDbLine
 62
7
  6
CONTINUOUS
 10
5.2099908622
 20
-18.1623833321
 11
7.873045149
 21
-18.1392329996
  0
LINE
  5
395
100
AcDbEntity
  8
DRAFT
100
AcDbLine
 62
7
  6
CONTINUOUS
 10
7.873045149
 20
-18.1392329996
 11
9.1850293134
 21
-18.1292628831
  0
LINE
  5
396
100
AcDbEntity
  8
DRAFT
100
AcDbLine
 62
7
  6
CONTINUOUS
 10
10.8274459272
 20
-17.6992167102
 11
11.3099908622
 21
-17.6992167102
  0
LINE
  5
397
100
AcDbEntity
  8
ASSI
100
AcDbLine
 62
7
  6
CONTINUOUS
 10
5.2099908622
 20
-17.8992167102
 11
-2.9012641577
 21
-17.4741238474
  0
LINE
  5
398
100
AcDbEntity
  8
ASSI
100
AcDbLine
 62
250
  6
CONTINUOUS
 10
5.2099908622
 20
-17.3989878581
 11
-2.8838223828
 21
-16.97480908
  0
LWPOLYLINE
  5
399
100
AcDbEntity
  8
ASSI
100
AcDbPolyline
 62
250
  6
CONTINUOUS
 90
28
 70
0
 10
-2.8838223828
 20
-16.97480908
 10
-2.9107858452
 20
-16.9726840635
 10
-2.9375471804
 20
-16.9690913605
 10
-2.9641063885
 20
-16.9640309711
 10
-2.9905693622
 20
-16.9574840938
 10
-3.0168302087
 20
-16.94946953
 10
-3.0425712498
 20
-16.9400436839
 10
-3.0677792341
 20
-16.9291798494
 10
-3.092467413
 20
-16.9169047326
 10
-3.1163578624
 20
-16.9033548562
 10
-3.1394207674
 20
-16.8885274044
 10
-3.1616859428
 20
-16.872425193
 10
-3.18296491
 20
-16.8551931916
 10
-3.2032462283
 20
-16.8368279199
 10
-3.2225413383
 20
-16.8173328582
 10
-3.2406960824
 20
-16.7968634175
 10
-3.2577064628
 20
-16.7754081693
 10
-3.2735764774
 20
-16.7529785421
 10
-3.2881639617
 20
-16.7297642324
 10
-3.3014662039
 20
-16.7057353328
 10
-3.3134859158
 20
-16.6809217507
 10
-3.3240890679
 20
-16.655602905
 10
-3.3332487516
 20
-16.6297654724
 10
-3.3409918754
 20
-16.6034227762
 10
-3.3472651365
 20
-16.5768942046
 10
-3.352050767
 20
-16.5502862206
 10
-3.3553665348
 20
-16.5234923614
 10
-3.3572124398
 20
-16.4965126269
  0
LWPOLYLINE
  5
39A
100
AcDbEntity
  8
0
100
AcDbPolyline
 62
7
  6
CONTINUOUS
 90
10
 70
0
 43
0.3500000006
 10
8.9599909515
 20
38.7507819214
 10
9.8171334229
 20
39.6079243927
 10
10.0314190407
 20
40.465066864
 10
10.0314190407
 20
41.3222138672
 10
9.602847805
 20
41.7507828369
 10
8.9599909515
 20
41.7507828369
 10
8.5314197159
 20
41.3222138672
 10
8.5314197159
 20
40.465066864
 10
8.9599909515
 20
40.0364978943
 10
9.8885623398
 20
40.0364978943
  0
LINE
  5
39B
100
AcDbEntity
  8
ASSI
100
AcDbLine
 62
250
  6
CONTINUOUS
 10
-3.8480442611
 20
-16.5175309406
 11
-3.847218621
 21
-16.5174750891
  0
LINE
  5
39C
100
AcDbEntity
  8
ASSI
100
AcDbLine
 62
250
  6
CONTINUOUS
 10
-3.847218621
 20
-16.5174750891
 11
-3.8406245639
 21
-16.5171557034
  0
LINE
  5
39D
100
AcDbEntity
  8
ASSI
100
AcDbLine
 62
250
  6
CONTINUOUS
 10
-3.8406245639
 20
-16.5171557034
 11
-3.3572124398
 21
-16.4965126269
  0
LINE
  5
39E
100
AcDbEntity
  8
RACCORDO
100
AcDbLine
 62
7
  6
CONTINUOUS
 10
9.2099908622
 20
-16.6992167102
 11
12.9939588373
 21
-16.6661945219
  0
LINE
  5
39F
100
AcDbEntity
  8
DRAFT
100
AcDbLine
 62
7
  6
CONTINUOUS
 10
5.2099908622
 20
-16.3992167102
 11
13.4062598512
 21
-16.3349985287
  0
LINE
  5
3A0
100
AcDbEntity
  8
RACCORDO
100
AcDbLine
 62
7
  6
CONTINUOUS
 10
12.9591989573
 20
-16.6992167102
 11
9.2099908622
 21
-16.6992167102
  0
LWPOLYLINE
  5
3A1
100
AcDbEntity
  8
ASSI
100
AcDbPolyline
 62
250
  6
CONTINUOUS
 90
10
 70
0
 10
-2.9012641577
 20
26.475690427
 10
-2.9017256404
 20
26.4748201366
 10
-2.9020971211
 20
26.472265211
 10
-2.9023773443
 20
26.4680342832
 10
-2.9025653626
 20
26.46214165
 10
-2.9026605406
 20
26.4546072257
 10
-2.9026625566
 20
26.4454564767
 10
-2.902571404
 20
26.4347203307
 10
-2.9023873907
 20
26.4224350733
 10
-2.901743582
 20
26.3933884188
  0
LINE
  5
3A2
100
AcDbEntity
  8
RACCORDO
100
AcDbLine
 62
250
  6
CONTINUOUS
 10
14.2099908622
 20
-14.3029214947
 11
5.2099908622
 21
-12.7159786683
  0
LINE
  5
3A3
100
AcDbEntity
  8
RACCORDO
100
AcDbLine
 62
7
  6
CONTINUOUS
 10
14.2099908622
 20
-13.9992167102
 11
5.2099908622
 21
-12.4122738838
  0
LWPOLYLINE
  5
3A4
100
AcDbEntity
  8
ASSI
100
AcDbPolyline
 62
250
  6
CONTINUOUS
 90
9
 70
0
 10
-2.9012641577
 20
-17.4741238474
 10
-2.9017256345
 20
-17.4732535573
 10
-2.9020971096
 20
-17.470698632
 10
-2.9023773275
 20
-17.4664677044
 10
-2.9025653408
 20
-17.4605750716
 10
-2.902660514
 20
-17.4530406475
 10
-2.9026625258
 20
-17.4438898987
 10
-2.9025713693
 20
-17.4331537529
 10
-2.9023873526
 20
-17.4208684956
  0
LWPOLYLINE
  5
3A5
100
AcDbEntity
  8
0
100
AcDbPolyline
 62
7
  6
CONTINUOUS
 90
3
 70
0
 43
0.3500000006
 10
5.7814194431
 20
47.0364954987
 10
5.7099910927
 20
46.8222110138
 10
5.5671338253
 20
46.5364953461
  0
LWPOLYLINE
  5
3A6
100
AcDbEntity
  8
ASSI
100
AcDbPolyline
 62
250
  6
CONTINUOUS
 90
16
 70
0
 10
-3.3572124398
 20
-16.4965126269
 10
-3.4670799187
 20
-13.6985608154
 10
-3.5612574638
 20
-10.9000454379
 10
-3.6397450753
 20
-8.1009664944
 10
-3.7025469685
 20
-5.3011970125
 10
-3.749658928
 20
-2.5008639646
 10
-3.7810683073
 20
0.2996517322
 10
-3.796770891
 20
3.1003448625
 10
-3.7967708944
 20
5.9012206417
 10
-3.7810683169
 20
8.7019137978
 10
-3.7496589438
 20
11.5024295326
 10
-3.7025469898
 20
14.3027626444
 10
-3.639745098
 20
17.1025322554
 10
-3.561257483
 20
19.9016114065
 10
-3.4670799302
 20
22.7001270569
 10
-3.3572124398
 20
25.4980792065
  0
LWPOLYLINE
  5
3A7
100
AcDbEntity
  8
ASSI
100
AcDbPolyline
 62
250
  6
CONTINUOUS
 90
28
 70
0
 10
-3.3572124398
 20
25.4980792065
 10
-3.3553665347
 20
25.5250589429
 10
-3.3520507665
 20
25.5518528039
 10
-3.3472651353
 20
25.5784607897
 10
-3.3409918734
 20
25.6049893631
 10
-3.3332487484
 20
25.6313320613
 10
-3.3240890637
 20
25.6571694952
 10
-3.3134859108
 20
25.6824883415
 10
-3.3014661983
 20
25.7073019236
 10
-3.2881639555
 20
25.7313308229
 10
-3.2735764709
 20
25.7545451319
 10
-3.2577064561
 20
25.7769747581
 10
-3.2406960753
 20
25.7984300055
 10
-3.2225413309
 20
25.8188994456
 10
-3.2032462206
 20
25.8383945069
 10
-3.1829649018
 20
25.8567597783
 10
-3.1616859339
 20
25.8739917794
 10
-3.1394207574
 20
25.8900939906
 10
-3.1163578519
 20
25.904921442
 10
-3.0924674021
 20
25.9184713179
 10
-3.0677792231
 20
25.9307464341
 10
-3.0425712393
 20
25.9416102678
 10
-3.0168301996
 20
25.9510361129
 10
-2.990569355
 20
25.9590506755
 10
-2.9641063833
 20
25.9655975519
 10
-2.9375471769
 20
25.9706579408
 10
-2.9107858434
 20
25.9742506433
 10
-2.8838223828
 20
25.9763756596
  0
LINE
  5
3A8
100
AcDbEntity
  8
ASSI
100
AcDbLine
 62
250
  6
CONTINUOUS
 10
-2.8909546546
 20
26.1194978153
 11
-2.8838223828
 21
25.9763756596
  0
LINE
  5
3A9
100
AcDbEntity
  8
ASSI
100
AcDbLine
 62
250
  6
CONTINUOUS
 10
-2.8957276367
 20
26.2258992037
 11
-2.8909546546
 21
26.1194978153
  0
LINE
  5
3AA
100
AcDbEntity
  8
ASSI
100
AcDbLine
 62
250
  6
CONTINUOUS
 10
-2.8985902449
 20
26.2971719541
 11
-2.8957276367
 21
26.2258992037
  0
LINE
  5
3AB
100
AcDbEntity
  8
ASSI
100
AcDbLine
 62
250
  6
CONTINUOUS
 10
-2.9007398276
 20
26.3587088826
 11
-2.8985902449
 21
26.2971719541
  0
LINE
  5
3AC
100
AcDbEntity
  8
ASSI
100
AcDbLine
 62
250
  6
CONTINUOUS
 10
-2.901743582
 20
26.3933884188
 11
-2.9007398276
 21
26.3587088826
  0
LINE
  5
3AD
100
AcDbEntity
  8
ASSI
100
AcDbLine
 62
250
  6
CONTINUOUS
 10
-2.9023873526
 20
-17.4208684956
 11
-2.9017435385
 21
-17.3918218414
  0
LINE
  5
3AE
100
AcDbEntity
  8
ASSI
100
AcDbLine
 62
250
  6
CONTINUOUS
 10
-2.9017435385
 20
-17.3918218414
 11
-2.9007397807
 21
-17.3571423054
  0
LINE
  5
3AF
100
AcDbEntity
  8
ASSI
100
AcDbLine
 62
250
  6
CONTINUOUS
 10
-2.9007397807
 20
-17.3571423054
 11
-2.8985901973
 21
-17.295605377
  0
LINE
  5
3B0
100
AcDbEntity
  8
ASSI
100
AcDbLine
 62
250
  6
CONTINUOUS
 10
-2.8985901973
 20
-17.295605377
 11
-2.8957275937
 21
-17.2243326265
  0
LINE
  5
3B1
100
AcDbEntity
  8
ASSI
100
AcDbLine
 62
250
  6
CONTINUOUS
 10
-2.8957275937
 20
-17.2243326265
 11
-2.8909546259
 21
-17.1179312374
  0
LINE
  5
3B2
100
AcDbEntity
  8
ASSI
100
AcDbLine
 62
250
  6
CONTINUOUS
 10
-2.8909546259
 20
-17.1179312374
 11
-2.8838223828
 21
-16.97480908
  0
LWPOLYLINE
  5
3B3
100
AcDbEntity
  8
0
100
AcDbPolyline
 62
7
  6
CONTINUOUS
 90
4
 70
0
 43
0.3500000006
 10
2.7099907436
 20
47.1793533325
 10
2.7099907436
 20
48.0364958038
 10
3.1385622625
 20
48.4650693054
 10
3.7814193993
 20
48.4650693054
  0
LINE
  5
3B4
100
AcDbEntity
  8
ASSI
100
AcDbLine
 62
7
  6
CONTINUOUS
 10
5.2099908622
 20
26.9007832898
 11
5.2099908622
 21
-17.8992167102
  0
LINE
  5
3B5
100
AcDbEntity
  8
DRAFT
100
AcDbLine
 62
7
  6
CONTINUOUS
 10
5.2099908622
 20
-18.9992167102
 11
5.2099908622
 21
-17.8992167102
  0
LINE
  5
3B6
100
AcDbEntity
  8
DRAFT
100
AcDbLine
 62
7
  6
CONTINUOUS
 10
5.2099908622
 20
26.9007832898
 11
5.2099908622
 21
28.0007832898
  0
LINE
  5
3B7
100
AcDbEntity
  8
RACCORDO
100
AcDbLine
 62
7
  6
CONTINUOUS
 10
9.1744217845
 20
27.7385343876
 11
9.1768159334
 21
27.6013736893
  0
LINE
  5
3B8
100
AcDbEntity
  8
DRAFT
100
AcDbLine
 62
7
  6
CONTINUOUS
 10
9.1768159334
 20
27.6013736893
 11
9.2099908622
 21
25.7007832898
  0
LINE
  5
3B9
100
AcDbEntity
  8
DRAFT
100
AcDbLine
 62
7
  6
CONTINUOUS
 10
9.2099908622
 20
-16.6992167102
 11
9.1768159334
 21
-18.5998071096
  0
LINE
  5
3BA
100
AcDbEntity
  8
RACCORDO
100
AcDbLine
 62
7
  6
CONTINUOUS
 10
9.1768159334
 20
-18.5998071096
 11
9.1744217845
 21
-18.736967808
  0
LINE
  5
3BB
100
AcDbEntity
  8
DRAFT
100
AcDbLine
 62
7
  6
CONTINUOUS
 10
10.8099908622
 20
-16.6992167102
 11
10.8274459272
 21
-17.6992167102
  0
LINE
  5
3BC
100
AcDbEntity
  8
DRAFT
100
AcDbLine
 62
7
  6
CONTINUOUS
 10
10.8274459272
 20
26.7007832898
 11
10.8099908622
 21
25.7007832898
  0
LINE
  5
3BD
100
AcDbEntity
  8
RACCORDO
100
AcDbLine
 62
7
  6
CONTINUOUS
 10
14.2099908622
 20
-13.9992167102
 11
14.2099908622
 21
-15.5312675178
  0
LINE
  5
3BE
100
AcDbEntity
  8
RACCORDO
100
AcDbLine
 62
7
  6
CONTINUOUS
 10
14.2099908622
 20
23.0007832898
 11
14.2099908622
 21
24.5328340974
  0
LINE
  5
3BF
100
AcDbEntity
  8
RACCORDO
100
AcDbLine
 62
7
  6
CONTINUOUS
 10
5.2099908622
 20
21.4138404634
 11
14.2099908622
 21
23.0007832898
  0
LINE
  5
3C0
100
AcDbEntity
  8
RACCORDO
100
AcDbLine
 62
250
  6
CONTINUOUS
 10
5.2099908622
 20
21.717545248
 11
14.2099908622
 21
23.3044880743
  0
LWPOLYLINE
  5
3C1
100
AcDbEntity
  8
ASSI
100
AcDbPolyline
 62
250
  6
CONTINUOUS
 90
4
 70
0
 10
-3.8480217712
 20
25.5190965776
 10
-3.8471962561
 20
25.5190407267
 10
-3.8447205974
 20
25.518915518
 10
-3.3572124398
 20
25.4980792065
  0
LWPOLYLINE
  5
3C2
100
AcDbEntity
  8
0
100
AcDbPolyline
 62
7
  6
CONTINUOUS
 90
10
 70
0
 43
0.3500000006
 10
5.7099910927
 20
47.2507845154
 10
5.7814194431
 20
47.1079266815
 10
5.7814194431
 20
47.0364954987
 10
5.6385621758
 20
46.8936421967
 10
5.5671338253
 20
46.8936421967
 10
5.4957049084
 20
46.9650688477
 10
5.4957049084
 20
47.0364954987
 10
5.5671338253
 20
47.1793533325
 10
5.6385621758
 20
47.2507845154
 10
5.7099910927
 20
47.2507845154
  0
LINE
  5
3C3
100
AcDbEntity
  8
RACCORDO
100
AcDbLine
 62
7
  6
CONTINUOUS
 10
13.4062598512
 20
-16.3349985287
 11
13.1336348864
 21
-16.6076234936
  0
LINE
  5
3C4
100
AcDbEntity
  8
RACCORDO
100
AcDbLine
 62
7
  6
CONTINUOUS
 10
13.1006203136
 20
-16.6406380664
 11
13.0420416698
 21
-16.6992167102
  0
LINE
  5
3C5
100
AcDbEntity
  8
DRAFT
100
AcDbLine
 62
7
  6
CONTINUOUS
 10
13.4062598512
 20
-16.3349985287
 11
14.2099908622
 21
-15.5312675178
  0
LINE
  5
3C6
100
AcDbEntity
  8
ASSI
100
AcDbLine
 62
250
  6
CONTINUOUS
 10
-2.8838223828
 20
25.9763756596
 11
5.2099908622
 21
26.4005544378
  0
LINE
  5
3C7
100
AcDbEntity
  8
RACCORDO
100
AcDbLine
 62
7
  6
CONTINUOUS
 10
9.2099908622
 20
25.7007832898
 11
12.9591989573
 21
25.7007832898
  0
LINE
  5
3C8
100
AcDbEntity
  8
DRAFT
100
AcDbLine
 62
7
  6
CONTINUOUS
 10
5.2099908622
 20
25.4007832898
 11
13.4062598512
 21
25.3365651084
  0
LINE
  5
3C9
100
AcDbEntity
  8
RACCORDO
100
AcDbLine
 62
7
  6
CONTINUOUS
 10
12.9939588373
 20
25.6677611016
 11
9.2099908622
 21
25.7007832898
  0
LINE
  5
3CA
100
AcDbEntity
  8
RACCORDO
100
AcDbLine
 62
7
  6
CONTINUOUS
 10
13.1336348864
 20
25.6091900732
 11
13.4062598512
 21
25.3365651084
  0
LINE
  5
3CB
100
AcDbEntity
  8
DRAFT
100
AcDbLine
 62
7
  6
CONTINUOUS
 10
13.4062598512
 20
25.3365651084
 11
14.2099908622
 21
24.5328340974
  0
LINE
  5
3CC
100
AcDbEntity
  8
RACCORDO
100
AcDbLine
 62
7
  6
CONTINUOUS
 10
13.1006203136
 20
25.6422046461
 11
13.0420416698
 21
25.7007832898
  0
LINE
  5
3CD
100
AcDbEntity
  8
RACCORDO
100
AcDbLine
 62
7
  6
CONTINUOUS
 10
13.0420416698
 20
-16.6992167102
 11
11.3099908622
 21
-17.6992167102
  0
LINE
  5
3CE
100
AcDbEntity
  8
ASSI
100
AcDbLine
 62
7
  6
CONTINUOUS
 10
-2.9012641577
 20
26.475690427
 11
5.2099908622
 21
26.9007832898
  0
LINE
  5
3CF
100
AcDbEntity
  8
DRAFT
100
AcDbLine
 62
7
  6
CONTINUOUS
 10
10.8274459272
 20
26.7007832898
 11
11.3099908622
 21
26.7007832898
  0
LWPOLYLINE
  5
3D0
100
AcDbEntity
  8
0
100
AcDbPolyline
 62
7
  6
CONTINUOUS
 90
8
 70
0
 43
0.3500000006
 10
6.7814191818
 20
46.7507843628
 10
7.6385622196
 20
46.7507843628
 10
8.0671334553
 20
47.1793533325
 10
8.0671334553
 20
48.0364958038
 10
7.6385622196
 20
48.4650693054
 10
6.7814191818
 20
48.4650693054
 10
6.7814191818
 20
49.7507852783
 10
8.0671334553
 20
49.7507852783
  0
LINE
  5
3D1
100
AcDbEntity
  8
DRAFT
100
AcDbLine
 62
7
  6
CONTINUOUS
 10
5.2099908622
 20
27.1639499118
 11
9.1850293134
 21
27.1308294627
  0
LINE
  5
3D2
100
AcDbEntity
  8
RACCORDO
100
AcDbLine
 62
7
  6
CONTINUOUS
 10
5.2099908622
 20
28.0007832898
 11
8.9779427268
 21
27.9350134454
  0
LINE
  5
3D3
100
AcDbEntity
  8
DRAFT
100
AcDbLine
 62
7
  6
CONTINUOUS
 10
5.2099908622
 20
27.6806918516
 11
7.8675129996
 21
27.6284801245
  0
LINE
  5
3D4
100
AcDbEntity
  8
DRAFT
100
AcDbLine
 62
7
  6
CONTINUOUS
 10
7.8675129996
 20
27.6284801245
 11
9.1768159334
 21
27.6013736893
  0
LINE
  5
3D5
100
AcDbEntity
  8
RACCORDO
100
AcDbLine
 62
7
  6
CONTINUOUS
 10
11.3099908622
 20
26.7007832898
 11
13.0420416698
 21
25.7007832898
  0
LWPOLYLINE
  5
3D6
100
AcDbEntity
  8
0
100
AcDbPolyline
 62
7
  6
CONTINUOUS
 90
13
 70
0
 43
0.3500000006
 10
3.1385622625
 20
48.4650693054
 10
2.852848011
 20
48.6793537903
 10
2.852848011
 20
49.3222117767
 10
3.1385622625
 20
49.7507852783
 10
3.7814193993
 20
49.7507852783
 10
4.0671336508
 20
49.3222117767
 10
4.0671336508
 20
48.6793537903
 10
3.7814193993
 20
48.4650693054
 10
4.2099909182
 20
48.0364958038
 10
4.2099909182
 20
47.1793533325
 10
3.7814193993
 20
46.7507843628
 10
3.1385622625
 20
46.7507843628
 10
2.7099907436
 20
47.1793533325
  0
ARC
  5
3D7
100
AcDbEntity
  8
DRAFT
100
AcDbCircle
 62
7
  6
CONTINUOUS
 10
60.6613291449
 20
4.5007832898
 40
28.0
100
AcDbArc
 50
235.8789063483
 51
237.0647695028
  0
ARC
  5
3D8
100
AcDbEntity
  8
DRAFT
100
AcDbCircle
 62
7
  6
CONTINUOUS
 10
60.6613291449
 20
4.5007832898
 40
28.0
100
AcDbArc
 50
233.1301023542
 51
234.0372348486
  0
ARC
  5
3D9
100
AcDbEntity
  8
DRAFT
100
AcDbCircle
 62
7
  6
CONTINUOUS
 10
38.1613291449
 20
4.5007832898
 40
28.0
100
AcDbArc
 50
305.9627651514
 51
306.8698976458
  0
ARC
  5
3DA
100
AcDbEntity
  8
DRAFT
100
AcDbCircle
 62
7
  6
CONTINUOUS
 10
38.1613291449
 20
4.5007832898
 40
28.0
100
AcDbArc
 50
302.9352304972
 51
304.1210936517
  0
ARC
  5
3DB
100
AcDbEntity
  8
DRAFT
100
AcDbCircle
 62
7
  6
CONTINUOUS
 10
83.1613291449
 20
4.5007832898
 40
28.0
100
AcDbArc
 50
235.8789063483
 51
237.0647695028
  0
ARC
  5
3DC
100
AcDbEntity
  8
DRAFT
100
AcDbCircle
 62
7
  6
CONTINUOUS
 10
83.1613291449
 20
4.5007832898
 40
28.0
100
AcDbArc
 50
233.1301023542
 51
234.0372348486
  0
ARC
  5
3DD
100
AcDbEntity
  8
DRAFT
100
AcDbCircle
 62
7
  6
CONTINUOUS
 10
60.6613291449
 20
4.5007832898
 40
28.0
100
AcDbArc
 50
305.9627651514
 51
306.8698976458
  0
ARC
  5
3DE
100
AcDbEntity
  8
DRAFT
100
AcDbCircle
 62
7
  6
CONTINUOUS
 10
60.6613291449
 20
4.5007832898
 40
28.0
100
AcDbArc
 50
302.9352304972
 51
304.1210936517
  0
ARC
  5
3DF
100
AcDbEntity
  8
DRAFT
100
AcDbCircle
 62
7
  6
CONTINUOUS
 10
60.6613291449
 20
4.5007832898
 40
28.0
100
AcDbArc
 50
55.8789063483
 51
57.0647695028
  0
ARC
  5
3E0
100
AcDbEntity
  8
DRAFT
100
AcDbCircle
 62
7
  6
CONTINUOUS
 10
60.6613291449
 20
4.5007832898
 40
28.0
100
AcDbArc
 50
53.1301023542
 51
54.0372348486
  0
ARC
  5
3E1
100
AcDbEntity
  8
DRAFT
100
AcDbCircle
 62
7
  6
CONTINUOUS
 10
83.1613291449
 20
4.5007832898
 40
28.0
100
AcDbArc
 50
125.9627651514
 51
126.8698976458
  0
ARC
  5
3E2
100
AcDbEntity
  8
DRAFT
100
AcDbCircle
 62
7
  6
CONTINUOUS
 10
83.1613291449
 20
4.5007832898
 40
28.0
100
AcDbArc
 50
122.9352304972
 51
124.1210936517
  0
ARC
  5
3E3
100
AcDbEntity
  8
DRAFT
100
AcDbCircle
 62
7
  6
CONTINUOUS
 10
38.1613291449
 20
4.5007832898
 40
28.0
100
AcDbArc
 50
55.8789063483
 51
57.0647695028
  0
ARC
  5
3E4
100
AcDbEntity
  8
DRAFT
100
AcDbCircle
 62
7
  6
CONTINUOUS
 10
38.1613291449
 20
4.5007832898
 40
28.0
100
AcDbArc
 50
53.1301023542
 51
54.0372348486
  0
ARC
  5
3E5
100
AcDbEntity
  8
DRAFT
100
AcDbCircle
 62
7
  6
CONTINUOUS
 10
60.6613291449
 20
4.5007832898
 40
28.0
100
AcDbArc
 50
125.9627651514
 51
126.8698976458
  0
ARC
  5
3E6
100
AcDbEntity
  8
DRAFT
100
AcDbCircle
 62
7
  6
CONTINUOUS
 10
60.6613291449
 20
4.5007832898
 40
28.0
100
AcDbArc
 50
122.9352304972
 51
124.1210936517
  0
ARC
  5
3E7
100
AcDbEntity
  8
DRAFT
100
AcDbCircle
 62
7
  6
CONTINUOUS
 10
66.9613291449
 20
27.6007832898
 40
0.5
100
AcDbArc
 50
240.887577224
 51
9.196281579
  0
ARC
  5
3E8
100
AcDbEntity
  8
DRAFT
100
AcDbCircle
 62
7
  6
CONTINUOUS
 10
76.8613291449
 20
27.6007832898
 40
0.5
100
AcDbArc
 50
170.803718421
 51
299.112422776
  0
ARC
  5
3E9
100
AcDbEntity
  8
DRAFT
100
AcDbCircle
 62
7
  6
CONTINUOUS
 10
66.9613291449
 20
-18.5992167102
 40
0.5
100
AcDbArc
 50
350.803718421
 51
119.112422776
  0
ARC
  5
3EA
100
AcDbEntity
  8
DRAFT
100
AcDbCircle
 62
7
  6
CONTINUOUS
 10
76.8613291449
 20
-18.5992167102
 40
0.5
100
AcDbArc
 50
60.887577224
 51
189.196281579
  0
ARC
  5
3EB
100
AcDbEntity
  8
DRAFT
100
AcDbCircle
 62
7
  6
CONTINUOUS
 10
54.3613291449
 20
27.6007832898
 40
0.5
100
AcDbArc
 50
170.803718421
 51
299.112422776
  0
ARC
  5
3EC
100
AcDbEntity
  8
DRAFT
100
AcDbCircle
 62
7
  6
CONTINUOUS
 10
44.4613291449
 20
27.6007832898
 40
0.5
100
AcDbArc
 50
240.887577224
 51
9.1962815791
  0
ARC
  5
3ED
100
AcDbEntity
  8
DRAFT
100
AcDbCircle
 62
7
  6
CONTINUOUS
 10
54.3613291449
 20
-18.5992167102
 40
0.5
100
AcDbArc
 50
60.887577224
 51
189.196281579
  0
ARC
  5
3EE
100
AcDbEntity
  8
DRAFT
100
AcDbCircle
 62
7
  6
CONTINUOUS
 10
44.4613291449
 20
-18.5992167102
 40
0.5
100
AcDbArc
 50
350.8037184209
 51
119.112422776
  0
ARC
  5
3EF
100
AcDbEntity
  8
ASSI
100
AcDbCircle
 62
7
  6
CONTINUOUS
 10
495.7099908622
 20
4.5007832898
 40
500.0
100
AcDbArc
 50
177.5907686986
 51
182.4092313014
  0
ARC
  5
3F0
100
AcDbEntity
  8
ASSI
100
AcDbCircle
 62
7
  6
CONTINUOUS
 10
-2.8489282014
 20
-16.4754943126
 40
1.0
100
AcDbArc
 50
182.4092313014
 51
267.0
  0
ARC
  5
3F1
100
AcDbEntity
  8
ASSI
100
AcDbCircle
 62
7
  6
CONTINUOUS
 10
-2.8489282014
 20
25.4770608923
 40
1.0
100
AcDbArc
 50
93.0
 51
177.5907686986
  0
ARC
  5
3F2
100
AcDbEntity
  8
RACCORDO
100
AcDbCircle
 62
7
  6
CONTINUOUS
 10
12.9591989573
 20
25.5007832898
 40
0.2
100
AcDbArc
 50
45.0
 51
90.0
  0
ARC
  5
3F3
100
AcDbEntity
  8
RACCORDO
100
AcDbCircle
 62
7
  6
CONTINUOUS
 10
12.9591989573
 20
-16.4992167102
 40
0.2
100
AcDbArc
 50
270.0
 51
315.0
  0
ARC
  5
3F4
100
AcDbEntity
  8
RACCORDO
100
AcDbCircle
 62
7
  6
CONTINUOUS
 10
12.9922135302
 20
25.467768717
 40
0.2
100
AcDbArc
 50
45.0
 51
89.5
  0
ARC
  5
3F5
100
AcDbEntity
  8
RACCORDO
100
AcDbCircle
 62
7
  6
CONTINUOUS
 10
8.9744522455
 20
27.7350439063
 40
0.2
100
AcDbArc
 50
1.0
 51
89.0
  0
ARC
  5
3F6
100
AcDbEntity
  8
RACCORDO
100
AcDbCircle
 62
7
  6
CONTINUOUS
 10
12.9922135302
 20
-16.4662021373
 40
0.2
100
AcDbArc
 50
270.5
 51
315.0
  0
ARC
  5
3F7
100
AcDbEntity
  8
RACCORDO
100
AcDbCircle
 62
7
  6
CONTINUOUS
 10
8.9744522455
 20
-18.7334773267
 40
0.2
100
AcDbArc
 50
271.0
 51
359.0
  0
ELLIPSE
  5
3F8
100
AcDbEntity
  8
ASSI
100
AcDbEllipse
 62
7
  6
CONTINUOUS
 10
82.5612529809
 20
-17.3985305372
 30
0.0
 11
-0.1582391023
 21
0.4751033573
 31
0.0
 40
0.9984778551
 41
-3.4626430041
 42
-1.8927600658
  0
ELLIPSE
  5
3F9
100
AcDbEntity
  8
ASSI
100
AcDbEllipse
 62
7
  6
CONTINUOUS
 10
82.5612529809
 20
26.4000971168
 30
0.0
 11
0.1582391023
 21
0.4751033573
 31
0.0
 40
0.9984778551
 41
-1.2488325878
 42
0.3210503505
  0
ELLIPSE
  5
3FA
100
AcDbEntity
  8
ASSI
100
AcDbEllipse
 62
7
  6
CONTINUOUS
 10
38.7614053089
 20
-17.3985305372
 30
0.0
 11
0.1582391023
 21
0.4751033573
 31
0.0
 40
0.9984778551
 41
-4.3904252414
 42
-2.8205423031
  0
ELLIPSE
  5
3FB
100
AcDbEntity
  8
ASSI
100
AcDbEllipse
 62
7
  6
CONTINUOUS
 10
38.7614053089
 20
26.4000971168
 30
0.0
 11
-0.1582391023
 21
0.4751033573
 31
0.0
 40
0.9984778551
 41
-0.3210503505
 42
1.2488325878
  0
ELLIPSE
  5
3FC
100
AcDbEntity
  8
RACCORDO
100
AcDbEllipse
 62
7
  6
CONTINUOUS
 10
75.1083137405
 20
27.8007528242
 30
0.0
 11
-0.1969134736
 21
-0.039286661
 31
0.0
 40
0.9960441251
 41
4.514700471
 42
6.0680435053
  0
ELLIPSE
  5
3FD
100
AcDbEntity
  8
RACCORDO
100
AcDbEllipse
 62
7
  6
CONTINUOUS
 10
52.6083137405
 20
-18.7991862446
 30
0.0
 11
0.1969134736
 21
-0.039286661
 31
0.0
 40
0.9960441251
 41
-2.9264508517
 42
-1.3731078174
  0
ELLIPSE
  5
3FE
100
AcDbEntity
  8
RACCORDO
100
AcDbEllipse
 62
7
  6
CONTINUOUS
 10
46.9201663017
 20
-18.0127788036
 30
0.0
 11
0.3000386547
 21
0.0000221099
 31
0.0
 40
0.0525290511
 41
-3.05546315
 42
-1.5721991713
  0
ELLIPSE
  5
3FF
100
AcDbEntity
  8
RACCORDO
100
AcDbEllipse
 62
7
  6
CONTINUOUS
 10
75.1083137405
 20
-18.7991862446
 30
0.0
 11
0.1969134736
 21
-0.039286661
 31
0.0
 40
0.9960441251
 41
-2.9264508517
 42
-1.3731078174
  0
ELLIPSE
  5
400
100
AcDbEntity
  8
RACCORDO
100
AcDbEllipse
 62
7
  6
CONTINUOUS
 10
74.4024919881
 20
-18.0127788036
 30
0.0
 11
0.3000386547
 21
-0.0000221099
 31
0.0
 40
0.0525290511
 41
-1.5693934823
 42
-0.0861295036
  0
ELLIPSE
  5
401
100
AcDbEntity
  8
RACCORDO
100
AcDbEllipse
 62
7
  6
CONTINUOUS
 10
68.7143445493
 20
-18.7991862446
 30
0.0
 11
0.1969134736
 21
0.039286661
 31
0.0
 40
0.9960441251
 41
4.514700471
 42
6.0680435053
  0
ELLIPSE
  5
402
100
AcDbEntity
  8
RACCORDO
100
AcDbEllipse
 62
7
  6
CONTINUOUS
 10
69.4201663017
 20
-18.0127788036
 30
0.0
 11
0.3000386547
 21
0.0000221099
 31
0.0
 40
0.0525290511
 41
-3.05546315
 42
-1.5721991713
  0
ELLIPSE
  5
403
100
AcDbEntity
  8
RACCORDO
100
AcDbEllipse
 62
7
  6
CONTINUOUS
 10
68.7143445493
 20
27.8007528242
 30
0.0
 11
-0.1969134736
 21
0.039286661
 31
0.0
 40
0.9960441251
 41
-2.9264508517
 42
-1.3731078174
  0
ELLIPSE
  5
404
100
AcDbEntity
  8
RACCORDO
100
AcDbEllipse
 62
7
  6
CONTINUOUS
 10
51.9024919881
 20
-18.0127788036
 30
0.0
 11
0.3000386547
 21
-0.0000221099
 31
0.0
 40
0.0525290511
 41
-1.5693934823
 42
-0.0861295036
  0
ELLIPSE
  5
405
100
AcDbEntity
  8
RACCORDO
100
AcDbEllipse
 62
7
  6
CONTINUOUS
 10
51.9024919881
 20
27.0143453832
 30
0.0
 11
0.3000386547
 21
0.0000221099
 31
0.0
 40
0.0525290511
 41
0.0861295036
 42
1.5693934823
  0
ELLIPSE
  5
406
100
AcDbEntity
  8
RACCORDO
100
AcDbEllipse
 62
7
  6
CONTINUOUS
 10
69.4201663017
 20
27.0143453832
 30
0.0
 11
0.3000386547
 21
-0.0000221099
 31
0.0
 40
0.0525290511
 41
1.5721991713
 42
3.05546315
  0
ELLIPSE
  5
407
100
AcDbEntity
  8
RACCORDO
100
AcDbEllipse
 62
7
  6
CONTINUOUS
 10
46.2143445493
 20
27.8007528242
 30
0.0
 11
-0.1969134736
 21
0.039286661
 31
0.0
 40
0.9960441251
 41
-2.9264508517
 42
-1.3731078174
  0
ELLIPSE
  5
408
100
AcDbEntity
  8
RACCORDO
100
AcDbEllipse
 62
7
  6
CONTINUOUS
 10
74.4024919881
 20
27.0143453832
 30
0.0
 11
0.3000386547
 21
0.0000221099
 31
0.0
 40
0.0525290511
 41
0.0861295036
 42
1.5693934823
  0
ELLIPSE
  5
409
100
AcDbEntity
  8
RACCORDO
100
AcDbEllipse
 62
7
  6
CONTINUOUS
 10
46.2143445493
 20
-18.7991862446
 30
0.0
 11
0.1969134736
 21
0.039286661
 31
0.0
 40
0.9960441251
 41
4.514700471
 42
6.0680435053
  0
ELLIPSE
  5
40A
100
AcDbEntity
  8
RACCORDO
100
AcDbEllipse
 62
7
  6
CONTINUOUS
 10
46.9201663017
 20
27.0143453832
 30
0.0
 11
0.3000386547
 21
-0.0000221099
 31
0.0
 40
0.0525290511
 41
1.5721991713
 42
3.05546315
  0
ELLIPSE
  5
40B
100
AcDbEntity
  8
RACCORDO
100
AcDbEllipse
 62
7
  6
CONTINUOUS
 10
52.6083137405
 20
27.8007528242
 30
0.0
 11
-0.1969134736
 21
-0.039286661
 31
0.0
 40
0.9960441251
 41
4.514700471
 42
6.0680435053
  0
ENDSEC
  0
SECTION
  2
OBJECTS
  0
DICTIONARY
  5
C
100
AcDbDictionary
280
0
281
1
  3
ACAD_GROUP
350
D
  3
ACAD_MLINESTYLE
350
17
  3
ACAD_LAYOUT
350
1A
  3
ACAD_PLOTSETTINGS
350
19
  3
ACAD_PLOTSTYLENAME
350
E
  0
DICTIONARY
  5
D
102
{ACAD_REACTORS
330
C
102
}
100
AcDbDictionary
280
0
281
1
  0
ACDBDICTIONARYWDFLT
  5
E
102
{ACAD_REACTORS
330
C
102
}
100
AcDbDictionary
281
1
  3
Normal
350
F
100
AcDbDictionaryWithDefault
340
F
  0
DICTIONARY
  5
17
102
{ACAD_REACTORS
330
C
102
}
100
AcDbDictionary
280
0
281
1
  3
Standard
350
18
  0
DICTIONARY
  5
19
102
{ACAD_REACTORS
330
C
102
}
100
AcDbDictionary
281
1
  0
DICTIONARY
  5
1A
102
{ACAD_REACTORS
330
C
102
}
100
AcDbDictionary
281
1
  3
Model
350
40C
  3
Layout1
350
40D
  0
ACDBPLACEHOLDER
  5
F
102
{ACAD_REACTORS
330
E
102
}
  0
MLINESTYLE
  5
18
102
{ACAD_REACTORS
330
17
102
}
100
AcDbMlineStyle
  2
STANDARD
 70
0
  3

 62
256
 51
90.0
 52
90.0
 71
2
 49
0.5
 62
256
  6
BYLAYER
 49
-0.5
 62
256
  6
BYLAYER
  0
LAYOUT
  5
40C
102
{ACAD_REACTORS
330
1A
102
}
100
AcDbPlotSettings
  1

  2
none_device
  4
ISO_A4_(297.00_x_210.00_MM)
  6

 40
0.0
 41
0.0
 42
0.0
 43
0.0
 44
297.0
 45
210.0
 46
0.0
 47
0.0
 48
0.0
 49
0.0
140
0.0
141
0.0
142
1.0
143
1.0
 70
1024
 72
1
 73
0
 74
0
  7

 75
0
147
1.0
148
0.0
149
0.0
100
AcDbLayout
  1
Model
 70
0
 71
0
 10
0.0
 20
0.0
 11
297.0
 21
210.0
 12
0.0
 22
0.0
 32
0.0
 14
0.0
 24
0.0
 34
0.0
 15
0.0
 25
0.0
 35
0.0
146
0.0
 13
0.0
 23
0.0
 33
0.0
 16
1.0
 26
0.0
 36
0.0
 17
0.0
 27
1.0
 37
0.0
 76
0
330
212
345
0
346
0
  0
LAYOUT
  5
40D
102
{ACAD_REACTORS
330
1A
102
}
100
AcDbPlotSettings
  1

  2
none_device
  4
ISO_A4_(297.00_x_210.00_MM)
  6

 40
0.0
 41
0.0
 42
0.0
 43
0.0
 44
297.0
 45
210.0
 46
0.0
 47
0.0
 48
0.0
 49
0.0
140
0.0
141
0.0
142
1.0
143
1.0
 70
0
 72
1
 73
0
 74
0
  7

 75
0
147
1.0
148
0.0
149
0.0
100
AcDbLayout
  1
Layout1
 70
0
 71
1
 10
0.0
 20
0.0
 11
297.0
 21
210.0
 12
0.0
 22
0.0
 32
0.0
 14
0.0
 24
0.0
 34
0.0
 15
0.0
 25
0.0
 35
0.0
146
0.0
 13
0.0
 23
0.0
 33
0.0
 16
1.0
 26
0.0
 36
0.0
 17
0.0
 27
1.0
 37
0.0
 76
0
330
213
345
0
346
0
  0
ENDSEC
  0
EOF
