  0
SECTION
  2
HEADER
  9
$ACADVER
  1
AC1024
  9
$DWGCODEPAGE
  3
ANSI_1252
  9
$EXTMAX
 10
297.0
 20
210.0
 30
0.0
  9
$EXTMIN
 10
0.0
 20
0.0
 30
0.0
  9
$LIMMIN
 10
0.0
 20
0.0
  9
$LIMMAX
 10
297.0
 20
210.0
  9
$VIEWCTR
 10
148.5
 20
105.0
  9
$VIEWSIZE
 40
210.0
  9
$CLAYER
  8
0
  9
$LTSCALE
 40
16.335
  9
$CELTYPE
  6
BYLAYER
  9
$DIMSCALE
 40
1.0
  9
$DIMASZ
 40
3.0
  9
$DIMEXO
 40
0.5
  9
$DIMDLI
 40
11.286
  9
$DIMEXE
 40
1.5
  9
$DIMCEN
 40
2.673
  9
$DIMLFAC
 40
1.0
  9
$DIMBLK
  1
_FILLED
  9
$DIMALT
 70
0
  9
$DIMALTF
 40
0.0393700787
  9
$DIMTXT
 40
3.0
  9
$DIMTOL
 70
1
  9
$DIMLIM
 70
0
  9
$DIMTFAC
 40
1.0
  9
$DIMTP
 40
0.01
  9
$DIMTM
 40
0.01
  9
$DIMGAP
 40
0.625
  9
$DIMDSEP
 70
44
  9
$AUNITS
 70
0
  9
$PDMODE
 70
3
  9
$PDSIZE
 40
3.0
  9
$HANDSEED
  5
686
  9
$TILEMODE
 70
1
  9
$MEASUREMENT
 70
1
  9
$INSUNITS
 70
4
  0
ENDSEC
  0
SECTION
  2
CLASSES
  0
CLASS
  1
ACDBDICTIONARYWDFLT
  2
AcDbDictionaryWithDefault
  3
AutoCAD 2000
 90
0
 91
1
280
0
281
0
  0
CLASS
  1
ACDBPLACEHOLDER
  2
AcDbPlaceHolder
  3
AutoCAD 2000
 90
0
 91
1
280
0
281
0
  0
CLASS
  1
LAYOUT
  2
AcDbLayout
  3
AutoCAD 2000
 90
0
 91
0
280
0
281
0
  0
ENDSEC
  0
SECTION
  2
TABLES
  0
TABLE
  2
VPORT
  5
8
100
AcDbSymbolTable
 70
2
  0
VPORT
  5
1F4
100
AcDbSymbolTableRecord
100
AcDbViewportTableRecord
  2
*ACTIVE
 70
0
 10
0.0
 20
0.0
 11
1.0
 21
1.0
 12
148.5
 22
105.0
 13
0.0
 23
0.0
 14
1.0
 24
1.0
 15
0.0
 25
0.0
 16
0.0
 26
0.0
 36
1.0
 17
0.0
 27
0.0
 37
0.0
 40
210.0
 41
1.4142857143
 42
50.0
 43
0.0
 44
0.0
 50
0.0
 51
0.0
 71
0
 72
100
 73
1
 74
1
 75
0
 76
0
 77
0
 78
0
  0
ENDTAB
  0
TABLE
  2
LTYPE
  5
5
100
AcDbSymbolTable
 70
6
  0
LTYPE
  5
14
100
AcDbSymbolTableRecord
100
AcDbLinetypeTableRecord
  2
BYBLOCK
 70
0
  3

 72
65
 73
0
 40
0.0
  0
LTYPE
  5
15
100
AcDbSymbolTableRecord
100
AcDbLinetypeTableRecord
  2
BYLAYER
 70
0
  3

 72
65
 73
0
 40
0.0
  0
LTYPE
  5
16
100
AcDbSymbolTableRecord
100
AcDbLinetypeTableRecord
  2
CONTINUOUS
 70
64
  3
Solid line
 72
65
 73
0
 40
0.0
  0
LTYPE
  5
1F5
100
AcDbSymbolTableRecord
100
AcDbLinetypeTableRecord
  2
CENTER
 70
64
  3
____ _ ____ _ ____ _ ____ _ ____ _ ____ _ ____
 72
65
 73
4
 40
0.6
 49
0.375
 74
0
 49
-0.075
 74
0
 49
0.075
 74
0
 49
-0.075
 74
0
  0
LTYPE
  5
1F6
100
AcDbSymbolTableRecord
100
AcDbLinetypeTableRecord
  2
HIDDEN
 70
64
  3
- - - - - - - - - - - - - - - - - - - -
 72
65
 73
2
 40
0.2
 49
0.1
 74
0
 49
-0.1
 74
0
  0
LTYPE
  5
1F7
100
AcDbSymbolTableRecord
100
AcDbLinetypeTableRecord
  2
PHANTOM
 70
64
  3
_____ _ _ _____ _ _ _____ _ _ _____
 72
65
 73
6
 40
0.8
 49
0.45
 74
0
 49
-0.05
 74
0
 49
0.1
 74
0
 49
-0.05
 74
0
 49
0.1
 74
0
 49
-0.05
 74
0
  0
LTYPE
  5
1F8
100
AcDbSymbolTableRecord
100
AcDbLinetypeTableRecord
  2
DOT
 70
64
  3
. . . . . . . . . . . . . . . . . . . .
 72
65
 73
2
 40
0.2
 49
0.1
 74
0
 49
-0.1
 74
0
  0
LTYPE
  5
1F9
100
AcDbSymbolTableRecord
100
AcDbLinetypeTableRecord
  2
DASHED
 70
64
  3
- - - - - - - - - - - - - - - - - - - -
 72
65
 73
2
 40
0.2
 49
0.1
 74
0
 49
-0.1
 74
0
  0
ENDTAB
  0
TABLE
  2
LAYER
  5
2
100
AcDbSymbolTable
 70
36
  0
LAYER
  5
10
100
AcDbSymbolTableRecord
100
AcDbLayerTableRecord
  2
0
 70
0
 62
7
  6
CONTINUOUS
370
-3
390
F
  0
LAYER
  5
1FA
100
AcDbSymbolTableRecord
100
AcDbLayerTableRecord
  2
DEFAULT_1
 70
0
 62
7
  6
CENTER
370
-3
390
F
  0
LAYER
  5
1FB
100
AcDbSymbolTableRecord
100
AcDbLayerTableRecord
  2
DEFAULT_2
 70
0
 62
7
  6
HIDDEN
370
-3
390
F
  0
LAYER
  5
1FC
100
AcDbSymbolTableRecord
100
AcDbLayerTableRecord
  2
DEFAULT_3
 70
0
 62
7
  6
PHANTOM
370
-3
390
F
  0
LAYER
  5
1FD
100
AcDbSymbolTableRecord
100
AcDbLayerTableRecord
  2
ASSI
 70
0
 62
7
  6
CONTINUOUS
370
-3
390
F
  0
LAYER
  5
1FE
100
AcDbSymbolTableRecord
100
AcDbLayerTableRecord
  2
COORDINATE
 70
0
 62
7
  6
CONTINUOUS
370
-3
390
F
  0
LAYER
  5
1FF
100
AcDbSymbolTableRecord
100
AcDbLayerTableRecord
  2
COORD_ORIGINE
 70
0
 62
7
  6
CONTINUOUS
370
-3
390
F
  0
LAYER
  5
200
100
AcDbSymbolTableRecord
100
AcDbLayerTableRecord
  2
COPY-PUBBLISH
 70
0
 62
7
  6
CONTINUOUS
370
-3
390
F
  0
LAYER
  5
201
100
AcDbSymbolTableRecord
100
AcDbLayerTableRecord
  2
COPY_PUBLISH
 70
0
 62
7
  6
CONTINUOUS
370
-3
390
F
  0
LAYER
  5
202
100
AcDbSymbolTableRecord
100
AcDbLayerTableRecord
  2
COSMETIC
 70
0
 62
7
  6
CONTINUOUS
370
-3
390
F
  0
LAYER
  5
203
100
AcDbSymbolTableRecord
100
AcDbLayerTableRecord
  2
COSMETICHE
 70
0
 62
7
  6
CONTINUOUS
370
-3
390
F
  0
LAYER
  5
204
100
AcDbSymbolTableRecord
100
AcDbLayerTableRecord
  2
CURVE
 70
0
 62
7
  6
CONTINUOUS
370
-3
390
F
  0
LAYER
  5
205
100
AcDbSymbolTableRecord
100
AcDbLayerTableRecord
  2
CURVE1
 70
0
 62
7
  6
CONTINUOUS
370
-3
390
F
  0
LAYER
  5
206
100
AcDbSymbolTableRecord
100
AcDbLayerTableRecord
  2
DRAFT
 70
0
 62
7
  6
CONTINUOUS
370
-3
390
F
  0
LAYER
  5
207
100
AcDbSymbolTableRecord
100
AcDbLayerTableRecord
  2
IMPORT
 70
0
 62
7
  6
CONTINUOUS
370
-3
390
F
  0
LAYER
  5
208
100
AcDbSymbolTableRecord
100
AcDbLayerTableRecord
  2
IMPORT_IGES
 70
0
 62
7
  6
CONTINUOUS
370
-3
390
F
  0
LAYER
  5
209
100
AcDbSymbolTableRecord
100
AcDbLayerTableRecord
  2
INTF_1
 70
0
 62
7
  6
CONTINUOUS
370
-3
390
F
  0
LAYER
  5
20A
100
AcDbSymbolTableRecord
100
AcDbLayerTableRecord
  2
INTF_2
 70
0
 62
7
  6
CONTINUOUS
370
-3
390
F
  0
LAYER
  5
20B
100
AcDbSymbolTableRecord
100
AcDbLayerTableRecord
  2
INTF_6
 70
0
 62
7
  6
CONTINUOUS
370
-3
390
F
  0
LAYER
  5
20C
100
AcDbSymbolTableRecord
100
AcDbLayerTableRecord
  2
NOTE
 70
0
 62
7
  6
CONTINUOUS
370
-3
390
F
  0
LAYER
  5
20D
100
AcDbSymbolTableRecord
100
AcDbLayerTableRecord
  2
PIANI
 70
0
 62
7
  6
CONTINUOUS
370
-3
390
F
  0
LAYER
  5
20E
100
AcDbSymbolTableRecord
100
AcDbLayerTableRecord
  2
PIANI_ORIGINE
 70
0
 62
7
  6
CONTINUOUS
370
-3
390
F
  0
LAYER
  5
20F
100
AcDbSymbolTableRecord
100
AcDbLayerTableRecord
  2
PUNTI
 70
0
 62
7
  6
CONTINUOUS
370
-3
390
F
  0
LAYER
  5
210
100
AcDbSymbolTableRecord
100
AcDbLayerTableRecord
  2
RACCORDO
 70
0
 62
7
  6
CONTINUOUS
370
-3
390
F
  0
LAYER
  5
211
100
AcDbSymbolTableRecord
100
AcDbLayerTableRecord
  2
RGB____0____0____0__
 70
0
 62
7
  6
CONTINUOUS
370
-3
390
F
  0
LAYER
  5
212
100
AcDbSymbolTableRecord
100
AcDbLayerTableRecord
  2
SMUSSO
 70
0
 62
7
  6
CONTINUOUS
370
-3
390
F
  0
LAYER
  5
213
100
AcDbSymbolTableRecord
100
AcDbLayerTableRecord
  2
SNAPLINE
 70
0
 62
7
  6
CONTINUOUS
370
-3
390
F
  0
LAYER
  5
214
100
AcDbSymbolTableRecord
100
AcDbLayerTableRecord
  2
SUPERFICI
 70
0
 62
7
  6
CONTINUOUS
370
-3
390
F
  0
LAYER
  5
215
100
AcDbSymbolTableRecord
100
AcDbLayerTableRecord
  2
TRASH
 70
0
 62
7
  6
CONTINUOUS
370
-3
390
F
  0
LAYER
  5
216
100
AcDbSymbolTableRecord
100
AcDbLayerTableRecord
  2
XSEC_DATUMS
 70
0
 62
7
  6
CONTINUOUS
370
-3
390
F
  0
ENDTAB
  0
TABLE
  2
STYLE
  5
3
100
AcDbSymbolTable
 70
1
  0
STYLE
  5
11
100
AcDbSymbolTableRecord
100
AcDbTextStyleTableRecord
  2
STANDARD
 70
0
 40
0.0
 41
0.8
 50
0.0
 71
0
 42
0.2
  3
txt
  4

  0
STYLE
  5
217
100
AcDbSymbolTableRecord
100
AcDbTextStyleTableRecord
  2
TEXTSTYLE_1
 70
0
 40
0.0
 41
0.8
 50
0.0
 71
0
 42
0.2
  3
gdt
  4

  0
ENDTAB
  0
TABLE
  2
VIEW
  5
6
100
AcDbSymbolTable
 70
0
  0
ENDTAB
  0
TABLE
  2
UCS
  5
7
100
AcDbSymbolTable
 70
0
  0
ENDTAB
  0
TABLE
  2
APPID
  5
9
100
AcDbSymbolTable
 70
1
  0
APPID
  5
218
100
AcDbSymbolTableRecord
100
AcDbRegAppTableRecord
  2
ACAD
 70
0
  0
ENDTAB
  0
TABLE
  2
BLOCK_RECORD
  5
1
100
AcDbSymbolTable
 70
0
  0
BLOCK_RECORD
  5
219
100
AcDbSymbolTableRecord
100
AcDbBlockTableRecord
  2
*Model_Space
  0
BLOCK_RECORD
  5
21A
100
AcDbSymbolTableRecord
100
AcDbBlockTableRecord
  2
*Paper_Space
  0
BLOCK_RECORD
  5
21B
100
AcDbSymbolTableRecord
100
AcDbBlockTableRecord
  2
_FILLED
  0
BLOCK_RECORD
  5
21C
100
AcDbSymbolTableRecord
100
AcDbBlockTableRecord
  2
*D0
  0
BLOCK_RECORD
  5
21D
100
AcDbSymbolTableRecord
100
AcDbBlockTableRecord
  2
*D1
  0
BLOCK_RECORD
  5
21E
100
AcDbSymbolTableRecord
100
AcDbBlockTableRecord
  2
*D2
  0
BLOCK_RECORD
  5
21F
100
AcDbSymbolTableRecord
100
AcDbBlockTableRecord
  2
*D3
  0
ENDTAB
  0
TABLE
  2
DIMSTYLE
  5
A
100
AcDbSymbolTable
 70
1
100
AcDbDimStyleTable
 71
0
  0
DIMSTYLE
105
220
100
AcDbSymbolTableRecord
100
AcDbDimStyleTableRecord
  2
STANDARD
 70
0
  3

  4

 40
1.0
 41
3.0
 42
0.5
 43
0.38
 44
1.5
 45
0.0
 46
0.0
 47
0.01
 48
0.01
140
3.0
141
0.09
142
0.0
143
25.4
144
1.0
145
0.0
146
1.0
147
0.625
 71
1
 72
0
 73
0
 74
0
 75
0
 76
0
 77
1
 78
8
 79
2
170
0
171
1
172
0
173
0
174
0
175
0
176
0
177
0
178
0
270
2
179
2
271
2
272
2
273
2
274
2
275
0
280
0
281
0
282
0
283
1
284
8
285
0
286
0
287
3
288
0
340
11
278
44
341
21B
342
21B
343
21B
344
21B
  0
DIMSTYLE
105
221
100
AcDbSymbolTableRecord
100
AcDbDimStyleTableRecord
  2
DIMSTYLE_1
 70
0
  3

  4

 40
1.0
 41
3.0
 42
0.5
 43
0.38
 44
1.5
 45
0.0
 46
0.0
 47
0.0
 48
0.0
140
3.0
141
0.09
142
0.0
143
25.4
144
1.0
145
0.0
146
1.0
147
0.75
 71
0
 72
0
 73
0
 74
0
 75
0
 76
0
 77
1
 78
8
 79
2
170
0
171
1
172
0
173
0
174
0
175
0
176
0
177
0
178
0
270
2
179
2
271
2
272
2
273
2
274
2
275
0
280
0
281
0
282
0
283
1
284
8
285
0
286
0
287
3
288
0
340
11
278
44
341
21B
342
21B
343
21B
344
21B
  0
ENDTAB
  0
ENDSEC
  0
SECTION
  2
BLOCKS
  0
BLOCK
  5
20
100
AcDbEntity
  8
0
100
AcDbBlockBegin
  2
*Model_Space
 70
0
 10
0.0
 20
0.0
 30
0.0
  3
*Model_Space
  1

  0
ENDBLK
  5
21
100
AcDbEntity
  8
0
100
AcDbBlockEnd
  0
BLOCK
  5
1C
100
AcDbEntity
  8
0
100
AcDbBlockBegin
  2
*Paper_Space
 70
0
 10
0.0
 20
0.0
 30
0.0
  3
*Paper_Space
  1

  0
ENDBLK
  5
1D
100
AcDbEntity
  8
0
100
AcDbBlockEnd
  0
BLOCK
  5
222
100
AcDbEntity
  8
0
100
AcDbBlockBegin
  2
_FILLED
 70
64
 10
0.0
 20
0.0
  3
_FILLED
  1

  0
SOLID
  5
223
100
AcDbEntity
  8
0
  6
BYBLOCK
 62
0
100
AcDbTrace
 10
0.0
 20
0.0
 11
-1.0
 21
0.3166666667
 12
-1.0
 22
-0.3166666667
 13
-1.0
 23
-0.3166666667
  0
ENDBLK
  5
224
100
AcDbEntity
  8
0
  6
BYBLOCK
 62
0
100
AcDbBlockEnd
  0
BLOCK
  5
225
100
AcDbEntity
  8
0
100
AcDbBlockBegin
 62
7
  6
CONTINUOUS
  2
*D0
 70
65
 10
0.0
 20
0.0
  3
*D0
  1

  0
MTEXT
  5
226
100
AcDbEntity
  8
0
100
AcDbMText
 62
7
  6
CONTINUOUS
  7
STANDARD
 71
2
 72
1
 10
15.25
 20
0.0
 30
0.0
 11
0.0
 21
1.0
 31
0.0
 73
2
 44
0.9
  1
{\ftxt;\W0.0001;\H0.0001;\~}{\ftxt;\W2.8571428571;\H3.0; }{\ftxt;\W0.0001;\H0.0001;\~}
 40
3.0
 41
12.8571428571
  0
LINE
  5
227
100
AcDbEntity
  8
0
100
AcDbLine
 62
7
  6
CONTINUOUS
 10
6.5
 20
25.1
 11
20.5
 21
25.1
  0
LINE
  5
228
100
AcDbEntity
  8
0
100
AcDbLine
 62
7
  6
CONTINUOUS
 10
6.5
 20
-25.1
 11
20.5
 21
-25.1
  0
LINE
  5
229
100
AcDbEntity
  8
0
100
AcDbLine
 62
7
  6
CONTINUOUS
 10
19.0
 20
25.1
 11
19.0
 21
0.0
  0
LINE
  5
22A
100
AcDbEntity
  8
0
100
AcDbLine
 62
7
  6
CONTINUOUS
 10
19.0
 20
-25.1
 11
19.0
 21
0.0
  0
INSERT
  5
22B
100
AcDbEntity
  8
0
100
AcDbBlockReference
 62
7
  6
CONTINUOUS
  2
_FILLED
 10
19.0
 20
25.1
 41
3.0
 42
3.0
 43
3.0
 50
90.0
  0
INSERT
  5
22C
100
AcDbEntity
  8
0
100
AcDbBlockReference
 62
7
  6
CONTINUOUS
  2
_FILLED
 10
19.0
 20
-25.1
 41
3.0
 42
3.0
 43
3.0
 50
270.0
  0
ENDBLK
  5
22D
100
AcDbEntity
  8
0
  6
BYBLOCK
 62
0
100
AcDbBlockEnd
  0
BLOCK
  5
22E
100
AcDbEntity
  8
0
100
AcDbBlockBegin
 62
7
  6
CONTINUOUS
  2
*D1
 70
65
 10
0.0
 20
0.0
  3
*D1
  1

  0
MTEXT
  5
22F
100
AcDbEntity
  8
0
100
AcDbMText
 62
7
  6
CONTINUOUS
  7
STANDARD
 71
2
 72
1
 10
0.0
 20
36.8469307584
 30
0.0
 11
1.0
 21
0.0
 31
0.0
 73
2
 44
0.9
  1
{\ftxt;\W0.0001;\H0.0001;\~}{\ftxt;\W1.5714285714;\H3.0; }{\ftxt;\W0.0001;\H0.0001;\~}
 40
3.0
 41
7.0714285714
  0
LINE
  5
230
100
AcDbEntity
  8
0
100
AcDbLine
 62
7
  6
CONTINUOUS
 10
11.0
 20
17.5
 11
11.0
 21
34.5969307584
  0
LINE
  5
231
100
AcDbEntity
  8
0
100
AcDbLine
 62
7
  6
CONTINUOUS
 10
-11.0
 20
17.5
 11
-11.0
 21
34.5969307584
  0
LINE
  5
232
100
AcDbEntity
  8
0
100
AcDbLine
 62
7
  6
CONTINUOUS
 10
11.0
 20
33.0969307584
 11
0.0
 21
33.0969307584
  0
LINE
  5
233
100
AcDbEntity
  8
0
100
AcDbLine
 62
7
  6
CONTINUOUS
 10
-11.0
 20
33.0969307584
 11
0.0
 21
33.0969307584
  0
INSERT
  5
234
100
AcDbEntity
  8
0
100
AcDbBlockReference
 62
7
  6
CONTINUOUS
  2
_FILLED
 10
11.0
 20
33.0969307584
 41
3.0
 42
3.0
 43
3.0
  0
INSERT
  5
235
100
AcDbEntity
  8
0
100
AcDbBlockReference
 62
7
  6
CONTINUOUS
  2
_FILLED
 10
-11.0
 20
33.0969307584
 41
3.0
 42
3.0
 43
3.0
 50
180.0
  0
ENDBLK
  5
236
100
AcDbEntity
  8
0
  6
BYBLOCK
 62
0
100
AcDbBlockEnd
  0
BLOCK
  5
237
100
AcDbEntity
  8
0
100
AcDbBlockBegin
 62
7
  6
CONTINUOUS
  2
*D2
 70
65
 10
0.0
 20
0.0
  3
*D2
  1

  0
MTEXT
  5
238
100
AcDbEntity
  8
0
100
AcDbMText
 62
7
  6
CONTINUOUS
  7
STANDARD
 71
2
 72
1
 10
-56.5188068701
 20
36.8469307584
 30
0.0
 11
1.0
 21
0.0
 31
0.0
 73
2
 44
0.9
  1
{\ftxt;\W0.0001;\H0.0001;\~}{\ftxt;\W2.6428571429;\H3.0; }{\ftxt;\W0.0001;\H0.0001;\~}
 40
3.0
 41
11.8928571429
  0
LINE
  5
239
100
AcDbEntity
  8
0
100
AcDbLine
 62
7
  6
CONTINUOUS
 10
-67.2688068701
 20
16.000533067
 11
-67.2688068701
 21
34.5969307584
  0
LINE
  5
23A
100
AcDbEntity
  8
0
100
AcDbLine
 62
7
  6
CONTINUOUS
 10
-45.7688068701
 20
13.9377350466
 11
-45.7688068701
 21
34.5969307584
  0
LINE
  5
23B
100
AcDbEntity
  8
0
100
AcDbLine
 62
7
  6
CONTINUOUS
 10
-67.2688068701
 20
33.0969307584
 11
-56.5188068701
 21
33.0969307584
  0
LINE
  5
23C
100
AcDbEntity
  8
0
100
AcDbLine
 62
7
  6
CONTINUOUS
 10
-45.7688068701
 20
33.0969307584
 11
-56.5188068701
 21
33.0969307584
  0
INSERT
  5
23D
100
AcDbEntity
  8
0
100
AcDbBlockReference
 62
7
  6
CONTINUOUS
  2
_FILLED
 10
-67.2688068701
 20
33.0969307584
 41
3.0
 42
3.0
 43
3.0
 50
180.0
  0
INSERT
  5
23E
100
AcDbEntity
  8
0
100
AcDbBlockReference
 62
7
  6
CONTINUOUS
  2
_FILLED
 10
-45.7688068701
 20
33.0969307584
 41
3.0
 42
3.0
 43
3.0
  0
ENDBLK
  5
23F
100
AcDbEntity
  8
0
  6
BYBLOCK
 62
0
100
AcDbBlockEnd
  0
BLOCK
  5
240
100
AcDbEntity
  8
0
100
AcDbBlockBegin
 62
7
  6
CONTINUOUS
  2
*D3
 70
65
 10
0.0
 20
0.0
  3
*D3
  1

  0
MTEXT
  5
241
100
AcDbEntity
  8
0
100
AcDbMText
 62
7
  6
CONTINUOUS
  7
STANDARD
 71
2
 72
1
 10
-62.0188068701
 20
46.8469307584
 30
0.0
 11
1.0
 21
0.0
 31
0.0
 73
2
 44
0.9
  1
{\ftxt;\W0.0001;\H0.0001;\~}{\ftxt;\W2.7857142857;\H3.0; }{\ftxt;\W0.0001;\H0.0001;\~}
 40
3.0
 41
12.5357142857
  0
LINE
  5
242
100
AcDbEntity
  8
0
100
AcDbLine
 62
7
  6
CONTINUOUS
 10
-78.2688068701
 20
16.9912641797
 11
-78.2688068701
 21
44.5969307584
  0
LINE
  5
243
100
AcDbEntity
  8
0
100
AcDbLine
 62
7
  6
CONTINUOUS
 10
-45.7688068701
 20
13.9377350466
 11
-45.7688068701
 21
44.5969307584
  0
LINE
  5
244
100
AcDbEntity
  8
0
100
AcDbLine
 62
7
  6
CONTINUOUS
 10
-78.2688068701
 20
43.0969307584
 11
-62.0188068701
 21
43.0969307584
  0
LINE
  5
245
100
AcDbEntity
  8
0
100
AcDbLine
 62
7
  6
CONTINUOUS
 10
-45.7688068701
 20
43.0969307584
 11
-62.0188068701
 21
43.0969307584
  0
INSERT
  5
246
100
AcDbEntity
  8
0
100
AcDbBlockReference
 62
7
  6
CONTINUOUS
  2
_FILLED
 10
-78.2688068701
 20
43.0969307584
 41
3.0
 42
3.0
 43
3.0
 50
180.0
  0
INSERT
  5
247
100
AcDbEntity
  8
0
100
AcDbBlockReference
 62
7
  6
CONTINUOUS
  2
_FILLED
 10
-45.7688068701
 20
43.0969307584
 41
3.0
 42
3.0
 43
3.0
  0
ENDBLK
  5
248
100
AcDbEntity
  8
0
  6
BYBLOCK
 62
0
100
AcDbBlockEnd
  0
ENDSEC
  0
SECTION
  2
ENTITIES
  0
DIMENSION
  5
249
100
AcDbEntity
  8
0
100
AcDbDimension
 62
7
  6
CONTINUOUS
  2
*D0
 10
19.0
 20
-25.1
 11
19.0
 21
-0.4285715607
 70
160
 71
2
 72
2
 41
0.9
 42
50.2
  1
{\ftxt;\W0.0001;\H0.0001;\~}{\ftxt;\W2.8571428571;\H3.0; }{\ftxt;\W0.0001;\H0.0001;\~}
  3
DIMSTYLE_1
100
AcDbAlignedDimension
 13
6.0
 23
25.1
 14
6.0
 24
-25.1
 50
270.0
100
AcDbRotatedDimension
  0
DIMENSION
  5
24A
100
AcDbEntity
  8
0
100
AcDbDimension
 62
7
  6
CONTINUOUS
  2
*D1
 10
-11.0
 20
33.0969307584
 11
-0.4285713773
 21
33.0969307584
 70
160
 71
2
 72
2
 41
0.9
 42
22.0
  1
{\ftxt;\W0.0001;\H0.0001;\~}{\ftxt;\W1.5714285714;\H3.0; }{\ftxt;\W0.0001;\H0.0001;\~}
  3
DIMSTYLE_1
100
AcDbAlignedDimension
 13
11.0
 23
17.0
 14
-11.0
 24
17.0
 50
180.0
100
AcDbRotatedDimension
  0
DIMENSION
  5
24B
100
AcDbEntity
  8
0
100
AcDbDimension
 62
7
  6
CONTINUOUS
  2
*D2
 10
-45.7688068701
 20
33.0969307584
 11
-56.9473775711
 21
33.0969307584
 70
160
 71
2
 72
2
 41
0.9
 42
21.5
  1
{\ftxt;\W0.0001;\H0.0001;\~}{\ftxt;\W2.6428571429;\H3.0; }{\ftxt;\W0.0001;\H0.0001;\~}
  3
DIMSTYLE_1
100
AcDbAlignedDimension
 13
-67.2688068701
 23
15.500533067
 14
-45.7688068701
 24
13.4377350466
100
AcDbRotatedDimension
  0
DIMENSION
  5
24C
100
AcDbEntity
  8
0
100
AcDbDimension
 62
7
  6
CONTINUOUS
  2
*D3
 10
-45.7688068701
 20
43.0969307584
 11
-62.4473792496
 21
43.0969307584
 70
160
 71
2
 72
2
 41
0.9
 42
32.5
  1
{\ftxt;\W0.0001;\H0.0001;\~}{\ftxt;\W2.7857142857;\H3.0; }{\ftxt;\W0.0001;\H0.0001;\~}
  3
DIMSTYLE_1
100
AcDbAlignedDimension
 13
-78.2688068701
 23
16.4912641797
 14
-45.7688068701
 24
13.4377350466
100
AcDbRotatedDimension
  0
LINE
  5
24D
100
AcDbEntity
  8
0
100
AcDbLine
 62
7
  6
CONTINUOUS
 10
6.0
 20
-25.1
 11
-6.0
 21
-25.1
  0
LINE
  5
24E
100
AcDbEntity
  8
0
100
AcDbLine
 62
250
  6
CONTINUOUS
 10
-6.0
 20
-25.0513126297
 11
6.0
 21
-25.0513126297
  0
LINE
  5
24F
100
AcDbEntity
  8
0
100
AcDbLine
 62
250
  6
CONTINUOUS
 10
-2.5
 20
-24.7833606717
 11
2.5
 21
-24.7833606717
  0
LINE
  5
250
100
AcDbEntity
  8
0
100
AcDbLine
 62
250
  6
CONTINUOUS
 10
-2.5
 20
-24.3106013839
 11
2.5
 21
-24.3106013839
  0
LINE
  5
251
100
AcDbEntity
  8
0
100
AcDbLine
 62
250
  6
CONTINUOUS
 10
-2.5
 20
-23.9
 11
2.5
 21
-23.9
  0
LINE
  5
252
100
AcDbEntity
  8
RACCORDO
100
AcDbLine
 62
7
  6
CONTINUOUS
 10
2.5
 20
-23.8
 11
-2.5
 21
-23.8
  0
LINE
  5
253
100
AcDbEntity
  8
RACCORDO
100
AcDbLine
 62
7
  6
CONTINUOUS
 10
-2.2
 20
-23.5653995554
 11
2.2
 21
-23.5653995554
  0
LWPOLYLINE
  5
254
100
AcDbEntity
  8
RACCORDO
100
AcDbPolyline
 62
7
  6
CONTINUOUS
 90
25
 70
0
 10
2.2
 20
-23.5653995554
 10
2.2197589393
 20
-23.5656160921
 10
2.2392679715
 20
-23.5662416622
 10
2.2585270966
 20
-23.5672762656
 10
2.2776164158
 20
-23.568727813
 10
2.2964558279
 20
-23.5705883937
 10
2.3148050297
 20
-23.5728342754
 10
2.3326577417
 20
-23.5754703936
 10
2.3500202433
 20
-23.5784918127
 10
2.3666710699
 20
-23.5818599935
 10
2.382601105
 20
-23.585579378
 10
2.3978194649
 20
-23.5896455241
 10
2.4121320344
 20
-23.5940065668
 10
2.4255272102
 20
-23.5986662836
 10
2.4380165955
 20
-23.6036208969
 10
2.4494408837
 20
-23.6088072091
 10
2.4597864312
 20
-23.6142281879
 10
2.4690668817
 20
-23.6198808656
 10
2.4771638598
 20
-23.62569314
 10
2.4840622054
 20
-23.6316670558
 10
2.4897770785
 20
-23.6378005684
 10
2.4942355841
 20
-23.6440154429
 10
2.4974134237
 20
-23.6502856007
 10
2.4993348957
 20
-23.6566371203
 10
2.5
 20
-23.6630700017
  0
LINE
  5
255
100
AcDbEntity
  8
RACCORDO
100
AcDbLine
 62
7
  6
CONTINUOUS
 10
-3.3398567659
 20
-22.4969615501
 11
-3.3745811149
 21
-22.5
  0
LWPOLYLINE
  5
256
100
AcDbEntity
  8
RACCORDO
100
AcDbPolyline
 62
7
  6
CONTINUOUS
 90
18
 70
0
 10
-3.05
 20
-21.9820454786
 10
-3.0401205304
 20
-21.9819372102
 10
-3.0303660143
 20
-21.9816244252
 10
-3.0207364517
 20
-21.9811071235
 10
-3.0111917921
 20
-21.9803813498
 10
-3.001772086
 20
-21.9794510594
 10
-2.9925974851
 20
-21.9783281186
 10
-2.9836711292
 20
-21.9770100595
 10
-2.9749898783
 20
-21.9754993499
 10
-2.966664465
 20
-21.9738152595
 10
-2.9586994475
 20
-21.9719555673
 10
-2.9510902675
 20
-21.9699224942
 10
-2.9439339828
 20
-21.9677419729
 10
-2.9372363949
 20
-21.9654121145
 10
-2.9309917023
 20
-21.9629348078
 10
-2.9252795582
 20
-21.9603416517
 10
-2.9201067844
 20
-21.9576311623
 10
-2.9154665592
 20
-21.9548048235
  0
LINE
  5
257
100
AcDbEntity
  8
RACCORDO
100
AcDbLine
 62
7
  6
CONTINUOUS
 10
5.9607290949
 20
-22.5
 11
3.374581634
 21
-22.5
  0
LINE
  5
258
100
AcDbEntity
  8
RACCORDO
100
AcDbLine
 62
7
  6
CONTINUOUS
 10
-3.3745811149
 20
-22.5
 11
-5.9607290949
 21
-22.5
  0
LINE
  5
259
100
AcDbEntity
  8
RACCORDO
100
AcDbLine
 62
7
  6
CONTINUOUS
 10
3.1777595841
 20
-22.3602529088
 11
3.05
 21
-22.3602529088
  0
LINE
  5
25A
100
AcDbEntity
  8
RACCORDO
100
AcDbLine
 62
7
  6
CONTINUOUS
 10
-3.1777595841
 20
-22.3602529088
 11
-3.05
 21
-22.3602529088
  0
LINE
  5
25B
100
AcDbEntity
  8
RACCORDO
100
AcDbLine
 62
250
  6
CONTINUOUS
 10
-3.1746115759
 20
-22.3
 11
-3.1675686233
 21
-22.3
  0
LINE
  5
25C
100
AcDbEntity
  8
RACCORDO
100
AcDbLine
 62
250
  6
CONTINUOUS
 10
3.1675686233
 20
-22.3
 11
3.1746115759
 21
-22.3
  0
LINE
  5
25D
100
AcDbEntity
  8
0
100
AcDbLine
 62
250
  6
CONTINUOUS
 10
-2.9
 20
-22.2923830163
 11
2.9
 21
-22.2923830163
  0
LINE
  5
25E
100
AcDbEntity
  8
0
100
AcDbLine
 62
250
  6
CONTINUOUS
 10
-2.9
 20
-22.290751565
 11
2.9
 21
-22.290751565
  0
LINE
  5
25F
100
AcDbEntity
  8
RACCORDO
100
AcDbLine
 62
7
  6
CONTINUOUS
 10
3.1675686233
 20
-21.9820454786
 11
3.05
 21
-21.9820454786
  0
LINE
  5
260
100
AcDbEntity
  8
RACCORDO
100
AcDbLine
 62
7
  6
CONTINUOUS
 10
-3.1675686233
 20
-21.9820454786
 11
-3.05
 21
-21.9820454786
  0
LINE
  5
261
100
AcDbEntity
  8
0
100
AcDbLine
 62
250
  6
CONTINUOUS
 10
-2.9
 20
-21.9748697408
 11
2.9
 21
-21.9748697408
  0
LWPOLYLINE
  5
262
100
AcDbEntity
  8
RACCORDO
100
AcDbPolyline
 62
7
  6
CONTINUOUS
 90
25
 70
0
 10
3.05
 20
-22.3602529088
 10
3.0401205304
 20
-22.3601446404
 10
3.0303660143
 20
-22.3598318554
 10
3.0207364517
 20
-22.3593145537
 10
3.0111917921
 20
-22.35858878
 10
3.001772086
 20
-22.3576584896
 10
2.9925974851
 20
-22.3565355488
 10
2.9836711292
 20
-22.3552174897
 10
2.9749898783
 20
-22.3537067802
 10
2.966664465
 20
-22.3520226897
 10
2.9586994475
 20
-22.3501629975
 10
2.9510902675
 20
-22.3481299245
 10
2.9439339828
 20
-22.3459494031
 10
2.9372363949
 20
-22.3436195447
 10
2.9309917023
 20
-22.341142238
 10
2.9252795582
 20
-22.338549082
 10
2.9201067844
 20
-22.3358385925
 10
2.9154665592
 20
-22.3330122537
 10
2.9114180701
 20
-22.3301061165
 10
2.9079688973
 20
-22.3271191586
 10
2.9051114607
 20
-22.3240524023
 10
2.9028822079
 20
-22.3209449651
 10
2.9012932882
 20
-22.3178098862
 10
2.9003325522
 20
-22.3146341264
 10
2.9
 20
-22.3114176857
  0
LINE
  5
263
100
AcDbEntity
  8
RACCORDO
100
AcDbLine
 62
250
  6
CONTINUOUS
 10
3.0171497246
 20
-20.4175077245
 11
3.0119314487
 21
-20.4179102609
  0
LINE
  5
264
100
AcDbEntity
  8
RACCORDO
100
AcDbLine
 62
250
  6
CONTINUOUS
 10
4.5104743686
 20
-20.6547619048
 11
3.4130110307
 21
-20.7232459795
  0
LINE
  5
265
100
AcDbEntity
  8
RACCORDO
100
AcDbLine
 62
250
  6
CONTINUOUS
 10
3.0119314487
 20
-20.4179102609
 11
2.8963271741
 21
-20.425105857
  0
LINE
  5
266
100
AcDbEntity
  8
RACCORDO
100
AcDbLine
 62
250
  6
CONTINUOUS
 10
3.2097018076
 20
-20.4074161726
 11
3.0171497254
 21
-20.4175073996
  0
LINE
  5
267
100
AcDbEntity
  8
RACCORDO
100
AcDbLine
 62
7
  6
CONTINUOUS
 10
4.5
 20
-20.15
 11
3.0653303224
 21
-20.2251878518
  0
LWPOLYLINE
  5
268
100
AcDbEntity
  8
RACCORDO
100
AcDbPolyline
 62
250
  6
CONTINUOUS
 90
4
 70
0
 10
-2.9
 20
-20.2127808885
 10
-2.9002399935
 20
-20.212793084
 10
-2.9898504464
 20
-20.2185752597
 10
-3.0684548822
 20
-20.2250266687
  0
LINE
  5
269
100
AcDbEntity
  8
RACCORDO
100
AcDbLine
 62
250
  6
CONTINUOUS
 10
-5.447219708
 20
-20.6547619048
 11
-4.5104743686
 21
-20.6547619048
  0
LINE
  5
26A
100
AcDbEntity
  8
RACCORDO
100
AcDbLine
 62
250
  6
CONTINUOUS
 10
4.5104743686
 20
-20.6547619048
 11
5.447219708
 21
-20.6547619048
  0
LINE
  5
26B
100
AcDbEntity
  8
RACCORDO
100
AcDbLine
 62
7
  6
CONTINUOUS
 10
-5.0472172711
 20
-20.15
 11
-4.5
 21
-20.15
  0
LINE
  5
26C
100
AcDbEntity
  8
0
100
AcDbLine
 62
7
  6
CONTINUOUS
 10
4.5
 20
-20.15
 11
2.9
 21
-20.15
  0
LINE
  5
26D
100
AcDbEntity
  8
RACCORDO
100
AcDbLine
 62
7
  6
CONTINUOUS
 10
4.5
 20
-20.15
 11
5.0472172711
 21
-20.15
  0
LINE
  5
26E
100
AcDbEntity
  8
0
100
AcDbLine
 62
7
  6
CONTINUOUS
 10
-2.9
 20
-20.15
 11
-4.5
 21
-20.15
  0
LINE
  5
26F
100
AcDbEntity
  8
RACCORDO
100
AcDbLine
 62
7
  6
CONTINUOUS
 10
4.9
 20
-20.1
 11
2.9
 21
-20.1
  0
LINE
  5
270
100
AcDbEntity
  8
RACCORDO
100
AcDbLine
 62
7
  6
CONTINUOUS
 10
-2.9
 20
-20.1
 11
-4.9
 21
-20.1
  0
LINE
  5
271
100
AcDbEntity
  8
DRAFT
100
AcDbLine
 62
7
  6
CONTINUOUS
 10
8.0
 20
-20.0
 11
6.0
 21
-20.0
  0
LINE
  5
272
100
AcDbEntity
  8
RACCORDO
100
AcDbLine
 62
250
  6
CONTINUOUS
 10
5.0474780224
 20
-20.0
 11
5.9389119255
 21
-20.0
  0
LINE
  5
273
100
AcDbEntity
  8
RACCORDO
100
AcDbLine
 62
250
  6
CONTINUOUS
 10
-5.0474780224
 20
-20.0
 11
-5.9389119255
 21
-20.0
  0
LINE
  5
274
100
AcDbEntity
  8
DRAFT
100
AcDbLine
 62
7
  6
CONTINUOUS
 10
-6.0
 20
-20.0
 11
-8.0
 21
-20.0
  0
LINE
  5
275
100
AcDbEntity
  8
RACCORDO
100
AcDbLine
 62
7
  6
CONTINUOUS
 10
-7.9764881122
 20
-19.9432372817
 11
-5.9432372817
 21
-19.9432372817
  0
LINE
  5
276
100
AcDbEntity
  8
RACCORDO
100
AcDbLine
 62
7
  6
CONTINUOUS
 10
5.9432372817
 20
-19.9432372817
 11
7.9764881122
 21
-19.9432372817
  0
LINE
  5
277
100
AcDbEntity
  8
RACCORDO
100
AcDbLine
 62
250
  6
CONTINUOUS
 10
-3.017150432
 20
-20.4175073626
 11
-3.2097018076
 21
-20.4074161726
  0
LINE
  5
278
100
AcDbEntity
  8
RACCORDO
100
AcDbLine
 62
7
  6
CONTINUOUS
 10
-3.0653426592
 20
-20.2251872053
 11
-4.5
 21
-20.15
  0
LINE
  5
279
100
AcDbEntity
  8
RACCORDO
100
AcDbLine
 62
250
  6
CONTINUOUS
 10
-3.4130110299
 20
-20.7232473714
 11
-4.5104743686
 21
-20.6547619048
  0
LINE
  5
27A
100
AcDbEntity
  8
RACCORDO
100
AcDbLine
 62
250
  6
CONTINUOUS
 10
-2.8963271749
 20
-20.4251058569
 11
-3.017150432
 21
-20.4175073626
  0
LWPOLYLINE
  5
27B
100
AcDbEntity
  8
RACCORDO
100
AcDbPolyline
 62
250
  6
CONTINUOUS
 90
4
 70
0
 10
3.0207885281
 20
-20.2209704569
 10
2.9703907931
 20
-20.2172164143
 10
2.9172439719
 20
-20.213763441
 10
2.9
 20
-20.2128027333
  0
LINE
  5
27C
100
AcDbEntity
  8
RACCORDO
100
AcDbLine
 62
250
  6
CONTINUOUS
 10
3.0684371769
 20
-20.2250255687
 11
3.0207885281
 21
-20.2209704569
  0
LINE
  5
27D
100
AcDbEntity
  8
DRAFT
100
AcDbLine
 62
7
  6
CONTINUOUS
 10
-8.0
 20
20.0
 11
-11.0
 21
17.0
  0
LINE
  5
27E
100
AcDbEntity
  8
RACCORDO
100
AcDbLine
 62
7
  6
CONTINUOUS
 10
-7.9764881122
 20
19.9432372817
 11
-10.9432372817
 21
16.9764881122
  0
LINE
  5
27F
100
AcDbEntity
  8
RACCORDO
100
AcDbLine
 62
250
  6
CONTINUOUS
 10
-7.769389217
 20
19.4432563202
 11
-10.4432563202
 21
16.769389217
  0
LWPOLYLINE
  5
280
100
AcDbEntity
  8
RACCORDO
100
AcDbPolyline
 62
7
  6
CONTINUOUS
 90
10
 70
0
 10
-4.5
 20
19.65
 10
-4.5010629094
 20
19.649365486
 10
-4.5021672466
 20
19.6473583085
 10
-4.5033051847
 20
19.6439899752
 10
-4.5044654823
 20
19.6392764829
 10
-4.5056433317
 20
19.6332386178
 10
-4.5068403908
 20
19.6259017304
 10
-4.5080517165
 20
19.6172951479
 10
-4.5092657905
 20
19.6074521555
 10
-4.5104743686
 20
19.5964101615
  0
LINE
  5
281
100
AcDbEntity
  8
RACCORDO
100
AcDbLine
 62
7
  6
CONTINUOUS
 10
-3.017150432
 20
19.0394232099
 11
-3.1953132616
 21
18.9503485794
  0
LWPOLYLINE
  5
282
100
AcDbEntity
  8
RACCORDO
100
AcDbPolyline
 62
7
  6
CONTINUOUS
 90
4
 70
0
 10
-3.3199778125
 20
20.2286618605
 10
-3.3336822448
 20
20.2224180175
 10
-3.3658205707
 20
20.212283487
 10
-3.3992041554
 20
20.2076902657
  0
LWPOLYLINE
  5
283
100
AcDbEntity
  8
RACCORDO
100
AcDbPolyline
 62
7
  6
CONTINUOUS
 90
3
 70
0
 10
3.2854993273
 20
22.4790586979
 10
3.3061874996
 20
22.4879385224
 10
3.3398567659
 20
22.4969615501
  0
LWPOLYLINE
  5
284
100
AcDbEntity
  8
RACCORDO
100
AcDbPolyline
 62
250
  6
CONTINUOUS
 90
10
 70
0
 10
-3.3705471896
 20
19.5908078864
 10
-3.3716851997
 20
19.5903204862
 10
-3.3728837151
 20
19.5886804551
 10
-3.3741412446
 20
19.5857960227
 10
-3.3754525444
 20
19.5815819607
 10
-3.3768165455
 20
19.5759492791
 10
-3.3782366317
 20
19.5687939928
 10
-3.3797095606
 20
19.5600191619
 10
-3.381224995
 20
19.5495488733
 10
-3.3827736845
 20
19.537309873
  0
LINE
  5
285
100
AcDbEntity
  8
SMUSSO
100
AcDbLine
 62
7
  6
CONTINUOUS
 10
5.9608675611
 20
22.5102967102
 11
6.0
 21
22.5230369861
  0
LINE
  5
286
100
AcDbEntity
  8
SMUSSO
100
AcDbLine
 62
7
  6
CONTINUOUS
 10
5.9642198421
 20
22.1331806758
 11
6.0
 21
22.1448295558
  0
LINE
  5
287
100
AcDbEntity
  8
RACCORDO
100
AcDbLine
 62
250
  6
CONTINUOUS
 10
-3.3482389284
 20
-19.5344465496
 11
-3.3827736845
 21
-19.537309873
  0
LINE
  5
288
100
AcDbEntity
  8
RACCORDO
100
AcDbLine
 62
250
  6
CONTINUOUS
 10
-3.0171476811
 20
-19.3824913893
 11
-3.0130252941
 21
-19.3821841502
  0
LWPOLYLINE
  5
289
100
AcDbEntity
  8
RACCORDO
100
AcDbPolyline
 62
7
  6
CONTINUOUS
 90
13
 70
0
 10
6.9912641797
 20
-17.9912550412
 10
7.1869690965
 20
-17.9784309744
 10
7.3793120231
 20
-17.9401871413
 10
7.5650065721
 20
-17.8771836811
 10
7.7408765014
 20
-17.7905063438
 10
7.9039252479
 20
-17.6816405316
 10
8.0513830324
 20
-17.5524395473
 10
8.1806971258
 20
-17.4051544052
 10
8.2897036103
 20
-17.242266087
 10
8.3766114975
 20
-17.0663867628
 10
8.4398860712
 20
-16.8804344137
 10
8.4783441862
 20
-16.6876274374
 10
8.4912550412
 20
-16.4912641797
  0
LWPOLYLINE
  5
28A
100
AcDbEntity
  8
RACCORDO
100
AcDbPolyline
 62
250
  6
CONTINUOUS
 90
7
 70
0
 10
-3.3990336007
 20
-18.9994907927
 10
-3.3729792058
 20
-18.9978175256
 10
-3.3473689108
 20
-18.9932200874
 10
-3.3226393091
 20
-18.9857768326
 10
-3.2992119853
 20
-18.975614631
 10
-3.2774863283
 20
-18.9629067051
 10
-3.2578327218
 20
-18.9478696784
  0
LINE
  5
28B
100
AcDbEntity
  8
RACCORDO
100
AcDbLine
 62
250
  6
CONTINUOUS
 10
-3.0130252941
 20
-19.3821841502
 11
-2.922558382
 21
-19.3765438064
  0
LINE
  5
28C
100
AcDbEntity
  8
RACCORDO
100
AcDbLine
 62
7
  6
CONTINUOUS
 10
-4.5
 20
-19.65
 11
-3.0964152922
 21
-19.5764412424
  0
LINE
  5
28D
100
AcDbEntity
  8
RACCORDO
100
AcDbLine
 62
250
  6
CONTINUOUS
 10
-4.5104743686
 20
-19.5964101615
 11
-3.3827736845
 21
-19.537309873
  0
LINE
  5
28E
100
AcDbEntity
  8
RACCORDO
100
AcDbLine
 62
250
  6
CONTINUOUS
 10
-3.1810448418
 20
-19.3910819795
 11
-3.0171476934
 21
-19.3824924939
  0
LWPOLYLINE
  5
28F
100
AcDbEntity
  8
RACCORDO
100
AcDbPolyline
 62
250
  6
CONTINUOUS
 90
6
 70
0
 10
2.5336808947
 20
-19.4017981743
 10
2.5967403704
 20
-19.3994844674
 10
2.6961008351
 20
-19.3947879772
 10
2.7843597177
 20
-19.3894253916
 10
2.8603156155
 20
-19.3833440013
 10
2.9225583833
 20
-19.3765438063
  0
LWPOLYLINE
  5
290
100
AcDbEntity
  8
RACCORDO
100
AcDbPolyline
 62
250
  6
CONTINUOUS
 90
7
 70
0
 10
2.534304153
 20
-19.6042994915
 10
2.5836403838
 20
-19.6031722037
 10
2.7139079312
 20
-19.5992126433
 10
2.8314555488
 20
-19.59456281
 10
2.9338004537
 20
-19.5892801514
 10
3.0234254288
 20
-19.5833072199
 10
3.1003304741
 20
-19.5766440155
  0
LINE
  5
291
100
AcDbEntity
  8
RACCORDO
100
AcDbLine
 62
7
  6
CONTINUOUS
 10
-4.9
 20
-19.7
 11
-2.9
 21
-19.7
  0
LINE
  5
292
100
AcDbEntity
  8
0
100
AcDbLine
 62
7
  6
CONTINUOUS
 10
-2.9
 20
-19.7
 11
2.9
 21
-19.7
  0
LINE
  5
293
100
AcDbEntity
  8
RACCORDO
100
AcDbLine
 62
7
  6
CONTINUOUS
 10
2.9
 20
-19.7
 11
4.9
 21
-19.7
  0
LINE
  5
294
100
AcDbEntity
  8
RACCORDO
100
AcDbLine
 62
7
  6
CONTINUOUS
 10
5.0410747011
 20
-19.65
 11
4.5
 21
-19.65
  0
LINE
  5
295
100
AcDbEntity
  8
0
100
AcDbLine
 62
7
  6
CONTINUOUS
 10
4.5
 20
-19.65
 11
2.53444481
 21
-19.65
  0
LINE
  5
296
100
AcDbEntity
  8
0
100
AcDbLine
 62
7
  6
CONTINUOUS
 10
-2.5
 20
-19.65
 11
-4.5
 21
-19.65
  0
LINE
  5
297
100
AcDbEntity
  8
RACCORDO
100
AcDbLine
 62
7
  6
CONTINUOUS
 10
-4.5
 20
-19.65
 11
-5.0410747011
 21
-19.65
  0
LINE
  5
298
100
AcDbEntity
  8
RACCORDO
100
AcDbLine
 62
250
  6
CONTINUOUS
 10
5.0417728356
 20
-19.5964101615
 11
4.5104743686
 21
-19.5964101615
  0
LINE
  5
299
100
AcDbEntity
  8
RACCORDO
100
AcDbLine
 62
250
  6
CONTINUOUS
 10
-4.5104743686
 20
-19.5964101615
 11
-5.0417728356
 21
-19.5964101615
  0
LINE
  5
29A
100
AcDbEntity
  8
RACCORDO
100
AcDbLine
 62
250
  6
CONTINUOUS
 10
-7.769389217
 20
-19.4432563202
 11
-5.9389119255
 21
-19.4432563202
  0
LINE
  5
29B
100
AcDbEntity
  8
RACCORDO
100
AcDbLine
 62
250
  6
CONTINUOUS
 10
5.9389119255
 20
-19.4432563202
 11
7.769389217
 21
-19.4432563202
  0
LINE
  5
29C
100
AcDbEntity
  8
RACCORDO
100
AcDbLine
 62
250
  6
CONTINUOUS
 10
-2.2916953758
 20
-19.0527207794
 11
2.2916953758
 21
-19.0527207794
  0
LINE
  5
29D
100
AcDbEntity
  8
DRAFT
100
AcDbLine
 62
7
  6
CONTINUOUS
 10
3.0960028571
 20
-19.0
 11
-3.0960028571
 21
-19.0
  0
LINE
  5
29E
100
AcDbEntity
  8
RACCORDO
100
AcDbLine
 62
250
  6
CONTINUOUS
 10
-5.0453818235
 20
-18.9994907927
 11
-3.3990336007
 21
-18.9994907927
  0
LINE
  5
29F
100
AcDbEntity
  8
RACCORDO
100
AcDbLine
 62
250
  6
CONTINUOUS
 10
3.3990336007
 20
-18.9994907927
 11
5.0453818235
 21
-18.9994907927
  0
LINE
  5
2A0
100
AcDbEntity
  8
RACCORDO
100
AcDbLine
 62
7
  6
CONTINUOUS
 10
-5.4474755854
 20
-18.9389119255
 11
5.4474755854
 21
-18.9389119255
  0
LINE
  5
2A1
100
AcDbEntity
  8
RACCORDO
100
AcDbLine
 62
250
  6
CONTINUOUS
 10
-2.5785853805
 20
-19.603364668
 11
-2.5
 21
-19.6052185271
  0
LWPOLYLINE
  5
2A2
100
AcDbEntity
  8
RACCORDO
100
AcDbPolyline
 62
250
  6
CONTINUOUS
 90
5
 70
0
 10
-2.8944298574
 20
-19.5915043112
 10
-2.833955891
 20
-19.594441625
 10
-2.7719467527
 20
-19.5970939449
 10
-2.7085830277
 20
-19.5994569526
 10
-2.5785853805
 20
-19.603364668
  0
LINE
  5
2A3
100
AcDbEntity
  8
RACCORDO
100
AcDbLine
 62
7
  6
CONTINUOUS
 10
3.0964176385
 20
-19.5764413654
 11
4.5
 21
-19.65
  0
LINE
  5
2A4
100
AcDbEntity
  8
RACCORDO
100
AcDbLine
 62
250
  6
CONTINUOUS
 10
3.3827736845
 20
-19.537309873
 11
4.5104743686
 21
-19.5964101615
  0
LINE
  5
2A5
100
AcDbEntity
  8
RACCORDO
100
AcDbLine
 62
250
  6
CONTINUOUS
 10
3.0171501754
 20
-19.3824926239
 11
3.1810448418
 21
-19.3910819795
  0
LWPOLYLINE
  5
2A6
100
AcDbEntity
  8
RACCORDO
100
AcDbPolyline
 62
250
  6
CONTINUOUS
 90
9
 70
0
 10
-2.2916953758
 20
-19.0527207794
 10
-2.3150047708
 20
-19.0514454732
 10
-2.3379215692
 20
-19.0480479014
 10
-2.3600597864
 20
-19.0425852887
 10
-2.3810465518
 20
-19.0351496413
 10
-2.4005283884
 20
-19.0258661965
 10
-2.4181771663
 20
-19.0148913142
 10
-2.4336956298
 20
-19.0024098427
 10
-2.4359915969
 20
-19.0
  0
LINE
  5
2A7
100
AcDbEntity
  8
RACCORDO
100
AcDbLine
 62
250
  6
CONTINUOUS
 10
2.9225583833
 20
-19.3765438063
 11
3.0171501753
 21
-19.3824925614
  0
LWPOLYLINE
  5
2A8
100
AcDbEntity
  8
RACCORDO
100
AcDbPolyline
 62
250
  6
CONTINUOUS
 90
3
 70
0
 10
-3.0045153597
 20
-19.5846956117
 10
-2.9514915775
 20
-19.5882582764
 10
-2.8944298574
 20
-19.5915043112
  0
LINE
  5
2A9
100
AcDbEntity
  8
RACCORDO
100
AcDbLine
 62
250
  6
CONTINUOUS
 10
3.3482389829
 20
-19.5344465581
 11
3.3827736845
 21
-19.537309873
  0
LWPOLYLINE
  5
2AA
100
AcDbEntity
  8
RACCORDO
100
AcDbPolyline
 62
250
  6
CONTINUOUS
 90
3
 70
0
 10
-3.100326185
 20
-19.5766441193
 10
-3.0541268955
 20
-19.580824226
 10
-3.0045153597
 20
-19.5846956117
  0
LWPOLYLINE
  5
2AB
100
AcDbEntity
  8
RACCORDO
100
AcDbPolyline
 62
250
  6
CONTINUOUS
 90
9
 70
0
 10
-2.8853787339
 20
-19.3807666635
 10
-2.8438906697
 20
-19.3846779007
 10
-2.798820114
 20
-19.388277518
 10
-2.7509195715
 20
-19.3915577101
 10
-2.7007947844
 20
-19.3945262824
 10
-2.6488566738
 20
-19.3972066502
 10
-2.595633821
 20
-19.3995942572
 10
-2.5416260387
 20
-19.4016936598
 10
-2.5
 20
-19.4031040748
  0
LINE
  5
2AC
100
AcDbEntity
  8
RACCORDO
100
AcDbLine
 62
250
  6
CONTINUOUS
 10
-2.922558382
 20
-19.3765438064
 11
-2.8853787339
 21
-19.3807666635
  0
LINE
  5
2AD
100
AcDbEntity
  8
SMUSSO
100
AcDbLine
 62
7
  6
CONTINUOUS
 10
6.0
 20
-22.5230369861
 11
5.9608675611
 21
-22.5102967102
  0
LINE
  5
2AE
100
AcDbEntity
  8
SMUSSO
100
AcDbLine
 62
7
  6
CONTINUOUS
 10
6.0
 20
-22.1448295558
 11
5.9642198421
 21
-22.1331806758
  0
LWPOLYLINE
  5
2AF
100
AcDbEntity
  8
RACCORDO
100
AcDbPolyline
 62
7
  6
CONTINUOUS
 90
4
 70
0
 10
-3.3154213212
 20
-20.2310224905
 10
-3.3336820212
 20
-20.2224181095
 10
-3.3658204369
 20
-20.2122835171
 10
-3.3992041554
 20
-20.2076902657
  0
LINE
  5
2B0
100
AcDbEntity
  8
RACCORDO
100
AcDbLine
 62
7
  6
CONTINUOUS
 10
-3.1953132616
 20
-18.9503485794
 11
-3.017150432
 21
-19.0394232099
  0
LINE
  5
2B1
100
AcDbEntity
  8
DRAFT
100
AcDbLine
 62
7
  6
CONTINUOUS
 10
-11.0
 20
-17.0
 11
-8.0
 21
-20.0
  0
LINE
  5
2B2
100
AcDbEntity
  8
RACCORDO
100
AcDbLine
 62
7
  6
CONTINUOUS
 10
-10.9432372817
 20
-16.9764881122
 11
-7.9764881122
 21
-19.9432372817
  0
LINE
  5
2B3
100
AcDbEntity
  8
RACCORDO
100
AcDbLine
 62
250
  6
CONTINUOUS
 10
-10.4432563202
 20
-16.769389217
 11
-7.769389217
 21
-19.4432563202
  0
LINE
  5
2B4
100
AcDbEntity
  8
RACCORDO
100
AcDbLine
 62
7
  6
CONTINUOUS
 10
3.017150432
 20
20.7247966322
 11
3.1502658806
 21
20.7913492875
  0
LWPOLYLINE
  5
2B5
100
AcDbEntity
  8
RACCORDO
100
AcDbPolyline
 62
7
  6
CONTINUOUS
 90
4
 70
0
 10
3.2906034821
 20
19.5694744326
 10
3.305025279
 20
19.5760801345
 10
3.3371636049
 20
19.586214665
 10
3.3705471896
 20
19.5908078864
  0
LINE
  5
2B6
100
AcDbEntity
  8
RACCORDO
100
AcDbLine
 62
7
  6
CONTINUOUS
 10
-6.9912641797
 20
-17.9912550412
 11
6.9912641797
 21
-17.9912550412
  0
LINE
  5
2B7
100
AcDbEntity
  8
RACCORDO
100
AcDbLine
 62
250
  6
CONTINUOUS
 10
8.4912550412
 20
-16.4912641797
 11
-8.4912550412
 21
-16.4912643347
  0
LWPOLYLINE
  5
2B8
100
AcDbEntity
  8
RACCORDO
100
AcDbPolyline
 62
7
  6
CONTINUOUS
 90
4
 70
0
 10
3.2859514491
 20
-19.567038775
 10
3.3050251582
 20
-19.5760800849
 10
3.3371635327
 20
-19.5862146488
 10
3.3705471896
 20
-19.5908078864
  0
LINE
  5
2B9
100
AcDbEntity
  8
RACCORDO
100
AcDbLine
 62
7
  6
CONTINUOUS
 10
3.1502658806
 20
-20.7913492875
 11
3.017150432
 21
-20.7247966322
  0
LWPOLYLINE
  5
2BA
100
AcDbEntity
  8
RACCORDO
100
AcDbPolyline
 62
7
  6
CONTINUOUS
 90
18
 70
0
 10
2.9154665592
 20
-21.9548048235
 10
2.9201067844
 20
-21.9576311623
 10
2.9252795582
 20
-21.9603416517
 10
2.9309917023
 20
-21.9629348078
 10
2.9372363949
 20
-21.9654121145
 10
2.9439339828
 20
-21.9677419729
 10
2.9510902675
 20
-21.9699224942
 10
2.9586994475
 20
-21.9719555673
 10
2.966664465
 20
-21.9738152595
 10
2.9749898783
 20
-21.9754993499
 10
2.9836711292
 20
-21.9770100595
 10
2.9925974851
 20
-21.9783281186
 10
3.001772086
 20
-21.9794510594
 10
3.0111917921
 20
-21.9803813498
 10
3.0207364517
 20
-21.9811071235
 10
3.0303660143
 20
-21.9816244252
 10
3.0401205304
 20
-21.9819372102
 10
3.05
 20
-21.9820454786
  0
LWPOLYLINE
  5
2BB
100
AcDbEntity
  8
RACCORDO
100
AcDbPolyline
 62
250
  6
CONTINUOUS
 90
10
 70
0
 10
-3.3745815911
 20
22.4999999998
 10
-3.3763948793
 20
22.4974636557
 10
-3.3781917978
 20
22.4898945011
 10
-3.3799723465
 20
22.4773556718
 10
-3.3817360026
 20
22.4599659265
 10
-3.383483289
 20
22.4377834529
 10
-3.3852157739
 20
22.4106929528
 10
-3.3869305576
 20
22.3787744165
 10
-3.3886305399
 20
22.3419795318
 10
-3.3903259884
 20
22.2997169306
  0
LWPOLYLINE
  5
2BC
100
AcDbEntity
  8
RACCORDO
100
AcDbPolyline
 62
250
  6
CONTINUOUS
 90
4
 70
0
 10
-3.1746115759
 20
22.3
 10
-3.176424958
 20
22.2975560568
 10
-3.1782219474
 20
22.2906124636
 10
-3.1800025439
 20
22.2791692206
  0
LWPOLYLINE
  5
2BD
100
AcDbEntity
  8
RACCORDO
100
AcDbPolyline
 62
250
  6
CONTINUOUS
 90
9
 70
0
 10
-2.4360108253
 20
19.0
 10
-2.4339348427
 20
19.0021900685
 10
-2.4183955812
 20
19.0147365874
 10
-2.4007176714
 20
19.0257627849
 10
-2.3811890088
 20
19.035090726
 10
-2.3601541321
 20
19.0425570488
 10
-2.3379761987
 20
19.0480371518
 10
-2.3150271086
 20
19.0514432141
 10
-2.2916953758
 20
19.0527207794
  0
LWPOLYLINE
  5
2BE
100
AcDbEntity
  8
RACCORDO
100
AcDbPolyline
 62
250
  6
CONTINUOUS
 90
10
 70
0
 10
-3.1810448418
 20
19.3910819795
 10
-3.1812291614
 20
19.3908896233
 10
-3.1814167694
 20
19.3900309859
 10
-3.1816076659
 20
19.3885060673
 10
-3.181802516
 20
19.3863615289
 10
-3.1820006546
 20
19.3835507092
 10
-3.1822000864
 20
19.3799336241
 10
-3.1824001462
 20
19.3754636122
 10
-3.1826014993
 20
19.3701873349
 10
-3.1953132616
 20
18.9503485794
  0
LWPOLYLINE
  5
2BF
100
AcDbEntity
  8
RACCORDO
100
AcDbPolyline
 62
7
  6
CONTINUOUS
 90
7
 70
0
 10
2.9154665592
 20
21.9548048235
 10
2.9114180701
 20
21.9518986863
 10
2.9079688973
 20
21.9489117284
 10
2.9051114607
 20
21.9458449721
 10
2.902882208
 20
21.9427375348
 10
2.9012932882
 20
21.9396024559
 10
2.9003325522
 20
21.9364266961
  0
LINE
  5
2C0
100
AcDbEntity
  8
0
100
AcDbLine
 62
250
  6
CONTINUOUS
 10
-2.7094103971
 20
-13.3000000829
 11
-2.732387906
 21
-13.3000001276
  0
LWPOLYLINE
  5
2C1
100
AcDbEntity
  8
RACCORDO
100
AcDbPolyline
 62
7
  6
CONTINUOUS
 90
10
 70
0
 10
10.9432372817
 20
-16.9764881122
 10
10.9332983988
 20
-16.9735778078
 10
10.9084786698
 20
-16.9631045012
 10
10.8697646568
 20
-16.9460547546
 10
10.8178179688
 20
-16.9243426776
 10
10.7547203852
 20
-16.8987975489
 10
10.6838609632
 20
-16.8690509233
 10
10.607495225
 20
-16.8361058225
 10
10.5267318529
 20
-16.8023234293
 10
10.4432563202
 20
-16.769389217
  0
LWPOLYLINE
  5
2C2
100
AcDbEntity
  8
RACCORDO
100
AcDbPolyline
 62
250
  6
CONTINUOUS
 90
7
 70
0
 10
3.2578327218
 20
-18.9478696784
 10
3.2774863928
 20
-18.9629067483
 10
3.2992120979
 20
-18.9756146879
 10
3.3226394441
 20
-18.9857768819
 10
3.3473690363
 20
-18.9932201174
 10
3.3729792863
 20
-18.9978175354
 10
3.3990336007
 20
-18.9994907927
  0
LINE
  5
2C3
100
AcDbEntity
  8
RACCORDO
100
AcDbLine
 62
7
  6
CONTINUOUS
 10
-11.0
 20
-15.500533067
 11
-11.0
 21
15.500533067
  0
LINE
  5
2C4
100
AcDbEntity
  8
DRAFT
100
AcDbLine
 62
7
  6
CONTINUOUS
 10
-11.0
 20
-17.0
 11
-11.0
 21
17.0
  0
LINE
  5
2C5
100
AcDbEntity
  8
RACCORDO
100
AcDbLine
 62
7
  6
CONTINUOUS
 10
-10.9432372817
 20
16.9764881122
 11
-10.9432372817
 21
-16.9764881122
  0
LWPOLYLINE
  5
2C6
100
AcDbEntity
  8
RACCORDO
100
AcDbPolyline
 62
250
  6
CONTINUOUS
 90
9
 70
0
 10
3.2097018076
 20
20.4074161726
 10
3.2099212114
 20
20.4076599915
 10
3.2101451393
 20
20.4088955501
 10
3.2103735911
 20
20.4111228484
 10
3.210607882
 20
20.4142546011
 10
3.210846697
 20
20.4183780935
 10
3.2110860907
 20
20.4237551818
 10
3.2113271531
 20
20.4303974269
 10
3.2115687943
 20
20.4382932679
  0
LINE
  5
2C7
100
AcDbEntity
  8
RACCORDO
100
AcDbLine
 62
7
  6
CONTINUOUS
 10
10.9432372817
 20
16.9764881122
 11
11.0
 21
17.0
  0
LINE
  5
2C8
100
AcDbEntity
  8
RACCORDO
100
AcDbLine
 62
250
  6
CONTINUOUS
 10
2.0087686396
 20
-11.045641368
 11
2.0227981544
 21
-11.0424228317
  0
LINE
  5
2C9
100
AcDbEntity
  8
RACCORDO
100
AcDbLine
 62
250
  6
CONTINUOUS
 10
-2.0087686396
 20
-11.045641368
 11
-2.0227812997
 21
-11.0424054156
  0
LINE
  5
2CA
100
AcDbEntity
  8
RACCORDO
100
AcDbLine
 62
7
  6
CONTINUOUS
 10
10.9432372817
 20
-16.9764881122
 11
11.0
 21
-17.0
  0
LINE
  5
2CB
100
AcDbEntity
  8
0
100
AcDbLine
 62
7
  6
CONTINUOUS
 10
-2.4757085024
 20
-11.7362641921
 11
-2.4942495002
 21
-11.7280603145
  0
LINE
  5
2CC
100
AcDbEntity
  8
RACCORDO
100
AcDbLine
 62
250
  6
CONTINUOUS
 10
-3.377950535
 20
-22.4912985233
 11
-3.3745811149
 21
-22.5
  0
LWPOLYLINE
  5
2CD
100
AcDbEntity
  8
RACCORDO
100
AcDbPolyline
 62
7
  6
CONTINUOUS
 90
13
 70
0
 10
-8.4912550412
 20
-16.4912641797
 10
-8.4783441862
 20
-16.6876274374
 10
-8.4398860712
 20
-16.8804344137
 10
-8.3766114975
 20
-17.0663867628
 10
-8.2897036103
 20
-17.242266087
 10
-8.1806971258
 20
-17.4051544052
 10
-8.0513830324
 20
-17.5524395473
 10
-7.9039252479
 20
-17.6816405316
 10
-7.7408765014
 20
-17.7905063438
 10
-7.5650065721
 20
-17.8771836811
 10
-7.3793120231
 20
-17.9401871413
 10
-7.1869690965
 20
-17.9784309744
 10
-6.9912641797
 20
-17.9912550412
  0
LINE
  5
2CE
100
AcDbEntity
  8
RACCORDO
100
AcDbLine
 62
250
  6
CONTINUOUS
 10
-10.4432563202
 20
16.769389217
 11
-10.4432563202
 21
-16.769389217
  0
LWPOLYLINE
  5
2CF
100
AcDbEntity
  8
RACCORDO
100
AcDbPolyline
 62
7
  6
CONTINUOUS
 90
5
 70
0
 10
5.447219708
 20
20.6547619048
 10
5.3865429462
 20
20.592467904
 10
5.3284136718
 20
20.5270500029
 10
5.2728318848
 20
20.4602370208
 10
5.1652649442
 20
20.3321518849
  0
LINE
  5
2D0
100
AcDbEntity
  8
RACCORDO
100
AcDbLine
 62
7
  6
CONTINUOUS
 10
5.9432372817
 20
19.9432372817
 11
6.0
 21
20.0
  0
LINE
  5
2D1
100
AcDbEntity
  8
RACCORDO
100
AcDbLine
 62
250
  6
CONTINUOUS
 10
-2.2383256845
 20
10.8338072246
 11
-2.0227813019
 21
11.0424054178
  0
LWPOLYLINE
  5
2D2
100
AcDbEntity
  8
RACCORDO
100
AcDbPolyline
 62
7
  6
CONTINUOUS
 90
10
 70
0
 10
10.9432372817
 20
16.9764881122
 10
10.9341515341
 20
16.9715181567
 10
10.9091955895
 20
16.9613737042
 10
10.8697646568
 20
16.9460547546
 10
10.8176800446
 20
16.9246756561
 10
10.7550001816
 20
16.8981220606
 10
10.6838609632
 20
16.8690509233
 10
10.6065665276
 20
16.8383478963
 10
10.5255704402
 20
16.8051273275
 10
10.4432563202
 20
16.769389217
  0
LINE
  5
2D3
100
AcDbEntity
  8
RACCORDO
100
AcDbLine
 62
250
  6
CONTINUOUS
 10
1.9209633061
 20
-10.4714243916
 11
1.9351567663
 21
-10.4706092827
  0
LINE
  5
2D4
100
AcDbEntity
  8
0
100
AcDbLine
 62
250
  6
CONTINUOUS
 10
-2.1116064104
 20
-9.3000002079
 11
-2.1393765985
 21
-9.3000002688
  0
LINE
  5
2D5
100
AcDbEntity
  8
RACCORDO
100
AcDbLine
 62
250
  6
CONTINUOUS
 10
-1.9209633061
 20
-10.4714243916
 11
-1.9348821149
 21
-10.471156677
  0
LINE
  5
2D6
100
AcDbEntity
  8
RACCORDO
100
AcDbLine
 62
250
  6
CONTINUOUS
 10
-2.2383256845
 20
-10.8338072243
 11
-2.0227812998
 21
-11.0424054156
  0
LINE
  5
2D7
100
AcDbEntity
  8
RACCORDO
100
AcDbLine
 62
7
  6
CONTINUOUS
 10
5.9432372817
 20
-19.9432372817
 11
6.0
 21
-20.0
  0
LWPOLYLINE
  5
2D8
100
AcDbEntity
  8
RACCORDO
100
AcDbPolyline
 62
7
  6
CONTINUOUS
 90
4
 70
0
 10
5.447219708
 20
-20.6547619048
 10
5.3865425847
 20
-20.5924678022
 10
5.3284130891
 20
-20.5270499421
 10
5.2728312212
 20
-20.4602371422
  0
LWPOLYLINE
  5
2D9
100
AcDbEntity
  8
RACCORDO
100
AcDbPolyline
 62
7
  6
CONTINUOUS
 90
6
 70
0
 10
5.2728312212
 20
-20.4602371422
 10
5.1652646722
 20
-20.332152842
 10
5.121371384
 20
-20.2732663019
 10
5.0881171162
 20
-20.2212505166
 10
5.0634790208
 20
-20.1807583047
 10
5.0474570977
 20
-20.1559446436
  0
LINE
  5
2DA
100
AcDbEntity
  8
RACCORDO
100
AcDbLine
 62
7
  6
CONTINUOUS
 10
-8.4912550412
 20
16.4912641797
 11
-8.4912550412
 21
-16.4912641797
  0
LWPOLYLINE
  5
2DB
100
AcDbEntity
  8
RACCORDO
100
AcDbPolyline
 62
7
  6
CONTINUOUS
 90
9
 70
0
 10
-2.9
 20
20.3867213008
 10
-2.9065614115
 20
20.3584886122
 10
-2.9190598344
 20
20.327427574
 10
-2.9360931044
 20
20.2991111033
 10
-2.9571848381
 20
20.2743977586
 10
-2.9817130524
 20
20.2540518908
 10
-3.0089655014
 20
20.2387247074
 10
-3.0381597885
 20
20.2289308911
 10
-3.0684329198
 20
20.2250249289
  0
LWPOLYLINE
  5
2DC
100
AcDbEntity
  8
RACCORDO
100
AcDbPolyline
 62
7
  6
CONTINUOUS
 90
5
 70
0
 10
5.1652649442
 20
20.3321518849
 10
5.1213714488
 20
20.2732651865
 10
5.088117099
 20
20.2212495683
 10
5.0634789804
 20
20.1807576863
 10
5.047457093
 20
20.1559444075
  0
LINE
  5
2DD
100
AcDbEntity
  8
RACCORDO
100
AcDbLine
 62
250
  6
CONTINUOUS
 10
2.2032758711
 20
10.6050887712
 11
1.9351567663
 21
10.4706092827
  0
LWPOLYLINE
  5
2DE
100
AcDbEntity
  8
DRAFT
100
AcDbPolyline
 62
250
  6
CONTINUOUS
 90
7
 70
0
 10
-1.8337038251
 20
-8.3838621576
 10
-1.1526560658
 20
-8.3175972417
 10
-0.7388367301
 20
-8.2780371517
 10
-0.3209519748
 20
-8.2385536897
 10
0.1010004444
 20
-8.199220784
 10
0.5270502854
 20
-8.1602198439
 10
0.9572114051
 20
-8.1216235851
  0
LINE
  5
2DF
100
AcDbEntity
  8
DRAFT
100
AcDbLine
 62
250
  6
CONTINUOUS
 10
0.9572114051
 20
-8.1216235851
 11
1.6006893396
 21
-8.0653370365
  0
LINE
  5
2E0
100
AcDbEntity
  8
RACCORDO
100
AcDbLine
 62
250
  6
CONTINUOUS
 10
2.2032758711
 20
-10.6050887712
 11
1.9351567663
 21
-10.4706092827
  0
LWPOLYLINE
  5
2E1
100
AcDbEntity
  8
RACCORDO
100
AcDbPolyline
 62
7
  6
CONTINUOUS
 90
9
 70
0
 10
-2.9
 20
-20.3864693658
 10
-2.9066727882
 20
-20.3578408902
 10
-2.9191976056
 20
-20.326828748
 10
-2.9361695918
 20
-20.2987538623
 10
-2.9570529722
 20
-20.2743938584
 10
-2.9811564335
 20
-20.2544100903
 10
-3.0077460908
 20
-20.2393251288
 10
-3.0360735997
 20
-20.2295115084
 10
-3.0653274448
 20
-20.2251893025
  0
LWPOLYLINE
  5
2E2
100
AcDbEntity
  8
RACCORDO
100
AcDbPolyline
 62
7
  6
CONTINUOUS
 90
10
 70
0
 10
-4.5104743686
 20
-19.5964101615
 10
-4.5092657905
 20
-19.6074521555
 10
-4.5080517165
 20
-19.6172951479
 10
-4.5068403908
 20
-19.6259017304
 10
-4.5056433317
 20
-19.6332386178
 10
-4.5044654823
 20
-19.6392764829
 10
-4.5033051847
 20
-19.6439899752
 10
-4.5021672466
 20
-19.6473583085
 10
-4.5010629094
 20
-19.649365486
 10
-4.5
 20
-19.65
  0
LINE
  5
2E3
100
AcDbEntity
  8
RACCORDO
100
AcDbLine
 62
250
  6
CONTINUOUS
 10
-5.4474109268
 20
-20.3303027203
 11
-5.447219708
 21
-20.6547619048
  0
LINE
  5
2E4
100
AcDbEntity
  8
RACCORDO
100
AcDbLine
 62
250
  6
CONTINUOUS
 10
-6.9912641797
 20
-17.9912550412
 11
-6.9912642038
 21
17.9912550412
  0
LINE
  5
2E5
100
AcDbEntity
  8
0
100
AcDbLine
 62
7
  6
CONTINUOUS
 10
-6.0
 20
25.0999999838
 11
-6.0
 21
25.0513126297
  0
LINE
  5
2E6
100
AcDbEntity
  8
SMUSSO
100
AcDbLine
 62
7
  6
CONTINUOUS
 10
-6.0
 20
25.0513126297
 11
-6.0
 21
22.5230369861
  0
LINE
  5
2E7
100
AcDbEntity
  8
SMUSSO
100
AcDbLine
 62
7
  6
CONTINUOUS
 10
-6.0
 20
22.5230369861
 11
-6.0
 21
22.1448295558
  0
LINE
  5
2E8
100
AcDbEntity
  8
DRAFT
100
AcDbLine
 62
7
  6
CONTINUOUS
 10
-6.0
 20
20.7642198421
 11
-6.0
 21
20.0
  0
LINE
  5
2E9
100
AcDbEntity
  8
0
100
AcDbLine
 62
7
  6
CONTINUOUS
 10
-6.0
 20
-25.0999999838
 11
-6.0
 21
-25.0513126297
  0
LINE
  5
2EA
100
AcDbEntity
  8
SMUSSO
100
AcDbLine
 62
7
  6
CONTINUOUS
 10
-6.0
 20
-25.0513126297
 11
-6.0
 21
-22.5230369861
  0
LINE
  5
2EB
100
AcDbEntity
  8
SMUSSO
100
AcDbLine
 62
7
  6
CONTINUOUS
 10
-6.0
 20
-22.5230369861
 11
-6.0
 21
-22.1448295558
  0
LINE
  5
2EC
100
AcDbEntity
  8
DRAFT
100
AcDbLine
 62
7
  6
CONTINUOUS
 10
-6.0
 20
-20.7642198421
 11
-6.0
 21
-20.0
  0
LINE
  5
2ED
100
AcDbEntity
  8
RACCORDO
100
AcDbLine
 62
7
  6
CONTINUOUS
 10
-5.9389119255
 20
20.0
 11
-5.9389119255
 21
19.4432563202
  0
LINE
  5
2EE
100
AcDbEntity
  8
RACCORDO
100
AcDbLine
 62
7
  6
CONTINUOUS
 10
-5.9389119255
 20
-19.4432563202
 11
-5.9389119255
 21
-20.0
  0
LINE
  5
2EF
100
AcDbEntity
  8
RACCORDO
100
AcDbLine
 62
250
  6
CONTINUOUS
 10
-5.4474755854
 20
-20.0
 11
-5.4474109268
 21
-20.3303027203
  0
LINE
  5
2F0
100
AcDbEntity
  8
RACCORDO
100
AcDbLine
 62
250
  6
CONTINUOUS
 10
-5.4474755854
 20
-18.9389119255
 11
-5.4474755854
 21
-20.0
  0
LWPOLYLINE
  5
2F1
100
AcDbEntity
  8
RACCORDO
100
AcDbPolyline
 62
250
  6
CONTINUOUS
 90
3
 70
0
 10
-5.447219708
 20
20.6547619048
 10
-5.4472975185
 20
20.547597069
 10
-5.4474755854
 20
18.9389119255
  0
LWPOLYLINE
  5
2F2
100
AcDbEntity
  8
RACCORDO
100
AcDbPolyline
 62
250
  6
CONTINUOUS
 90
8
 70
0
 10
-3.1800025439
 20
22.2791692206
 10
-3.1817662176
 20
22.2632363671
 10
-3.1835134984
 20
22.2428038637
 10
-3.1852459766
 20
22.217841592
 10
-3.1869607604
 20
22.1885666473
 10
-3.1886607415
 20
22.1547619342
 10
-3.1903561851
 20
22.115746049
 10
-3.1937345458
 20
22.0226987122
  0
LWPOLYLINE
  5
2F3
100
AcDbEntity
  8
RACCORDO
100
AcDbPolyline
 62
7
  6
CONTINUOUS
 90
10
 70
0
 10
-1.920963306
 20
10.471424392
 10
-1.893929015
 20
10.5370033217
 10
-1.87624401
 20
10.6030942825
 10
-1.867908291
 20
10.6696972741
 10
-1.869124093
 20
10.7380873525
 10
-1.879689181
 20
10.8069894618
 10
-1.8989968501
 20
10.8725784347
 10
-1.9268448654
 20
10.9335792155
 10
-1.9634354619
 20
10.9912668599
 10
-2.0087686396
 20
11.045641368
  0
LWPOLYLINE
  5
2F4
100
AcDbEntity
  8
RACCORDO
100
AcDbPolyline
 62
250
  6
CONTINUOUS
 90
16
 70
0
 10
-1.9351567663
 20
10.4706092827
 10
-1.9220830528
 20
10.4988431475
 10
-1.9103685431
 20
10.5290329397
 10
-1.9002920953
 20
10.5611408622
 10
-1.892158145
 20
10.5950261085
 10
-1.8862397527
 20
10.630654679
 10
-1.8828271792
 20
10.6681045838
 10
-1.88227417
 20
10.7072135383
 10
-1.884935301
 20
10.7477272076
 10
-1.8911847803
 20
10.789512025
 10
-1.9013993626
 20
10.8322383132
 10
-1.9159184156
 20
10.8754425753
 10
-1.9350763006
 20
10.9186788183
 10
-1.9591559101
 20
10.9613810914
 10
-1.988355206
 20
11.0028714829
 10
-2.0227981507
 20
11.0424228321
  0
LWPOLYLINE
  5
2F5
100
AcDbEntity
  8
RACCORDO
100
AcDbPolyline
 62
250
  6
CONTINUOUS
 90
16
 70
0
 10
-2.2032758711
 20
10.6050887712
 10
-2.1978539905
 20
10.6164241935
 10
-2.1932048875
 20
10.628490895
 10
-2.1893285622
 20
10.6412888757
 10
-2.1861000521
 20
10.6548479286
 10
-2.1836443197
 20
10.6691382607
 10
-2.1823362523
 20
10.6840704928
 10
-2.1821568974
 20
10.6997137994
 10
-2.1831252074
 20
10.715999006
 10
-2.1856729273
 20
10.7326292107
 10
-2.1898204407
 20
10.7497000523
 10
-2.195547364
 20
10.767115892
 10
-2.2032242906
 20
10.7842929109
 10
-2.2129747519
 20
10.8010365028
 10
-2.2246752165
 20
10.817541274
 10
-2.2383256845
 20
10.8338072243
  0
LWPOLYLINE
  5
2F6
100
AcDbEntity
  8
RACCORDO
100
AcDbPolyline
 62
7
  6
CONTINUOUS
 90
10
 70
0
 10
2.0087686396
 20
11.045641368
 10
1.9633713671
 20
10.9911390489
 10
1.9267435604
 20
10.9333520951
 10
1.8988852195
 20
10.8722805068
 10
1.8796085905
 20
10.8066446266
 10
1.8691014274
 20
10.7377241118
 10
1.8679269912
 20
10.6693579338
 10
1.8762730358
 20
10.6028257498
 10
1.8939518074
 20
10.5368479025
 10
1.920963306
 20
10.471424392
  0
LWPOLYLINE
  5
2F7
100
AcDbEntity
  8
RACCORDO
100
AcDbPolyline
 62
250
  6
CONTINUOUS
 90
16
 70
0
 10
2.0227812997
 20
11.0424054156
 10
2.001839543
 20
11.0193667631
 10
1.9816114547
 20
10.9940539416
 10
1.9623745598
 20
10.9664197246
 10
1.9444612389
 20
10.9365068886
 10
1.928142769
 20
10.904266996
 10
1.9136736441
 20
10.8695411242
 10
1.90143944
 20
10.8323783698
 10
1.8918542175
 20
10.792916026
 10
1.8853147668
 20
10.7511731823
 10
1.8822770846
 20
10.7073292925
 10
1.8832066552
 20
10.6617478696
 10
1.8885429053
 20
10.6148251899
 10
1.8986967336
 20
10.5670352616
 10
1.9140386917
 20
10.5189320265
 10
1.9348826263
 20
10.4711568909
  0
LWPOLYLINE
  5
2F8
100
AcDbEntity
  8
RACCORDO
100
AcDbPolyline
 62
250
  6
CONTINUOUS
 90
16
 70
0
 10
2.2383256845
 20
10.8338072243
 10
2.2297536056
 20
10.8246102473
 10
2.2217007721
 20
10.8144838455
 10
2.214167184
 20
10.8034280191
 10
2.2070245874
 20
10.7914512757
 10
2.2004012363
 20
10.7785451077
 10
2.1946818921
 20
10.7646839919
 10
2.1898282155
 20
10.7498075146
 10
2.1858785459
 20
10.7339760895
 10
2.1833326628
 20
10.7173454349
 10
2.182181625
 20
10.6998193217
 10
2.1824343737
 20
10.6814939788
 10
2.1846175123
 20
10.6628138119
 10
2.1889065753
 20
10.6439269558
 10
2.1951260283
 20
10.6246852756
 10
2.2032758711
 20
10.6050887712
  0
LWPOLYLINE
  5
2F9
100
AcDbEntity
  8
RACCORDO
100
AcDbPolyline
 62
250
  6
CONTINUOUS
 90
10
 70
0
 10
-3.3827736845
 20
-19.537309873
 10
-3.3815437461
 20
-19.5471741971
 10
-3.3802653535
 20
-19.5563527792
 10
-3.3789456775
 20
-19.5647249829
 10
-3.3775997172
 20
-19.5721586968
 10
-3.3762303795
 20
-19.5785348858
 10
-3.3748288825
 20
-19.5837349533
 10
-3.3734014362
 20
-19.5876153057
 10
-3.3719689226
 20
-19.5900222482
 10
-3.3705471896
 20
-19.5908078864
  0
LWPOLYLINE
  5
2FA
100
AcDbEntity
  8
RACCORDO
100
AcDbPolyline
 62
250
  6
CONTINUOUS
 90
8
 70
0
 10
-3.2097018076
 20
-20.4074161726
 10
-3.2125405782
 20
-20.3738329837
 10
-3.2209773615
 20
-20.341203432
 10
-3.2347725938
 20
-20.3104541187
 10
-3.2535345444
 20
-20.2824582547
 10
-3.2767304349
 20
-20.2580108686
 10
-3.3037015642
 20
-20.2378062269
 10
-3.3154213212
 20
-20.2310224905
  0
LWPOLYLINE
  5
2FB
100
AcDbEntity
  8
RACCORDO
100
AcDbPolyline
 62
250
  6
CONTINUOUS
 90
10
 70
0
 10
-3.017150432
 20
-20.4175073626
 10
-3.0199892282
 20
-20.3839240234
 10
-3.0284260735
 20
-20.351294372
 10
-3.0422213816
 20
-20.3205450137
 10
-3.060983398
 20
-20.292549158
 10
-3.0841793258
 20
-20.2681018213
 10
-3.1111504551
 20
-20.2478972503
 10
-3.1411308692
 20
-20.2325092075
 10
-3.1732691951
 20
-20.222374677
 10
-3.2066527798
 20
-20.2177814557
  0
LWPOLYLINE
  5
2FC
100
AcDbEntity
  8
RACCORDO
100
AcDbPolyline
 62
250
  6
CONTINUOUS
 90
5
 70
0
 10
-3.3898308383
 20
-22.3125666122
 10
-3.387099884
 20
-22.3752049746
 10
-3.3842087071
 20
-22.4270494044
 10
-3.3811597324
 20
-22.4663812037
 10
-3.377950535
 20
-22.4912985233
  0
LWPOLYLINE
  5
2FD
100
AcDbEntity
  8
RACCORDO
100
AcDbPolyline
 62
250
  6
CONTINUOUS
 90
9
 70
0
 10
-3.1826445818
 20
-19.3691667314
 10
-3.1824759159
 20
-19.3737613552
 10
-3.1822981479
 20
-19.3778886635
 10
-3.1821111131
 20
-19.381613727
 10
-3.1819149762
 20
-19.384871475
 10
-3.1817102312
 20
-19.3874666955
 10
-3.1814970428
 20
-19.3893343177
 10
-3.1812752463
 20
-19.3905394124
 10
-3.1810448418
 20
-19.3910819795
  0
LINE
  5
2FE
100
AcDbEntity
  8
RACCORDO
100
AcDbLine
 62
250
  6
CONTINUOUS
 10
-3.3923942955
 20
-22.2404295918
 11
-3.3898308383
 21
-22.3125666122
  0
LWPOLYLINE
  5
2FF
100
AcDbEntity
  8
RACCORDO
100
AcDbPolyline
 62
250
  6
CONTINUOUS
 90
8
 70
0
 10
-3.1948105308
 20
-21.9881501282
 10
-3.1924189984
 20
-22.0613418832
 10
-3.1898545149
 20
-22.1274058341
 10
-3.1871224935
 20
-22.1860177359
 10
-3.1842313476
 20
-22.2330007838
 10
-3.1811838815
 20
-22.2669627097
 10
-3.177977291
 20
-22.2892957818
 10
-3.1746115759
 20
-22.3
  0
LINE
  5
300
100
AcDbEntity
  8
RACCORDO
100
AcDbLine
 62
250
  6
CONTINUOUS
 10
-3.3990336007
 20
-18.9994907927
 11
-3.3827736845
 21
-19.537309873
  0
LINE
  5
301
100
AcDbEntity
  8
RACCORDO
100
AcDbLine
 62
250
  6
CONTINUOUS
 10
-3.1953132616
 20
-18.9503485794
 11
-3.1826445818
 21
-19.3691667314
  0
LINE
  5
302
100
AcDbEntity
  8
RACCORDO
100
AcDbLine
 62
7
  6
CONTINUOUS
 10
-4.5104743686
 20
20.6547619048
 11
-4.506068062
 21
20.4930536219
  0
LINE
  5
303
100
AcDbEntity
  8
RACCORDO
100
AcDbLine
 62
250
  6
CONTINUOUS
 10
-3.3970086518
 20
-22.0734268395
 11
-3.3923942955
 21
-22.2404295918
  0
LINE
  5
304
100
AcDbEntity
  8
RACCORDO
100
AcDbLine
 62
250
  6
CONTINUOUS
 10
-3.1990988085
 20
-21.8226145404
 11
-3.1948105308
 21
-21.9881501282
  0
LWPOLYLINE
  5
305
100
AcDbEntity
  8
RACCORDO
100
AcDbPolyline
 62
7
  6
CONTINUOUS
 90
3
 70
0
 10
-5.0473775979
 20
20.1526457126
 10
-5.0474312937
 20
20.1547253013
 10
-5.0474582443
 20
20.1559922249
  0
LWPOLYLINE
  5
306
100
AcDbEntity
  8
RACCORDO
100
AcDbPolyline
 62
7
  6
CONTINUOUS
 90
6
 70
0
 10
-4.506068062
 20
20.4930536219
 10
-4.5012358975
 20
20.27599054
 10
-4.500269912
 20
20.2226434126
 10
-4.4997686199
 20
20.1828600812
 10
-4.4996786493
 20
20.1583028054
 10
-4.5
 20
20.15
  0
LINE
  5
307
100
AcDbEntity
  8
RACCORDO
100
AcDbLine
 62
250
  6
CONTINUOUS
 10
-3.4009735973
 20
-21.883833862
 11
-3.3970086518
 21
-22.0734268395
  0
LINE
  5
308
100
AcDbEntity
  8
RACCORDO
100
AcDbLine
 62
250
  6
CONTINUOUS
 10
-3.2027424421
 20
-21.6406673096
 11
-3.1990988085
 21
-21.8226145404
  0
LINE
  5
309
100
AcDbEntity
  8
RACCORDO
100
AcDbLine
 62
250
  6
CONTINUOUS
 10
-3.4057680546
 20
-21.5743578874
 11
-3.4009735973
 21
-21.883833862
  0
LINE
  5
30A
100
AcDbEntity
  8
RACCORDO
100
AcDbLine
 62
250
  6
CONTINUOUS
 10
-3.2071078787
 20
-21.3502698511
 11
-3.2027424421
 21
-21.6406673096
  0
LINE
  5
30B
100
AcDbEntity
  8
RACCORDO
100
AcDbLine
 62
250
  6
CONTINUOUS
 10
-3.2102921869
 20
-21.0541046876
 11
-3.2071078787
 21
-21.3502698511
  0
LINE
  5
30C
100
AcDbEntity
  8
RACCORDO
100
AcDbLine
 62
250
  6
CONTINUOUS
 10
-3.4102629706
 20
-21.1456643709
 11
-3.4057680546
 21
-21.5743578874
  0
LINE
  5
30D
100
AcDbEntity
  8
RACCORDO
100
AcDbLine
 62
250
  6
CONTINUOUS
 10
-3.4130110299
 20
-20.7232473714
 11
-3.4102629706
 21
-21.1456643709
  0
LINE
  5
30E
100
AcDbEntity
  8
RACCORDO
100
AcDbLine
 62
250
  6
CONTINUOUS
 10
-5.0474780224
 20
-20.0
 11
-5.0474582447
 21
-20.1559921998
  0
LINE
  5
30F
100
AcDbEntity
  8
RACCORDO
100
AcDbLine
 62
7
  6
CONTINUOUS
 10
-5.0474780224
 20
20.0
 11
-5.0474780224
 21
18.9423904876
  0
LINE
  5
310
100
AcDbEntity
  8
RACCORDO
100
AcDbLine
 62
7
  6
CONTINUOUS
 10
-5.0474780224
 20
-18.9423904876
 11
-5.0474780224
 21
-20.0
  0
LINE
  5
311
100
AcDbEntity
  8
RACCORDO
100
AcDbLine
 62
7
  6
CONTINUOUS
 10
-5.001739244
 20
-20.15
 11
-5.001739244
 21
-19.65
  0
LINE
  5
312
100
AcDbEntity
  8
RACCORDO
100
AcDbLine
 62
7
  6
CONTINUOUS
 10
-5.001739244
 20
19.65
 11
-5.001739244
 21
20.15
  0
LINE
  5
313
100
AcDbEntity
  8
RACCORDO
100
AcDbLine
 62
7
  6
CONTINUOUS
 10
-4.9
 20
-19.7
 11
-4.9
 21
-20.1
  0
LINE
  5
314
100
AcDbEntity
  8
RACCORDO
100
AcDbLine
 62
7
  6
CONTINUOUS
 10
-4.9
 20
19.7
 11
-4.9
 21
20.1
  0
LINE
  5
315
100
AcDbEntity
  8
RACCORDO
100
AcDbLine
 62
250
  6
CONTINUOUS
 10
-4.75
 20
-19.7
 11
-4.75
 21
-20.1
  0
LINE
  5
316
100
AcDbEntity
  8
RACCORDO
100
AcDbLine
 62
250
  6
CONTINUOUS
 10
-4.75
 20
19.7
 11
-4.75
 21
20.1
  0
LINE
  5
317
100
AcDbEntity
  8
RACCORDO
100
AcDbLine
 62
250
  6
CONTINUOUS
 10
-4.5017422902
 20
-20.15
 11
-4.5017422902
 21
-20.1
  0
LINE
  5
318
100
AcDbEntity
  8
RACCORDO
100
AcDbLine
 62
250
  6
CONTINUOUS
 10
-4.5017422902
 20
-19.7
 11
-4.5017422902
 21
-19.65
  0
LINE
  5
319
100
AcDbEntity
  8
RACCORDO
100
AcDbLine
 62
250
  6
CONTINUOUS
 10
-4.5017422902
 20
19.65
 11
-4.5017422902
 21
19.7
  0
LINE
  5
31A
100
AcDbEntity
  8
RACCORDO
100
AcDbLine
 62
250
  6
CONTINUOUS
 10
-4.5017422902
 20
20.1
 11
-4.5017422902
 21
20.15
  0
LINE
  5
31B
100
AcDbEntity
  8
RACCORDO
100
AcDbLine
 62
250
  6
CONTINUOUS
 10
-5.0474582443
 20
20.1559922249
 11
-5.0474780224
 21
20.0
  0
LINE
  5
31C
100
AcDbEntity
  8
RACCORDO
100
AcDbLine
 62
250
  6
CONTINUOUS
 10
-3.409711941
 20
21.2100233432
 11
-3.4130110307
 21
20.7232459795
  0
LWPOLYLINE
  5
31D
100
AcDbEntity
  8
RACCORDO
100
AcDbPolyline
 62
7
  6
CONTINUOUS
 90
4
 70
0
 10
-4.5002696929
 20
-20.2226296213
 10
-4.4997683652
 20
-20.1828505558
 10
-4.4996784676
 20
-20.1582995628
 10
-4.5
 20
-20.15
  0
LINE
  5
31E
100
AcDbEntity
  8
RACCORDO
100
AcDbLine
 62
250
  6
CONTINUOUS
 10
-3.4053861528
 20
21.603182369
 11
-3.409711941
 21
21.2100233432
  0
LINE
  5
31F
100
AcDbEntity
  8
RACCORDO
100
AcDbLine
 62
250
  6
CONTINUOUS
 10
-3.2054162056
 20
21.4749558463
 11
-3.2097419941
 21
21.1132644681
  0
LINE
  5
320
100
AcDbEntity
  8
RACCORDO
100
AcDbLine
 62
250
  6
CONTINUOUS
 10
-3.4005017182
 20
21.9090877187
 11
-3.4053861528
 21
21.603182369
  0
LINE
  5
321
100
AcDbEntity
  8
RACCORDO
100
AcDbLine
 62
250
  6
CONTINUOUS
 10
-3.2005318169
 20
21.7563783529
 11
-3.2054162056
 21
21.4749558463
  0
LINE
  5
322
100
AcDbEntity
  8
RACCORDO
100
AcDbLine
 62
7
  6
CONTINUOUS
 10
-4.5042422566
 20
-20.4140731871
 11
-4.5002696929
 21
-20.2226296213
  0
LINE
  5
323
100
AcDbEntity
  8
RACCORDO
100
AcDbLine
 62
250
  6
CONTINUOUS
 10
-3.3971029901
 20
22.0694814544
 11
-3.4005017182
 21
21.9090877187
  0
LWPOLYLINE
  5
324
100
AcDbEntity
  8
RACCORDO
100
AcDbPolyline
 62
7
  6
CONTINUOUS
 90
9
 70
0
 10
-5.0474582447
 20
-20.1559921998
 10
-5.047404409
 20
-20.153609701
 10
-5.0473775947
 20
-20.1526456074
 10
-5.0473508822
 20
-20.1518344778
 10
-5.0473242387
 20
-20.1511747855
 10
-5.0472975658
 20
-20.1506619496
 10
-5.0472708304
 20
-20.1502944433
 10
-5.0472440655
 20
-20.1500737934
 10
-5.0472172711
 20
-20.15
  0
LINE
  5
325
100
AcDbEntity
  8
RACCORDO
100
AcDbLine
 62
250
  6
CONTINUOUS
 10
-3.1971331281
 20
21.9038039377
 11
-3.2005318169
 21
21.7563783529
  0
LINE
  5
326
100
AcDbEntity
  8
RACCORDO
100
AcDbLine
 62
250
  6
CONTINUOUS
 10
-3.3937043735
 20
22.1983300138
 11
-3.3971029901
 21
22.0694814544
  0
LWPOLYLINE
  5
327
100
AcDbEntity
  8
RACCORDO
100
AcDbPolyline
 62
7
  6
CONTINUOUS
 90
3
 70
0
 10
-4.5104743686
 20
-20.6547619048
 10
-4.508145937
 20
-20.5744306183
 10
-4.5042422566
 20
-20.4140731871
  0
LINE
  5
328
100
AcDbEntity
  8
RACCORDO
100
AcDbLine
 62
250
  6
CONTINUOUS
 10
-3.3827736845
 20
19.537309873
 11
-3.3990336007
 21
18.9994907927
  0
LINE
  5
329
100
AcDbEntity
  8
RACCORDO
100
AcDbLine
 62
250
  6
CONTINUOUS
 10
-3.1937345458
 20
22.0226987122
 11
-3.1971331281
 21
21.9038039377
  0
LINE
  5
32A
100
AcDbEntity
  8
RACCORDO
100
AcDbLine
 62
250
  6
CONTINUOUS
 10
-3.3903259884
 20
22.2997169306
 11
-3.3937043735
 21
22.1983300138
  0
LWPOLYLINE
  5
32B
100
AcDbEntity
  8
RACCORDO
100
AcDbPolyline
 62
250
  6
CONTINUOUS
 90
10
 70
0
 10
-3.3990336007
 20
18.9994907927
 10
-3.3995443079
 20
18.9889826443
 10
-3.4000718088
 20
18.9794768928
 10
-3.4006161035
 20
18.9710351323
 10
-3.4011792591
 20
18.9637124548
 10
-3.4017592084
 20
18.9575732702
 10
-3.40234975
 20
18.9526818939
 10
-3.4029488167
 20
18.9490843479
 10
-3.4035584756
 20
18.9468170106
 10
-3.4041787268
 20
18.945916185
  0
LWPOLYLINE
  5
32C
100
AcDbEntity
  8
RACCORDO
100
AcDbPolyline
 62
250
  6
CONTINUOUS
 90
8
 70
0
 10
-3.2097018076
 20
20.4074161726
 10
-3.2125406037
 20
20.3738328334
 10
-3.2209774491
 20
20.341203182
 10
-3.2347727571
 20
20.3104538237
 10
-3.2535347736
 20
20.282457968
 10
-3.2767307014
 20
20.2580106313
 10
-3.3037018306
 20
20.2378060604
 10
-3.3199778125
 20
20.2286618605
  0
LWPOLYLINE
  5
32D
100
AcDbEntity
  8
RACCORDO
100
AcDbPolyline
 62
250
  6
CONTINUOUS
 90
10
 70
0
 10
-3.017150432
 20
20.4175073626
 10
-3.0199851577
 20
20.3839479206
 10
-3.0284117836
 20
20.3513351121
 10
-3.0421938533
 20
20.3205946927
 10
-3.0609421064
 20
20.2926007802
 10
-3.0841269667
 20
20.2681484375
 10
-3.111094656
 20
20.2479321338
 10
-3.141082574
 20
20.2325290571
 10
-3.1732396048
 20
20.2223813303
 10
-3.2066526332
 20
20.2177814633
  0
LWPOLYLINE
  5
32E
100
AcDbEntity
  8
RACCORDO
100
AcDbPolyline
 62
250
  6
CONTINUOUS
 90
10
 70
0
 10
3.2130415768
 20
20.6653742379
 10
3.2165897347
 20
20.6753168258
 10
3.2259800398
 20
20.6849636799
 10
3.2409331967
 20
20.6940278746
 10
3.2610044549
 20
20.7022398142
 10
3.2855968362
 20
20.7093552514
 10
3.3139788911
 20
20.7151625524
 10
3.3453064541
 20
20.7194889911
 10
3.3786477517
 20
20.7222058863
 10
3.4130111158
 20
20.7232324298
  0
LWPOLYLINE
  5
32F
100
AcDbEntity
  8
RACCORDO
100
AcDbPolyline
 62
250
  6
CONTINUOUS
 90
10
 70
0
 10
3.2130415768
 20
-20.6653742379
 10
3.2165895931
 20
-20.6753168411
 10
3.2259797958
 20
-20.6849637166
 10
3.2409328911
 20
-20.6940279366
 10
3.2610041276
 20
-20.7022399028
 10
3.2855965241
 20
-20.7093553659
 10
3.3139786264
 20
-20.7151626899
 10
3.3453062627
 20
-20.7194891468
 10
3.3786476514
 20
-20.7222060544
 10
3.4130111162
 20
-20.7232326035
  0
LINE
  5
330
100
AcDbEntity
  8
RACCORDO
100
AcDbLine
 62
250
  6
CONTINUOUS
 10
-3.3993082669
 20
20.2106256086
 11
-3.3992041295
 21
20.2076902671
  0
LINE
  5
331
100
AcDbEntity
  8
RACCORDO
100
AcDbLine
 62
250
  6
CONTINUOUS
 10
-3.4104002041
 20
20.6229050151
 11
-3.4081455205
 21
20.5369118455
  0
LINE
  5
332
100
AcDbEntity
  8
RACCORDO
100
AcDbLine
 62
250
  6
CONTINUOUS
 10
-3.4081455205
 20
20.5369118455
 11
-3.3993082669
 21
20.2106256086
  0
LINE
  5
333
100
AcDbEntity
  8
RACCORDO
100
AcDbLine
 62
250
  6
CONTINUOUS
 10
-3.4130114684
 20
20.7232459584
 11
-3.4104002041
 21
20.6229050151
  0
LWPOLYLINE
  5
334
100
AcDbEntity
  8
RACCORDO
100
AcDbPolyline
 62
250
  6
CONTINUOUS
 90
7
 70
0
 10
-3.2118967456
 20
20.4518317865
 10
-3.2115992563
 20
20.4396137783
 10
-3.2112694281
 20
20.428625502
 10
-3.2109140865
 20
20.4198166356
 10
-3.2105355069
 20
20.4135037381
 10
-3.2101314139
 20
20.4093702505
 10
-3.2097018076
 20
20.4074161726
  0
LINE
  5
335
100
AcDbEntity
  8
RACCORDO
100
AcDbLine
 62
250
  6
CONTINUOUS
 10
-2.4729693833
 20
19.0
 11
-2.4851879288
 21
19.7
  0
LINE
  5
336
100
AcDbEntity
  8
RACCORDO
100
AcDbLine
 62
250
  6
CONTINUOUS
 10
-2.2916953758
 20
19.0527207794
 11
-2.3029936766
 21
19.7
  0
LINE
  5
337
100
AcDbEntity
  8
RACCORDO
100
AcDbLine
 62
250
  6
CONTINUOUS
 10
-3.2123895353
 20
20.4798810823
 11
-3.2118967456
 21
20.4518317865
  0
LINE
  5
338
100
AcDbEntity
  8
RACCORDO
100
AcDbLine
 62
250
  6
CONTINUOUS
 10
-3.2127542499
 20
20.5102424388
 11
-3.2123895353
 21
20.4798810823
  0
LINE
  5
339
100
AcDbEntity
  8
RACCORDO
100
AcDbLine
 62
250
  6
CONTINUOUS
 10
-3.2130415768
 20
-20.6653742379
 11
-3.2102921869
 21
-21.0541046876
  0
LINE
  5
33A
100
AcDbEntity
  8
RACCORDO
100
AcDbLine
 62
250
  6
CONTINUOUS
 10
-3.213079719
 20
20.556887259
 11
-3.2127542499
 21
20.5102424388
  0
LINE
  5
33B
100
AcDbEntity
  8
RACCORDO
100
AcDbLine
 62
250
  6
CONTINUOUS
 10
-3.2131874916
 20
-20.5980481757
 11
-3.2130415768
 21
-20.6653742379
  0
LINE
  5
33C
100
AcDbEntity
  8
RACCORDO
100
AcDbLine
 62
250
  6
CONTINUOUS
 10
-3.2
 20
20.1
 11
-3.2
 21
19.7
  0
LINE
  5
33D
100
AcDbEntity
  8
RACCORDO
100
AcDbLine
 62
250
  6
CONTINUOUS
 10
-3.2
 20
-20.1
 11
-3.2
 21
-19.7
  0
LINE
  5
33E
100
AcDbEntity
  8
RACCORDO
100
AcDbLine
 62
7
  6
CONTINUOUS
 10
-3.1675686233
 20
-22.3
 11
-3.1675686233
 21
-21.7913112106
  0
LINE
  5
33F
100
AcDbEntity
  8
RACCORDO
100
AcDbLine
 62
7
  6
CONTINUOUS
 10
-3.1675686233
 20
21.7913112106
 11
-3.1675686233
 21
22.3
  0
LINE
  5
340
100
AcDbEntity
  8
RACCORDO
100
AcDbLine
 62
250
  6
CONTINUOUS
 10
-3.05
 20
22.3602529088
 11
-3.05
 21
21.9820454786
  0
LINE
  5
341
100
AcDbEntity
  8
RACCORDO
100
AcDbLine
 62
250
  6
CONTINUOUS
 10
-3.05
 20
-22.3602529088
 11
-3.05
 21
-21.9820454786
  0
LINE
  5
342
100
AcDbEntity
  8
RACCORDO
100
AcDbLine
 62
250
  6
CONTINUOUS
 10
-3.0171476934
 20
-19.3824924939
 11
-3.017150432
 21
-19.0394232099
  0
LINE
  5
343
100
AcDbEntity
  8
RACCORDO
100
AcDbLine
 62
250
  6
CONTINUOUS
 10
-3.017150432
 20
19.0394232099
 11
-3.0171503117
 21
19.3824926311
  0
LINE
  5
344
100
AcDbEntity
  8
RACCORDO
100
AcDbLine
 62
250
  6
CONTINUOUS
 10
-3.017150432
 20
-20.7247966322
 11
-3.017150432
 21
-20.4175073626
  0
LINE
  5
345
100
AcDbEntity
  8
RACCORDO
100
AcDbLine
 62
250
  6
CONTINUOUS
 10
-3.0171476934
 20
20.4175075061
 11
-3.017150432
 21
20.7247966322
  0
LINE
  5
346
100
AcDbEntity
  8
0
100
AcDbLine
 62
7
  6
CONTINUOUS
 10
-2.9
 20
-19.7
 11
-2.9
 21
-22.2923830163
  0
LINE
  5
347
100
AcDbEntity
  8
RACCORDO
100
AcDbLine
 62
7
  6
CONTINUOUS
 10
-2.9
 20
-22.2923830163
 11
-2.9
 21
-22.3114176857
  0
LINE
  5
348
100
AcDbEntity
  8
0
100
AcDbLine
 62
7
  6
CONTINUOUS
 10
-2.9
 20
19.7
 11
-2.9
 21
22.2923830163
  0
LINE
  5
349
100
AcDbEntity
  8
RACCORDO
100
AcDbLine
 62
7
  6
CONTINUOUS
 10
-2.9
 20
22.2923830163
 11
-2.9
 21
22.3114176857
  0
LINE
  5
34A
100
AcDbEntity
  8
0
100
AcDbLine
 62
7
  6
CONTINUOUS
 10
-2.5
 20
0.1946696471
 11
-2.5
 21
-0.1948447879
  0
LINE
  5
34B
100
AcDbEntity
  8
RACCORDO
100
AcDbLine
 62
7
  6
CONTINUOUS
 10
-2.5
 20
-24.7833606717
 11
-2.5
 21
-23.6630700017
  0
LINE
  5
34C
100
AcDbEntity
  8
RACCORDO
100
AcDbLine
 62
7
  6
CONTINUOUS
 10
-2.5
 20
-19.7
 11
-2.5
 21
-19.0
  0
LINE
  5
34D
100
AcDbEntity
  8
RACCORDO
100
AcDbLine
 62
7
  6
CONTINUOUS
 10
-2.5
 20
19.0
 11
-2.5
 21
19.7
  0
LINE
  5
34E
100
AcDbEntity
  8
RACCORDO
100
AcDbLine
 62
7
  6
CONTINUOUS
 10
-2.5
 20
23.6630700017
 11
-2.5
 21
24.7833606717
  0
LINE
  5
34F
100
AcDbEntity
  8
RACCORDO
100
AcDbLine
 62
250
  6
CONTINUOUS
 10
-2.2916953758
 20
19.0527207794
 11
-2.2916953758
 21
19.0
  0
LINE
  5
350
100
AcDbEntity
  8
RACCORDO
100
AcDbLine
 62
250
  6
CONTINUOUS
 10
-2.2916953758
 20
-19.0
 11
-2.2916953758
 21
-19.0527207794
  0
LINE
  5
351
100
AcDbEntity
  8
RACCORDO
100
AcDbLine
 62
250
  6
CONTINUOUS
 10
-2.2
 20
-23.5653995554
 11
-2.2
 21
-23.8
  0
LINE
  5
352
100
AcDbEntity
  8
RACCORDO
100
AcDbLine
 62
250
  6
CONTINUOUS
 10
-2.2
 20
23.5653995554
 11
-2.2
 21
23.8
  0
LINE
  5
353
100
AcDbEntity
  8
RACCORDO
100
AcDbLine
 62
250
  6
CONTINUOUS
 10
-3.2131882656
 20
20.6151345566
 11
-3.213079719
 21
20.556887259
  0
LINE
  5
354
100
AcDbEntity
  8
RACCORDO
100
AcDbLine
 62
250
  6
CONTINUOUS
 10
-3.2130415768
 20
20.6653742379
 11
-3.2131882656
 21
20.6151345566
  0
LINE
  5
355
100
AcDbEntity
  8
RACCORDO
100
AcDbLine
 62
250
  6
CONTINUOUS
 10
-3.2129616012
 20
-20.5359271498
 11
-3.2131874916
 21
-20.5980481757
  0
LINE
  5
356
100
AcDbEntity
  8
DRAFT
100
AcDbLine
 62
7
  6
CONTINUOUS
 10
-2.7384728487
 20
13.2342837424
 11
-2.7412936679
 21
12.7846493531
  0
LINE
  5
357
100
AcDbEntity
  8
RACCORDO
100
AcDbLine
 62
250
  6
CONTINUOUS
 10
-3.2097419941
 20
21.1132644681
 11
-3.2130415768
 21
20.6653742379
  0
LINE
  5
358
100
AcDbEntity
  8
DRAFT
100
AcDbLine
 62
7
  6
CONTINUOUS
 10
-1.827002438
 20
8.3729824542
 11
-1.7682568484
 21
15.1045602756
  0
LINE
  5
359
100
AcDbEntity
  8
RACCORDO
100
AcDbLine
 62
250
  6
CONTINUOUS
 10
-3.2126502505
 20
-20.5004851005
 11
-3.2129616012
 21
-20.5359271498
  0
LINE
  5
35A
100
AcDbEntity
  8
RACCORDO
100
AcDbLine
 62
250
  6
CONTINUOUS
 10
-2.4851879288
 20
-19.7
 11
-2.4729693833
 21
-19.0
  0
LINE
  5
35B
100
AcDbEntity
  8
RACCORDO
100
AcDbLine
 62
250
  6
CONTINUOUS
 10
-2.3029936766
 20
-19.7
 11
-2.2916953758
 21
-19.0527207794
  0
LWPOLYLINE
  5
35C
100
AcDbEntity
  8
RACCORDO
100
AcDbPolyline
 62
250
  6
CONTINUOUS
 90
3
 70
0
 10
-3.2120334094
 20
-20.4585864195
 10
-3.2122563832
 20
-20.4709837301
 10
-3.2126502505
 20
-20.5004851005
  0
LINE
  5
35D
100
AcDbEntity
  8
RACCORDO
100
AcDbLine
 62
250
  6
CONTINUOUS
 10
-3.2115687943
 20
-20.4382932679
 11
-3.2120334094
 21
-20.4585864195
  0
LINE
  5
35E
100
AcDbEntity
  8
RACCORDO
100
AcDbLine
 62
250
  6
CONTINUOUS
 10
-3.399339263
 20
-20.2108957114
 11
-3.4130115212
 21
-20.7232473469
  0
LWPOLYLINE
  5
35F
100
AcDbEntity
  8
RACCORDO
100
AcDbPolyline
 62
250
  6
CONTINUOUS
 90
3
 70
0
 10
-3.3992041554
 20
-20.2076902657
 10
-3.399256248
 20
-20.2084626683
 10
-3.399339263
 20
-20.2108957114
  0
LWPOLYLINE
  5
360
100
AcDbEntity
  8
RACCORDO
100
AcDbPolyline
 62
7
  6
CONTINUOUS
 90
10
 70
0
 10
-7.9764881122
 20
-19.9432372817
 10
-7.9735778078
 20
-19.9332983988
 10
-7.9631045012
 20
-19.9084786698
 10
-7.9460547546
 20
-19.8697646568
 10
-7.9243426776
 20
-19.8178179688
 10
-7.8987975489
 20
-19.7547203852
 10
-7.8690509233
 20
-19.6838609632
 10
-7.8361058225
 20
-19.607495225
 10
-7.8023234293
 20
-19.5267318529
 10
-7.769389217
 20
-19.4432563202
  0
LWPOLYLINE
  5
361
100
AcDbEntity
  8
0
100
AcDbPolyline
 62
7
  6
CONTINUOUS
 90
10
 70
0
 10
-2.4989651867
 20
0.7723370264
 10
-2.5040748532
 20
0.7600834889
 10
-2.5093855982
 20
0.7478144404
 10
-2.5148943891
 20
0.7355419543
 10
-2.520606671
 20
0.7232599382
 10
-2.5265101949
 20
0.7110007229
 10
-2.5325729628
 20
0.6988329125
 10
-2.5387792506
 20
0.6867866723
 10
-2.5451316508
 20
0.6748558928
 10
-2.5516234743
 20
0.6630532548
  0
LWPOLYLINE
  5
362
100
AcDbEntity
  8
0
100
AcDbPolyline
 62
250
  6
CONTINUOUS
 90
10
 70
0
 10
-2.3428742936
 20
0.6405958576
 10
-2.3484371741
 20
0.6304981075
 10
-2.3541315106
 20
0.6203833775
 10
-2.3599551578
 20
0.6102568539
 10
-2.3659029988
 20
0.6001286685
 10
-2.3719753704
 20
0.5899995032
 10
-2.3781784665
 20
0.57986089
 10
-2.384512881
 20
0.5697143146
 10
-2.3909731973
 20
0.5595709223
 10
-2.3975566956
 20
0.5494373327
  0
LWPOLYLINE
  5
363
100
AcDbEntity
  8
0
100
AcDbPolyline
 62
7
  6
CONTINUOUS
 90
5
 70
0
 10
-2.5516234743
 20
0.6630532548
 10
-2.5912757792
 20
0.5981101448
 10
-2.6359825488
 20
0.5360605589
 10
-2.6854156596
 20
0.4774147896
 10
-2.711955858
 20
0.450425304
  0
LWPOLYLINE
  5
364
100
AcDbEntity
  8
0
100
AcDbPolyline
 62
250
  6
CONTINUOUS
 90
8
 70
0
 10
-2.3975566956
 20
0.5494373327
 10
-2.4378105218
 20
0.4929865304
 10
-2.4825446175
 20
0.4394745289
 10
-2.5314755805
 20
0.3892823516
 10
-2.5841773304
 20
0.3429059726
 10
-2.6404617915
 20
0.3005452776
 10
-2.7004101345
 20
0.2621479747
 10
-2.7381052375
 20
0.2418233975
  0
LINE
  5
365
100
AcDbEntity
  8
0
100
AcDbLine
 62
250
  6
CONTINUOUS
 10
-2.1311263876
 20
0.572937263
 11
-2.1885546383
 21
0.4948032522
  0
LWPOLYLINE
  5
366
100
AcDbEntity
  8
0
100
AcDbPolyline
 62
7
  6
CONTINUOUS
 90
7
 70
0
 10
-2.0533697816
 20
0.5948895071
 10
-2.0634543677
 20
0.5818204941
 10
-2.0733994752
 20
0.5687621297
 10
-2.0832061139
 20
0.5557160053
 10
-2.0928753022
 20
0.542683691
 10
-2.1024080665
 20
0.5296667356
 10
-2.1118054414
 20
0.5166666667
  0
LWPOLYLINE
  5
367
100
AcDbEntity
  8
0
100
AcDbPolyline
 62
250
  6
CONTINUOUS
 90
11
 70
0
 10
-2.1885546383
 20
0.4948032522
 10
-2.230560762
 20
0.4416105277
 10
-2.2763971331
 20
0.3915845488
 10
-2.3258514718
 20
0.3449457196
 10
-2.3786950879
 20
0.3019255412
 10
-2.4347208959
 20
0.2627063489
 10
-2.4937431303
 20
0.2274224315
 10
-2.5555705327
 20
0.1962276587
 10
-2.6199201206
 20
0.169325164
 10
-2.6864460894
 20
0.1469089714
 10
-2.7457704239
 20
0.1314894136
  0
LWPOLYLINE
  5
368
100
AcDbEntity
  8
0
100
AcDbPolyline
 62
7
  6
CONTINUOUS
 90
13
 70
0
 43
0.3500000006
 10
17.3928574333
 20
-2.1428576317
 10
16.1071425934
 20
-2.1428576317
 10
15.6785713577
 20
-1.9285708809
 10
15.2500001221
 20
-1.4999996452
 10
15.2500001221
 20
-1.2857140274
 10
15.6785713577
 20
-0.8571427917
 10
16.1071425934
 20
-0.642856041
 10
17.3928574333
 20
-0.642856041
 10
17.821428669
 20
-0.8571427917
 10
18.2499999046
 20
-1.2857140274
 10
18.2499999046
 20
-1.4999996452
 10
17.821428669
 20
-1.9285708809
 10
17.3928574333
 20
-2.1428576317
  0
LWPOLYLINE
  5
369
100
AcDbEntity
  8
0
100
AcDbPolyline
 62
7
  6
CONTINUOUS
 90
22
 70
0
 10
0.0
 20
-2.45
 10
-0.1514603813
 20
-2.4457250043
 10
-0.3025060896
 20
-2.4329440546
 10
-0.4526520683
 20
-2.4117236114
 10
-0.6013713511
 20
-2.3821395646
 10
-0.7482130878
 20
-2.3442549013
 10
-0.8927996887
 20
-2.2981058273
 10
-1.0347149936
 20
-2.2438148256
 10
-1.1734563218
 20
-2.1815960495
 10
-1.3085307642
 20
-2.1116730711
 10
-1.439466067
 20
-2.0342676734
 10
-1.5658220277
 20
-1.9495858413
 10
-1.6871942644
 20
-1.857884589
 10
-1.8031791542
 20
-1.7595316075
 10
-1.9134577575
 20
-1.6548348294
 10
-2.0177810348
 20
-1.5440053747
 10
-2.115839641
 20
-1.4272658153
 10
-2.2071770017
 20
-1.305066652
 10
-2.2913986881
 20
-1.1780096693
 10
-2.3682373704
 20
-1.0466029221
 10
-2.4375041915
 20
-0.9112293194
 10
-2.4989651867
 20
-0.7723370264
  0
LWPOLYLINE
  5
36A
100
AcDbEntity
  8
0
100
AcDbPolyline
 62
250
  6
CONTINUOUS
 90
19
 70
0
 10
0.0
 20
-1.9572123903
 10
-0.1707398747
 20
-1.951412713
 10
-0.3397165347
 20
-1.9360555963
 10
-0.5062248731
 20
-1.9113427962
 10
-0.6696878534
 20
-1.8774495305
 10
-0.8293478884
 20
-1.834595532
 10
-0.9843225633
 20
-1.7831923307
 10
-1.1338404025
 20
-1.7237566014
 10
-1.2776853812
 20
-1.6566025621
 10
-1.415846539
 20
-1.5818556817
 10
-1.5480960175
 20
-1.4997201601
 10
-1.6738263658
 20
-1.410764126
 10
-1.7924757881
 20
-1.3156199093
 10
-1.9036425519
 20
-1.2148627953
 10
-2.0071766525
 20
-1.1088626627
 10
-2.1030009575
 20
-0.9979798637
 10
-2.1910002711
 20
-0.8826477652
 10
-2.2710008938
 20
-0.7633697946
 10
-2.3428742936
 20
-0.6405958576
  0
LINE
  5
36B
100
AcDbEntity
  8
0
100
AcDbLine
 62
7
  6
CONTINUOUS
 10
0.0
 20
-1.6
 11
-0.1949198763
 21
-1.5926157253
  0
LINE
  5
36C
100
AcDbEntity
  8
0
100
AcDbLine
 62
7
  6
CONTINUOUS
 10
-0.1949198763
 20
-1.5926157253
 11
-0.2011730218
 21
-1.5921655965
  0
LINE
  5
36D
100
AcDbEntity
  8
0
100
AcDbLine
 62
7
  6
CONTINUOUS
 10
-0.1949037399
 20
-1.59245108
 11
-0.3160890516
 21
-1.580574047
  0
LWPOLYLINE
  5
36E
100
AcDbEntity
  8
0
100
AcDbPolyline
 62
250
  6
CONTINUOUS
 90
15
 70
0
 10
-0.3160890516
 20
-1.580574047
 10
-0.3537828321
 20
-1.5770188693
 10
-0.526159643
 20
-1.5500941117
 10
-0.6945289468
 20
-1.5132931218
 10
-0.8582036189
 20
-1.4669620459
 10
-1.0165436509
 20
-1.4114895608
 10
-1.1689361175
 20
-1.3472739456
 10
-1.3149083579
 20
-1.2746907358
 10
-1.454133549
 20
-1.1942051556
 10
-1.5861770456
 20
-1.1064127157
 10
-1.7107509446
 20
-1.0118175515
 10
-1.8277809122
 20
-0.9107258353
 10
-1.9370576485
 20
-0.8035397648
 10
-2.0382490834
 20
-0.6907933093
 10
-2.1311263876
 20
-0.572937263
  0
LWPOLYLINE
  5
36F
100
AcDbEntity
  8
0
100
AcDbPolyline
 62
7
  6
CONTINUOUS
 90
13
 70
0
 10
-0.3160890516
 20
-1.580574047
 10
-0.4723511913
 20
-1.5565265815
 10
-0.6266682257
 20
-1.5231341867
 10
-0.7785174955
 20
-1.4805478054
 10
-0.9274205864
 20
-1.4288989726
 10
-1.0728703726
 20
-1.3683199912
 10
-1.2143321418
 20
-1.2989631695
 10
-1.3513150443
 20
-1.2210903638
 10
-1.4833699736
 20
-1.1350421309
 10
-1.610024005
 20
-1.0411766452
 10
-1.7307839896
 20
-0.9398783654
 10
-1.8452020951
 20
-0.8315097411
 10
-1.9528690927
 20
-0.7164013268
  0
LWPOLYLINE
  5
370
100
AcDbEntity
  8
0
100
AcDbPolyline
 62
7
  6
CONTINUOUS
 90
10
 70
0
 10
-2.2023598246
 20
-0.40771707
 10
-2.2528740707
 20
-0.3586111048
 10
-2.3067046879
 20
-0.3132126513
 10
-2.3635779745
 20
-0.2717490708
 10
-2.4230036778
 20
-0.2345347499
 10
-2.4847137919
 20
-0.2016660753
 10
-2.5485203588
 20
-0.1731931587
 10
-2.613973449
 20
-0.14929073
 10
-2.6807633349
 20
-0.1300440046
 10
-2.7468543903
 20
-0.1158866196
  0
LINE
  5
371
100
AcDbEntity
  8
0
100
AcDbLine
 62
7
  6
CONTINUOUS
 10
-1.9528690927
 20
-0.7164013268
 11
-2.0533688672
 21
-0.5948906844
  0
LWPOLYLINE
  5
372
100
AcDbEntity
  8
0
100
AcDbPolyline
 62
250
  6
CONTINUOUS
 90
11
 70
0
 10
-2.1885546383
 20
-0.4948032522
 10
-2.230560762
 20
-0.4416105277
 10
-2.2763971331
 20
-0.3915845488
 10
-2.3258514718
 20
-0.3449457196
 10
-2.3786950879
 20
-0.3019255412
 10
-2.4347208959
 20
-0.2627063489
 10
-2.4937431303
 20
-0.2274224315
 10
-2.5555705327
 20
-0.1962276587
 10
-2.6199201206
 20
-0.169325164
 10
-2.6864460894
 20
-0.1469089714
 10
-2.7457704239
 20
-0.1314894136
  0
LWPOLYLINE
  5
373
100
AcDbEntity
  8
0
100
AcDbPolyline
 62
7
  6
CONTINUOUS
 90
3
 70
0
 10
-2.1118054414
 20
-0.5166666667
 10
-2.1552699454
 20
-0.4604528062
 10
-2.2023598246
 20
-0.40771707
  0
LINE
  5
374
100
AcDbEntity
  8
0
100
AcDbLine
 62
7
  6
CONTINUOUS
 10
-2.0533688672
 20
-0.5948906844
 11
-2.0666556959
 21
-0.5776369988
  0
LINE
  5
375
100
AcDbEntity
  8
0
100
AcDbLine
 62
7
  6
CONTINUOUS
 10
-2.0666556959
 20
-0.5776369988
 11
-2.0797334041
 21
-0.560358132
  0
LINE
  5
376
100
AcDbEntity
  8
0
100
AcDbLine
 62
7
  6
CONTINUOUS
 10
-2.0797334041
 20
-0.560358132
 11
-2.0926371637
 21
-0.5430089095
  0
LINE
  5
377
100
AcDbEntity
  8
0
100
AcDbLine
 62
250
  6
CONTINUOUS
 10
-2.1311263876
 20
-0.572937263
 11
-2.1885546383
 21
-0.4948032522
  0
LWPOLYLINE
  5
378
100
AcDbEntity
  8
0
100
AcDbPolyline
 62
7
  6
CONTINUOUS
 90
3
 70
0
 10
-2.0926371637
 20
-0.5430089095
 10
-2.1054394753
 20
-0.5254920312
 10
-2.1118054414
 20
-0.5166666667
  0
LWPOLYLINE
  5
379
100
AcDbEntity
  8
0
100
AcDbPolyline
 62
250
  6
CONTINUOUS
 90
8
 70
0
 10
-2.3975566956
 20
-0.5494373327
 10
-2.4378105218
 20
-0.4929865304
 10
-2.4825446175
 20
-0.4394745289
 10
-2.5314755805
 20
-0.3892823516
 10
-2.5841773304
 20
-0.3429059726
 10
-2.6404617915
 20
-0.3005452776
 10
-2.7004101345
 20
-0.2621479747
 10
-2.7381052375
 20
-0.2418233975
  0
LWPOLYLINE
  5
37A
100
AcDbEntity
  8
0
100
AcDbPolyline
 62
7
  6
CONTINUOUS
 90
5
 70
0
 10
-2.5516234743
 20
-0.6630532548
 10
-2.5912757792
 20
-0.5981101448
 10
-2.6359825488
 20
-0.5360605589
 10
-2.6854156596
 20
-0.4774147896
 10
-2.711955858
 20
-0.450425304
  0
LWPOLYLINE
  5
37B
100
AcDbEntity
  8
0
100
AcDbPolyline
 62
250
  6
CONTINUOUS
 90
10
 70
0
 10
-2.3428742936
 20
-0.6405958576
 10
-2.3484371741
 20
-0.6304981075
 10
-2.3541315106
 20
-0.6203833775
 10
-2.3599551578
 20
-0.6102568539
 10
-2.3659029988
 20
-0.6001286685
 10
-2.3719753704
 20
-0.5899995032
 10
-2.3781784665
 20
-0.57986089
 10
-2.384512881
 20
-0.5697143146
 10
-2.3909731973
 20
-0.5595709223
 10
-2.3975566956
 20
-0.5494373327
  0
LWPOLYLINE
  5
37C
100
AcDbEntity
  8
RACCORDO
100
AcDbPolyline
 62
7
  6
CONTINUOUS
 90
10
 70
0
 10
7.9764881122
 20
-19.9432372817
 10
7.9715181567
 20
-19.9341515341
 10
7.9613737042
 20
-19.9091955895
 10
7.9460547546
 20
-19.8697646568
 10
7.9246756561
 20
-19.8176800446
 10
7.8981220606
 20
-19.7550001816
 10
7.8690509233
 20
-19.6838609632
 10
7.8383478963
 20
-19.6065665276
 10
7.8051273275
 20
-19.5255704402
 10
7.769389217
 20
-19.4432563202
  0
LWPOLYLINE
  5
37D
100
AcDbEntity
  8
0
100
AcDbPolyline
 62
7
  6
CONTINUOUS
 90
10
 70
0
 10
-2.4989651867
 20
-0.7723370264
 10
-2.5040748532
 20
-0.7600834889
 10
-2.5093855982
 20
-0.7478144404
 10
-2.5148943891
 20
-0.7355419543
 10
-2.520606671
 20
-0.7232599382
 10
-2.5265101949
 20
-0.7110007229
 10
-2.5325729628
 20
-0.6988329125
 10
-2.5387792506
 20
-0.6867866723
 10
-2.5451316508
 20
-0.6748558928
 10
-2.5516234743
 20
-0.6630532548
  0
LWPOLYLINE
  5
37E
100
AcDbEntity
  8
RACCORDO
100
AcDbPolyline
 62
7
  6
CONTINUOUS
 90
7
 70
0
 10
5.0472172711
 20
-20.15
 10
5.047244066
 20
-20.1500737963
 10
5.0472708315
 20
-20.150294455
 10
5.0472975673
 20
-20.1506619759
 10
5.0473242411
 20
-20.1511748401
 10
5.0473508852
 20
-20.1518345666
 10
5.0473775979
 20
-20.1526457126
  0
LWPOLYLINE
  5
37F
100
AcDbEntity
  8
RACCORDO
100
AcDbPolyline
 62
7
  6
CONTINUOUS
 90
8
 70
0
 10
-2.9
 20
21.9332102554
 10
-2.9003325522
 20
21.9364266961
 10
-2.9012932881
 20
21.9396024559
 10
-2.9028822079
 20
21.9427375348
 10
-2.9051114607
 20
21.9458449721
 10
-2.9079688973
 20
21.9489117284
 10
-2.9114180701
 20
21.9518986863
 10
-2.9154665591
 20
21.9548048235
  0
LWPOLYLINE
  5
380
100
AcDbEntity
  8
RACCORDO
100
AcDbPolyline
 62
250
  6
CONTINUOUS
 90
10
 70
0
 10
-3.1746115759
 20
22.3
 10
-3.177649565
 20
22.3347296497
 10
-3.1866712231
 20
22.3684040519
 10
-3.2014024297
 20
22.400000027
 10
-3.2213955819
 20
22.4285575472
 10
-3.2460431965
 20
22.4532089085
 10
-3.2745963682
 20
22.4732050939
 10
-3.3061875232
 20
22.487938531
 10
-3.3398567798
 20
22.4969615525
 10
-3.3745811149
 20
22.5
  0
LWPOLYLINE
  5
381
100
AcDbEntity
  8
RACCORDO
100
AcDbPolyline
 62
250
  6
CONTINUOUS
 90
8
 70
0
 10
-3.1810448418
 20
19.3910819795
 10
-3.183883624
 20
19.4246652375
 10
-3.1923204358
 20
19.4572948351
 10
-3.2061157029
 20
19.4880441691
 10
-3.2248776839
 20
19.5160400294
 10
-3.2480735916
 20
19.5404873928
 10
-3.2750447209
 20
19.5606920019
 10
-3.2859514491
 20
19.567038775
  0
LWPOLYLINE
  5
382
100
AcDbEntity
  8
RACCORDO
100
AcDbPolyline
 62
250
  6
CONTINUOUS
 90
10
 70
0
 10
-3.017150432
 20
19.3824926374
 10
-3.0199892282
 20
19.4160759766
 10
-3.0284260735
 20
19.448705628
 10
-3.0422213816
 20
19.4794549863
 10
-3.060983398
 20
19.507450842
 10
-3.0841793258
 20
19.5318981787
 10
-3.1111504551
 20
19.5521027497
 10
-3.1411308692
 20
19.5674907925
 10
-3.1732691951
 20
19.577625323
 10
-3.2066527798
 20
19.5822185443
  0
LWPOLYLINE
  5
383
100
AcDbEntity
  8
RACCORDO
100
AcDbPolyline
 62
7
  6
CONTINUOUS
 90
10
 70
0
 10
-2.9225577666
 20
19.3765438063
 10
-2.9253083272
 20
19.4108207883
 10
-2.9332919984
 20
19.4439486027
 10
-2.9462273565
 20
19.4749754037
 10
-2.9637047339
 20
19.5030317927
 10
-2.9851693624
 20
19.5273487073
 10
-3.009936836
 20
19.5472780582
 10
-3.0372605414
 20
19.5623141376
 10
-3.0663590076
 20
19.5721023178
 10
-3.0964045112
 20
19.57644052
  0
LINE
  5
384
100
AcDbEntity
  8
0
100
AcDbLine
 62
7
  6
CONTINUOUS
 10
-0.5
 20
-0.5
 11
-0.5
 21
-1.5505437039
  0
LINE
  5
385
100
AcDbEntity
  8
0
100
AcDbLine
 62
250
  6
CONTINUOUS
 10
-0.5
 20
-0.4
 11
-0.5
 21
-0.5
  0
LINE
  5
386
100
AcDbEntity
  8
0
100
AcDbLine
 62
250
  6
CONTINUOUS
 10
0.0
 20
-2.75
 11
0.0
 21
-1.6
  0
LINE
  5
387
100
AcDbEntity
  8
0
100
AcDbLine
 62
250
  6
CONTINUOUS
 10
0.0
 20
1.6
 11
0.0
 21
2.75
  0
LWPOLYLINE
  5
388
100
AcDbEntity
  8
RACCORDO
100
AcDbPolyline
 62
7
  6
CONTINUOUS
 90
10
 70
0
 10
-2.9225602209
 20
-19.3765438063
 10
-2.9251796386
 20
-19.4102540525
 10
-2.9330058211
 20
-19.4431358176
 10
-2.9458588323
 20
-19.4742247716
 10
-2.9634357415
 20
-19.5025844787
 10
-2.985246563
 20
-19.5273445839
 10
-3.0106187901
 20
-19.5477288307
 10
-3.038804193
 20
-19.5630696083
 10
-3.069002326
 20
-19.5728324967
 10
-3.100310206
 20
-19.5766460421
  0
LWPOLYLINE
  5
389
100
AcDbEntity
  8
RACCORDO
100
AcDbPolyline
 62
250
  6
CONTINUOUS
 90
8
 70
0
 10
-3.1810448418
 20
-19.3910819795
 10
-3.1838836379
 20
-19.4246653187
 10
-3.1923204833
 20
-19.4572949701
 10
-3.2061157913
 20
-19.4880443284
 10
-3.2248778078
 20
-19.5160401841
 10
-3.2480737356
 20
-19.5404875208
 10
-3.2750448648
 20
-19.5606920917
 10
-3.2906034821
 20
-19.5694744326
  0
LWPOLYLINE
  5
38A
100
AcDbEntity
  8
RACCORDO
100
AcDbPolyline
 62
250
  6
CONTINUOUS
 90
10
 70
0
 10
-3.017150432
 20
-19.3824926374
 10
-3.0199893121
 20
-19.4160764696
 10
-3.0284263684
 20
-19.4487064687
 10
-3.0422219499
 20
-19.4794560117
 10
-3.0609842512
 20
-19.5074519084
 10
-3.0841804087
 20
-19.5318991426
 10
-3.1111516096
 20
-19.5521034712
 10
-3.1411318681
 20
-19.5674912029
 10
-3.1732698059
 20
-19.5776254603
 10
-3.2066527798
 20
-19.5822185443
  0
LWPOLYLINE
  5
38B
100
AcDbEntity
  8
RACCORDO
100
AcDbPolyline
 62
250
  6
CONTINUOUS
 90
8
 70
0
 10
-3.1746115759
 20
-22.3
 10
-3.177649562
 20
-22.3347296329
 10
-3.186671213
 20
-22.3684040242
 10
-3.201402411
 20
-22.3999999946
 10
-3.2213955562
 20
-22.4285575165
 10
-3.2460431673
 20
-22.453208884
 10
-3.2745963396
 20
-22.4732050774
 10
-3.2854993273
 20
-22.4790586979
  0
LWPOLYLINE
  5
38C
100
AcDbEntity
  8
RACCORDO
100
AcDbPolyline
 62
7
  6
CONTINUOUS
 90
25
 70
0
 10
-2.9
 20
-22.3114176857
 10
-2.9003325522
 20
-22.3146341264
 10
-2.9012932882
 20
-22.3178098862
 10
-2.9028822079
 20
-22.3209449651
 10
-2.9051114607
 20
-22.3240524023
 10
-2.9079688973
 20
-22.3271191586
 10
-2.9114180701
 20
-22.3301061165
 10
-2.9154665592
 20
-22.3330122537
 10
-2.9201067844
 20
-22.3358385925
 10
-2.9252795582
 20
-22.338549082
 10
-2.9309917023
 20
-22.341142238
 10
-2.9372363949
 20
-22.3436195447
 10
-2.9439339828
 20
-22.3459494031
 10
-2.9510902675
 20
-22.3481299245
 10
-2.9586994475
 20
-22.3501629975
 10
-2.966664465
 20
-22.3520226897
 10
-2.9749898783
 20
-22.3537067802
 10
-2.9836711292
 20
-22.3552174897
 10
-2.9925974851
 20
-22.3565355488
 10
-3.001772086
 20
-22.3576584896
 10
-3.0111917921
 20
-22.35858878
 10
-3.0207364517
 20
-22.3593145537
 10
-3.0303660143
 20
-22.3598318554
 10
-3.0401205304
 20
-22.3601446404
 10
-3.05
 20
-22.3602529088
  0
LWPOLYLINE
  5
38D
100
AcDbEntity
  8
RACCORDO
100
AcDbPolyline
 62
7
  6
CONTINUOUS
 90
25
 70
0
 10
-2.5
 20
-23.6630700017
 10
-2.4993348957
 20
-23.6566371203
 10
-2.4974134237
 20
-23.6502856007
 10
-2.4942355841
 20
-23.6440154429
 10
-2.4897770785
 20
-23.6378005684
 10
-2.4840622054
 20
-23.6316670558
 10
-2.4771638598
 20
-23.62569314
 10
-2.4690668817
 20
-23.6198808656
 10
-2.4597864312
 20
-23.6142281879
 10
-2.4494408837
 20
-23.6088072091
 10
-2.4380165955
 20
-23.6036208969
 10
-2.4255272102
 20
-23.5986662836
 10
-2.4121320344
 20
-23.5940065668
 10
-2.3978194649
 20
-23.5896455241
 10
-2.382601105
 20
-23.585579378
 10
-2.3666710699
 20
-23.5818599935
 10
-2.3500202433
 20
-23.5784918127
 10
-2.3326577417
 20
-23.5754703936
 10
-2.3148050297
 20
-23.5728342754
 10
-2.2964558279
 20
-23.5705883937
 10
-2.2776164158
 20
-23.568727813
 10
-2.2585270966
 20
-23.5672762656
 10
-2.2392679715
 20
-23.5662416622
 10
-2.2197589393
 20
-23.5656160921
 10
-2.2
 20
-23.5653995554
  0
LWPOLYLINE
  5
38E
100
AcDbEntity
  8
RACCORDO
100
AcDbPolyline
 62
7
  6
CONTINUOUS
 90
25
 70
0
 10
2.5
 20
23.6630700017
 10
2.4993348957
 20
23.6566371203
 10
2.4974134237
 20
23.6502856007
 10
2.4942355841
 20
23.6440154429
 10
2.4897770786
 20
23.6378005684
 10
2.4840622054
 20
23.6316670558
 10
2.4771638598
 20
23.62569314
 10
2.4690668817
 20
23.6198808656
 10
2.4597864312
 20
23.6142281879
 10
2.4494408837
 20
23.6088072091
 10
2.4380165955
 20
23.6036208969
 10
2.4255272102
 20
23.5986662836
 10
2.4121320344
 20
23.5940065668
 10
2.397819465
 20
23.5896455241
 10
2.382601105
 20
23.585579378
 10
2.3666710699
 20
23.5818599935
 10
2.3500202433
 20
23.5784918127
 10
2.3326577417
 20
23.5754703936
 10
2.3148050297
 20
23.5728342754
 10
2.2964558279
 20
23.5705883937
 10
2.2776164158
 20
23.568727813
 10
2.2585270966
 20
23.5672762656
 10
2.2392679715
 20
23.5662416622
 10
2.2197589393
 20
23.5656160921
 10
2.2
 20
23.5653995554
  0
LWPOLYLINE
  5
38F
100
AcDbEntity
  8
RACCORDO
100
AcDbPolyline
 62
250
  6
CONTINUOUS
 90
9
 70
0
 10
-3.1828041455
 20
-19.3641047922
 10
-3.1861099016
 20
-19.3940172232
 10
-3.1953251301
 20
-19.4230308419
 10
-3.2101729346
 20
-19.4502738276
 10
-3.2302071674
 20
-19.4749275637
 10
-3.2548258334
 20
-19.4962512328
 10
-3.2832891762
 20
-19.5136040796
 10
-3.3147419116
 20
-19.5264646681
 10
-3.3482389284
 20
-19.5344465496
  0
LINE
  5
390
100
AcDbEntity
  8
ASSI
100
AcDbLine
 62
7
  6
CONTINUOUS
 10
-2.6450242793
 20
-12.075265756
 11
-2.7217941262
 21
-12.6071428571
  0
LINE
  5
391
100
AcDbEntity
  8
0
100
AcDbLine
 62
7
  6
CONTINUOUS
 10
-2.7223229517
 20
-13.3864000029
 11
-2.4661834837
 21
-11.6725308037
  0
LINE
  5
392
100
AcDbEntity
  8
0
100
AcDbLine
 62
7
  6
CONTINUOUS
 10
-2.1475127945
 20
-9.5402554338
 11
-2.0410234682
 21
-8.8277187143
  0
LINE
  5
393
100
AcDbEntity
  8
DRAFT
100
AcDbLine
 62
7
  6
CONTINUOUS
 10
-2.7180473238
 20
-13.4152941982
 11
-2.4539603136
 21
-11.648346871
  0
LINE
  5
394
100
AcDbEntity
  8
DRAFT
100
AcDbLine
 62
7
  6
CONTINUOUS
 10
-2.1482196768
 20
-9.6027044124
 11
-2.0231190682
 21
-8.7656841216
  0
LWPOLYLINE
  5
395
100
AcDbEntity
  8
0
100
AcDbPolyline
 62
7
  6
CONTINUOUS
 90
4
 70
0
 10
-2.599625783
 20
-12.5654140774
 10
-2.6164204245
 20
-12.6584817681
 10
-2.6349260552
 20
-12.7862707038
 10
-2.6414383419
 20
-12.8451884418
  0
LINE
  5
396
100
AcDbEntity
  8
RACCORDO
100
AcDbLine
 62
7
  6
CONTINUOUS
 10
7.9764881122
 20
19.9432372817
 11
8.0
 21
20.0
  0
LINE
  5
397
100
AcDbEntity
  8
0
100
AcDbLine
 62
250
  6
CONTINUOUS
 10
-2.4989651867
 20
-0.7723370264
 11
-2.3428742936
 21
-0.6405958576
  0
LWPOLYLINE
  5
398
100
AcDbEntity
  8
0
100
AcDbPolyline
 62
250
  6
CONTINUOUS
 90
10
 70
0
 10
-2.3428742936
 20
-0.6405958576
 10
-2.3185623214
 20
-0.6213493173
 10
-2.2944172897
 20
-0.6048522855
 10
-2.2704391984
 20
-0.5911949021
 10
-2.2465891592
 20
-0.5804465504
 10
-2.2229060605
 20
-0.572711234
 10
-2.1995065675
 20
-0.5680785182
 10
-2.1764295685
 20
-0.5665697838
 10
-2.1536361752
 20
-0.5681876856
 10
-2.1311263876
 20
-0.572937263
  0
LINE
  5
399
100
AcDbEntity
  8
0
100
AcDbLine
 62
250
  6
CONTINUOUS
 10
-2.5516234743
 20
-0.6630532548
 11
-2.3975566956
 21
-0.5494373327
  0
LWPOLYLINE
  5
39A
100
AcDbEntity
  8
0
100
AcDbPolyline
 62
250
  6
CONTINUOUS
 90
10
 70
0
 10
-2.3975566956
 20
-0.5494373327
 10
-2.3733415672
 20
-0.532741347
 10
-2.3493515189
 20
-0.5185806207
 10
-2.3255865507
 20
-0.507019798
 10
-2.3020158769
 20
-0.4981068283
 10
-2.2786702832
 20
-0.4919099872
 10
-2.2556421267
 20
-0.488482731
 10
-2.2329621933
 20
-0.4878291494
 10
-2.2105996971
 20
-0.4899396223
 10
-2.1885546383
 20
-0.4948032522
  0
LINE
  5
39B
100
AcDbEntity
  8
0
100
AcDbLine
 62
250
  6
CONTINUOUS
 10
-2.5516234743
 20
-0.6630532548
 11
-2.6526900224
 21
-0.7195476894
  0
LINE
  5
39C
100
AcDbEntity
  8
0
100
AcDbLine
 62
7
  6
CONTINUOUS
 10
-2.4989651867
 20
-0.7723370264
 11
-2.6230476225
 21
-0.8230996657
  0
LINE
  5
39D
100
AcDbEntity
  8
0
100
AcDbLine
 62
7
  6
CONTINUOUS
 10
2.5138633148
 20
0.7351351351
 11
2.6346755044
 21
0.7824791303
  0
LWPOLYLINE
  5
39E
100
AcDbEntity
  8
0
100
AcDbPolyline
 62
250
  6
CONTINUOUS
 90
10
 70
0
 10
2.3304601878
 20
0.6590056897
 10
2.3012382634
 20
0.6479165342
 10
2.2723915086
 20
0.6390920041
 10
2.2439199234
 20
0.6325671696
 10
2.215797863
 20
0.6283662332
 10
2.1880509721
 20
0.6265154826
 10
2.160756185
 20
0.627022039
 10
2.1339391463
 20
0.6298662146
 10
2.1075742113
 20
0.6350234772
 10
2.0816613801
 20
0.6424624211
  0
LINE
  5
39F
100
AcDbEntity
  8
0
100
AcDbLine
 62
250
  6
CONTINUOUS
 10
-2.1885546383
 20
0.4948032522
 11
-2.1118054414
 21
0.5166666667
  0
LWPOLYLINE
  5
3A0
100
AcDbEntity
  8
0
100
AcDbPolyline
 62
250
  6
CONTINUOUS
 90
10
 70
0
 10
2.7457394144
 20
-0.1319357695
 10
2.7035243114
 20
-0.142784381
 10
2.6284235832
 20
-0.168415809
 10
2.5559631445
 20
-0.1996157846
 10
2.4865256012
 20
-0.2361879607
 10
2.4205207093
 20
-0.2779276121
 10
2.3588535481
 20
-0.3241955963
 10
2.3019115085
 20
-0.3745004866
 10
2.2496691597
 20
-0.428597658
 10
2.2022915889
 20
-0.4860895461
  0
LINE
  5
3A1
100
AcDbEntity
  8
0
100
AcDbLine
 62
250
  6
CONTINUOUS
 10
2.6303442796
 20
0.519948104
 11
2.4487018674
 21
0.4778397294
  0
LWPOLYLINE
  5
3A2
100
AcDbEntity
  8
0
100
AcDbPolyline
 62
250
  6
CONTINUOUS
 90
10
 70
0
 10
2.4487018674
 20
0.4778397294
 10
2.4190847453
 20
0.4717957165
 10
2.3900312065
 20
0.4675282315
 10
2.361541251
 20
0.4650336243
 10
2.3336202555
 20
0.4642993542
 10
2.3062628433
 20
0.4653039102
 10
2.2794528836
 20
0.4680207583
 10
2.2531849995
 20
0.4724181921
 10
2.227464568
 20
0.4784563651
 10
2.2022915889
 20
0.4860895461
  0
LWPOLYLINE
  5
3A3
100
AcDbEntity
  8
0
100
AcDbPolyline
 62
7
  6
CONTINUOUS
 90
5
 70
0
 10
2.7468216655
 20
-0.1163576657
 10
2.6911544711
 20
-0.1273849831
 10
2.6150480776
 20
-0.1488585561
 10
2.5404806916
 20
-0.1764649756
 10
2.4683777516
 20
-0.2098541809
  0
LINE
  5
3A4
100
AcDbEntity
  8
0
100
AcDbLine
 62
7
  6
CONTINUOUS
 10
1.6343303518
 20
-1.01
 11
0.7
 21
-1.01
  0
LINE
  5
3A5
100
AcDbEntity
  8
0
100
AcDbLine
 62
7
  6
CONTINUOUS
 10
1.6348428827
 20
-1.0
 11
0.9
 21
-1.0
  0
LINE
  5
3A6
100
AcDbEntity
  8
0
100
AcDbLine
 62
7
  6
CONTINUOUS
 10
1.6343303518
 20
-0.99
 11
0.7
 21
-0.99
  0
LINE
  5
3A7
100
AcDbEntity
  8
0
100
AcDbLine
 62
7
  6
CONTINUOUS
 10
-0.5
 20
-0.5
 11
0.7
 21
-0.5
  0
LINE
  5
3A8
100
AcDbEntity
  8
0
100
AcDbLine
 62
250
  6
CONTINUOUS
 10
0.7
 20
-0.44
 11
1.6343303518
 21
-0.44
  0
LINE
  5
3A9
100
AcDbEntity
  8
0
100
AcDbLine
 62
250
  6
CONTINUOUS
 10
0.7
 20
-0.4
 11
-0.5
 21
-0.4
  0
LWPOLYLINE
  5
3AA
100
AcDbEntity
  8
0
100
AcDbPolyline
 62
250
  6
CONTINUOUS
 90
10
 70
0
 10
2.4487018674
 20
-0.4778397294
 10
2.4190847453
 20
-0.4717957165
 10
2.3900312065
 20
-0.4675282315
 10
2.361541251
 20
-0.4650336243
 10
2.3336202555
 20
-0.4642993542
 10
2.3062628433
 20
-0.4653039102
 10
2.2794528836
 20
-0.4680207583
 10
2.2531849995
 20
-0.4724181921
 10
2.227464568
 20
-0.4784563651
 10
2.2022915889
 20
-0.4860895461
  0
LINE
  5
3AB
100
AcDbEntity
  8
0
100
AcDbLine
 62
250
  6
CONTINUOUS
 10
2.6303442796
 20
-0.519948104
 11
2.4487018674
 21
-0.4778397294
  0
LINE
  5
3AC
100
AcDbEntity
  8
0
100
AcDbLine
 62
250
  6
CONTINUOUS
 10
2.0506543031
 20
-0.4969580155
 11
2.1124929019
 21
-0.5142012612
  0
LINE
  5
3AD
100
AcDbEntity
  8
0
100
AcDbLine
 62
250
  6
CONTINUOUS
 10
-2.1311263876
 20
-0.572937263
 11
-2.0533688672
 21
-0.5948906844
  0
LINE
  5
3AE
100
AcDbEntity
  8
0
100
AcDbLine
 62
250
  6
CONTINUOUS
 10
-2.1885546383
 20
-0.4948032522
 11
-2.1118054414
 21
-0.5166666667
  0
LWPOLYLINE
  5
3AF
100
AcDbEntity
  8
0
100
AcDbPolyline
 62
250
  6
CONTINUOUS
 90
10
 70
0
 10
2.3304601878
 20
-0.6590056897
 10
2.3012382634
 20
-0.6479165342
 10
2.2723915086
 20
-0.6390920041
 10
2.2439199234
 20
-0.6325671696
 10
2.215797863
 20
-0.6283662332
 10
2.1880509721
 20
-0.6265154826
 10
2.160756185
 20
-0.627022039
 10
2.1339391463
 20
-0.6298662146
 10
2.1075742113
 20
-0.6350234772
 10
2.0816613801
 20
-0.6424624211
  0
LINE
  5
3B0
100
AcDbEntity
  8
0
100
AcDbLine
 62
7
  6
CONTINUOUS
 10
2.5138633148
 20
-0.7351351351
 11
2.6346755044
 21
-0.7824791303
  0
LINE
  5
3B1
100
AcDbEntity
  8
0
100
AcDbLine
 62
7
  6
CONTINUOUS
 10
-2.4989651867
 20
0.7723370264
 11
-2.6230476225
 21
0.8230996657
  0
LINE
  5
3B2
100
AcDbEntity
  8
0
100
AcDbLine
 62
250
  6
CONTINUOUS
 10
-2.5516234743
 20
0.6630532548
 11
-2.6526900224
 21
0.7195476894
  0
LWPOLYLINE
  5
3B3
100
AcDbEntity
  8
0
100
AcDbPolyline
 62
250
  6
CONTINUOUS
 90
10
 70
0
 10
-2.3975566956
 20
0.5494373327
 10
-2.3733415672
 20
0.532741347
 10
-2.3493515189
 20
0.5185806207
 10
-2.3255865507
 20
0.507019798
 10
-2.3020158769
 20
0.4981068283
 10
-2.2786702832
 20
0.4919099872
 10
-2.2556421267
 20
0.488482731
 10
-2.2329621933
 20
0.4878291494
 10
-2.2105996971
 20
0.4899396223
 10
-2.1885546383
 20
0.4948032522
  0
LINE
  5
3B4
100
AcDbEntity
  8
0
100
AcDbLine
 62
250
  6
CONTINUOUS
 10
-2.5516234743
 20
0.6630532548
 11
-2.3975566956
 21
0.5494373327
  0
LWPOLYLINE
  5
3B5
100
AcDbEntity
  8
0
100
AcDbPolyline
 62
250
  6
CONTINUOUS
 90
10
 70
0
 10
-2.3428742936
 20
0.6405958576
 10
-2.3185623214
 20
0.6213493173
 10
-2.2944172897
 20
0.6048522855
 10
-2.2704391984
 20
0.5911949021
 10
-2.2465891592
 20
0.5804465504
 10
-2.2229060605
 20
0.572711234
 10
-2.1995065675
 20
0.5680785182
 10
-2.1764295685
 20
0.5665697838
 10
-2.1536361752
 20
0.5681876856
 10
-2.1311263876
 20
0.572937263
  0
LINE
  5
3B6
100
AcDbEntity
  8
0
100
AcDbLine
 62
250
  6
CONTINUOUS
 10
-2.4989651867
 20
0.7723370264
 11
-2.3428742936
 21
0.6405958576
  0
LINE
  5
3B7
100
AcDbEntity
  8
RACCORDO
100
AcDbLine
 62
7
  6
CONTINUOUS
 10
7.9764881122
 20
-19.9432372817
 11
8.0
 21
-20.0
  0
LINE
  5
3B8
100
AcDbEntity
  8
ASSI
100
AcDbLine
 62
7
  6
CONTINUOUS
 10
-2.7217941262
 20
12.6071428571
 11
-2.6450239107
 21
12.075263202
  0
LWPOLYLINE
  5
3B9
100
AcDbEntity
  8
RACCORDO
100
AcDbPolyline
 62
250
  6
CONTINUOUS
 90
9
 70
0
 10
-3.1828041455
 20
19.3641047922
 10
-3.1861099131
 20
19.394017277
 10
-3.1953251684
 20
19.4230309309
 10
-3.210173005
 20
19.4502739319
 10
-3.230207265
 20
19.4749276636
 10
-3.2548259453
 20
19.4962513138
 10
-3.2832892868
 20
19.5136041348
 10
-3.3147420035
 20
19.5264646973
 10
-3.3482389829
 20
19.5344465581
  0
LWPOLYLINE
  5
3BA
100
AcDbEntity
  8
RACCORDO
100
AcDbPolyline
 62
7
  6
CONTINUOUS
 90
8
 70
0
 10
2.9
 20
-21.9332102554
 10
2.9003325522
 20
-21.9364266961
 10
2.9012932882
 20
-21.9396024559
 10
2.9028822079
 20
-21.9427375348
 10
2.9051114607
 20
-21.9458449721
 10
2.9079688973
 20
-21.9489117284
 10
2.9114180701
 20
-21.9518986863
 10
2.9154665592
 20
-21.9548048235
  0
LWPOLYLINE
  5
3BB
100
AcDbEntity
  8
RACCORDO
100
AcDbPolyline
 62
250
  6
CONTINUOUS
 90
10
 70
0
 10
3.1746115759
 20
-22.3
 10
3.177649565
 20
-22.3347296497
 10
3.1866712231
 20
-22.3684040519
 10
3.2014024297
 20
-22.400000027
 10
3.2213955819
 20
-22.4285575472
 10
3.2460431965
 20
-22.4532089085
 10
3.2745963682
 20
-22.4732050939
 10
3.3061875232
 20
-22.487938531
 10
3.3398567798
 20
-22.4969615525
 10
3.3745811149
 20
-22.5
  0
LWPOLYLINE
  5
3BC
100
AcDbEntity
  8
RACCORDO
100
AcDbPolyline
 62
250
  6
CONTINUOUS
 90
10
 70
0
 10
3.017150432
 20
-19.3824926374
 10
3.0199892282
 20
-19.4160759766
 10
3.0284260735
 20
-19.448705628
 10
3.0422213816
 20
-19.4794549863
 10
3.060983398
 20
-19.507450842
 10
3.0841793258
 20
-19.5318981787
 10
3.1111504551
 20
-19.5521027497
 10
3.1411308692
 20
-19.5674907925
 10
3.1732691951
 20
-19.577625323
 10
3.2066527798
 20
-19.5822185443
  0
LWPOLYLINE
  5
3BD
100
AcDbEntity
  8
RACCORDO
100
AcDbPolyline
 62
250
  6
CONTINUOUS
 90
8
 70
0
 10
3.1810448418
 20
-19.3910819795
 10
3.183883624
 20
-19.4246652375
 10
3.1923204358
 20
-19.4572948351
 10
3.2061157029
 20
-19.4880441691
 10
3.2248776839
 20
-19.5160400294
 10
3.2480735916
 20
-19.5404873928
 10
3.2750447209
 20
-19.5606920019
 10
3.2859514491
 20
-19.567038775
  0
LWPOLYLINE
  5
3BE
100
AcDbEntity
  8
RACCORDO
100
AcDbPolyline
 62
7
  6
CONTINUOUS
 90
10
 70
0
 10
2.9225562418
 20
-19.3765438063
 10
2.9252918313
 20
-19.4108213019
 10
2.9332663351
 20
-19.4439493805
 10
2.9461980944
 20
-19.4749761741
 10
2.9636799725
 20
-19.5030323571
 10
2.9851548926
 20
-19.5273490545
 10
3.0099308995
 20
-19.5472782308
 10
3.0372586515
 20
-19.562314089
 10
3.066359159
 20
-19.5721020042
 10
3.0964045457
 20
-19.5764398634
  0
LINE
  5
3BF
100
AcDbEntity
  8
RACCORDO
100
AcDbLine
 62
250
  6
CONTINUOUS
 10
2.2916953758
 20
-19.0527207794
 11
2.3029936766
 21
-19.7
  0
LINE
  5
3C0
100
AcDbEntity
  8
SMUSSO
100
AcDbLine
 62
7
  6
CONTINUOUS
 10
0.4368055494
 20
-1.5627530983
 11
0.4368055494
 21
-0.5
  0
LINE
  5
3C1
100
AcDbEntity
  8
DRAFT
100
AcDbLine
 62
7
  6
CONTINUOUS
 10
0.5
 20
-0.5
 11
0.5
 21
-1.5504607928
  0
LINE
  5
3C2
100
AcDbEntity
  8
0
100
AcDbLine
 62
7
  6
CONTINUOUS
 10
0.7
 20
-1.5031022876
 11
0.7
 21
-1.01
  0
LINE
  5
3C3
100
AcDbEntity
  8
0
100
AcDbLine
 62
7
  6
CONTINUOUS
 10
0.7
 20
-0.99
 11
0.7
 21
-0.44
  0
LINE
  5
3C4
100
AcDbEntity
  8
0
100
AcDbLine
 62
250
  6
CONTINUOUS
 10
0.7
 20
-0.44
 11
0.7
 21
-0.4
  0
LINE
  5
3C5
100
AcDbEntity
  8
0
100
AcDbLine
 62
250
  6
CONTINUOUS
 10
1.6343303518
 20
-0.44
 11
1.6343303518
 21
-0.99
  0
LINE
  5
3C6
100
AcDbEntity
  8
0
100
AcDbLine
 62
250
  6
CONTINUOUS
 10
1.6343303518
 20
-1.0209172952
 11
1.6343303518
 21
-1.0
  0
LINE
  5
3C7
100
AcDbEntity
  8
DRAFT
100
AcDbLine
 62
7
  6
CONTINUOUS
 10
1.827002438
 20
-8.3729824542
 11
1.7682568484
 21
-15.1045602756
  0
LINE
  5
3C8
100
AcDbEntity
  8
RACCORDO
100
AcDbLine
 62
250
  6
CONTINUOUS
 10
2.3029936766
 20
19.7
 11
2.2916953758
 21
19.0527207794
  0
LWPOLYLINE
  5
3C9
100
AcDbEntity
  8
RACCORDO
100
AcDbPolyline
 62
250
  6
CONTINUOUS
 90
3
 70
0
 10
3.3992041554
 20
20.2076902657
 10
3.399256248
 20
20.2084626683
 10
3.399339263
 20
20.2108957114
  0
LWPOLYLINE
  5
3CA
100
AcDbEntity
  8
RACCORDO
100
AcDbPolyline
 62
7
  6
CONTINUOUS
 90
10
 70
0
 10
2.9225599452
 20
19.3765438063
 10
2.9251960962
 20
19.4102536352
 10
2.9330333143
 20
19.4431350661
 10
2.9458913745
 20
19.474223754
 10
2.9634637798
 20
19.5025835215
 10
2.9852628266
 20
19.5273440822
 10
3.0106251045
 20
19.5477287595
 10
3.0388059174
 20
19.5630696701
 10
3.0690018613
 20
19.5728325568
 10
3.100310206
 20
19.5766459155
  0
LWPOLYLINE
  5
3CB
100
AcDbEntity
  8
RACCORDO
100
AcDbPolyline
 62
250
  6
CONTINUOUS
 90
10
 70
0
 10
3.017150432
 20
19.3824926374
 10
3.0199855021
 20
19.4160541054
 10
3.028412994
 20
19.4486683425
 10
3.0421961865
 20
19.4794095211
 10
3.0609456082
 20
19.5074036004
 10
3.0841314101
 20
19.5318555206
 10
3.1110993944
 20
19.5520708298
 10
3.1410866785
 20
19.5674726306
 10
3.1732421247
 20
19.5776192365
 10
3.2066526568
 20
19.5822185379
  0
LWPOLYLINE
  5
3CC
100
AcDbEntity
  8
RACCORDO
100
AcDbPolyline
 62
250
  6
CONTINUOUS
 90
8
 70
0
 10
3.1810448418
 20
19.3910819795
 10
3.1838836379
 20
19.4246653187
 10
3.1923204833
 20
19.4572949701
 10
3.2061157913
 20
19.4880443284
 10
3.2248778078
 20
19.5160401841
 10
3.2480737356
 20
19.5404875208
 10
3.2750448648
 20
19.5606920917
 10
3.2906034821
 20
19.5694744326
  0
LWPOLYLINE
  5
3CD
100
AcDbEntity
  8
RACCORDO
100
AcDbPolyline
 62
250
  6
CONTINUOUS
 90
8
 70
0
 10
3.1746115759
 20
22.3
 10
3.177649562
 20
22.3347296329
 10
3.186671213
 20
22.3684040242
 10
3.201402411
 20
22.3999999946
 10
3.2213955562
 20
22.4285575165
 10
3.2460431673
 20
22.453208884
 10
3.2745963396
 20
22.4732050774
 10
3.2854993273
 20
22.4790586979
  0
LWPOLYLINE
  5
3CE
100
AcDbEntity
  8
RACCORDO
100
AcDbPolyline
 62
7
  6
CONTINUOUS
 90
25
 70
0
 10
2.9
 20
22.3114176857
 10
2.9003325522
 20
22.3146341264
 10
2.9012932882
 20
22.3178098862
 10
2.902882208
 20
22.3209449651
 10
2.9051114607
 20
22.3240524023
 10
2.9079688973
 20
22.3271191586
 10
2.9114180701
 20
22.3301061165
 10
2.9154665592
 20
22.3330122537
 10
2.9201067844
 20
22.3358385925
 10
2.9252795582
 20
22.338549082
 10
2.9309917023
 20
22.341142238
 10
2.9372363949
 20
22.3436195447
 10
2.9439339828
 20
22.3459494031
 10
2.9510902675
 20
22.3481299245
 10
2.9586994475
 20
22.3501629975
 10
2.9666644651
 20
22.3520226897
 10
2.9749898783
 20
22.3537067802
 10
2.9836711292
 20
22.3552174897
 10
2.9925974852
 20
22.3565355488
 10
3.0017720861
 20
22.3576584896
 10
3.0111917921
 20
22.35858878
 10
3.0207364517
 20
22.3593145537
 10
3.0303660143
 20
22.3598318554
 10
3.0401205304
 20
22.3601446404
 10
3.05
 20
22.3602529088
  0
LWPOLYLINE
  5
3CF
100
AcDbEntity
  8
RACCORDO
100
AcDbPolyline
 62
250
  6
CONTINUOUS
 90
9
 70
0
 10
3.1828041455
 20
19.3641047922
 10
3.1861099016
 20
19.3940172232
 10
3.1953251301
 20
19.4230308419
 10
3.2101729346
 20
19.4502738276
 10
3.2302071674
 20
19.4749275637
 10
3.2548258334
 20
19.4962512328
 10
3.2832891762
 20
19.5136040796
 10
3.3147419116
 20
19.5264646681
 10
3.3482389284
 20
19.5344465496
  0
LINE
  5
3D0
100
AcDbEntity
  8
ASSI
100
AcDbLine
 62
7
  6
CONTINUOUS
 10
2.6450242793
 20
12.075265756
 11
2.7217941262
 21
12.6071428571
  0
LINE
  5
3D1
100
AcDbEntity
  8
DRAFT
100
AcDbLine
 62
7
  6
CONTINUOUS
 10
2.7180473238
 20
13.4152941982
 11
2.4539603136
 21
11.648346871
  0
LINE
  5
3D2
100
AcDbEntity
  8
DRAFT
100
AcDbLine
 62
7
  6
CONTINUOUS
 10
2.1482196768
 20
9.6027044124
 11
2.0231190682
 21
8.7656841216
  0
LINE
  5
3D3
100
AcDbEntity
  8
0
100
AcDbLine
 62
7
  6
CONTINUOUS
 10
2.7223229517
 20
13.3864000029
 11
2.4661834837
 21
11.6725308037
  0
LINE
  5
3D4
100
AcDbEntity
  8
0
100
AcDbLine
 62
7
  6
CONTINUOUS
 10
2.1475127945
 20
9.5402554338
 11
2.0410234682
 21
8.8277187143
  0
LWPOLYLINE
  5
3D5
100
AcDbEntity
  8
0
100
AcDbPolyline
 62
7
  6
CONTINUOUS
 90
4
 70
0
 10
2.599625783
 20
12.5654140774
 10
2.6164204245
 20
12.6584817681
 10
2.6349260552
 20
12.7862707038
 10
2.6414383419
 20
12.8451884418
  0
LWPOLYLINE
  5
3D6
100
AcDbEntity
  8
RACCORDO
100
AcDbPolyline
 62
7
  6
CONTINUOUS
 90
10
 70
0
 10
7.9764881122
 20
19.9432372817
 10
7.9735778078
 20
19.9332983988
 10
7.9631045012
 20
19.9084786698
 10
7.9460547546
 20
19.8697646568
 10
7.9243426776
 20
19.8178179688
 10
7.8987975489
 20
19.7547203852
 10
7.8690509233
 20
19.6838609632
 10
7.8361058225
 20
19.607495225
 10
7.8023234293
 20
19.5267318529
 10
7.769389217
 20
19.4432563202
  0
LINE
  5
3D7
100
AcDbEntity
  8
RACCORDO
100
AcDbLine
 62
7
  6
CONTINUOUS
 10
-7.9764881122
 20
-19.9432372817
 11
-8.0
 21
-20.0
  0
LWPOLYLINE
  5
3D8
100
AcDbEntity
  8
0
100
AcDbPolyline
 62
7
  6
CONTINUOUS
 90
8
 70
0
 10
2.1118054414
 20
-0.5166666667
 10
2.0989634731
 20
-0.5343929355
 10
2.0859706503
 20
-0.5520166234
 10
2.0728211439
 20
-0.5695418454
 10
2.0595067892
 20
-0.5869762228
 10
2.046022685
 20
-0.6043235498
 10
2.0323671944
 20
-0.6215842378
 10
2.0185344554
 20
-0.6387649563
  0
LINE
  5
3D9
100
AcDbEntity
  8
0
100
AcDbLine
 62
250
  6
CONTINUOUS
 10
2.2022915889
 20
-0.4860895461
 11
2.1625138684
 21
-0.5380835875
  0
LINE
  5
3DA
100
AcDbEntity
  8
0
100
AcDbLine
 62
250
  6
CONTINUOUS
 10
2.1625138684
 20
-0.5380835875
 11
2.0816613801
 21
-0.6424624211
  0
LWPOLYLINE
  5
3DB
100
AcDbEntity
  8
0
100
AcDbPolyline
 62
7
  6
CONTINUOUS
 90
3
 70
0
 10
2.0185344554
 20
-0.6387649563
 10
2.0045143517
 20
-0.655878264
 10
1.990298123
 20
-0.6729355582
  0
LWPOLYLINE
  5
3DC
100
AcDbEntity
  8
0
100
AcDbPolyline
 62
250
  6
CONTINUOUS
 90
16
 70
0
 10
2.0816613801
 20
-0.6424624211
 10
1.9876840865
 20
-0.7558592077
 10
1.8863386633
 20
-0.8635633317
 10
1.7778121856
 20
-0.9652547415
 10
1.662365653
 20
-1.0605597704
 10
1.5401712304
 20
-1.1491988999
 10
1.4112958042
 20
-1.2309676701
 10
1.275955053
 20
-1.3055331541
 10
1.1344637639
 20
-1.3725074112
 10
0.9870537438
 20
-1.4315623668
 10
0.8340698024
 20
-1.48235084
 10
0.6759086655
 20
-1.5245134541
 10
0.5129338764
 20
-1.5576980747
 10
0.3455951727
 20
-1.5815601295
 10
0.1744315546
 20
-1.5957705299
 10
0.0
 20
-1.6
  0
LWPOLYLINE
  5
3DD
100
AcDbEntity
  8
0
100
AcDbPolyline
 62
7
  6
CONTINUOUS
 90
16
 70
0
 10
1.990298123
 20
-0.6729355582
 10
1.8900460075
 20
-0.7854300987
 10
1.7833102673
 20
-0.8920511559
 10
1.67029613
 20
-0.9925186783
 10
1.5508784578
 20
-1.0868110001
 10
1.4256097519
 20
-1.1743250586
 10
1.2958017362
 20
-1.2540979581
 10
1.1618558847
 20
-1.3259631401
 10
1.0239446804
 20
-1.3898850874
 10
0.8831849836
 20
-1.4454126179
 10
0.7400610792
 20
-1.4924607138
 10
0.594680559
 20
-1.5310786834
 10
0.4476438145
 20
-1.5611786563
 10
0.2993669312
 20
-1.5827183902
 10
0.1500532385
 20
-1.5956731838
 10
0.0
 20
-1.6
  0
LINE
  5
3DE
100
AcDbEntity
  8
0
100
AcDbLine
 62
250
  6
CONTINUOUS
 10
2.6303442796
 20
0.519948104
 11
2.6900567013
 21
0.5624685731
  0
LWPOLYLINE
  5
3DF
100
AcDbEntity
  8
0
100
AcDbPolyline
 62
7
  6
CONTINUOUS
 90
7
 70
0
 10
2.4683777516
 20
-0.2098541809
 10
2.3990087174
 20
-0.2488590787
 10
2.3328327883
 20
-0.2933257453
 10
2.2708372763
 20
-0.3426215557
 10
2.2133576089
 20
-0.3963310708
 10
2.1602894138
 20
-0.4544245757
 10
2.1118054414
 20
-0.5166666667
  0
LWPOLYLINE
  5
3E0
100
AcDbEntity
  8
0
100
AcDbPolyline
 62
250
  6
CONTINUOUS
 90
7
 70
0
 10
2.7390645109
 20
-0.2280154548
 10
2.7343736731
 20
-0.230430842
 10
2.6686179835
 20
-0.2712024038
 10
2.6066891779
 20
-0.3168208987
 10
2.5490686539
 20
-0.3669249869
 10
2.4962858531
 20
-0.4208100069
 10
2.4487018674
 20
-0.4778397294
  0
LINE
  5
3E1
100
AcDbEntity
  8
0
100
AcDbLine
 62
250
  6
CONTINUOUS
 10
2.5138633148
 20
0.7351351351
 11
2.3304601878
 21
0.6590056897
  0
LINE
  5
3E2
100
AcDbEntity
  8
0
100
AcDbLine
 62
250
  6
CONTINUOUS
 10
2.2022915889
 20
-0.4860895461
 11
2.1118054414
 21
-0.5166666667
  0
LINE
  5
3E3
100
AcDbEntity
  8
0
100
AcDbLine
 62
250
  6
CONTINUOUS
 10
2.0816613801
 20
-0.6424624211
 11
1.990298123
 21
-0.6729355582
  0
LINE
  5
3E4
100
AcDbEntity
  8
0
100
AcDbLine
 62
250
  6
CONTINUOUS
 10
-2.1311263876
 20
0.572937263
 11
-2.0533688685
 21
0.594890684
  0
LWPOLYLINE
  5
3E5
100
AcDbEntity
  8
0
100
AcDbPolyline
 62
250
  6
CONTINUOUS
 90
15
 70
0
 10
-0.2011730218
 20
1.5921655965
 10
-0.3537828321
 20
1.5770188693
 10
-0.526159643
 20
1.5500941117
 10
-0.6945289468
 20
1.5132931218
 10
-0.8582036189
 20
1.4669620459
 10
-1.0165436509
 20
1.4114895608
 10
-1.1689361175
 20
1.3472739456
 10
-1.3149083579
 20
1.2746907358
 10
-1.454133549
 20
1.1942051556
 10
-1.5861770456
 20
1.1064127157
 10
-1.7107509446
 20
1.0118175515
 10
-1.8277809122
 20
0.9107258353
 10
-1.9370576485
 20
0.8035397648
 10
-2.0382490834
 20
0.6907933093
 10
-2.1311263876
 20
0.572937263
  0
LWPOLYLINE
  5
3E6
100
AcDbEntity
  8
0
100
AcDbPolyline
 62
7
  6
CONTINUOUS
 90
15
 70
0
 10
-0.1880524013
 20
1.5930854346
 10
-0.2973845497
 20
1.5827979074
 10
-0.4482737231
 20
1.5609100162
 10
-0.6003820325
 20
1.5296080674
 10
-0.7525748167
 20
1.488633188
 10
-0.902729287
 20
1.4382243658
 10
-1.0497453188
 20
1.3786435993
 10
-1.193539783
 20
1.3098441522
 10
-1.3335738419
 20
1.2319280663
 10
-1.4696500832
 20
1.1447743666
 10
-1.6007163244
 20
1.0488155315
 10
-1.7251052872
 20
0.9452430671
 10
-1.8420681632
 20
0.8348750612
 10
-1.9516026049
 20
0.7179182001
 10
-2.0533697816
 20
0.5948895071
  0
LINE
  5
3E7
100
AcDbEntity
  8
0
100
AcDbLine
 62
7
  6
CONTINUOUS
 10
-0.1949198763
 20
1.5926157253
 11
-0.2011730218
 21
1.5921655965
  0
LINE
  5
3E8
100
AcDbEntity
  8
0
100
AcDbLine
 62
7
  6
CONTINUOUS
 10
0.0
 20
1.6
 11
-0.1949198763
 21
1.5926157253
  0
LWPOLYLINE
  5
3E9
100
AcDbEntity
  8
0
100
AcDbPolyline
 62
250
  6
CONTINUOUS
 90
19
 70
0
 10
0.0
 20
1.9572123903
 10
-0.1707398747
 20
1.951412713
 10
-0.3397165347
 20
1.9360555963
 10
-0.5062248731
 20
1.9113427962
 10
-0.6696878534
 20
1.8774495305
 10
-0.8293478884
 20
1.834595532
 10
-0.9843225633
 20
1.7831923307
 10
-1.1338404025
 20
1.7237566014
 10
-1.2776853812
 20
1.6566025621
 10
-1.415846539
 20
1.5818556817
 10
-1.5480960175
 20
1.4997201601
 10
-1.6738263658
 20
1.410764126
 10
-1.7924757881
 20
1.3156199093
 10
-1.9036425519
 20
1.2148627953
 10
-2.0071766525
 20
1.1088626627
 10
-2.1030009575
 20
0.9979798637
 10
-2.1910002711
 20
0.8826477652
 10
-2.2710008938
 20
0.7633697946
 10
-2.3428742936
 20
0.6405958576
  0
LWPOLYLINE
  5
3EA
100
AcDbEntity
  8
0
100
AcDbPolyline
 62
250
  6
CONTINUOUS
 90
10
 70
0
 10
2.7457394144
 20
0.1319357695
 10
2.7035243114
 20
0.142784381
 10
2.6284235832
 20
0.168415809
 10
2.5559631445
 20
0.1996157846
 10
2.4865256012
 20
0.2361879607
 10
2.4205207093
 20
0.2779276121
 10
2.3588535481
 20
0.3241955963
 10
2.3019115085
 20
0.3745004866
 10
2.2496691597
 20
0.428597658
 10
2.2022915889
 20
0.4860895461
  0
LINE
  5
3EB
100
AcDbEntity
  8
0
100
AcDbLine
 62
250
  6
CONTINUOUS
 10
2.0816613801
 20
0.6424624211
 11
1.990298123
 21
0.6729355582
  0
LINE
  5
3EC
100
AcDbEntity
  8
0
100
AcDbLine
 62
250
  6
CONTINUOUS
 10
2.2022915889
 20
0.4860895461
 11
2.1118054414
 21
0.5166666667
  0
LINE
  5
3ED
100
AcDbEntity
  8
0
100
AcDbLine
 62
250
  6
CONTINUOUS
 10
2.5138633148
 20
-0.7351351351
 11
2.3304601878
 21
-0.6590056897
  0
LWPOLYLINE
  5
3EE
100
AcDbEntity
  8
0
100
AcDbPolyline
 62
250
  6
CONTINUOUS
 90
7
 70
0
 10
2.7390645109
 20
0.2280154548
 10
2.7343736731
 20
0.230430842
 10
2.6686179835
 20
0.2712024038
 10
2.6066891779
 20
0.3168208987
 10
2.5490686539
 20
0.3669249869
 10
2.4962858531
 20
0.4208100069
 10
2.4487018674
 20
0.4778397294
  0
LINE
  5
3EF
100
AcDbEntity
  8
0
100
AcDbLine
 62
250
  6
CONTINUOUS
 10
2.6303442796
 20
-0.519948104
 11
2.6900567013
 21
-0.5624685731
  0
LWPOLYLINE
  5
3F0
100
AcDbEntity
  8
0
100
AcDbPolyline
 62
7
  6
CONTINUOUS
 90
16
 70
0
 10
1.9902981884
 20
0.6729354803
 10
1.8898618403
 20
0.7856153712
 10
1.7829619682
 20
0.892365403
 10
1.6699436391
 20
0.9928093047
 10
1.5510506389
 20
1.0866824698
 10
1.4267846506
 20
1.173543043
 10
1.2979554228
 20
1.2528466517
 10
1.1653808385
 20
1.3241980667
 10
1.0292042146
 20
1.3876245186
 10
0.8892304465
 20
1.4432117478
 10
0.7454721718
 20
1.4908404638
 10
0.5988105328
 20
1.5301066651
 10
0.4503554573
 20
1.5607013698
 10
0.3008312578
 20
1.5825392799
 10
0.1505428374
 20
1.595638944
 10
0.0
 20
1.6
  0
LWPOLYLINE
  5
3F1
100
AcDbEntity
  8
0
100
AcDbPolyline
 62
250
  6
CONTINUOUS
 90
16
 70
0
 10
2.0816613801
 20
0.6424624211
 10
1.9876840865
 20
0.7558592077
 10
1.8863386633
 20
0.8635633317
 10
1.7778121856
 20
0.9652547415
 10
1.662365653
 20
1.0605597704
 10
1.5401712304
 20
1.1491988999
 10
1.4112958042
 20
1.2309676701
 10
1.275955053
 20
1.3055331541
 10
1.1344637639
 20
1.3725074112
 10
0.9870537438
 20
1.4315623668
 10
0.8340698024
 20
1.48235084
 10
0.6759086655
 20
1.5245134541
 10
0.5129338764
 20
1.5576980747
 10
0.3455951727
 20
1.5815601295
 10
0.1744315546
 20
1.5957705299
 10
0.0
 20
1.6
  0
LINE
  5
3F2
100
AcDbEntity
  8
0
100
AcDbLine
 62
250
  6
CONTINUOUS
 10
2.1625138684
 20
0.5380835875
 11
2.0816613801
 21
0.6424624211
  0
LINE
  5
3F3
100
AcDbEntity
  8
0
100
AcDbLine
 62
250
  6
CONTINUOUS
 10
2.2022915889
 20
0.4860895461
 11
2.1625138684
 21
0.5380835875
  0
LWPOLYLINE
  5
3F4
100
AcDbEntity
  8
0
100
AcDbPolyline
 62
7
  6
CONTINUOUS
 90
7
 70
0
 10
2.1118054414
 20
0.5166666667
 10
2.0927860832
 20
0.542804723
 10
2.0732805858
 20
0.5689192568
 10
2.0532838932
 20
0.5950000968
 10
2.0327910868
 20
0.6210368547
 10
2.0117973925
 20
0.647018924
 10
1.9902981884
 20
0.6729354803
  0
LINE
  5
3F5
100
AcDbEntity
  8
RACCORDO
100
AcDbLine
 62
7
  6
CONTINUOUS
 10
-7.9764881122
 20
19.9432372817
 11
-8.0
 21
20.0
  0
LINE
  5
3F6
100
AcDbEntity
  8
ASSI
100
AcDbLine
 62
7
  6
CONTINUOUS
 10
2.7217941262
 20
-12.6071428571
 11
2.6450239107
 21
-12.075263202
  0
LWPOLYLINE
  5
3F7
100
AcDbEntity
  8
RACCORDO
100
AcDbPolyline
 62
250
  6
CONTINUOUS
 90
9
 70
0
 10
3.1828041455
 20
-19.3641047922
 10
3.1861099131
 20
-19.394017277
 10
3.1953251684
 20
-19.4230309309
 10
3.210173005
 20
-19.4502739319
 10
3.230207265
 20
-19.4749276636
 10
3.2548259453
 20
-19.4962513138
 10
3.2832892868
 20
-19.5136041348
 10
3.3147420035
 20
-19.5264646973
 10
3.3482389829
 20
-19.5344465581
  0
LWPOLYLINE
  5
3F8
100
AcDbEntity
  8
RACCORDO
100
AcDbPolyline
 62
250
  6
CONTINUOUS
 90
9
 70
0
 10
3.1826445818
 20
19.3691667314
 10
3.1824759159
 20
19.3737613552
 10
3.1822981479
 20
19.3778886635
 10
3.1821111131
 20
19.381613727
 10
3.1819149762
 20
19.384871475
 10
3.1817102312
 20
19.3874666955
 10
3.1814970428
 20
19.3893343177
 10
3.1812752463
 20
19.3905394124
 10
3.1810448418
 20
19.3910819795
  0
LINE
  5
3F9
100
AcDbEntity
  8
RACCORDO
100
AcDbLine
 62
250
  6
CONTINUOUS
 10
3.3993082669
 20
-20.2106256086
 11
3.3992041295
 21
-20.2076902671
  0
LINE
  5
3FA
100
AcDbEntity
  8
RACCORDO
100
AcDbLine
 62
250
  6
CONTINUOUS
 10
3.1953132616
 20
18.9503485794
 11
3.1826445818
 21
19.3691667314
  0
LWPOLYLINE
  5
3FB
100
AcDbEntity
  8
RACCORDO
100
AcDbPolyline
 62
250
  6
CONTINUOUS
 90
3
 70
0
 10
3.4117758362
 20
-20.6753651506
 10
3.4104002041
 20
-20.6229050151
 10
3.4096801427
 20
-20.5951907085
  0
LINE
  5
3FC
100
AcDbEntity
  8
RACCORDO
100
AcDbLine
 62
250
  6
CONTINUOUS
 10
3.4096801427
 20
-20.5951907085
 11
3.3993082669
 21
-20.2106256086
  0
LINE
  5
3FD
100
AcDbEntity
  8
RACCORDO
100
AcDbLine
 62
250
  6
CONTINUOUS
 10
3.4130114684
 20
-20.7232459584
 11
3.4117758362
 21
-20.6753651506
  0
LWPOLYLINE
  5
3FE
100
AcDbEntity
  8
RACCORDO
100
AcDbPolyline
 62
250
  6
CONTINUOUS
 90
7
 70
0
 10
3.2118967456
 20
-20.4518317865
 10
3.2115992563
 20
-20.4396137783
 10
3.2112694281
 20
-20.428625502
 10
3.2109140865
 20
-20.4198166356
 10
3.2105355069
 20
-20.4135037381
 10
3.2101314139
 20
-20.4093702505
 10
3.2097018076
 20
-20.4074161726
  0
LINE
  5
3FF
100
AcDbEntity
  8
RACCORDO
100
AcDbLine
 62
250
  6
CONTINUOUS
 10
3.1990988085
 20
21.8226145404
 11
3.1948105308
 21
21.9881501282
  0
LINE
  5
400
100
AcDbEntity
  8
RACCORDO
100
AcDbLine
 62
250
  6
CONTINUOUS
 10
3.4009735973
 20
21.883833862
 11
3.3970086518
 21
22.0734268395
  0
LINE
  5
401
100
AcDbEntity
  8
RACCORDO
100
AcDbLine
 62
250
  6
CONTINUOUS
 10
3.2027424421
 20
21.6406673096
 11
3.1990988085
 21
21.8226145404
  0
LINE
  5
402
100
AcDbEntity
  8
RACCORDO
100
AcDbLine
 62
250
  6
CONTINUOUS
 10
2.4729693833
 20
-19.0
 11
2.4851879288
 21
-19.7
  0
LINE
  5
403
100
AcDbEntity
  8
RACCORDO
100
AcDbLine
 62
250
  6
CONTINUOUS
 10
3.2123895353
 20
-20.4798810823
 11
3.2118967456
 21
-20.4518317865
  0
LINE
  5
404
100
AcDbEntity
  8
RACCORDO
100
AcDbLine
 62
250
  6
CONTINUOUS
 10
3.4057680546
 20
21.5743578874
 11
3.4009735973
 21
21.883833862
  0
LINE
  5
405
100
AcDbEntity
  8
RACCORDO
100
AcDbLine
 62
250
  6
CONTINUOUS
 10
3.2071078787
 20
21.3502698511
 11
3.2027424421
 21
21.6406673096
  0
LINE
  5
406
100
AcDbEntity
  8
RACCORDO
100
AcDbLine
 62
250
  6
CONTINUOUS
 10
3.2127542499
 20
-20.5102424388
 11
3.2123895353
 21
-20.4798810823
  0
LINE
  5
407
100
AcDbEntity
  8
RACCORDO
100
AcDbLine
 62
250
  6
CONTINUOUS
 10
3.4102629706
 20
21.1456643709
 11
3.4057680546
 21
21.5743578874
  0
LINE
  5
408
100
AcDbEntity
  8
RACCORDO
100
AcDbLine
 62
250
  6
CONTINUOUS
 10
3.2111266155
 20
20.9559059264
 11
3.2071078787
 21
21.3502698511
  0
LINE
  5
409
100
AcDbEntity
  8
RACCORDO
100
AcDbLine
 62
250
  6
CONTINUOUS
 10
3.213079719
 20
-20.556887259
 11
3.2127542499
 21
-20.5102424388
  0
LINE
  5
40A
100
AcDbEntity
  8
RACCORDO
100
AcDbLine
 62
250
  6
CONTINUOUS
 10
3.4130110299
 20
20.7232473714
 11
3.4102629706
 21
21.1456643709
  0
LINE
  5
40B
100
AcDbEntity
  8
RACCORDO
100
AcDbLine
 62
250
  6
CONTINUOUS
 10
3.2131315268
 20
20.6423538798
 11
3.2111266155
 21
20.9559059264
  0
LINE
  5
40C
100
AcDbEntity
  8
RACCORDO
100
AcDbLine
 62
7
  6
CONTINUOUS
 10
2.5345986999
 20
-19.7
 11
2.5324442407
 21
-19.0
  0
LINE
  5
40D
100
AcDbEntity
  8
RACCORDO
100
AcDbLine
 62
250
  6
CONTINUOUS
 10
2.2
 20
-23.5653995554
 11
2.2
 21
-23.8
  0
LINE
  5
40E
100
AcDbEntity
  8
RACCORDO
100
AcDbLine
 62
250
  6
CONTINUOUS
 10
2.2
 20
23.5653995554
 11
2.2
 21
23.8
  0
LINE
  5
40F
100
AcDbEntity
  8
RACCORDO
100
AcDbLine
 62
250
  6
CONTINUOUS
 10
2.2916953758
 20
-19.0527207794
 11
2.2916953758
 21
-19.0
  0
LINE
  5
410
100
AcDbEntity
  8
RACCORDO
100
AcDbLine
 62
250
  6
CONTINUOUS
 10
2.2916953758
 20
19.0
 11
2.2916953758
 21
19.0527207794
  0
LINE
  5
411
100
AcDbEntity
  8
RACCORDO
100
AcDbLine
 62
7
  6
CONTINUOUS
 10
2.5
 20
24.7833606717
 11
2.5
 21
23.6630700017
  0
LINE
  5
412
100
AcDbEntity
  8
RACCORDO
100
AcDbLine
 62
7
  6
CONTINUOUS
 10
2.5
 20
19.7
 11
2.5
 21
19.0
  0
LINE
  5
413
100
AcDbEntity
  8
RACCORDO
100
AcDbLine
 62
7
  6
CONTINUOUS
 10
2.5
 20
-23.6630700017
 11
2.5
 21
-24.7833606717
  0
LINE
  5
414
100
AcDbEntity
  8
0
100
AcDbLine
 62
7
  6
CONTINUOUS
 10
2.9
 20
-19.7
 11
2.9
 21
-22.2923830163
  0
LINE
  5
415
100
AcDbEntity
  8
RACCORDO
100
AcDbLine
 62
7
  6
CONTINUOUS
 10
2.9
 20
-22.2923830163
 11
2.9
 21
-22.3114176857
  0
LINE
  5
416
100
AcDbEntity
  8
0
100
AcDbLine
 62
7
  6
CONTINUOUS
 10
2.9
 20
19.7
 11
2.9
 21
22.2923830163
  0
LINE
  5
417
100
AcDbEntity
  8
RACCORDO
100
AcDbLine
 62
7
  6
CONTINUOUS
 10
2.9
 20
22.2923830163
 11
2.9
 21
22.3114176857
  0
LINE
  5
418
100
AcDbEntity
  8
RACCORDO
100
AcDbLine
 62
250
  6
CONTINUOUS
 10
3.017150432
 20
-20.7247966322
 11
3.0171497254
 21
-20.4175073996
  0
LINE
  5
419
100
AcDbEntity
  8
RACCORDO
100
AcDbLine
 62
250
  6
CONTINUOUS
 10
3.017150432
 20
20.4175073626
 11
3.017150432
 21
20.7247966322
  0
LINE
  5
41A
100
AcDbEntity
  8
RACCORDO
100
AcDbLine
 62
250
  6
CONTINUOUS
 10
3.0171501754
 20
-19.3824926239
 11
3.017150432
 21
-19.0394232099
  0
LINE
  5
41B
100
AcDbEntity
  8
RACCORDO
100
AcDbLine
 62
250
  6
CONTINUOUS
 10
3.017150432
 20
19.0394232099
 11
3.0171497254
 21
19.3824926004
  0
LINE
  5
41C
100
AcDbEntity
  8
RACCORDO
100
AcDbLine
 62
250
  6
CONTINUOUS
 10
3.05
 20
22.3602529088
 11
3.05
 21
21.9820454786
  0
LINE
  5
41D
100
AcDbEntity
  8
RACCORDO
100
AcDbLine
 62
250
  6
CONTINUOUS
 10
3.05
 20
-22.3602529088
 11
3.05
 21
-21.9820454786
  0
LINE
  5
41E
100
AcDbEntity
  8
RACCORDO
100
AcDbLine
 62
7
  6
CONTINUOUS
 10
3.1675686233
 20
-22.3
 11
3.1675686233
 21
-21.7913112106
  0
LINE
  5
41F
100
AcDbEntity
  8
RACCORDO
100
AcDbLine
 62
7
  6
CONTINUOUS
 10
3.1675686233
 20
21.7913112106
 11
3.1675686233
 21
22.3
  0
LINE
  5
420
100
AcDbEntity
  8
RACCORDO
100
AcDbLine
 62
250
  6
CONTINUOUS
 10
3.2
 20
20.1
 11
3.2
 21
19.7
  0
LINE
  5
421
100
AcDbEntity
  8
RACCORDO
100
AcDbLine
 62
250
  6
CONTINUOUS
 10
3.2
 20
-20.1
 11
3.2
 21
-19.7
  0
LINE
  5
422
100
AcDbEntity
  8
RACCORDO
100
AcDbLine
 62
250
  6
CONTINUOUS
 10
3.2131882656
 20
-20.6151345566
 11
3.213079719
 21
-20.556887259
  0
LINE
  5
423
100
AcDbEntity
  8
RACCORDO
100
AcDbLine
 62
250
  6
CONTINUOUS
 10
3.2131498814
 20
20.576544299
 11
3.2131315268
 21
20.6423538798
  0
LINE
  5
424
100
AcDbEntity
  8
RACCORDO
100
AcDbLine
 62
250
  6
CONTINUOUS
 10
3.2130415768
 20
-20.6653742379
 11
3.2131882656
 21
-20.6151345566
  0
LINE
  5
425
100
AcDbEntity
  8
DRAFT
100
AcDbLine
 62
7
  6
CONTINUOUS
 10
2.7384728487
 20
-13.2342837424
 11
2.7412936679
 21
-12.7846493531
  0
LINE
  5
426
100
AcDbEntity
  8
RACCORDO
100
AcDbLine
 62
250
  6
CONTINUOUS
 10
3.2128211441
 20
20.5175891603
 11
3.2131498814
 21
20.576544299
  0
LINE
  5
427
100
AcDbEntity
  8
RACCORDO
100
AcDbLine
 62
250
  6
CONTINUOUS
 10
3.409711941
 20
-21.2100233432
 11
3.4130110307
 21
-20.7232459795
  0
LINE
  5
428
100
AcDbEntity
  8
RACCORDO
100
AcDbLine
 62
250
  6
CONTINUOUS
 10
3.2097419941
 20
-21.1132644681
 11
3.2130415768
 21
-20.6653742379
  0
LINE
  5
429
100
AcDbEntity
  8
RACCORDO
100
AcDbLine
 62
250
  6
CONTINUOUS
 10
3.2124617831
 20
20.4849114903
 11
3.2128211441
 21
20.5175891603
  0
LINE
  5
42A
100
AcDbEntity
  8
RACCORDO
100
AcDbLine
 62
250
  6
CONTINUOUS
 10
3.4053861528
 20
-21.603182369
 11
3.409711941
 21
-21.2100233432
  0
LINE
  5
42B
100
AcDbEntity
  8
RACCORDO
100
AcDbLine
 62
250
  6
CONTINUOUS
 10
3.2054162056
 20
-21.4749558463
 11
3.2097419941
 21
-21.1132644681
  0
LINE
  5
42C
100
AcDbEntity
  8
RACCORDO
100
AcDbLine
 62
250
  6
CONTINUOUS
 10
2.4851879288
 20
19.7
 11
2.4729693833
 21
19.0
  0
LINE
  5
42D
100
AcDbEntity
  8
RACCORDO
100
AcDbLine
 62
250
  6
CONTINUOUS
 10
3.2120334094
 20
20.4585864195
 11
3.2124617831
 21
20.4849114903
  0
LINE
  5
42E
100
AcDbEntity
  8
RACCORDO
100
AcDbLine
 62
250
  6
CONTINUOUS
 10
3.4005017182
 20
-21.9090877187
 11
3.4053861528
 21
-21.603182369
  0
LINE
  5
42F
100
AcDbEntity
  8
RACCORDO
100
AcDbLine
 62
250
  6
CONTINUOUS
 10
3.2005318169
 20
-21.7563783529
 11
3.2054162056
 21
-21.4749558463
  0
LINE
  5
430
100
AcDbEntity
  8
RACCORDO
100
AcDbLine
 62
250
  6
CONTINUOUS
 10
3.3971029901
 20
-22.0694814544
 11
3.4005017182
 21
-21.9090877187
  0
LINE
  5
431
100
AcDbEntity
  8
RACCORDO
100
AcDbLine
 62
250
  6
CONTINUOUS
 10
3.2115687943
 20
20.4382932679
 11
3.2120334094
 21
20.4585864195
  0
LINE
  5
432
100
AcDbEntity
  8
RACCORDO
100
AcDbLine
 62
250
  6
CONTINUOUS
 10
3.1971331281
 20
-21.9038039377
 11
3.2005318169
 21
-21.7563783529
  0
LINE
  5
433
100
AcDbEntity
  8
RACCORDO
100
AcDbLine
 62
250
  6
CONTINUOUS
 10
3.4043541267
 20
20.3938355831
 11
3.4130115212
 21
20.7232473469
  0
LINE
  5
434
100
AcDbEntity
  8
RACCORDO
100
AcDbLine
 62
250
  6
CONTINUOUS
 10
3.399339263
 20
20.2108957114
 11
3.4043541267
 21
20.3938355831
  0
LINE
  5
435
100
AcDbEntity
  8
RACCORDO
100
AcDbLine
 62
250
  6
CONTINUOUS
 10
3.1937345458
 20
-22.0226987122
 11
3.1971331281
 21
-21.9038039377
  0
LINE
  5
436
100
AcDbEntity
  8
0
100
AcDbLine
 62
250
  6
CONTINUOUS
 10
2.0506543031
 20
-0.4969580155
 11
2.0072828285
 21
-0.6524989883
  0
LWPOLYLINE
  5
437
100
AcDbEntity
  8
0
100
AcDbPolyline
 62
7
  6
CONTINUOUS
 90
22
 70
0
 10
2.5138633148
 20
-0.7351351351
 10
2.453634323
 20
-0.8767120554
 10
2.3853485915
 20
-1.0147805385
 10
2.309322104
 20
-1.1487814197
 10
2.2258495512
 20
-1.2781981195
 10
2.1352452698
 20
-1.4024915816
 10
2.0378790843
 20
-1.5211176881
 10
1.9344920827
 20
-1.6334118398
 10
1.8253710574
 20
-1.739331152
 10
1.7101888716
 20
-1.8392304774
 10
1.5890723311
 20
-1.9328397208
 10
1.4626230297
 20
-2.0195066352
 10
1.3311553692
 20
-2.098963932
 10
1.1952910056
 20
-2.1708850941
 10
1.0554606022
 20
-2.235057819
 10
0.9117210641
 20
-2.2913764905
 10
0.7643095512
 20
-2.3395608531
 10
0.6140307678
 20
-2.3792056807
 10
0.4618143635
 20
-2.4101205291
 10
0.3083836682
 20
-2.4322434813
 10
0.154238038
 20
-2.4455527949
 10
0.0
 20
-2.45
  0
LWPOLYLINE
  5
438
100
AcDbEntity
  8
0
100
AcDbPolyline
 62
250
  6
CONTINUOUS
 90
19
 70
0
 10
2.3304601878
 20
-0.6590056897
 10
2.2573501744
 20
-0.7846477932
 10
2.1764280595
 20
-0.9057047783
 10
2.0879897018
 20
-1.0217540089
 10
1.992517538
 20
-1.1321736247
 10
1.8901371402
 20
-1.2367873891
 10
1.7805584219
 20
-1.3357909165
 10
1.6640232937
 20
-1.42886155
 10
1.5410123046
 20
-1.5154850523
 10
1.4115395729
 20
-1.5954543035
 10
1.2761877739
 20
-1.668178592
 10
1.1352108808
 20
-1.7334270041
 10
0.9880133865
 20
-1.7912940259
 10
0.8347675991
 20
-1.8413558298
 10
0.6762828548
 20
-1.8829580099
 10
0.5128880263
 20
-1.9156802958
 10
0.3451635418
 20
-1.9391883559
 10
0.1739327622
 20
-1.9531395924
 10
0.0
 20
-1.9572123903
  0
LWPOLYLINE
  5
439
100
AcDbEntity
  8
0
100
AcDbPolyline
 62
7
  6
CONTINUOUS
 90
10
 70
0
 10
2.6303442796
 20
-0.519948104
 10
2.6149357774
 20
-0.5422453264
 10
2.6000513126
 20
-0.5651155169
 10
2.5857330694
 20
-0.5884858036
 10
2.5720131982
 20
-0.6122991355
 10
2.5589357462
 20
-0.6364766875
 10
2.5465539041
 20
-0.6609147614
 10
2.5349018489
 20
-0.6855366621
 10
2.5239976645
 20
-0.7102956361
 10
2.5138633148
 20
-0.7351351351
  0
LWPOLYLINE
  5
43A
100
AcDbEntity
  8
0
100
AcDbPolyline
 62
250
  6
CONTINUOUS
 90
10
 70
0
 10
2.4487018674
 20
-0.4778397294
 10
2.4335609139
 20
-0.497899367
 10
2.4188903568
 20
-0.51804563
 10
2.4047117506
 20
-0.5382365487
 10
2.3910611929
 20
-0.5584067514
 10
2.3779369895
 20
-0.5785443703
 10
2.3653041072
 20
-0.5986942285
 10
2.3531627108
 20
-0.6188529852
 10
2.3415438636
 20
-0.6389658254
 10
2.3304601878
 20
-0.6590056897
  0
LWPOLYLINE
  5
43B
100
AcDbEntity
  8
0
100
AcDbPolyline
 62
7
  6
CONTINUOUS
 90
3
 70
0
 10
2.7168678007
 20
-0.4155892826
 10
2.6796811792
 20
-0.4563206517
 10
2.6303442796
 20
-0.519948104
  0
LWPOLYLINE
  5
43C
100
AcDbEntity
  8
0
100
AcDbPolyline
 62
7
  6
CONTINUOUS
 90
22
 70
0
 10
0.0
 20
2.45
 10
-0.1514603813
 20
2.4457250043
 10
-0.3025060896
 20
2.4329440546
 10
-0.4526520683
 20
2.4117236114
 10
-0.6013713511
 20
2.3821395646
 10
-0.7482130878
 20
2.3442549013
 10
-0.8927996887
 20
2.2981058273
 10
-1.0347149936
 20
2.2438148256
 10
-1.1734563218
 20
2.1815960495
 10
-1.3085307642
 20
2.1116730711
 10
-1.439466067
 20
2.0342676734
 10
-1.5658220277
 20
1.9495858413
 10
-1.6871942644
 20
1.857884589
 10
-1.8031791542
 20
1.7595316075
 10
-1.9134577575
 20
1.6548348294
 10
-2.0177810348
 20
1.5440053747
 10
-2.115839641
 20
1.4272658153
 10
-2.2071770017
 20
1.305066652
 10
-2.2913986881
 20
1.1780096693
 10
-2.3682373704
 20
1.0466029221
 10
-2.4375041915
 20
0.9112293194
 10
-2.4989651867
 20
0.7723370264
  0
LWPOLYLINE
  5
43D
100
AcDbEntity
  8
0
100
AcDbPolyline
 62
7
  6
CONTINUOUS
 90
3
 70
0
 10
2.7168678007
 20
0.4155892826
 10
2.6796811792
 20
0.4563206517
 10
2.6303442796
 20
0.519948104
  0
LWPOLYLINE
  5
43E
100
AcDbEntity
  8
0
100
AcDbPolyline
 62
250
  6
CONTINUOUS
 90
10
 70
0
 10
2.4487018674
 20
0.4778397294
 10
2.4335609139
 20
0.497899367
 10
2.4188903568
 20
0.51804563
 10
2.4047117506
 20
0.5382365487
 10
2.3910611929
 20
0.5584067514
 10
2.3779369895
 20
0.5785443703
 10
2.3653041072
 20
0.5986942285
 10
2.3531627108
 20
0.6188529852
 10
2.3415438636
 20
0.6389658254
 10
2.3304601878
 20
0.6590056897
  0
LWPOLYLINE
  5
43F
100
AcDbEntity
  8
0
100
AcDbPolyline
 62
7
  6
CONTINUOUS
 90
10
 70
0
 10
2.6303442796
 20
0.519948104
 10
2.6149357774
 20
0.5422453264
 10
2.6000513126
 20
0.5651155169
 10
2.5857330694
 20
0.5884858036
 10
2.5720131982
 20
0.6122991355
 10
2.5589357462
 20
0.6364766875
 10
2.5465539041
 20
0.6609147614
 10
2.5349018489
 20
0.6855366621
 10
2.5239976645
 20
0.7102956361
 10
2.5138633148
 20
0.7351351351
  0
LWPOLYLINE
  5
440
100
AcDbEntity
  8
0
100
AcDbPolyline
 62
250
  6
CONTINUOUS
 90
19
 70
0
 10
2.3304601878
 20
0.6590056897
 10
2.2573501744
 20
0.7846477932
 10
2.1764280595
 20
0.9057047783
 10
2.0879897018
 20
1.0217540089
 10
1.992517538
 20
1.1321736247
 10
1.8901371402
 20
1.2367873891
 10
1.7805584219
 20
1.3357909165
 10
1.6640232937
 20
1.42886155
 10
1.5410123046
 20
1.5154850523
 10
1.4115395729
 20
1.5954543035
 10
1.2761877739
 20
1.668178592
 10
1.1352108808
 20
1.7334270041
 10
0.9880133865
 20
1.7912940259
 10
0.8347675991
 20
1.8413558298
 10
0.6762828548
 20
1.8829580099
 10
0.5128880263
 20
1.9156802958
 10
0.3451635418
 20
1.9391883559
 10
0.1739327622
 20
1.9531395924
 10
0.0
 20
1.9572123903
  0
LWPOLYLINE
  5
441
100
AcDbEntity
  8
RACCORDO
100
AcDbPolyline
 62
7
  6
CONTINUOUS
 90
10
 70
0
 10
-7.9764881122
 20
19.9432372817
 10
-7.9715181567
 20
19.9341515341
 10
-7.9613737042
 20
19.9091955895
 10
-7.9460547546
 20
19.8697646568
 10
-7.9246756561
 20
19.8176800446
 10
-7.8981220606
 20
19.7550001816
 10
-7.8690509233
 20
19.6838609632
 10
-7.8383478963
 20
19.6065665276
 10
-7.8051273275
 20
19.5255704402
 10
-7.769389217
 20
19.4432563202
  0
LWPOLYLINE
  5
442
100
AcDbEntity
  8
0
100
AcDbPolyline
 62
7
  6
CONTINUOUS
 90
22
 70
0
 10
2.5138633148
 20
0.7351351351
 10
2.453634323
 20
0.8767120554
 10
2.3853485915
 20
1.0147805385
 10
2.309322104
 20
1.1487814197
 10
2.2258495512
 20
1.2781981195
 10
2.1352452698
 20
1.4024915816
 10
2.0378790843
 20
1.5211176881
 10
1.9344920827
 20
1.6334118398
 10
1.8253710574
 20
1.739331152
 10
1.7101888716
 20
1.8392304774
 10
1.5890723311
 20
1.9328397208
 10
1.4626230297
 20
2.0195066352
 10
1.3311553692
 20
2.098963932
 10
1.1952910056
 20
2.1708850941
 10
1.0554606022
 20
2.235057819
 10
0.9117210641
 20
2.2913764905
 10
0.7643095512
 20
2.3395608531
 10
0.6140307678
 20
2.3792056807
 10
0.4618143635
 20
2.4101205291
 10
0.3083836682
 20
2.4322434813
 10
0.154238038
 20
2.4455527949
 10
0.0
 20
2.45
  0
LWPOLYLINE
  5
443
100
AcDbEntity
  8
RACCORDO
100
AcDbPolyline
 62
7
  6
CONTINUOUS
 90
7
 70
0
 10
-5.0472172711
 20
20.15
 10
-5.047244066
 20
20.1500737963
 10
-5.0472708315
 20
20.150294455
 10
-5.0472975673
 20
20.1506619759
 10
-5.0473242411
 20
20.1511748401
 10
-5.0473508852
 20
20.1518345666
 10
-5.0473775979
 20
20.1526457126
  0
LWPOLYLINE
  5
444
100
AcDbEntity
  8
RACCORDO
100
AcDbPolyline
 62
250
  6
CONTINUOUS
 90
10
 70
0
 10
3.017150432
 20
20.4175073626
 10
3.0199892282
 20
20.3839240234
 10
3.0284260735
 20
20.351294372
 10
3.0422213816
 20
20.3205450137
 10
3.060983398
 20
20.292549158
 10
3.0841793258
 20
20.2681018213
 10
3.1111504551
 20
20.2478972503
 10
3.1411308692
 20
20.2325092075
 10
3.1732691951
 20
20.222374677
 10
3.2066527798
 20
20.2177814557
  0
LWPOLYLINE
  5
445
100
AcDbEntity
  8
RACCORDO
100
AcDbPolyline
 62
250
  6
CONTINUOUS
 90
8
 70
0
 10
3.2097018076
 20
20.4074161726
 10
3.2125405782
 20
20.3738329837
 10
3.2209773615
 20
20.341203432
 10
3.2347725938
 20
20.3104541187
 10
3.2535345444
 20
20.2824582547
 10
3.2767304349
 20
20.2580108686
 10
3.3037015642
 20
20.2378062269
 10
3.3154213212
 20
20.2310224905
  0
LWPOLYLINE
  5
446
100
AcDbEntity
  8
RACCORDO
100
AcDbPolyline
 62
250
  6
CONTINUOUS
 90
5
 70
0
 10
3.3898308383
 20
22.3125666122
 10
3.387099884
 20
22.3752049746
 10
3.3842087071
 20
22.4270494044
 10
3.3811597324
 20
22.4663812037
 10
3.377950535
 20
22.4912985233
  0
LINE
  5
447
100
AcDbEntity
  8
RACCORDO
100
AcDbLine
 62
250
  6
CONTINUOUS
 10
3.3923942955
 20
22.2404295918
 11
3.3898308383
 21
22.3125666122
  0
LWPOLYLINE
  5
448
100
AcDbEntity
  8
RACCORDO
100
AcDbPolyline
 62
250
  6
CONTINUOUS
 90
8
 70
0
 10
3.1948105308
 20
21.9881501282
 10
3.1924189984
 20
22.0613418832
 10
3.1898545149
 20
22.1274058341
 10
3.1871224935
 20
22.1860177359
 10
3.1842313476
 20
22.2330007838
 10
3.1811838815
 20
22.2669627097
 10
3.177977291
 20
22.2892957818
 10
3.1746115759
 20
22.3
  0
LINE
  5
449
100
AcDbEntity
  8
RACCORDO
100
AcDbLine
 62
250
  6
CONTINUOUS
 10
3.3990336007
 20
18.9994907927
 11
3.3827736845
 21
19.537309873
  0
LINE
  5
44A
100
AcDbEntity
  8
RACCORDO
100
AcDbLine
 62
250
  6
CONTINUOUS
 10
3.3970086518
 20
22.0734268395
 11
3.3923942955
 21
22.2404295918
  0
LINE
  5
44B
100
AcDbEntity
  8
RACCORDO
100
AcDbLine
 62
7
  6
CONTINUOUS
 10
4.5104743686
 20
-20.6547619048
 11
4.506068062
 21
-20.4930536219
  0
LWPOLYLINE
  5
44C
100
AcDbEntity
  8
RACCORDO
100
AcDbPolyline
 62
7
  6
CONTINUOUS
 90
3
 70
0
 10
5.0473775979
 20
-20.1526457126
 10
5.0474312937
 20
-20.1547253013
 10
5.0474582443
 20
-20.1559922249
  0
LWPOLYLINE
  5
44D
100
AcDbEntity
  8
RACCORDO
100
AcDbPolyline
 62
7
  6
CONTINUOUS
 90
6
 70
0
 10
4.506068062
 20
-20.4930536219
 10
4.5012358975
 20
-20.27599054
 10
4.500269912
 20
-20.2226434126
 10
4.4997686199
 20
-20.1828600812
 10
4.4996786493
 20
-20.1583028054
 10
4.5
 20
-20.15
  0
LINE
  5
44E
100
AcDbEntity
  8
RACCORDO
100
AcDbLine
 62
250
  6
CONTINUOUS
 10
4.5017422902
 20
20.15
 11
4.5017422902
 21
20.1
  0
LINE
  5
44F
100
AcDbEntity
  8
RACCORDO
100
AcDbLine
 62
250
  6
CONTINUOUS
 10
4.5017422902
 20
19.7
 11
4.5017422902
 21
19.65
  0
LINE
  5
450
100
AcDbEntity
  8
RACCORDO
100
AcDbLine
 62
250
  6
CONTINUOUS
 10
4.5017422902
 20
-19.65
 11
4.5017422902
 21
-19.7
  0
LINE
  5
451
100
AcDbEntity
  8
RACCORDO
100
AcDbLine
 62
250
  6
CONTINUOUS
 10
4.5017422902
 20
-20.1
 11
4.5017422902
 21
-20.15
  0
LINE
  5
452
100
AcDbEntity
  8
RACCORDO
100
AcDbLine
 62
250
  6
CONTINUOUS
 10
4.75
 20
-19.7
 11
4.75
 21
-20.1
  0
LINE
  5
453
100
AcDbEntity
  8
RACCORDO
100
AcDbLine
 62
250
  6
CONTINUOUS
 10
4.75
 20
19.7
 11
4.75
 21
20.1
  0
LINE
  5
454
100
AcDbEntity
  8
RACCORDO
100
AcDbLine
 62
7
  6
CONTINUOUS
 10
4.9
 20
-19.7
 11
4.9
 21
-20.1
  0
LINE
  5
455
100
AcDbEntity
  8
RACCORDO
100
AcDbLine
 62
7
  6
CONTINUOUS
 10
4.9
 20
19.7
 11
4.9
 21
20.1
  0
LINE
  5
456
100
AcDbEntity
  8
RACCORDO
100
AcDbLine
 62
7
  6
CONTINUOUS
 10
5.001739244
 20
20.15
 11
5.001739244
 21
19.65
  0
LINE
  5
457
100
AcDbEntity
  8
RACCORDO
100
AcDbLine
 62
7
  6
CONTINUOUS
 10
5.001739244
 20
-19.65
 11
5.001739244
 21
-20.15
  0
LINE
  5
458
100
AcDbEntity
  8
RACCORDO
100
AcDbLine
 62
7
  6
CONTINUOUS
 10
5.0474780224
 20
-20.0
 11
5.0474780224
 21
-18.9423904876
  0
LINE
  5
459
100
AcDbEntity
  8
RACCORDO
100
AcDbLine
 62
7
  6
CONTINUOUS
 10
5.0474780224
 20
18.9423904876
 11
5.0474780224
 21
20.0
  0
LINE
  5
45A
100
AcDbEntity
  8
RACCORDO
100
AcDbLine
 62
250
  6
CONTINUOUS
 10
5.0474780224
 20
20.0
 11
5.0474582447
 21
20.1559921998
  0
LINE
  5
45B
100
AcDbEntity
  8
RACCORDO
100
AcDbLine
 62
250
  6
CONTINUOUS
 10
5.4474755854
 20
18.9389119255
 11
5.4474755854
 21
20.0
  0
LINE
  5
45C
100
AcDbEntity
  8
RACCORDO
100
AcDbLine
 62
250
  6
CONTINUOUS
 10
5.4474755854
 20
20.0
 11
5.447219708
 21
20.6547619048
  0
LINE
  5
45D
100
AcDbEntity
  8
RACCORDO
100
AcDbLine
 62
250
  6
CONTINUOUS
 10
5.0474582443
 20
-20.1559922249
 11
5.0474780224
 21
-20.0
  0
LINE
  5
45E
100
AcDbEntity
  8
RACCORDO
100
AcDbLine
 62
250
  6
CONTINUOUS
 10
5.4474681035
 20
-20.1103783908
 11
5.4474755854
 21
-18.9389119255
  0
LWPOLYLINE
  5
45F
100
AcDbEntity
  8
RACCORDO
100
AcDbPolyline
 62
250
  6
CONTINUOUS
 90
3
 70
0
 10
5.447219708
 20
-20.6547619048
 10
5.4472975185
 20
-20.547597069
 10
5.4474681035
 20
-20.1103783908
  0
LWPOLYLINE
  5
460
100
AcDbEntity
  8
RACCORDO
100
AcDbPolyline
 62
7
  6
CONTINUOUS
 90
4
 70
0
 10
4.5002696929
 20
20.2226296213
 10
4.4997683652
 20
20.1828505558
 10
4.4996784676
 20
20.1582995628
 10
4.5
 20
20.15
  0
LINE
  5
461
100
AcDbEntity
  8
RACCORDO
100
AcDbLine
 62
7
  6
CONTINUOUS
 10
4.5042422566
 20
20.4140731871
 11
4.5002696929
 21
20.2226296213
  0
LWPOLYLINE
  5
462
100
AcDbEntity
  8
RACCORDO
100
AcDbPolyline
 62
7
  6
CONTINUOUS
 90
9
 70
0
 10
5.0474582447
 20
20.1559921998
 10
5.047404409
 20
20.153609701
 10
5.0473775947
 20
20.1526456074
 10
5.0473508822
 20
20.1518344778
 10
5.0473242387
 20
20.1511747855
 10
5.0472975658
 20
20.1506619496
 10
5.0472708304
 20
20.1502944433
 10
5.0472440655
 20
20.1500737934
 10
5.0472172711
 20
20.15
  0
LINE
  5
463
100
AcDbEntity
  8
RACCORDO
100
AcDbLine
 62
250
  6
CONTINUOUS
 10
3.3937043735
 20
-22.1983300138
 11
3.3971029901
 21
-22.0694814544
  0
LWPOLYLINE
  5
464
100
AcDbEntity
  8
RACCORDO
100
AcDbPolyline
 62
7
  6
CONTINUOUS
 90
3
 70
0
 10
4.5104743686
 20
20.6547619048
 10
4.508145937
 20
20.5744306183
 10
4.5042422566
 20
20.4140731871
  0
LINE
  5
465
100
AcDbEntity
  8
RACCORDO
100
AcDbLine
 62
250
  6
CONTINUOUS
 10
3.3827736845
 20
-19.537309873
 11
3.3990336007
 21
-18.9994907927
  0
LINE
  5
466
100
AcDbEntity
  8
RACCORDO
100
AcDbLine
 62
250
  6
CONTINUOUS
 10
3.3903259884
 20
-22.2997169306
 11
3.3937043735
 21
-22.1983300138
  0
LWPOLYLINE
  5
467
100
AcDbEntity
  8
RACCORDO
100
AcDbPolyline
 62
250
  6
CONTINUOUS
 90
10
 70
0
 10
3.3990336007
 20
-18.9994907927
 10
3.3995341968
 20
-18.989170824
 10
3.4000542384
 20
-18.9797664306
 10
3.4005937256
 20
-18.9713543758
 10
3.4011548908
 20
-18.9640029934
 10
3.4017355016
 20
-18.957799002
 10
3.4023288603
 20
-18.9528318725
 10
3.4029327345
 20
-18.9491631188
 10
3.4035493567
 20
-18.9468408792
 10
3.4041787268
 20
-18.945916185
  0
LWPOLYLINE
  5
468
100
AcDbEntity
  8
RACCORDO
100
AcDbPolyline
 62
250
  6
CONTINUOUS
 90
10
 70
0
 10
3.017150432
 20
-20.4175073626
 10
3.0199851761
 20
-20.3839478087
 10
3.0284118495
 20
-20.3513349212
 10
3.0421939811
 20
-20.3205944597
 10
3.060942299
 20
-20.2926005379
 10
3.0841272119
 20
-20.2681482183
 10
3.111094918
 20
-20.2479319696
 10
3.141082801
 20
-20.2325289635
 10
3.1732397442
 20
-20.2223812989
 10
3.2066526344
 20
-20.2177814633
  0
LWPOLYLINE
  5
469
100
AcDbEntity
  8
RACCORDO
100
AcDbPolyline
 62
250
  6
CONTINUOUS
 90
8
 70
0
 10
3.2097018076
 20
-20.4074161726
 10
3.2125406037
 20
-20.3738328334
 10
3.2209774491
 20
-20.341203182
 10
3.2347727571
 20
-20.3104538237
 10
3.2535347736
 20
-20.282457968
 10
3.2767307014
 20
-20.2580106313
 10
3.3037018306
 20
-20.2378060604
 10
3.3199778125
 20
-20.2286618605
  0
LWPOLYLINE
  5
46A
100
AcDbEntity
  8
RACCORDO
100
AcDbPolyline
 62
250
  6
CONTINUOUS
 90
8
 70
0
 10
3.1800025439
 20
-22.2791692206
 10
3.1817662176
 20
-22.2632363671
 10
3.1835134984
 20
-22.2428038637
 10
3.1852459766
 20
-22.217841592
 10
3.1869607604
 20
-22.1885666473
 10
3.1886607415
 20
-22.1547619342
 10
3.1903561851
 20
-22.115746049
 10
3.1937345458
 20
-22.0226987122
  0
LWPOLYLINE
  5
46B
100
AcDbEntity
  8
RACCORDO
100
AcDbPolyline
 62
250
  6
CONTINUOUS
 90
10
 70
0
 10
-3.2130415768
 20
-20.6653742379
 10
-3.2165897347
 20
-20.6753168258
 10
-3.2259800398
 20
-20.6849636799
 10
-3.2409331967
 20
-20.6940278746
 10
-3.2610044549
 20
-20.7022398142
 10
-3.2855968362
 20
-20.7093552514
 10
-3.3139788911
 20
-20.7151625524
 10
-3.3453064541
 20
-20.7194889911
 10
-3.3786477517
 20
-20.7222058863
 10
-3.4130111158
 20
-20.7232324298
  0
LWPOLYLINE
  5
46C
100
AcDbEntity
  8
RACCORDO
100
AcDbPolyline
 62
7
  6
CONTINUOUS
 90
10
 70
0
 10
-2.0087686396
 20
-11.045641368
 10
-1.9633713672
 20
-10.9911390492
 10
-1.9267435606
 20
-10.9333520956
 10
-1.8988852197
 20
-10.8722805073
 10
-1.8796085907
 20
-10.806644627
 10
-1.8691014274
 20
-10.737724112
 10
-1.8679269912
 20
-10.6693579338
 10
-1.8762730358
 20
-10.6028257497
 10
-1.8939518074
 20
-10.5368479024
 10
-1.920963306
 20
-10.471424392
  0
LWPOLYLINE
  5
46D
100
AcDbEntity
  8
RACCORDO
100
AcDbPolyline
 62
250
  6
CONTINUOUS
 90
10
 70
0
 10
-3.2130415768
 20
20.6653742379
 10
-3.2165895931
 20
20.6753168411
 10
-3.2259797958
 20
20.6849637166
 10
-3.2409328911
 20
20.6940279366
 10
-3.2610041276
 20
20.7022399028
 10
-3.2855965241
 20
20.7093553659
 10
-3.3139786264
 20
20.7151626899
 10
-3.3453062627
 20
20.7194891468
 10
-3.3786476514
 20
20.7222060544
 10
-3.4130111162
 20
20.7232326035
  0
LWPOLYLINE
  5
46E
100
AcDbEntity
  8
RACCORDO
100
AcDbPolyline
 62
7
  6
CONTINUOUS
 90
10
 70
0
 10
4.5104743686
 20
19.5964101615
 10
4.5092657905
 20
19.6074521555
 10
4.5080517165
 20
19.6172951479
 10
4.5068403908
 20
19.6259017304
 10
4.5056433317
 20
19.6332386178
 10
4.5044654823
 20
19.6392764829
 10
4.5033051847
 20
19.6439899752
 10
4.5021672466
 20
19.6473583085
 10
4.5010629094
 20
19.649365486
 10
4.5
 20
19.65
  0
LINE
  5
46F
100
AcDbEntity
  8
RACCORDO
100
AcDbLine
 62
7
  6
CONTINUOUS
 10
5.9389119255
 20
-20.0
 11
5.9389119255
 21
-19.4432563202
  0
LINE
  5
470
100
AcDbEntity
  8
RACCORDO
100
AcDbLine
 62
7
  6
CONTINUOUS
 10
5.9389119255
 20
19.4432563202
 11
5.9389119255
 21
20.0
  0
LINE
  5
471
100
AcDbEntity
  8
0
100
AcDbLine
 62
7
  6
CONTINUOUS
 10
6.0
 20
25.0999999838
 11
6.0
 21
25.0513126297
  0
LINE
  5
472
100
AcDbEntity
  8
SMUSSO
100
AcDbLine
 62
7
  6
CONTINUOUS
 10
6.0
 20
25.0513126297
 11
6.0
 21
22.5230369861
  0
LINE
  5
473
100
AcDbEntity
  8
SMUSSO
100
AcDbLine
 62
7
  6
CONTINUOUS
 10
6.0
 20
22.5230369861
 11
6.0
 21
22.1448295558
  0
LINE
  5
474
100
AcDbEntity
  8
0
100
AcDbLine
 62
7
  6
CONTINUOUS
 10
6.0
 20
-25.0999999838
 11
6.0
 21
-25.0513126297
  0
LINE
  5
475
100
AcDbEntity
  8
SMUSSO
100
AcDbLine
 62
7
  6
CONTINUOUS
 10
6.0
 20
-25.0513126297
 11
6.0
 21
-22.5230369861
  0
LINE
  5
476
100
AcDbEntity
  8
SMUSSO
100
AcDbLine
 62
7
  6
CONTINUOUS
 10
6.0
 20
-22.5230369861
 11
6.0
 21
-22.1448295558
  0
LINE
  5
477
100
AcDbEntity
  8
DRAFT
100
AcDbLine
 62
7
  6
CONTINUOUS
 10
6.0
 20
-20.0
 11
6.0
 21
-20.7642198421
  0
LINE
  5
478
100
AcDbEntity
  8
DRAFT
100
AcDbLine
 62
7
  6
CONTINUOUS
 10
6.0
 20
20.0
 11
6.0
 21
20.7642198421
  0
LINE
  5
479
100
AcDbEntity
  8
RACCORDO
100
AcDbLine
 62
250
  6
CONTINUOUS
 10
6.9912642038
 20
-17.9912550412
 11
6.9912641797
 21
17.9912550412
  0
LWPOLYLINE
  5
47A
100
AcDbEntity
  8
RACCORDO
100
AcDbPolyline
 62
7
  6
CONTINUOUS
 90
9
 70
0
 10
2.9
 20
-20.3868865274
 10
2.9066198219
 20
-20.3584900486
 10
2.919128942
 20
-20.3274295551
 10
2.9361527286
 20
-20.2991130288
 10
2.9572196271
 20
-20.2743988633
 10
2.9817268164
 20
-20.2540521796
 10
3.0089694926
 20
-20.238724716
 10
3.0381590198
 20
-20.2289308644
 10
3.0684329198
 20
-20.225025225
  0
LWPOLYLINE
  5
47B
100
AcDbEntity
  8
RACCORDO
100
AcDbPolyline
 62
7
  6
CONTINUOUS
 90
10
 70
0
 10
1.920963306
 20
-10.471424392
 10
1.893929015
 20
-10.5370033214
 10
1.87624401
 20
-10.6030942819
 10
1.867908291
 20
-10.6696972735
 10
1.869124093
 20
-10.738087352
 10
1.879689181
 20
-10.8069894616
 10
1.8989968501
 20
-10.8725784347
 10
1.9268448654
 20
-10.9335792155
 10
1.9634354619
 20
-10.99126686
 10
2.0087686396
 20
-11.045641368
  0
LWPOLYLINE
  5
47C
100
AcDbEntity
  8
RACCORDO
100
AcDbPolyline
 62
250
  6
CONTINUOUS
 90
16
 70
0
 10
1.9351567663
 20
-10.4706092827
 10
1.9220830528
 20
-10.4988431475
 10
1.9103685431
 20
-10.5290329397
 10
1.9002920953
 20
-10.5611408622
 10
1.892158145
 20
-10.5950261085
 10
1.8862397527
 20
-10.630654679
 10
1.8828271792
 20
-10.6681045838
 10
1.88227417
 20
-10.7072135383
 10
1.884935301
 20
-10.7477272076
 10
1.8911847803
 20
-10.789512025
 10
1.9013993626
 20
-10.8322383132
 10
1.9159184156
 20
-10.8754425753
 10
1.9350763006
 20
-10.9186788183
 10
1.9591559101
 20
-10.9613810914
 10
1.988355206
 20
-11.0028714829
 10
2.0227981507
 20
-11.0424228321
  0
LWPOLYLINE
  5
47D
100
AcDbEntity
  8
RACCORDO
100
AcDbPolyline
 62
250
  6
CONTINUOUS
 90
16
 70
0
 10
2.2032758711
 20
-10.6050887712
 10
2.1978539905
 20
-10.6164241935
 10
2.1932048875
 20
-10.628490895
 10
2.1893285622
 20
-10.6412888757
 10
2.1861000521
 20
-10.6548479286
 10
2.1836443197
 20
-10.6691382607
 10
2.1823362523
 20
-10.6840704928
 10
2.1821568974
 20
-10.6997137994
 10
2.1831252074
 20
-10.715999006
 10
2.1856729273
 20
-10.7326292107
 10
2.1898204407
 20
-10.7497000523
 10
2.195547364
 20
-10.767115892
 10
2.2032242906
 20
-10.7842929109
 10
2.2129747519
 20
-10.8010365028
 10
2.2246752165
 20
-10.817541274
 10
2.2383256845
 20
-10.8338072243
  0
LWPOLYLINE
  5
47E
100
AcDbEntity
  8
RACCORDO
100
AcDbPolyline
 62
250
  6
CONTINUOUS
 90
16
 70
0
 10
-2.0227812997
 20
-11.0424054156
 10
-2.001839543
 20
-11.0193667631
 10
-1.9816114547
 20
-10.9940539416
 10
-1.9623745598
 20
-10.9664197246
 10
-1.9444612389
 20
-10.9365068886
 10
-1.928142769
 20
-10.904266996
 10
-1.9136736441
 20
-10.8695411242
 10
-1.90143944
 20
-10.8323783698
 10
-1.8918542175
 20
-10.792916026
 10
-1.8853147668
 20
-10.7511731823
 10
-1.8822770846
 20
-10.7073292925
 10
-1.8832066552
 20
-10.6617478696
 10
-1.8885429053
 20
-10.6148251899
 10
-1.8986967336
 20
-10.5670352616
 10
-1.9140386917
 20
-10.5189320265
 10
-1.9348826263
 20
-10.4711568909
  0
LWPOLYLINE
  5
47F
100
AcDbEntity
  8
RACCORDO
100
AcDbPolyline
 62
250
  6
CONTINUOUS
 90
16
 70
0
 10
-2.2383256845
 20
-10.8338072243
 10
-2.2297536056
 20
-10.8246102473
 10
-2.2217007721
 20
-10.8144838455
 10
-2.214167184
 20
-10.8034280191
 10
-2.2070245874
 20
-10.7914512757
 10
-2.2004012363
 20
-10.7785451077
 10
-2.1946818921
 20
-10.7646839919
 10
-2.1898282155
 20
-10.7498075146
 10
-2.1858785459
 20
-10.7339760895
 10
-2.1833326628
 20
-10.7173454349
 10
-2.182181625
 20
-10.6998193217
 10
-2.1824343737
 20
-10.6814939788
 10
-2.1846175123
 20
-10.6628138119
 10
-2.1889065753
 20
-10.6439269558
 10
-2.1951260283
 20
-10.6246852756
 10
-2.2032758711
 20
-10.6050887712
  0
LWPOLYLINE
  5
480
100
AcDbEntity
  8
0
100
AcDbPolyline
 62
7
  6
CONTINUOUS
 90
10
 70
0
 43
0.3500000006
 10
17.749999752
 20
0.8571421509
 10
17.8928575859
 20
0.9285710678
 10
17.9642853699
 20
0.9285710678
 10
18.1071432037
 20
0.7857132339
 10
18.1071432037
 20
0.7142865829
 10
18.0357142868
 20
0.642857666
 10
17.9642853699
 20
0.642857666
 10
17.821428669
 20
0.7142865829
 10
17.749999752
 20
0.7857132339
 10
17.749999752
 20
0.8571421509
  0
LWPOLYLINE
  5
481
100
AcDbEntity
  8
0
100
AcDbPolyline
 62
7
  6
CONTINUOUS
 90
3
 70
0
 43
0.3500000006
 10
17.9642853699
 20
0.9285710678
 10
18.1785709877
 20
0.8571421509
 10
18.4642855225
 20
0.7142865829
  0
LWPOLYLINE
  5
482
100
AcDbEntity
  8
RACCORDO
100
AcDbPolyline
 62
7
  6
CONTINUOUS
 90
9
 70
0
 10
2.9
 20
20.3870740584
 10
2.9068852516
 20
20.3578442993
 10
2.9194443489
 20
20.3268314282
 10
2.9363817143
 20
20.2987548905
 10
2.957180689
 20
20.2743938399
 10
2.9812132958
 20
20.2544099568
 10
3.0077684465
 20
20.2393250255
 10
3.0360766447
 20
20.2295115963
 10
3.0653274489
 20
20.22518938
  0
LWPOLYLINE
  5
483
100
AcDbEntity
  8
RACCORDO
100
AcDbPolyline
 62
250
  6
CONTINUOUS
 90
10
 70
0
 10
3.3827736845
 20
19.537309873
 10
3.3815437461
 20
19.5471741971
 10
3.3802653535
 20
19.5563527792
 10
3.3789456775
 20
19.5647249829
 10
3.3775997172
 20
19.5721586968
 10
3.3762303795
 20
19.5785348858
 10
3.3748288825
 20
19.5837349533
 10
3.3734014362
 20
19.5876153057
 10
3.3719689226
 20
19.5900222482
 10
3.3705471896
 20
19.5908078864
  0
LINE
  5
484
100
AcDbEntity
  8
RACCORDO
100
AcDbLine
 62
7
  6
CONTINUOUS
 10
8.4912550412
 20
-16.4912641797
 11
8.4912550412
 21
16.4912641797
  0
LWPOLYLINE
  5
485
100
AcDbEntity
  8
RACCORDO
100
AcDbPolyline
 62
7
  6
CONTINUOUS
 90
5
 70
0
 10
-5.1652649442
 20
-20.3321518849
 10
-5.1213714488
 20
-20.2732651865
 10
-5.088117099
 20
-20.2212495683
 10
-5.0634789804
 20
-20.1807576863
 10
-5.047457093
 20
-20.1559444075
  0
LINE
  5
486
100
AcDbEntity
  8
RACCORDO
100
AcDbLine
 62
250
  6
CONTINUOUS
 10
2.2383256845
 20
-10.8338072246
 11
2.0227813019
 21
-11.0424054178
  0
LINE
  5
487
100
AcDbEntity
  8
RACCORDO
100
AcDbLine
 62
250
  6
CONTINUOUS
 10
-2.2032758711
 20
-10.6050887712
 11
-1.9351567663
 21
-10.4706092827
  0
LWPOLYLINE
  5
488
100
AcDbEntity
  8
DRAFT
100
AcDbPolyline
 62
250
  6
CONTINUOUS
 90
7
 70
0
 10
1.8337035584
 20
8.3838617247
 10
1.1534931932
 20
8.3176771593
 10
0.73990842
 20
8.278139163
 10
0.3221377623
 20
8.2386651149
 10
-0.0998194692
 20
8.1993295701
 10
-0.5259916576
 20
8.1603159225
 10
-0.9563913115
 20
8.1216975806
  0
LINE
  5
489
100
AcDbEntity
  8
DRAFT
100
AcDbLine
 62
250
  6
CONTINUOUS
 10
-0.9563913115
 20
8.1216975806
 11
-1.6006899927
 21
8.0653378362
  0
LINE
  5
48A
100
AcDbEntity
  8
0
100
AcDbLine
 62
250
  6
CONTINUOUS
 10
2.1116064104
 20
9.3000002079
 11
2.1393765985
 21
9.3000002688
  0
LINE
  5
48B
100
AcDbEntity
  8
RACCORDO
100
AcDbLine
 62
250
  6
CONTINUOUS
 10
-2.2032758711
 20
10.6050887712
 11
-1.9351567663
 21
10.4706092827
  0
LINE
  5
48C
100
AcDbEntity
  8
RACCORDO
100
AcDbLine
 62
250
  6
CONTINUOUS
 10
2.2383256845
 20
10.8338072243
 11
2.0227812998
 21
11.0424054156
  0
LWPOLYLINE
  5
48D
100
AcDbEntity
  8
RACCORDO
100
AcDbPolyline
 62
7
  6
CONTINUOUS
 90
6
 70
0
 10
-5.2728312212
 20
20.4602371422
 10
-5.1652646722
 20
20.332152842
 10
-5.121371384
 20
20.2732663019
 10
-5.0881171162
 20
20.2212505166
 10
-5.0634790208
 20
20.1807583047
 10
-5.0474570977
 20
20.1559446436
  0
LWPOLYLINE
  5
48E
100
AcDbEntity
  8
RACCORDO
100
AcDbPolyline
 62
7
  6
CONTINUOUS
 90
13
 70
0
 10
8.4912550412
 20
16.4912641797
 10
8.4783441862
 20
16.6876274374
 10
8.4398860712
 20
16.8804344137
 10
8.3766114975
 20
17.0663867628
 10
8.2897036103
 20
17.242266087
 10
8.1806971258
 20
17.4051544052
 10
8.0513830324
 20
17.5524395473
 10
7.9039252479
 20
17.6816405316
 10
7.7408765014
 20
17.7905063438
 10
7.5650065721
 20
17.8771836811
 10
7.3793120231
 20
17.9401871413
 10
7.1869690965
 20
17.9784309744
 10
6.9912641797
 20
17.9912550412
  0
LINE
  5
48F
100
AcDbEntity
  8
RACCORDO
100
AcDbLine
 62
250
  6
CONTINUOUS
 10
10.4432563202
 20
-16.769389217
 11
10.4432563202
 21
16.769389217
  0
LINE
  5
490
100
AcDbEntity
  8
RACCORDO
100
AcDbLine
 62
7
  6
CONTINUOUS
 10
10.9432372817
 20
-16.9764881122
 11
10.9432372817
 21
16.9764881122
  0
LINE
  5
491
100
AcDbEntity
  8
RACCORDO
100
AcDbLine
 62
7
  6
CONTINUOUS
 10
11.0
 20
15.500533067
 11
11.0
 21
-15.500533067
  0
LINE
  5
492
100
AcDbEntity
  8
DRAFT
100
AcDbLine
 62
7
  6
CONTINUOUS
 10
11.0
 20
17.0
 11
11.0
 21
-17.0
  0
LWPOLYLINE
  5
493
100
AcDbEntity
  8
RACCORDO
100
AcDbPolyline
 62
7
  6
CONTINUOUS
 90
5
 70
0
 10
-5.447219708
 20
-20.6547619048
 10
-5.3865429462
 20
-20.592467904
 10
-5.3284136718
 20
-20.5270500029
 10
-5.2728318848
 20
-20.4602370208
 10
-5.1652649442
 20
-20.3321518849
  0
LINE
  5
494
100
AcDbEntity
  8
RACCORDO
100
AcDbLine
 62
7
  6
CONTINUOUS
 10
-5.9432372817
 20
-19.9432372817
 11
-6.0
 21
-20.0
  0
LWPOLYLINE
  5
495
100
AcDbEntity
  8
RACCORDO
100
AcDbPolyline
 62
7
  6
CONTINUOUS
 90
10
 70
0
 10
-10.9432372817
 20
-16.9764881122
 10
-10.9341515341
 20
-16.9715181567
 10
-10.9091955895
 20
-16.9613737042
 10
-10.8697646568
 20
-16.9460547546
 10
-10.8176800446
 20
-16.9246756561
 10
-10.7550001816
 20
-16.8981220606
 10
-10.6838609632
 20
-16.8690509233
 10
-10.6065665276
 20
-16.8383478963
 10
-10.5255704402
 20
-16.8051273275
 10
-10.4432563202
 20
-16.769389217
  0
LINE
  5
496
100
AcDbEntity
  8
RACCORDO
100
AcDbLine
 62
250
  6
CONTINUOUS
 10
-1.9209633061
 20
10.4714243916
 11
-1.9351567663
 21
10.4706092827
  0
LINE
  5
497
100
AcDbEntity
  8
RACCORDO
100
AcDbLine
 62
250
  6
CONTINUOUS
 10
1.9209633061
 20
10.4714243916
 11
1.9348821149
 21
10.471156677
  0
LINE
  5
498
100
AcDbEntity
  8
RACCORDO
100
AcDbLine
 62
7
  6
CONTINUOUS
 10
-5.9432372817
 20
19.9432372817
 11
-6.0
 21
20.0
  0
LWPOLYLINE
  5
499
100
AcDbEntity
  8
RACCORDO
100
AcDbPolyline
 62
7
  6
CONTINUOUS
 90
4
 70
0
 10
-5.447219708
 20
20.6547619048
 10
-5.3865425847
 20
20.5924678022
 10
-5.3284130891
 20
20.5270499421
 10
-5.2728312212
 20
20.4602371422
  0
LWPOLYLINE
  5
49A
100
AcDbEntity
  8
RACCORDO
100
AcDbPolyline
 62
250
  6
CONTINUOUS
 90
9
 70
0
 10
-3.2097018076
 20
-20.4074161726
 10
-3.2099212114
 20
-20.4076599915
 10
-3.2101451393
 20
-20.4088955501
 10
-3.2103735911
 20
-20.4111228484
 10
-3.210607882
 20
-20.4142546011
 10
-3.210846697
 20
-20.4183780935
 10
-3.2110860907
 20
-20.4237551818
 10
-3.2113271531
 20
-20.4303974269
 10
-3.2115687943
 20
-20.4382932679
  0
LINE
  5
49B
100
AcDbEntity
  8
RACCORDO
100
AcDbLine
 62
7
  6
CONTINUOUS
 10
-10.9432372817
 20
-16.9764881122
 11
-11.0
 21
-17.0
  0
LINE
  5
49C
100
AcDbEntity
  8
RACCORDO
100
AcDbLine
 62
250
  6
CONTINUOUS
 10
-2.0087686396
 20
11.045641368
 11
-2.0227981544
 21
11.0424228317
  0
LINE
  5
49D
100
AcDbEntity
  8
RACCORDO
100
AcDbLine
 62
250
  6
CONTINUOUS
 10
2.0087686396
 20
11.045641368
 11
2.0227812997
 21
11.0424054156
  0
LINE
  5
49E
100
AcDbEntity
  8
RACCORDO
100
AcDbLine
 62
7
  6
CONTINUOUS
 10
-10.9432372817
 20
16.9764881122
 11
-11.0
 21
17.0
  0
LINE
  5
49F
100
AcDbEntity
  8
0
100
AcDbLine
 62
7
  6
CONTINUOUS
 10
2.4757085024
 20
11.7362641921
 11
2.4942495002
 21
11.7280603145
  0
LINE
  5
4A0
100
AcDbEntity
  8
RACCORDO
100
AcDbLine
 62
250
  6
CONTINUOUS
 10
3.377950535
 20
22.4912985233
 11
3.3745811149
 21
22.5
  0
LWPOLYLINE
  5
4A1
100
AcDbEntity
  8
RACCORDO
100
AcDbPolyline
 62
250
  6
CONTINUOUS
 90
9
 70
0
 10
2.4360108253
 20
-19.0
 10
2.4339348427
 20
-19.0021900685
 10
2.4183955812
 20
-19.0147365874
 10
2.4007176714
 20
-19.0257627849
 10
2.3811890088
 20
-19.035090726
 10
2.3601541321
 20
-19.0425570488
 10
2.3379761987
 20
-19.0480371518
 10
2.3150271086
 20
-19.0514432141
 10
2.2916953758
 20
-19.0527207794
  0
LINE
  5
4A2
100
AcDbEntity
  8
0
100
AcDbLine
 62
250
  6
CONTINUOUS
 10
2.7094103971
 20
13.3000000829
 11
2.732387906
 21
13.3000001276
  0
LWPOLYLINE
  5
4A3
100
AcDbEntity
  8
RACCORDO
100
AcDbPolyline
 62
7
  6
CONTINUOUS
 90
10
 70
0
 10
-10.9432372817
 20
16.9764881122
 10
-10.9332983988
 20
16.9735778078
 10
-10.9084786698
 20
16.9631045012
 10
-10.8697646568
 20
16.9460547546
 10
-10.8178179688
 20
16.9243426776
 10
-10.7547203852
 20
16.8987975489
 10
-10.6838609632
 20
16.8690509233
 10
-10.607495225
 20
16.8361058225
 10
-10.5267318529
 20
16.8023234293
 10
-10.4432563202
 20
16.769389217
  0
LWPOLYLINE
  5
4A4
100
AcDbEntity
  8
RACCORDO
100
AcDbPolyline
 62
250
  6
CONTINUOUS
 90
7
 70
0
 10
-3.2578327218
 20
18.9478696784
 10
-3.2774863499
 20
18.9629067195
 10
-3.299212023
 20
18.97561465
 10
-3.3226393542
 20
18.9857768491
 10
-3.3473689527
 20
18.9932200974
 10
-3.3729792327
 20
18.9978175289
 10
-3.3990336007
 20
18.9994907927
  0
LWPOLYLINE
  5
4A5
100
AcDbEntity
  8
RACCORDO
100
AcDbPolyline
 62
250
  6
CONTINUOUS
 90
10
 70
0
 10
3.3745815911
 20
-22.4999999998
 10
3.3763948793
 20
-22.4974636557
 10
3.3781917978
 20
-22.4898945011
 10
3.3799723465
 20
-22.4773556718
 10
3.3817360026
 20
-22.4599659265
 10
3.383483289
 20
-22.4377834529
 10
3.3852157739
 20
-22.4106929528
 10
3.3869305576
 20
-22.3787744165
 10
3.3886305399
 20
-22.3419795318
 10
3.3903259884
 20
-22.2997169306
  0
LWPOLYLINE
  5
4A6
100
AcDbEntity
  8
RACCORDO
100
AcDbPolyline
 62
250
  6
CONTINUOUS
 90
4
 70
0
 10
3.1746115759
 20
-22.3
 10
3.176424958
 20
-22.2975560568
 10
3.1782219474
 20
-22.2906124636
 10
3.1800025439
 20
-22.2791692206
  0
LWPOLYLINE
  5
4A7
100
AcDbEntity
  8
RACCORDO
100
AcDbPolyline
 62
250
  6
CONTINUOUS
 90
10
 70
0
 10
3.1810448418
 20
-19.3910819795
 10
3.1812291614
 20
-19.3908896233
 10
3.1814167694
 20
-19.3900309859
 10
3.1816076659
 20
-19.3885060673
 10
3.181802516
 20
-19.3863615289
 10
3.1820006546
 20
-19.3835507092
 10
3.1822000864
 20
-19.3799336241
 10
3.1824001462
 20
-19.3754636122
 10
3.1826014993
 20
-19.3701873349
 10
3.1953132616
 20
-18.9503485794
  0
LWPOLYLINE
  5
4A8
100
AcDbEntity
  8
RACCORDO
100
AcDbPolyline
 62
7
  6
CONTINUOUS
 90
7
 70
0
 10
-2.9154665592
 20
-21.9548048235
 10
-2.9114180701
 20
-21.9518986863
 10
-2.9079688973
 20
-21.9489117284
 10
-2.9051114607
 20
-21.9458449721
 10
-2.9028822079
 20
-21.9427375348
 10
-2.9012932882
 20
-21.9396024559
 10
-2.9003325522
 20
-21.9364266961
  0
LWPOLYLINE
  5
4A9
100
AcDbEntity
  8
RACCORDO
100
AcDbPolyline
 62
7
  6
CONTINUOUS
 90
4
 70
0
 10
-3.2906034821
 20
-19.5694744326
 10
-3.305025279
 20
-19.5760801345
 10
-3.3371636049
 20
-19.586214665
 10
-3.3705471896
 20
-19.5908078864
  0
LINE
  5
4AA
100
AcDbEntity
  8
RACCORDO
100
AcDbLine
 62
250
  6
CONTINUOUS
 10
8.4912550412
 20
16.4912643347
 11
-8.4912550412
 21
16.4912641797
  0
LWPOLYLINE
  5
4AB
100
AcDbEntity
  8
RACCORDO
100
AcDbPolyline
 62
7
  6
CONTINUOUS
 90
4
 70
0
 10
-3.2859514491
 20
19.567038775
 10
-3.3050251582
 20
19.5760800849
 10
-3.3371635327
 20
19.5862146488
 10
-3.3705471896
 20
19.5908078864
  0
LWPOLYLINE
  5
4AC
100
AcDbEntity
  8
0
100
AcDbPolyline
 62
7
  6
CONTINUOUS
 90
7
 70
0
 43
0.3500000006
 10
18.2499999046
 20
3.4285718307
 10
18.2499999046
 20
1.928571373
 10
16.1071425934
 20
3.4285718307
 10
15.6785713577
 20
3.4285718307
 10
15.2500001221
 20
3.0000005951
 10
15.2500001221
 20
2.3571426086
 10
15.8928569756
 20
1.928571373
  0
LWPOLYLINE
  5
4AD
100
AcDbEntity
  8
0
100
AcDbPolyline
 62
7
  6
CONTINUOUS
 90
8
 70
0
 43
0.3500000006
 10
18.2499999046
 20
-4.28571381
 10
18.2499999046
 20
-3.4285713387
 10
17.821428669
 20
-3.000000103
 10
16.9642861977
 20
-3.000000103
 10
16.535713829
 20
-3.4285713387
 10
16.535713829
 20
-4.28571381
 10
15.2500001221
 20
-4.28571381
 10
15.2500001221
 20
-3.000000103
  0
LINE
  5
4AE
100
AcDbEntity
  8
RACCORDO
100
AcDbLine
 62
7
  6
CONTINUOUS
 10
-3.017150432
 20
-20.7247966322
 11
-3.1502658806
 21
-20.7913492875
  0
LINE
  5
4AF
100
AcDbEntity
  8
RACCORDO
100
AcDbLine
 62
7
  6
CONTINUOUS
 10
3.017150432
 20
-19.0394232099
 11
3.1953132616
 21
-18.9503485794
  0
LWPOLYLINE
  5
4B0
100
AcDbEntity
  8
RACCORDO
100
AcDbPolyline
 62
7
  6
CONTINUOUS
 90
13
 70
0
 10
-6.9912641797
 20
17.9912550412
 10
-7.1869690965
 20
17.9784309744
 10
-7.3793120231
 20
17.9401871413
 10
-7.5650065721
 20
17.8771836811
 10
-7.7408765014
 20
17.7905063438
 10
-7.9039252479
 20
17.6816405316
 10
-8.0513830324
 20
17.5524395473
 10
-8.1806971258
 20
17.4051544052
 10
-8.2897036103
 20
17.242266087
 10
-8.3766114975
 20
17.0663867628
 10
-8.4398860712
 20
16.8804344137
 10
-8.4783441862
 20
16.6876274374
 10
-8.4912550412
 20
16.4912641797
  0
LINE
  5
4B1
100
AcDbEntity
  8
RACCORDO
100
AcDbLine
 62
7
  6
CONTINUOUS
 10
6.9912641797
 20
17.9912550412
 11
-6.9912641797
 21
17.9912550412
  0
LINE
  5
4B2
100
AcDbEntity
  8
RACCORDO
100
AcDbLine
 62
7
  6
CONTINUOUS
 10
-3.1502658806
 20
20.7913492875
 11
-3.017150432
 21
20.7247966322
  0
LINE
  5
4B3
100
AcDbEntity
  8
RACCORDO
100
AcDbLine
 62
7
  6
CONTINUOUS
 10
3.1953132616
 20
18.9503485794
 11
3.017150432
 21
19.0394232099
  0
LWPOLYLINE
  5
4B4
100
AcDbEntity
  8
RACCORDO
100
AcDbPolyline
 62
7
  6
CONTINUOUS
 90
18
 70
0
 10
-2.9154665591
 20
21.9548048235
 10
-2.9201067844
 20
21.9576311623
 10
-2.9252795581
 20
21.9603416517
 10
-2.9309917023
 20
21.9629348078
 10
-2.9372363949
 20
21.9654121145
 10
-2.9439339828
 20
21.9677419729
 10
-2.9510902675
 20
21.9699224942
 10
-2.9586994475
 20
21.9719555673
 10
-2.966664465
 20
21.9738152595
 10
-2.9749898783
 20
21.9754993499
 10
-2.9836711291
 20
21.9770100595
 10
-2.9925974851
 20
21.9783281186
 10
-3.001772086
 20
21.9794510594
 10
-3.0111917921
 20
21.9803813498
 10
-3.0207364517
 20
21.9811071235
 10
-3.0303660143
 20
21.9816244252
 10
-3.0401205304
 20
21.9819372102
 10
-3.05
 20
21.9820454786
  0
LINE
  5
4B5
100
AcDbEntity
  8
RACCORDO
100
AcDbLine
 62
250
  6
CONTINUOUS
 10
7.769389217
 20
-19.4432563202
 11
10.4432563202
 21
-16.769389217
  0
LINE
  5
4B6
100
AcDbEntity
  8
RACCORDO
100
AcDbLine
 62
7
  6
CONTINUOUS
 10
7.9764881122
 20
-19.9432372817
 11
10.9432372817
 21
-16.9764881122
  0
LINE
  5
4B7
100
AcDbEntity
  8
DRAFT
100
AcDbLine
 62
7
  6
CONTINUOUS
 10
8.0
 20
-20.0
 11
11.0
 21
-17.0
  0
LWPOLYLINE
  5
4B8
100
AcDbEntity
  8
RACCORDO
100
AcDbPolyline
 62
7
  6
CONTINUOUS
 90
10
 70
0
 10
4.5
 20
-19.65
 10
4.5010629094
 20
-19.649365486
 10
4.5021672466
 20
-19.6473583085
 10
4.5033051847
 20
-19.6439899752
 10
4.5044654823
 20
-19.6392764829
 10
4.5056433317
 20
-19.6332386178
 10
4.5068403908
 20
-19.6259017304
 10
4.5080517165
 20
-19.6172951479
 10
4.5092657905
 20
-19.6074521555
 10
4.5104743686
 20
-19.5964101615
  0
LWPOLYLINE
  5
4B9
100
AcDbEntity
  8
RACCORDO
100
AcDbPolyline
 62
7
  6
CONTINUOUS
 90
4
 70
0
 10
3.3199778125
 20
-20.2286618605
 10
3.3336822448
 20
-20.2224180175
 10
3.3658205707
 20
-20.212283487
 10
3.3992041554
 20
-20.2076902657
  0
LWPOLYLINE
  5
4BA
100
AcDbEntity
  8
RACCORDO
100
AcDbPolyline
 62
7
  6
CONTINUOUS
 90
3
 70
0
 10
-3.2854993273
 20
-22.4790586979
 10
-3.3061874996
 20
-22.4879385224
 10
-3.3398567659
 20
-22.4969615501
  0
LWPOLYLINE
  5
4BB
100
AcDbEntity
  8
RACCORDO
100
AcDbPolyline
 62
250
  6
CONTINUOUS
 90
10
 70
0
 10
3.3705471896
 20
-19.5908078864
 10
3.3716851997
 20
-19.5903204862
 10
3.3728837151
 20
-19.5886804551
 10
3.3741412446
 20
-19.5857960227
 10
3.3754525444
 20
-19.5815819607
 10
3.3768165455
 20
-19.5759492791
 10
3.3782366317
 20
-19.5687939928
 10
3.3797095606
 20
-19.5600191619
 10
3.381224995
 20
-19.5495488733
 10
3.3827736845
 20
-19.537309873
  0
LINE
  5
4BC
100
AcDbEntity
  8
SMUSSO
100
AcDbLine
 62
7
  6
CONTINUOUS
 10
-5.9642198421
 20
-22.1331806758
 11
-6.0
 21
-22.1448295558
  0
LINE
  5
4BD
100
AcDbEntity
  8
SMUSSO
100
AcDbLine
 62
7
  6
CONTINUOUS
 10
-5.9608675611
 20
-22.5102967102
 11
-6.0
 21
-22.5230369861
  0
LINE
  5
4BE
100
AcDbEntity
  8
RACCORDO
100
AcDbLine
 62
250
  6
CONTINUOUS
 10
3.3482389284
 20
19.5344465496
 11
3.3827736845
 21
19.537309873
  0
LINE
  5
4BF
100
AcDbEntity
  8
RACCORDO
100
AcDbLine
 62
250
  6
CONTINUOUS
 10
3.0171497246
 20
19.3824923153
 11
3.0130309294
 21
19.3821846061
  0
LWPOLYLINE
  5
4C0
100
AcDbEntity
  8
RACCORDO
100
AcDbPolyline
 62
250
  6
CONTINUOUS
 90
7
 70
0
 10
3.3990336007
 20
18.9994907927
 10
3.3729790843
 20
18.9978175109
 10
3.3473687215
 20
18.9932200421
 10
3.3226391053
 20
18.9857767581
 10
3.2992118155
 20
18.9756145449
 10
3.277486231
 20
18.9629066399
 10
3.2578327218
 20
18.9478696784
  0
LINE
  5
4C1
100
AcDbEntity
  8
RACCORDO
100
AcDbLine
 62
250
  6
CONTINUOUS
 10
3.0130309294
 20
19.3821846061
 11
2.9225583822
 21
19.3765438063
  0
LWPOLYLINE
  5
4C2
100
AcDbEntity
  8
RACCORDO
100
AcDbPolyline
 62
250
  6
CONTINUOUS
 90
6
 70
0
 10
2.9
 20
20.212783757
 10
2.9041834068
 20
20.2130112713
 10
2.9525790141
 20
20.2159620343
 10
2.9961589462
 20
20.2189342115
 10
3.0347777612
 20
20.2219553502
 10
3.0684354589
 20
20.2250254502
  0
LINE
  5
4C3
100
AcDbEntity
  8
RACCORDO
100
AcDbLine
 62
250
  6
CONTINUOUS
 10
3.1810448418
 20
19.3910819795
 11
3.0171497254
 21
19.3824926004
  0
LINE
  5
4C4
100
AcDbEntity
  8
RACCORDO
100
AcDbLine
 62
250
  6
CONTINUOUS
 10
4.5104743686
 20
19.5964101615
 11
3.3827736845
 21
19.537309873
  0
LINE
  5
4C5
100
AcDbEntity
  8
RACCORDO
100
AcDbLine
 62
7
  6
CONTINUOUS
 10
4.5
 20
19.65
 11
3.0964136979
 21
19.5764411589
  0
LWPOLYLINE
  5
4C6
100
AcDbEntity
  8
RACCORDO
100
AcDbPolyline
 62
250
  6
CONTINUOUS
 90
6
 70
0
 10
-2.5
 20
19.403051862
 10
-2.5991580346
 20
19.3993848899
 10
-2.6979037008
 20
19.3946891107
 10
-2.785533298
 20
19.3893450824
 10
-2.8608594795
 20
19.3832966476
 10
-2.9225583833
 20
19.3765438063
  0
LWPOLYLINE
  5
4C7
100
AcDbEntity
  8
RACCORDO
100
AcDbPolyline
 62
250
  6
CONTINUOUS
 90
7
 70
0
 10
-2.5
 20
19.6050899538
 10
-2.5875894026
 20
19.6030742247
 10
-2.71717958
 20
19.5990983135
 10
-2.833942619
 20
19.5944488888
 10
-2.9355650217
 20
19.5891874892
 10
-3.024360286
 20
19.5832525761
 10
-3.1003284119
 20
19.5766441494
  0
LINE
  5
4C8
100
AcDbEntity
  8
RACCORDO
100
AcDbLine
 62
7
  6
CONTINUOUS
 10
5.4474755854
 20
18.9389119255
 11
-5.4474755854
 21
18.9389119255
  0
LINE
  5
4C9
100
AcDbEntity
  8
RACCORDO
100
AcDbLine
 62
250
  6
CONTINUOUS
 10
-5.0453818235
 20
18.9994907927
 11
-3.3990336007
 21
18.9994907927
  0
LINE
  5
4CA
100
AcDbEntity
  8
RACCORDO
100
AcDbLine
 62
250
  6
CONTINUOUS
 10
3.3990336007
 20
18.9994907927
 11
5.0453818235
 21
18.9994907927
  0
LINE
  5
4CB
100
AcDbEntity
  8
DRAFT
100
AcDbLine
 62
7
  6
CONTINUOUS
 10
-3.0960028571
 20
19.0
 11
3.0960028571
 21
19.0
  0
LINE
  5
4CC
100
AcDbEntity
  8
RACCORDO
100
AcDbLine
 62
250
  6
CONTINUOUS
 10
2.2916953758
 20
19.0527207794
 11
-2.2916953758
 21
19.0527207794
  0
LINE
  5
4CD
100
AcDbEntity
  8
RACCORDO
100
AcDbLine
 62
250
  6
CONTINUOUS
 10
7.769389217
 20
19.4432563202
 11
5.9389119255
 21
19.4432563202
  0
LINE
  5
4CE
100
AcDbEntity
  8
RACCORDO
100
AcDbLine
 62
250
  6
CONTINUOUS
 10
-5.9389119255
 20
19.4432563202
 11
-7.769389217
 21
19.4432563202
  0
LINE
  5
4CF
100
AcDbEntity
  8
RACCORDO
100
AcDbLine
 62
250
  6
CONTINUOUS
 10
-5.0417728356
 20
19.5964101615
 11
-4.5104743686
 21
19.5964101615
  0
LINE
  5
4D0
100
AcDbEntity
  8
RACCORDO
100
AcDbLine
 62
250
  6
CONTINUOUS
 10
4.5104743686
 20
19.5964101615
 11
5.0417728356
 21
19.5964101615
  0
LINE
  5
4D1
100
AcDbEntity
  8
RACCORDO
100
AcDbLine
 62
7
  6
CONTINUOUS
 10
-5.0410747011
 20
19.65
 11
-4.5
 21
19.65
  0
LINE
  5
4D2
100
AcDbEntity
  8
0
100
AcDbLine
 62
7
  6
CONTINUOUS
 10
4.5
 20
19.65
 11
2.5
 21
19.65
  0
LINE
  5
4D3
100
AcDbEntity
  8
RACCORDO
100
AcDbLine
 62
7
  6
CONTINUOUS
 10
4.5
 20
19.65
 11
5.0410747011
 21
19.65
  0
LINE
  5
4D4
100
AcDbEntity
  8
0
100
AcDbLine
 62
7
  6
CONTINUOUS
 10
-2.5
 20
19.65
 11
-4.5
 21
19.65
  0
LINE
  5
4D5
100
AcDbEntity
  8
RACCORDO
100
AcDbLine
 62
7
  6
CONTINUOUS
 10
4.9
 20
19.7
 11
2.9
 21
19.7
  0
LINE
  5
4D6
100
AcDbEntity
  8
0
100
AcDbLine
 62
7
  6
CONTINUOUS
 10
2.9
 20
19.7
 11
-2.9
 21
19.7
  0
LINE
  5
4D7
100
AcDbEntity
  8
RACCORDO
100
AcDbLine
 62
7
  6
CONTINUOUS
 10
-2.9
 20
19.7
 11
-4.9
 21
19.7
  0
LINE
  5
4D8
100
AcDbEntity
  8
RACCORDO
100
AcDbLine
 62
7
  6
CONTINUOUS
 10
7.9764881122
 20
19.9432372817
 11
5.9432372817
 21
19.9432372817
  0
LINE
  5
4D9
100
AcDbEntity
  8
RACCORDO
100
AcDbLine
 62
7
  6
CONTINUOUS
 10
-5.9432372817
 20
19.9432372817
 11
-7.9764881122
 21
19.9432372817
  0
LINE
  5
4DA
100
AcDbEntity
  8
DRAFT
100
AcDbLine
 62
7
  6
CONTINUOUS
 10
8.0
 20
20.0
 11
6.0
 21
20.0
  0
LINE
  5
4DB
100
AcDbEntity
  8
RACCORDO
100
AcDbLine
 62
250
  6
CONTINUOUS
 10
-5.0474780224
 20
20.0
 11
-5.9389119255
 21
20.0
  0
LINE
  5
4DC
100
AcDbEntity
  8
RACCORDO
100
AcDbLine
 62
250
  6
CONTINUOUS
 10
5.0474780224
 20
20.0
 11
5.9389119255
 21
20.0
  0
LINE
  5
4DD
100
AcDbEntity
  8
DRAFT
100
AcDbLine
 62
7
  6
CONTINUOUS
 10
-6.0
 20
20.0
 11
-8.0
 21
20.0
  0
LINE
  5
4DE
100
AcDbEntity
  8
RACCORDO
100
AcDbLine
 62
7
  6
CONTINUOUS
 10
-4.9
 20
20.1
 11
-2.9
 21
20.1
  0
LINE
  5
4DF
100
AcDbEntity
  8
RACCORDO
100
AcDbLine
 62
7
  6
CONTINUOUS
 10
2.9
 20
20.1
 11
4.9
 21
20.1
  0
LINE
  5
4E0
100
AcDbEntity
  8
RACCORDO
100
AcDbLine
 62
7
  6
CONTINUOUS
 10
5.0472172711
 20
20.15
 11
4.5
 21
20.15
  0
LINE
  5
4E1
100
AcDbEntity
  8
0
100
AcDbLine
 62
7
  6
CONTINUOUS
 10
4.5
 20
20.15
 11
2.9
 21
20.15
  0
LINE
  5
4E2
100
AcDbEntity
  8
0
100
AcDbLine
 62
7
  6
CONTINUOUS
 10
-2.9
 20
20.15
 11
-4.5
 21
20.15
  0
LINE
  5
4E3
100
AcDbEntity
  8
RACCORDO
100
AcDbLine
 62
7
  6
CONTINUOUS
 10
-4.5
 20
20.15
 11
-5.0472172711
 21
20.15
  0
LINE
  5
4E4
100
AcDbEntity
  8
RACCORDO
100
AcDbLine
 62
250
  6
CONTINUOUS
 10
2.5773396816
 20
19.6033971017
 11
2.5
 21
19.6052202753
  0
LWPOLYLINE
  5
4E5
100
AcDbEntity
  8
RACCORDO
100
AcDbPolyline
 62
250
  6
CONTINUOUS
 90
5
 70
0
 10
2.8936882566
 20
19.5915439882
 10
2.8330500261
 20
19.5944830314
 10
2.7709063874
 20
19.5971353525
 10
2.7074433032
 20
19.599496718
 10
2.5773396816
 20
19.6033971017
  0
LINE
  5
4E6
100
AcDbEntity
  8
RACCORDO
100
AcDbLine
 62
250
  6
CONTINUOUS
 10
-3.0171503117
 20
19.3824926311
 11
-3.1810448418
 21
19.3910819795
  0
LINE
  5
4E7
100
AcDbEntity
  8
RACCORDO
100
AcDbLine
 62
250
  6
CONTINUOUS
 10
-3.3827736845
 20
19.537309873
 11
-4.5104743686
 21
19.5964101615
  0
LINE
  5
4E8
100
AcDbEntity
  8
RACCORDO
100
AcDbLine
 62
7
  6
CONTINUOUS
 10
-3.096416315
 20
19.576441296
 11
-4.5
 21
19.65
  0
LWPOLYLINE
  5
4E9
100
AcDbEntity
  8
RACCORDO
100
AcDbPolyline
 62
250
  6
CONTINUOUS
 90
9
 70
0
 10
2.2916953758
 20
19.0527207794
 10
2.3150047708
 20
19.0514454732
 10
2.3379215692
 20
19.0480479014
 10
2.3600597864
 20
19.0425852887
 10
2.3810465518
 20
19.0351496413
 10
2.4005283884
 20
19.0258661965
 10
2.4181771663
 20
19.0148913142
 10
2.4336956298
 20
19.0024098427
 10
2.4359915969
 20
19.0
  0
LINE
  5
4EA
100
AcDbEntity
  8
RACCORDO
100
AcDbLine
 62
250
  6
CONTINUOUS
 10
-2.9225583833
 20
19.3765438063
 11
-3.0171503117
 21
19.3824926018
  0
LWPOLYLINE
  5
4EB
100
AcDbEntity
  8
RACCORDO
100
AcDbPolyline
 62
250
  6
CONTINUOUS
 90
3
 70
0
 10
3.0041262916
 20
19.5847220111
 10
2.9509244184
 20
19.5882931056
 10
2.8936882566
 20
19.5915439882
  0
LWPOLYLINE
  5
4EC
100
AcDbEntity
  8
RACCORDO
100
AcDbPolyline
 62
250
  6
CONTINUOUS
 90
4
 70
0
 10
-3.0209965627
 20
20.2209852632
 10
-2.9707888568
 20
20.217242566
 10
-2.9178198161
 20
20.2137979065
 10
-2.9
 20
20.2128036291
  0
LINE
  5
4ED
100
AcDbEntity
  8
RACCORDO
100
AcDbLine
 62
250
  6
CONTINUOUS
 10
-3.3482389829
 20
19.5344465581
 11
-3.3827736845
 21
19.537309873
  0
LINE
  5
4EE
100
AcDbEntity
  8
RACCORDO
100
AcDbLine
 62
250
  6
CONTINUOUS
 10
-3.0684429338
 20
20.2250259981
 11
-3.0209965627
 21
20.2209852632
  0
LWPOLYLINE
  5
4EF
100
AcDbEntity
  8
RACCORDO
100
AcDbPolyline
 62
250
  6
CONTINUOUS
 90
3
 70
0
 10
3.100323832
 20
19.5766443038
 10
3.0539260961
 20
19.5808390772
 10
3.0041262916
 20
19.5847220111
  0
LWPOLYLINE
  5
4F0
100
AcDbEntity
  8
RACCORDO
100
AcDbPolyline
 62
250
  6
CONTINUOUS
 90
9
 70
0
 10
2.8852384644
 20
19.3807807573
 10
2.8435967392
 20
19.3847030639
 10
2.7983715184
 20
19.3883107261
 10
2.7503290087
 20
19.3915954727
 10
2.700082296
 20
19.394565575
 10
2.6480413006
 20
19.3972458468
 10
2.5947389028
 20
19.3996318385
 10
2.5406801138
 20
19.4017279997
 10
2.5
 20
19.4031028784
  0
LINE
  5
4F1
100
AcDbEntity
  8
RACCORDO
100
AcDbLine
 62
250
  6
CONTINUOUS
 10
2.9225583822
 20
19.3765438063
 11
2.8852384644
 21
19.3807807573
  0
LINE
  5
4F2
100
AcDbEntity
  8
SMUSSO
100
AcDbLine
 62
7
  6
CONTINUOUS
 10
-6.0
 20
22.1448295558
 11
-5.9642198421
 21
22.1331806758
  0
LINE
  5
4F3
100
AcDbEntity
  8
SMUSSO
100
AcDbLine
 62
7
  6
CONTINUOUS
 10
-6.0
 20
22.5230369861
 11
-5.9608675611
 21
22.5102967102
  0
LWPOLYLINE
  5
4F4
100
AcDbEntity
  8
RACCORDO
100
AcDbPolyline
 62
7
  6
CONTINUOUS
 90
4
 70
0
 10
3.3154213212
 20
20.2310224905
 10
3.3336820212
 20
20.2224181095
 10
3.3658204369
 20
20.2122835171
 10
3.3992041554
 20
20.2076902657
  0
LINE
  5
4F5
100
AcDbEntity
  8
RACCORDO
100
AcDbLine
 62
250
  6
CONTINUOUS
 10
10.4432563202
 20
16.769389217
 11
7.769389217
 21
19.4432563202
  0
LINE
  5
4F6
100
AcDbEntity
  8
RACCORDO
100
AcDbLine
 62
7
  6
CONTINUOUS
 10
10.9432372817
 20
16.9764881122
 11
7.9764881122
 21
19.9432372817
  0
LINE
  5
4F7
100
AcDbEntity
  8
DRAFT
100
AcDbLine
 62
7
  6
CONTINUOUS
 10
11.0
 20
17.0
 11
8.0
 21
20.0
  0
LINE
  5
4F8
100
AcDbEntity
  8
RACCORDO
100
AcDbLine
 62
7
  6
CONTINUOUS
 10
3.3398567659
 20
22.4969615501
 11
3.3745811149
 21
22.5
  0
LINE
  5
4F9
100
AcDbEntity
  8
RACCORDO
100
AcDbLine
 62
250
  6
CONTINUOUS
 10
-3.0171476811
 20
20.4175087653
 11
-3.0119241268
 21
20.4179108803
  0
LINE
  5
4FA
100
AcDbEntity
  8
RACCORDO
100
AcDbLine
 62
250
  6
CONTINUOUS
 10
-4.5104743686
 20
20.6547619048
 11
-3.4130110307
 21
20.7232459795
  0
LINE
  5
4FB
100
AcDbEntity
  8
RACCORDO
100
AcDbLine
 62
250
  6
CONTINUOUS
 10
-2.9814564528
 20
20.4197519906
 11
-2.8963271739
 21
20.4251058569
  0
LINE
  5
4FC
100
AcDbEntity
  8
RACCORDO
100
AcDbLine
 62
250
  6
CONTINUOUS
 10
-3.0119241268
 20
20.4179108803
 11
-2.9814564528
 21
20.4197519906
  0
LINE
  5
4FD
100
AcDbEntity
  8
RACCORDO
100
AcDbLine
 62
7
  6
CONTINUOUS
 10
-4.5
 20
20.15
 11
-3.0653343077
 21
20.2251876429
  0
LINE
  5
4FE
100
AcDbEntity
  8
RACCORDO
100
AcDbLine
 62
250
  6
CONTINUOUS
 10
-3.2097018076
 20
20.4074161726
 11
-3.0171476934
 21
20.4175075061
  0
LWPOLYLINE
  5
4FF
100
AcDbEntity
  8
RACCORDO
100
AcDbPolyline
 62
7
  6
CONTINUOUS
 90
18
 70
0
 10
3.05
 20
21.9820454786
 10
3.0401205304
 20
21.9819372102
 10
3.0303660143
 20
21.9816244252
 10
3.0207364517
 20
21.9811071235
 10
3.0111917921
 20
21.9803813498
 10
3.0017720861
 20
21.9794510594
 10
2.9925974852
 20
21.9783281186
 10
2.9836711292
 20
21.9770100595
 10
2.9749898783
 20
21.9754993499
 10
2.9666644651
 20
21.9738152595
 10
2.9586994475
 20
21.9719555673
 10
2.9510902675
 20
21.9699224942
 10
2.9439339828
 20
21.9677419729
 10
2.9372363949
 20
21.9654121145
 10
2.9309917023
 20
21.9629348078
 10
2.9252795582
 20
21.9603416517
 10
2.9201067844
 20
21.9576311623
 10
2.9154665592
 20
21.9548048235
  0
LINE
  5
500
100
AcDbEntity
  8
RACCORDO
100
AcDbLine
 62
250
  6
CONTINUOUS
 10
5.447219708
 20
20.6547619048
 11
4.5104743686
 21
20.6547619048
  0
LINE
  5
501
100
AcDbEntity
  8
RACCORDO
100
AcDbLine
 62
250
  6
CONTINUOUS
 10
-4.5104743686
 20
20.6547619048
 11
-5.447219708
 21
20.6547619048
  0
LINE
  5
502
100
AcDbEntity
  8
0
100
AcDbLine
 62
250
  6
CONTINUOUS
 10
2.9
 20
21.9748697408
 11
-2.9
 21
21.9748697408
  0
LINE
  5
503
100
AcDbEntity
  8
RACCORDO
100
AcDbLine
 62
7
  6
CONTINUOUS
 10
-3.1675686233
 20
21.9820454786
 11
-3.05
 21
21.9820454786
  0
LINE
  5
504
100
AcDbEntity
  8
RACCORDO
100
AcDbLine
 62
7
  6
CONTINUOUS
 10
3.1675686233
 20
21.9820454786
 11
3.05
 21
21.9820454786
  0
LINE
  5
505
100
AcDbEntity
  8
RACCORDO
100
AcDbLine
 62
7
  6
CONTINUOUS
 10
3.0653293611
 20
20.2251879022
 11
4.5
 21
20.15
  0
LINE
  5
506
100
AcDbEntity
  8
RACCORDO
100
AcDbLine
 62
250
  6
CONTINUOUS
 10
3.017150432
 20
20.4175073626
 11
3.2097018076
 21
20.4074161726
  0
LINE
  5
507
100
AcDbEntity
  8
RACCORDO
100
AcDbLine
 62
250
  6
CONTINUOUS
 10
3.4130110299
 20
20.7232473714
 11
4.5104743686
 21
20.6547619048
  0
LINE
  5
508
100
AcDbEntity
  8
RACCORDO
100
AcDbLine
 62
250
  6
CONTINUOUS
 10
2.8963271741
 20
20.425105857
 11
3.017150432
 21
20.4175073626
  0
LINE
  5
509
100
AcDbEntity
  8
0
100
AcDbLine
 62
250
  6
CONTINUOUS
 10
2.9
 20
22.290751565
 11
-2.9
 21
22.290751565
  0
LINE
  5
50A
100
AcDbEntity
  8
0
100
AcDbLine
 62
250
  6
CONTINUOUS
 10
2.9
 20
22.2923830163
 11
-2.9
 21
22.2923830163
  0
LINE
  5
50B
100
AcDbEntity
  8
RACCORDO
100
AcDbLine
 62
250
  6
CONTINUOUS
 10
3.1746115759
 20
22.3
 11
3.1675686233
 21
22.3
  0
LINE
  5
50C
100
AcDbEntity
  8
RACCORDO
100
AcDbLine
 62
250
  6
CONTINUOUS
 10
-3.1675686233
 20
22.3
 11
-3.1746115759
 21
22.3
  0
LINE
  5
50D
100
AcDbEntity
  8
RACCORDO
100
AcDbLine
 62
7
  6
CONTINUOUS
 10
-3.1777595841
 20
22.3602529088
 11
-3.05
 21
22.3602529088
  0
LINE
  5
50E
100
AcDbEntity
  8
RACCORDO
100
AcDbLine
 62
7
  6
CONTINUOUS
 10
3.1777595841
 20
22.3602529088
 11
3.05
 21
22.3602529088
  0
LINE
  5
50F
100
AcDbEntity
  8
RACCORDO
100
AcDbLine
 62
7
  6
CONTINUOUS
 10
-5.9607290949
 20
22.5
 11
-3.374581634
 21
22.5
  0
LINE
  5
510
100
AcDbEntity
  8
RACCORDO
100
AcDbLine
 62
7
  6
CONTINUOUS
 10
3.3745811149
 20
22.5
 11
5.9607290949
 21
22.5
  0
LINE
  5
511
100
AcDbEntity
  8
RACCORDO
100
AcDbLine
 62
7
  6
CONTINUOUS
 10
2.2
 20
23.5653995554
 11
-2.2
 21
23.5653995554
  0
LINE
  5
512
100
AcDbEntity
  8
RACCORDO
100
AcDbLine
 62
7
  6
CONTINUOUS
 10
-2.5
 20
23.8
 11
2.5
 21
23.8
  0
LINE
  5
513
100
AcDbEntity
  8
0
100
AcDbLine
 62
250
  6
CONTINUOUS
 10
2.5
 20
23.9
 11
-2.5
 21
23.9
  0
LWPOLYLINE
  5
514
100
AcDbEntity
  8
RACCORDO
100
AcDbPolyline
 62
7
  6
CONTINUOUS
 90
25
 70
0
 10
-3.05
 20
22.3602529088
 10
-3.0401205304
 20
22.3601446404
 10
-3.0303660143
 20
22.3598318554
 10
-3.0207364517
 20
22.3593145537
 10
-3.0111917921
 20
22.35858878
 10
-3.001772086
 20
22.3576584896
 10
-2.9925974851
 20
22.3565355488
 10
-2.9836711291
 20
22.3552174897
 10
-2.9749898783
 20
22.3537067802
 10
-2.966664465
 20
22.3520226897
 10
-2.9586994475
 20
22.3501629975
 10
-2.9510902675
 20
22.3481299245
 10
-2.9439339828
 20
22.3459494031
 10
-2.9372363949
 20
22.3436195447
 10
-2.9309917023
 20
22.341142238
 10
-2.9252795581
 20
22.338549082
 10
-2.9201067844
 20
22.3358385925
 10
-2.9154665591
 20
22.3330122537
 10
-2.9114180701
 20
22.3301061165
 10
-2.9079688973
 20
22.3271191586
 10
-2.9051114607
 20
22.3240524023
 10
-2.9028822079
 20
22.3209449651
 10
-2.9012932881
 20
22.3178098862
 10
-2.9003325522
 20
22.3146341264
 10
-2.9
 20
22.3114176857
  0
LWPOLYLINE
  5
515
100
AcDbEntity
  8
RACCORDO
100
AcDbPolyline
 62
7
  6
CONTINUOUS
 90
25
 70
0
 10
-2.2
 20
23.5653995554
 10
-2.2197589392
 20
23.5656160921
 10
-2.2392679714
 20
23.5662416622
 10
-2.2585270966
 20
23.5672762656
 10
-2.2776164158
 20
23.568727813
 10
-2.2964558279
 20
23.5705883937
 10
-2.3148050297
 20
23.5728342754
 10
-2.3326577417
 20
23.5754703936
 10
-2.3500202433
 20
23.5784918127
 10
-2.3666710699
 20
23.5818599935
 10
-2.382601105
 20
23.585579378
 10
-2.3978194649
 20
23.5896455241
 10
-2.4121320343
 20
23.5940065668
 10
-2.4255272102
 20
23.5986662836
 10
-2.4380165954
 20
23.6036208969
 10
-2.4494408837
 20
23.6088072091
 10
-2.4597864312
 20
23.6142281879
 10
-2.4690668817
 20
23.6198808656
 10
-2.4771638597
 20
23.62569314
 10
-2.4840622053
 20
23.6316670558
 10
-2.4897770785
 20
23.6378005684
 10
-2.4942355841
 20
23.6440154429
 10
-2.4974134237
 20
23.6502856007
 10
-2.4993348956
 20
23.6566371203
 10
-2.5
 20
23.6630700017
  0
LINE
  5
516
100
AcDbEntity
  8
0
100
AcDbLine
 62
250
  6
CONTINUOUS
 10
2.5
 20
24.3106013839
 11
-2.5
 21
24.3106013839
  0
LINE
  5
517
100
AcDbEntity
  8
0
100
AcDbLine
 62
250
  6
CONTINUOUS
 10
2.5
 20
24.7833606717
 11
-2.5
 21
24.7833606717
  0
LINE
  5
518
100
AcDbEntity
  8
0
100
AcDbLine
 62
250
  6
CONTINUOUS
 10
6.0
 20
25.0513126297
 11
-6.0
 21
25.0513126297
  0
LINE
  5
519
100
AcDbEntity
  8
0
100
AcDbLine
 62
7
  6
CONTINUOUS
 10
-6.0
 20
25.1
 11
6.0
 21
25.1
  0
LWPOLYLINE
  5
51A
100
AcDbEntity
  8
0
100
AcDbPolyline
 62
7
  6
CONTINUOUS
 90
7
 70
0
 43
0.3500000006
 10
1.5000000329
 20
33.8469328766
 10
0.0
 20
33.8469328766
 10
1.5000000329
 20
35.9897867889
 10
1.5000000329
 20
36.4183602905
 10
1.0714285848
 20
36.8469292603
 10
0.4285714127
 20
36.8469292603
 10
0.0
 20
36.2040758057
  0
LWPOLYLINE
  5
51B
100
AcDbEntity
  8
0
100
AcDbPolyline
 62
7
  6
CONTINUOUS
 90
7
 70
0
 43
0.3500000006
 10
-0.8571428254
 20
33.8469328766
 10
-2.3571427875
 20
33.8469328766
 10
-0.8571428254
 20
35.9897867889
 10
-0.8571428254
 20
36.4183602905
 10
-1.2857142735
 20
36.8469292603
 10
-1.9285714102
 20
36.8469292603
 10
-2.3571427875
 20
36.2040758057
  0
LWPOLYLINE
  5
51C
100
AcDbEntity
  8
0
100
AcDbPolyline
 62
7
  6
CONTINUOUS
 90
5
 70
0
 43
0.3500000006
 10
-65.3402356567
 20
45.5612163391
 10
-64.983093338
 20
45.775500824
 10
-64.983093338
 20
46.4183588104
 10
-65.3402356567
 20
46.846932312
 10
-66.1973781281
 20
46.846932312
  0
LINE
  5
51D
100
AcDbEntity
  8
RACCORDO
100
AcDbLine
 62
7
  6
CONTINUOUS
 10
-71.3688068701
 20
22.3258201475
 11
-71.2688068701
 21
22.3602529088
  0
LINE
  5
51E
100
AcDbEntity
  8
SMUSSO
100
AcDbLine
 62
7
  6
CONTINUOUS
 10
-63.4534019564
 20
25.0513126297
 11
-71.2688068701
 21
22.3602529088
  0
LINE
  5
51F
100
AcDbEntity
  8
SMUSSO
100
AcDbLine
 62
7
  6
CONTINUOUS
 10
-63.3231746946
 20
24.6731051994
 11
-71.1385796083
 21
21.9820454786
  0
LINE
  5
520
100
AcDbEntity
  8
RACCORDO
100
AcDbLine
 62
7
  6
CONTINUOUS
 10
-71.1385796083
 20
21.9820454786
 11
-71.3356880886
 21
21.914175586
  0
LINE
  5
521
100
AcDbEntity
  8
0
100
AcDbLine
 62
250
  6
CONTINUOUS
 10
-62.2722074813
 20
-24.1284623642
 11
-62.6706853606
 21
-24.1633246613
  0
LINE
  5
522
100
AcDbEntity
  8
SMUSSO
100
AcDbLine
 62
7
  6
CONTINUOUS
 10
-62.2922952245
 20
-23.8988584094
 11
-62.6907731037
 21
-23.9337207065
  0
LINE
  5
523
100
AcDbEntity
  8
0
100
AcDbLine
 62
250
  6
CONTINUOUS
 10
-64.3759622188
 20
-24.3106013839
 11
-64.1688068701
 21
-24.3106013839
  0
LINE
  5
524
100
AcDbEntity
  8
0
100
AcDbLine
 62
250
  6
CONTINUOUS
 10
-64.5688068701
 20
-23.9
 11
-64.1688068701
 21
-23.9
  0
LINE
  5
525
100
AcDbEntity
  8
RACCORDO
100
AcDbLine
 62
7
  6
CONTINUOUS
 10
-65.8588563122
 20
-23.8
 11
-64.6688068701
 21
-23.8
  0
LINE
  5
526
100
AcDbEntity
  8
RACCORDO
100
AcDbLine
 62
7
  6
CONTINUOUS
 10
-67.0874777069
 20
-23.8
 11
-67.4885796083
 21
-23.8
  0
LINE
  5
527
100
AcDbEntity
  8
RACCORDO
100
AcDbLine
 62
7
  6
CONTINUOUS
 10
-71.2688068701
 20
-22.3602529088
 11
-71.3688068701
 21
-22.3258201475
  0
LINE
  5
528
100
AcDbEntity
  8
SMUSSO
100
AcDbLine
 62
7
  6
CONTINUOUS
 10
-63.4534019564
 20
-25.0513126297
 11
-71.2688068701
 21
-22.3602529088
  0
LINE
  5
529
100
AcDbEntity
  8
RACCORDO
100
AcDbLine
 62
7
  6
CONTINUOUS
 10
-71.3356880886
 20
-21.914175586
 11
-71.1385796083
 21
-21.9820454786
  0
LINE
  5
52A
100
AcDbEntity
  8
SMUSSO
100
AcDbLine
 62
7
  6
CONTINUOUS
 10
-63.3231746946
 20
-24.6731051994
 11
-71.1385796083
 21
-21.9820454786
  0
LWPOLYLINE
  5
52B
100
AcDbEntity
  8
0
100
AcDbPolyline
 62
7
  6
CONTINUOUS
 90
3
 70
0
 43
0.3500000006
 10
-58.1259490356
 20
35.9897867889
 10
-57.2688065643
 20
36.8469292603
 10
-57.2688065643
 20
33.8469328766
  0
LINE
  5
52C
100
AcDbEntity
  8
SMUSSO
100
AcDbLine
 62
7
  6
CONTINUOUS
 10
-62.3184419473
 20
-23.6
 11
-62.7169198265
 21
-23.6348622971
  0
LINE
  5
52D
100
AcDbEntity
  8
RACCORDO
100
AcDbLine
 62
7
  6
CONTINUOUS
 10
-67.0205406632
 20
-23.4
 11
-64.6688068701
 21
-23.4
  0
LINE
  5
52E
100
AcDbEntity
  8
DRAFT
100
AcDbLine
 62
7
  6
CONTINUOUS
 10
-71.7688068701
 20
-22.5
 11
-71.3688068701
 21
-22.5
  0
LINE
  5
52F
100
AcDbEntity
  8
RACCORDO
100
AcDbLine
 62
7
  6
CONTINUOUS
 10
-65.3924130401
 20
-20.7986665407
 11
-62.4893464297
 21
-20.7479933246
  0
LINE
  5
530
100
AcDbEntity
  8
RACCORDO
100
AcDbLine
 62
7
  6
CONTINUOUS
 10
-70.3775334056
 20
-20.7913492875
 11
-67.2688068701
 21
-20.7642198421
  0
LINE
  5
531
100
AcDbEntity
  8
DRAFT
100
AcDbLine
 62
7
  6
CONTINUOUS
 10
-67.2688068701
 20
-20.7642198421
 11
-59.2688068701
 21
-20.6944048997
  0
LINE
  5
532
100
AcDbEntity
  8
RACCORDO
100
AcDbLine
 62
7
  6
CONTINUOUS
 10
-59.2664869009
 20
-19.9301648116
 11
-67.2688068701
 21
-20.0
  0
LINE
  5
533
100
AcDbEntity
  8
RACCORDO
100
AcDbLine
 62
7
  6
CONTINUOUS
 10
-73.7731701379
 20
-19.9432372817
 11
-67.2688068701
 21
-20.0
  0
LINE
  5
534
100
AcDbEntity
  8
RACCORDO
100
AcDbLine
 62
7
  6
CONTINUOUS
 10
-56.5983619679
 20
-17.7503047504
 11
-56.6446167979
 21
-17.7571959893
  0
LINE
  5
535
100
AcDbEntity
  8
RACCORDO
100
AcDbLine
 62
7
  6
CONTINUOUS
 10
-56.6406364819
 20
-17.7567516243
 11
-56.6238140727
 21
-17.7544150124
  0
LINE
  5
536
100
AcDbEntity
  8
RACCORDO
100
AcDbLine
 62
7
  6
CONTINUOUS
 10
-56.6565266497
 20
-17.7586813253
 11
-56.6406364819
 21
-17.7567516243
  0
LWPOLYLINE
  5
537
100
AcDbEntity
  8
RACCORDO
100
AcDbPolyline
 62
7
  6
CONTINUOUS
 90
4
 70
0
 10
-56.6986351463
 20
-17.7625361753
 10
-56.6855110558
 20
-17.7615254207
 10
-56.6716363815
 20
-17.7602707486
 10
-56.6565266497
 20
-17.7586813253
  0
LWPOLYLINE
  5
538
100
AcDbEntity
  8
RACCORDO
100
AcDbPolyline
 62
250
  6
CONTINUOUS
 90
16
 70
0
 10
-59.2693447343
 20
-18.852873227
 10
-59.2166984678
 20
-18.849151657
 10
-59.1647281842
 20
-18.8400137029
 10
-59.1139895956
 20
-18.8255603983
 10
-59.0650298296
 20
-18.8059514457
 10
-59.0183655744
 20
-18.781398628
 10
-58.974480269
 20
-18.7521582302
 10
-58.9338381043
 20
-18.7185352484
 10
-58.8968819942
 20
-18.6808919066
 10
-58.8640129194
 20
-18.6396371221
 10
-58.8355849612
 20
-18.5952165986
 10
-58.8118981025
 20
-18.548101122
 10
-58.7932024042
 20
-18.4987877404
 10
-58.7796995611
 20
-18.4478001317
 10
-58.7715377685
 20
-18.3956845207
 10
-58.7689098994
 20
-18.3532444068
  0
LINE
  5
539
100
AcDbEntity
  8
RACCORDO
100
AcDbLine
 62
7
  6
CONTINUOUS
 10
-56.7046793501
 20
-17.7628792545
 11
-56.6947352227
 21
-17.7621904645
  0
LINE
  5
53A
100
AcDbEntity
  8
RACCORDO
100
AcDbLine
 62
7
  6
CONTINUOUS
 10
-56.7144220416
 20
-17.7634575923
 11
-56.6986351463
 21
-17.7625361753
  0
LINE
  5
53B
100
AcDbEntity
  8
RACCORDO
100
AcDbLine
 62
7
  6
CONTINUOUS
 10
-56.7280919969
 20
-17.7641740493
 11
-56.7125776011
 21
-17.763420099
  0
LINE
  5
53C
100
AcDbEntity
  8
RACCORDO
100
AcDbLine
 62
7
  6
CONTINUOUS
 10
-56.7342431844
 20
-17.7643400394
 11
-56.7239620074
 21
-17.7639315053
  0
LINE
  5
53D
100
AcDbEntity
  8
RACCORDO
100
AcDbLine
 62
7
  6
CONTINUOUS
 10
-56.744319968
 20
-17.764637693
 11
-56.7280919969
 21
-17.7641740493
  0
LWPOLYLINE
  5
53E
100
AcDbEntity
  8
RACCORDO
100
AcDbPolyline
 62
7
  6
CONTINUOUS
 90
17
 70
0
 10
-59.2691616636
 20
-18.8534839371
 10
-59.2603227805
 20
-18.8532385299
 10
-59.2061292667
 20
-18.848372728
 10
-59.1527129111
 20
-18.8377255232
 10
-59.100689428
 20
-18.8214137486
 10
-59.0506394968
 20
-18.7996159557
 10
-59.0031240005
 20
-18.7725196585
 10
-58.9587077
 20
-18.740445412
 10
-58.9179711388
 20
-18.7037964793
 10
-58.8814102408
 20
-18.6629680557
 10
-58.8494221043
 20
-18.6184531628
 10
-58.8224089984
 20
-18.57083483
 10
-58.8006918648
 20
-18.5206718814
 10
-58.7844629754
 20
-18.4685216374
 10
-58.7739043724
 20
-18.4149759665
 10
-58.7691357289
 20
-18.3606500513
 10
-58.768934626
 20
-18.3532608424
  0
LINE
  5
53F
100
AcDbEntity
  8
RACCORDO
100
AcDbLine
 62
7
  6
CONTINUOUS
 10
-56.751455033
 20
-17.764854806
 11
-56.7416132676
 21
-17.764615204
  0
LINE
  5
540
100
AcDbEntity
  8
RACCORDO
100
AcDbLine
 62
7
  6
CONTINUOUS
 10
-61.7736770346
 20
-18.9008723581
 11
-59.269160576
 21
-18.8535424783
  0
LINE
  5
541
100
AcDbEntity
  8
RACCORDO
100
AcDbLine
 62
7
  6
CONTINUOUS
 10
-64.3577923561
 20
-18.9482939403
 11
-61.7736770346
 21
-18.9008723581
  0
LINE
  5
542
100
AcDbEntity
  8
RACCORDO
100
AcDbLine
 62
7
  6
CONTINUOUS
 10
-66.5688552868
 20
-18.9877330379
 11
-64.3577923561
 21
-18.9482939403
  0
LINE
  5
543
100
AcDbEntity
  8
RACCORDO
100
AcDbLine
 62
7
  6
CONTINUOUS
 10
-59.2699061428
 20
-18.8603786685
 11
-60.8424391544
 21
-18.8878273343
  0
LINE
  5
544
100
AcDbEntity
  8
RACCORDO
100
AcDbLine
 62
7
  6
CONTINUOUS
 10
-47.7513544637
 20
-17.6076896529
 11
-56.7466560013
 21
-17.7647032253
  0
LINE
  5
545
100
AcDbEntity
  8
RACCORDO
100
AcDbLine
 62
7
  6
CONTINUOUS
 10
-56.7513544637
 20
-17.7647852373
 11
-58.7689850782
 21
-17.8000031106
  0
LINE
  5
546
100
AcDbEntity
  8
RACCORDO
100
AcDbLine
 62
7
  6
CONTINUOUS
 10
-74.2688068701
 20
-18.0
 11
-76.7740428472
 21
-17.9912550412
  0
LINE
  5
547
100
AcDbEntity
  8
SMUSSO
100
AcDbLine
 62
7
  6
CONTINUOUS
 10
-60.3688068701
 20
-19.0602153878
 11
-60.2600803346
 21
-19.0611642299
  0
LINE
  5
548
100
AcDbEntity
  8
RACCORDO
100
AcDbLine
 62
7
  6
CONTINUOUS
 10
-60.2600803346
 20
-19.0611642299
 11
-59.2688068701
 21
-19.0698149423
  0
LINE
  5
549
100
AcDbEntity
  8
RACCORDO
100
AcDbLine
 62
7
  6
CONTINUOUS
 10
-78.2688068701
 20
-16.4912641797
 11
-78.2688068701
 21
16.4912641797
  0
LINE
  5
54A
100
AcDbEntity
  8
RACCORDO
100
AcDbLine
 62
250
  6
CONTINUOUS
 10
-67.015176463
 20
19.002213399
 11
-67.0574309594
 21
18.9599589026
  0
LINE
  5
54B
100
AcDbEntity
  8
0
100
AcDbLine
 62
7
  6
CONTINUOUS
 10
-66.6056694847
 20
18.9509188399
 11
-66.5688068701
 21
18.9877814546
  0
LINE
  5
54C
100
AcDbEntity
  8
SMUSSO
100
AcDbLine
 62
7
  6
CONTINUOUS
 10
-60.8424391544
 20
18.8878273343
 11
-60.3688068701
 21
19.0602153878
  0
LWPOLYLINE
  5
54D
100
AcDbEntity
  8
RACCORDO
100
AcDbPolyline
 62
250
  6
CONTINUOUS
 90
72
 70
0
 10
-54.7862582305
 20
-16.23071277
 10
-54.8053167125
 20
-16.2314630961
 10
-54.8240367249
 20
-16.2325451104
 10
-54.8424125305
 20
-16.2339588132
 10
-54.8603941116
 20
-16.2357113379
 10
-54.8780221311
 20
-16.2377955509
 10
-54.8954271
 20
-16.2401900516
 10
-54.9126063583
 20
-16.2428945127
 10
-54.9295545642
 20
-16.2459092613
 10
-54.9463969723
 20
-16.2492138786
 10
-54.9631404343
 20
-16.2528057671
 10
-54.9797693296
 20
-16.2566875241
 10
-54.9963733562
 20
-16.2608465231
 10
-55.0129527762
 20
-16.265274647
 10
-55.0294967898
 20
-16.269980013
 10
-55.0460764099
 20
-16.2749743456
 10
-55.0626903835
 20
-16.2802581907
 10
-55.0793266593
 20
-16.2858310026
 10
-55.0960377472
 20
-16.2917028686
 10
-55.1128357183
 20
-16.2978797491
 10
-55.1296914708
 20
-16.3043556837
 10
-55.1465943186
 20
-16.311122879
 10
-55.1635422653
 20
-16.3181869107
 10
-55.180518536
 20
-16.3255422032
 10
-55.1974903989
 20
-16.3331642353
 10
-55.2144494262
 20
-16.3410561834
 10
-55.231384718
 20
-16.3492148711
 10
-55.2482607552
 20
-16.3576062483
 10
-55.2650628036
 20
-16.3662298852
 10
-55.2817865198
 20
-16.3750862116
 10
-55.2984127506
 20
-16.3841424668
 10
-55.3149182126
 20
-16.3933920137
 10
-55.3313069347
 20
-16.4028414894
 10
-55.3475995791
 20
-16.4124780441
 10
-55.3637810906
 20
-16.4223002441
 10
-55.379843402
 20
-16.4323095231
 10
-55.3958142127
 20
-16.4424973326
 10
-55.4116793548
 20
-16.452865376
 10
-55.4274242814
 20
-16.4634119499
 10
-55.4430716717
 20
-16.4741233961
 10
-55.4586090581
 20
-16.4850064836
 10
-55.4740133254
 20
-16.4960544434
 10
-55.489287025
 20
-16.5072333111
 10
-55.5044139281
 20
-16.5185509913
 10
-55.5193687634
 20
-16.5299995794
 10
-55.5341377117
 20
-16.541521397
 10
-55.5487010737
 20
-16.5531238195
 10
-55.5630324167
 20
-16.5647994715
 10
-55.5771064889
 20
-16.5764685494
 10
-55.5909162716
 20
-16.588149534
 10
-55.604418529
 20
-16.5998239445
 10
-55.6175386172
 20
-16.6113565348
 10
-55.6302664702
 20
-16.6227553392
 10
-55.6425712606
 20
-16.6340123234
 10
-55.6543622933
 20
-16.6449681384
 10
-55.6656333083
 20
-16.6556164986
 10
-55.6763698324
 20
-16.6659636895
 10
-55.6864910222
 20
-16.6758692186
 10
-55.6959916669
 20
-16.6853133203
 10
-55.7048839833
 20
-16.6943157601
 10
-55.7131338937
 20
-16.7027953424
 10
-55.7207447555
 20
-16.710730049
 10
-55.7277390599
 20
-16.7181418981
 10
-55.7341219455
 20
-16.7250157483
 10
-55.7399037176
 20
-16.7313526268
 10
-55.7451057551
 20
-16.7371515064
 10
-55.7497501123
 20
-16.7423941636
 10
-55.7538481958
 20
-16.7470621903
 10
-55.7574171942
 20
-16.7511739945
 10
-55.7604810791
 20
-16.7547665769
 10
-55.7630485439
 20
-16.7578728132
 10
-55.7667436145
 20
-16.7624659933
  0
LWPOLYLINE
  5
54E
100
AcDbEntity
  8
RACCORDO
100
AcDbPolyline
 62
250
  6
CONTINUOUS
 90
19
 70
0
 10
-56.7451697065
 20
-16.9759532708
 10
-56.659433585
 20
-16.9732417374
 10
-56.5745050101
 20
-16.967051056
 10
-56.4910110436
 20
-16.9574269349
 10
-56.4095681545
 20
-16.9444404329
 10
-56.3307776684
 20
-16.9281874345
 10
-56.2552213273
 20
-16.9087879422
 10
-56.1834569938
 20
-16.8863851903
 10
-56.1160145325
 20
-16.8611445873
 10
-56.0533918981
 20
-16.8332524949
 10
-55.9960514585
 20
-16.8029148515
 10
-55.9444165806
 20
-16.7703556522
 10
-55.8988685054
 20
-16.7358152948
 10
-55.859743532
 20
-16.6995488044
 10
-55.8273305354
 20
-16.6618239511
 10
-55.8018688334
 20
-16.6229192726
 10
-55.7835464194
 20
-16.5831220177
 10
-55.7724985749
 20
-16.5427260253
 10
-55.7688068701
 20
-16.5020295551
  0
LINE
  5
54F
100
AcDbEntity
  8
RACCORDO
100
AcDbLine
 62
250
  6
CONTINUOUS
 10
-59.2667513935
 20
-17.0199676929
 11
-56.7451697105
 21
-16.9759521855
  0
LINE
  5
550
100
AcDbEntity
  8
RACCORDO
100
AcDbLine
 62
250
  6
CONTINUOUS
 10
-47.7513544637
 20
-16.1079181127
 11
-54.639798356
 21
-16.2282642278
  0
LINE
  5
551
100
AcDbEntity
  8
RACCORDO
100
AcDbLine
 62
250
  6
CONTINUOUS
 10
-54.639798356
 20
-16.2282642278
 11
-54.7862582305
 21
-16.2307128136
  0
LINE
  5
552
100
AcDbEntity
  8
RACCORDO
100
AcDbLine
 62
250
  6
CONTINUOUS
 10
-78.2688068701
 20
-16.4912641797
 11
-76.7740428472
 21
-16.4912641797
  0
LINE
  5
553
100
AcDbEntity
  8
RACCORDO
100
AcDbLine
 62
250
  6
CONTINUOUS
 10
-46.7688068701
 20
-16.1079181127
 11
-47.7513544637
 21
-16.1079181091
  0
LINE
  5
554
100
AcDbEntity
  8
RACCORDO
100
AcDbLine
 62
250
  6
CONTINUOUS
 10
-74.2688068701
 20
-16.5000091385
 11
-76.7740428472
 21
-16.4912641797
  0
LINE
  5
555
100
AcDbEntity
  8
RACCORDO
100
AcDbLine
 62
7
  6
CONTINUOUS
 10
-73.7731701379
 20
-16.9764881122
 11
-67.2688068701
 21
-17.0
  0
LWPOLYLINE
  5
556
100
AcDbEntity
  8
RACCORDO
100
AcDbPolyline
 62
7
  6
CONTINUOUS
 90
10
 70
0
 10
-73.7731701379
 20
-16.9764881122
 10
-73.8637904944
 20
-16.9735778078
 10
-73.9501920882
 20
-16.9631045012
 10
-74.0297487003
 20
-16.9460547546
 10
-74.1001780737
 20
-16.9243426776
 10
-74.1597234403
 20
-16.8987975489
 10
-74.20710974
 20
-16.8690509233
 10
-74.2413846692
 20
-16.8361058225
 10
-74.2619847139
 20
-16.8023234293
 10
-74.2688068701
 20
-16.769389217
  0
LINE
  5
557
100
AcDbEntity
  8
SMUSSO
100
AcDbLine
 62
7
  6
CONTINUOUS
 10
-60.3688068701
 20
-19.0602153878
 11
-60.8539356258
 21
-18.8836429609
  0
LINE
  5
558
100
AcDbEntity
  8
RACCORDO
100
AcDbLine
 62
7
  6
CONTINUOUS
 10
-66.5688598286
 20
-18.9877284961
 11
-66.6056694847
 21
-18.9509188399
  0
LWPOLYLINE
  5
559
100
AcDbEntity
  8
RACCORDO
100
AcDbPolyline
 62
250
  6
CONTINUOUS
 90
3
 70
0
 10
-76.7740428472
 20
-17.9912550412
 10
-76.774681419
 20
-17.9784309744
 10
-76.7752195677
 20
-17.9401871413
  0
LINE
  5
55A
100
AcDbEntity
  8
RACCORDO
100
AcDbLine
 62
250
  6
CONTINUOUS
 10
-76.7752195677
 20
-17.9401871413
 11
-76.7759599431
 21
-17.7905063438
  0
LINE
  5
55B
100
AcDbEntity
  8
RACCORDO
100
AcDbLine
 62
250
  6
CONTINUOUS
 10
-76.7740428472
 20
16.4912641797
 11
-76.7756496442
 21
17.0663867628
  0
LINE
  5
55C
100
AcDbEntity
  8
RACCORDO
100
AcDbLine
 62
250
  6
CONTINUOUS
 10
-76.7756496442
 20
17.0663867628
 11
-76.776213452
 21
17.5524395473
  0
LINE
  5
55D
100
AcDbEntity
  8
RACCORDO
100
AcDbLine
 62
250
  6
CONTINUOUS
 10
-76.7740428472
 20
-16.4912641797
 11
-76.7740428472
 21
16.4912641797
  0
LINE
  5
55E
100
AcDbEntity
  8
RACCORDO
100
AcDbLine
 62
250
  6
CONTINUOUS
 10
-76.7759599431
 20
-17.7905063438
 11
-76.7761500644
 21
-17.4051544052
  0
LINE
  5
55F
100
AcDbEntity
  8
RACCORDO
100
AcDbLine
 62
250
  6
CONTINUOUS
 10
-76.7761500644
 20
-17.4051544052
 11
-76.7752212769
 21
-16.8804344137
  0
LINE
  5
560
100
AcDbEntity
  8
RACCORDO
100
AcDbLine
 62
250
  6
CONTINUOUS
 10
-76.7752212769
 20
-16.8804344137
 11
-76.7740428472
 21
-16.4912641797
  0
LWPOLYLINE
  5
561
100
AcDbEntity
  8
RACCORDO
100
AcDbPolyline
 62
250
  6
CONTINUOUS
 90
5
 70
0
 10
-76.776213452
 20
17.5524395473
 10
-76.7756481261
 20
17.8771836811
 10
-76.7752195677
 20
17.9401871413
 10
-76.774681419
 20
17.9784309744
 10
-76.7740428472
 20
17.9912550412
  0
LINE
  5
562
100
AcDbEntity
  8
RACCORDO
100
AcDbLine
 62
250
  6
CONTINUOUS
 10
-56.7513544637
 20
-15.3169502523
 11
-67.2688068701
 21
-15.500533067
  0
LINE
  5
563
100
AcDbEntity
  8
RACCORDO
100
AcDbLine
 62
7
  6
CONTINUOUS
 10
-46.7688068701
 20
-13.75
 11
-46.0635711482
 21
-13.7376900647
  0
LINE
  5
564
100
AcDbEntity
  8
RACCORDO
100
AcDbLine
 62
250
  6
CONTINUOUS
 10
-56.7513544637
 20
-15.3169502523
 11
-55.7688068701
 21
-15.3169502523
  0
LINE
  5
565
100
AcDbEntity
  8
RACCORDO
100
AcDbLine
 62
7
  6
CONTINUOUS
 10
-74.2688068701
 20
-20.0
 11
-74.2688068701
 21
20.0
  0
LINE
  5
566
100
AcDbEntity
  8
RACCORDO
100
AcDbLine
 62
250
  6
CONTINUOUS
 10
-73.7731701379
 20
-19.9432372817
 11
-73.7731701379
 21
19.9432372817
  0
LWPOLYLINE
  5
567
100
AcDbEntity
  8
0
100
AcDbPolyline
 62
7
  6
CONTINUOUS
 90
3
 70
0
 43
0.3500000006
 10
-60.9830921173
 20
44.1326470642
 10
-61.0545233002
 20
43.9183580475
 10
-61.1973766022
 20
43.6326469116
  0
LWPOLYLINE
  5
568
100
AcDbEntity
  8
RACCORDO
100
AcDbPolyline
 62
7
  6
CONTINUOUS
 90
19
 70
0
 10
-58.7689851065
 20
17.8000031111
 10
-58.7718925456
 20
17.7982777335
 10
-58.7781128975
 20
17.7928387915
 10
-58.787655631
 20
17.7833583427
 10
-58.8005937141
 20
17.769510406
 10
-58.8168747922
 20
17.7509770428
 10
-58.8363210115
 20
17.7274584842
 10
-58.8590290307
 20
17.698623299
 10
-58.8849255951
 20
17.6642339772
 10
-58.9135767048
 20
17.6242338457
 10
-58.9450985917
 20
17.5784347337
 10
-58.9793959821
 20
17.526751218
 10
-59.0157128995
 20
17.4694982093
 10
-59.0540979875
 20
17.4067584273
 10
-59.0945156642
 20
17.3386003124
 10
-59.1360773581
 20
17.2655471898
 10
-59.1784872022
 20
17.1879718431
 10
-59.2220448506
 20
17.1060140868
 10
-59.2667513728
 20
17.0199676925
  0
LINE
  5
569
100
AcDbEntity
  8
0
100
AcDbLine
 62
7
  6
CONTINUOUS
 10
-55.7688068701
 20
-11.453369
 11
-55.5688068701
 21
-11.453369
  0
LINE
  5
56A
100
AcDbEntity
  8
RACCORDO
100
AcDbLine
 62
7
  6
CONTINUOUS
 10
-71.3688068701
 20
22.5
 11
-71.3688068701
 21
21.7913112106
  0
LINE
  5
56B
100
AcDbEntity
  8
RACCORDO
100
AcDbLine
 62
7
  6
CONTINUOUS
 10
-71.3688068701
 20
-22.5
 11
-71.3688068701
 21
-21.7913112106
  0
LINE
  5
56C
100
AcDbEntity
  8
RACCORDO
100
AcDbLine
 62
250
  6
CONTINUOUS
 10
-56.7513541895
 20
-7.7326972896
 11
-56.414248219
 21
-7.7309998413
  0
LINE
  5
56D
100
AcDbEntity
  8
RACCORDO
100
AcDbLine
 62
250
  6
CONTINUOUS
 10
-56.414248219
 20
-7.7309998413
 11
-56.0557319757
 21
-7.7303378872
  0
LINE
  5
56E
100
AcDbEntity
  8
RACCORDO
100
AcDbLine
 62
250
  6
CONTINUOUS
 10
-56.0557319757
 20
-7.7303378872
 11
-55.8999880496
 21
-7.7305717352
  0
LINE
  5
56F
100
AcDbEntity
  8
RACCORDO
100
AcDbLine
 62
7
  6
CONTINUOUS
 10
-54.7862575577
 20
-6.732849538
 11
-47.7513544637
 21
-6.6100548477
  0
LWPOLYLINE
  5
570
100
AcDbEntity
  8
RACCORDO
100
AcDbPolyline
 62
250
  6
CONTINUOUS
 90
6
 70
0
 10
-55.8999880496
 20
-7.7305717352
 10
-55.8278470985
 20
-7.7309981362
 10
-55.8021653729
 20
-7.7313157227
 10
-55.7836824683
 20
-7.7317115715
 10
-55.7725353403
 20
-7.7321736206
 10
-55.7688067519
 20
-7.7326972631
  0
LINE
  5
571
100
AcDbEntity
  8
RACCORDO
100
AcDbLine
 62
7
  6
CONTINUOUS
 10
-46.7688068701
 20
-7.75
 11
-46.0635711482
 21
-7.7623099353
  0
LWPOLYLINE
  5
572
100
AcDbEntity
  8
RACCORDO
100
AcDbPolyline
 62
250
  6
CONTINUOUS
 90
7
 70
0
 10
-65.3954835482
 20
-20.7478715971
 10
-65.3949745666
 20
-20.7614952777
 10
-65.3944045862
 20
-20.7745730627
 10
-65.3938542883
 20
-20.78498268
 10
-65.3933330922
 20
-20.7925459492
 10
-65.3928499194
 20
-20.7971334105
 10
-65.3924130401
 20
-20.7986665407
  0
LINE
  5
573
100
AcDbEntity
  8
RACCORDO
100
AcDbLine
 62
7
  6
CONTINUOUS
 10
-67.4885796083
 20
-23.6618895396
 11
-67.4885796083
 21
-23.8
  0
LINE
  5
574
100
AcDbEntity
  8
RACCORDO
100
AcDbLine
 62
7
  6
CONTINUOUS
 10
-67.4885796083
 20
23.6618895396
 11
-67.4885796083
 21
23.8
  0
LINE
  5
575
100
AcDbEntity
  8
RACCORDO
100
AcDbLine
 62
7
  6
CONTINUOUS
 10
-67.2688068701
 20
15.500533067
 11
-67.2688068701
 21
-15.500533067
  0
LINE
  5
576
100
AcDbEntity
  8
DRAFT
100
AcDbLine
 62
7
  6
CONTINUOUS
 10
-67.2688068701
 20
-20.7642198421
 11
-67.2688068701
 21
20.7642198421
  0
LINE
  5
577
100
AcDbEntity
  8
RACCORDO
100
AcDbLine
 62
250
  6
CONTINUOUS
 10
-67.1885796083
 20
-23.7651878236
 11
-67.1885796083
 21
-23.8
  0
LINE
  5
578
100
AcDbEntity
  8
RACCORDO
100
AcDbLine
 62
250
  6
CONTINUOUS
 10
-67.1885796083
 20
23.7651878236
 11
-67.1885796083
 21
23.8
  0
LINE
  5
579
100
AcDbEntity
  8
RACCORDO
100
AcDbLine
 62
250
  6
CONTINUOUS
 10
-63.5954754163
 20
18.935881761
 11
-63.5784894625
 21
19.0322049121
  0
LINE
  5
57A
100
AcDbEntity
  8
RACCORDO
100
AcDbLine
 62
7
  6
CONTINUOUS
 10
-62.6005633501
 20
18.9185155063
 11
-62.5789788112
 21
19.0409275094
  0
LWPOLYLINE
  5
57B
100
AcDbEntity
  8
0
100
AcDbPolyline
 62
7
  6
CONTINUOUS
 90
3
 70
0
 43
0.3500000006
 10
-55.6973794556
 20
34.1326440125
 10
-55.7688061066
 20
33.9183595276
 10
-55.9116639404
 20
33.6326438599
  0
LINE
  5
57C
100
AcDbEntity
  8
RACCORDO
100
AcDbLine
 62
250
  6
CONTINUOUS
 10
-54.7862592765
 20
-5.2330780252
 11
-47.7513544637
 21
-5.1102833217
  0
LINE
  5
57D
100
AcDbEntity
  8
RACCORDO
100
AcDbLine
 62
250
  6
CONTINUOUS
 10
-46.7688068701
 20
-5.1102833217
 11
-47.7513544637
 21
-5.1102833191
  0
LWPOLYLINE
  5
57E
100
AcDbEntity
  8
RACCORDO
100
AcDbPolyline
 62
7
  6
CONTINUOUS
 90
16
 70
0
 10
-59.2667513935
 20
-17.0199676929
 10
-59.2129860827
 20
-17.1227060543
 10
-59.1611090907
 20
-17.2194136203
 10
-59.1111177037
 20
-17.3096113042
 10
-59.0624989567
 20
-17.3931250795
 10
-59.0157573121
 20
-17.4693239372
 10
-58.9724078652
 20
-17.5373299408
 10
-58.9325941225
 20
-17.5971012881
 10
-58.8961435441
 20
-17.6487268166
 10
-58.8640851355
 20
-17.6920036646
 10
-58.8365977645
 20
-17.727228682
 10
-58.8134627332
 20
-17.7549201384
 10
-58.7951075817
 20
-17.7755051135
 10
-58.7816622567
 20
-17.7895064141
 10
-58.7729602707
 20
-17.7974864959
 10
-58.7689850782
 20
-17.8000031106
  0
LINE
  5
57F
100
AcDbEntity
  8
SMUSSO
100
AcDbLine
 62
7
  6
CONTINUOUS
 10
-62.7169198265
 20
-23.6348622971
 11
-62.6706853606
 21
-24.1633246613
  0
LINE
  5
580
100
AcDbEntity
  8
SMUSSO
100
AcDbLine
 62
7
  6
CONTINUOUS
 10
-62.3184419473
 20
-23.6
 11
-62.2722074813
 21
-24.1284623642
  0
LINE
  5
581
100
AcDbEntity
  8
RACCORDO
100
AcDbLine
 62
7
  6
CONTINUOUS
 10
-65.4688068701
 20
19.015708362
 11
-65.4688068701
 21
18.9685808831
  0
LINE
  5
582
100
AcDbEntity
  8
0
100
AcDbLine
 62
250
  6
CONTINUOUS
 10
-64.6688068701
 20
23.8
 11
-64.6688068701
 21
23.4
  0
LINE
  5
583
100
AcDbEntity
  8
0
100
AcDbLine
 62
250
  6
CONTINUOUS
 10
-64.6688068701
 20
-23.8
 11
-64.6688068701
 21
-23.4
  0
LINE
  5
584
100
AcDbEntity
  8
0
100
AcDbLine
 62
7
  6
CONTINUOUS
 10
-64.5688068701
 20
-23.9
 11
-64.5688068701
 21
-24.2441996454
  0
LINE
  5
585
100
AcDbEntity
  8
0
100
AcDbLine
 62
7
  6
CONTINUOUS
 10
-64.5688068701
 20
23.9
 11
-64.5688068701
 21
24.2441996454
  0
LINE
  5
586
100
AcDbEntity
  8
0
100
AcDbLine
 62
7
  6
CONTINUOUS
 10
-64.1688068701
 20
-23.9
 11
-64.1688068701
 21
-24.3106013839
  0
LINE
  5
587
100
AcDbEntity
  8
0
100
AcDbLine
 62
7
  6
CONTINUOUS
 10
-64.1688068701
 20
23.9
 11
-64.1688068701
 21
24.3106013839
  0
LINE
  5
588
100
AcDbEntity
  8
SMUSSO
100
AcDbLine
 62
7
  6
CONTINUOUS
 10
-62.7169198265
 20
23.6348622971
 11
-62.6706853606
 21
24.1633246613
  0
LINE
  5
589
100
AcDbEntity
  8
SMUSSO
100
AcDbLine
 62
7
  6
CONTINUOUS
 10
-62.3184419473
 20
23.6
 11
-62.2722074813
 21
24.1284623642
  0
LINE
  5
58A
100
AcDbEntity
  8
RACCORDO
100
AcDbLine
 62
7
  6
CONTINUOUS
 10
-46.8121839289
 20
-2.2007571494
 11
-46.0635711482
 21
-2.1876900647
  0
LINE
  5
58B
100
AcDbEntity
  8
RACCORDO
100
AcDbLine
 62
250
  6
CONTINUOUS
 10
-46.9642963318
 20
-1.9034579727
 11
-46.0635711482
 21
-1.8877357561
  0
LINE
  5
58C
100
AcDbEntity
  8
RACCORDO
100
AcDbLine
 62
250
  6
CONTINUOUS
 10
-45.7688068701
 20
-1.8877357561
 11
-46.0635711482
 21
-1.8877357561
  0
LINE
  5
58D
100
AcDbEntity
  8
RACCORDO
100
AcDbLine
 62
250
  6
CONTINUOUS
 10
-59.2693447671
 20
-18.8528476001
 11
-59.269161725
 21
-18.8534839383
  0
LINE
  5
58E
100
AcDbEntity
  8
RACCORDO
100
AcDbLine
 62
250
  6
CONTINUOUS
 10
-71.3688068701
 20
-22.1899409736
 11
-71.2804073947
 21
-21.9332102554
  0
LINE
  5
58F
100
AcDbEntity
  8
SMUSSO
100
AcDbLine
 62
7
  6
CONTINUOUS
 10
-71.2688068701
 20
-22.3602529088
 11
-71.1385796083
 21
-21.9820454786
  0
LINE
  5
590
100
AcDbEntity
  8
SMUSSO
100
AcDbLine
 62
7
  6
CONTINUOUS
 10
-70.7960475823
 20
-22.5230369861
 11
-70.6658203205
 21
-22.1448295558
  0
LWPOLYLINE
  5
591
100
AcDbEntity
  8
RACCORDO
100
AcDbPolyline
 62
7
  6
CONTINUOUS
 90
16
 70
0
 10
-46.8121839289
 20
-2.2007571494
 10
-46.8232491893
 20
-2.1991463271
 10
-46.8349793265
 20
-2.1939892783
 10
-46.8473790966
 20
-2.1853921153
 10
-46.860777851
 20
-2.1734765214
 10
-46.8748530817
 20
-2.1584344857
 10
-46.8886286505
 20
-2.1405910941
 10
-46.9020845755
 20
-2.1203228426
 10
-46.9152373731
 20
-2.0978790693
 10
-46.9271637004
 20
-2.0734463126
 10
-46.9377996342
 20
-2.047236185
 10
-46.9472037308
 20
-2.0196413301
 10
-46.95463514
 20
-1.9911246866
 10
-46.9598424184
 20
-1.9620682025
 10
-46.9630649447
 20
-1.9327447896
 10
-46.9642963318
 20
-1.9034579727
  0
LINE
  5
592
100
AcDbEntity
  8
RACCORDO
100
AcDbLine
 62
250
  6
CONTINUOUS
 10
-71.3688068701
 20
22.1899409736
 11
-71.2804073947
 21
21.9332102554
  0
LINE
  5
593
100
AcDbEntity
  8
SMUSSO
100
AcDbLine
 62
7
  6
CONTINUOUS
 10
-71.2688068701
 20
22.3602529088
 11
-71.1385796083
 21
21.9820454786
  0
LINE
  5
594
100
AcDbEntity
  8
SMUSSO
100
AcDbLine
 62
7
  6
CONTINUOUS
 10
-70.7960475823
 20
22.5230369861
 11
-70.6658203205
 21
22.1448295558
  0
LINE
  5
595
100
AcDbEntity
  8
RACCORDO
100
AcDbLine
 62
250
  6
CONTINUOUS
 10
-60.2600803346
 20
19.9388357701
 11
-60.2600803346
 21
19.0611642299
  0
LINE
  5
596
100
AcDbEntity
  8
RACCORDO
100
AcDbLine
 62
250
  6
CONTINUOUS
 10
-60.2600803346
 20
-19.0611642299
 11
-60.2600803346
 21
-19.9388357701
  0
LWPOLYLINE
  5
597
100
AcDbEntity
  8
RACCORDO
100
AcDbPolyline
 62
250
  6
CONTINUOUS
 90
7
 70
0
 10
-65.3924130401
 20
20.7986665407
 10
-65.3920300697
 20
20.7971202928
 10
-65.3917073795
 20
20.792522303
 10
-65.3914504886
 20
20.7849512136
 10
-65.3912637908
 20
20.7745365179
 10
-65.3911504794
 20
20.7614563454
 10
-65.39111714
 20
20.747833492
  0
LWPOLYLINE
  5
598
100
AcDbEntity
  8
RACCORDO
100
AcDbPolyline
 62
250
  6
CONTINUOUS
 90
4
 70
0
 10
-59.2699061428
 20
18.8603786685
 10
-59.2694106476
 20
18.8541955185
 10
-59.2689269952
 20
18.8356478778
 10
-59.2684679099
 20
18.8047454546
  0
LINE
  5
599
100
AcDbEntity
  8
RACCORDO
100
AcDbLine
 62
250
  6
CONTINUOUS
 10
-59.2684679099
 20
18.8047454546
 11
-59.2676874625
 21
18.7061078689
  0
LINE
  5
59A
100
AcDbEntity
  8
RACCORDO
100
AcDbLine
 62
250
  6
CONTINUOUS
 10
-59.2676874625
 20
18.7061078689
 11
-59.2666053568
 21
18.3667252433
  0
LINE
  5
59B
100
AcDbEntity
  8
RACCORDO
100
AcDbLine
 62
250
  6
CONTINUOUS
 10
-59.2666053568
 20
18.3667252433
 11
-59.2662199612
 21
17.8554184815
  0
LINE
  5
59C
100
AcDbEntity
  8
RACCORDO
100
AcDbLine
 62
7
  6
CONTINUOUS
 10
-59.2688068701
 20
20.6944048997
 11
-59.2688068701
 21
19.0698149423
  0
LINE
  5
59D
100
AcDbEntity
  8
RACCORDO
100
AcDbLine
 62
7
  6
CONTINUOUS
 10
-59.2688068701
 20
-20.6944048997
 11
-59.2688068701
 21
-19.0698149423
  0
LINE
  5
59E
100
AcDbEntity
  8
RACCORDO
100
AcDbLine
 62
7
  6
CONTINUOUS
 10
-58.7688068701
 20
18.3504563439
 11
-58.7688068701
 21
17.8
  0
LINE
  5
59F
100
AcDbEntity
  8
RACCORDO
100
AcDbLine
 62
7
  6
CONTINUOUS
 10
-58.7688068701
 20
-18.3429975431
 11
-58.7688068701
 21
-17.8
  0
LINE
  5
5A0
100
AcDbEntity
  8
RACCORDO
100
AcDbLine
 62
250
  6
CONTINUOUS
 10
-59.2662199612
 20
17.8554184815
 11
-59.2667513728
 21
17.0199676925
  0
LINE
  5
5A1
100
AcDbEntity
  8
RACCORDO
100
AcDbLine
 62
250
  6
CONTINUOUS
 10
-59.2671355964
 20
-18.5817098351
 11
-59.2667513935
 21
-17.0199676929
  0
LINE
  5
5A2
100
AcDbEntity
  8
RACCORDO
100
AcDbLine
 62
7
  6
CONTINUOUS
 10
-58.7689098994
 20
-18.3532444068
 11
-58.7688068701
 21
-18.3429975542
  0
LWPOLYLINE
  5
5A3
100
AcDbEntity
  8
RACCORDO
100
AcDbPolyline
 62
250
  6
CONTINUOUS
 90
5
 70
0
 10
-59.2693441409
 20
-18.8529061162
 10
-59.2689083729
 20
-18.8346785154
 10
-59.2684873336
 20
-18.8055559575
 10
-59.2680907666
 20
-18.7655922145
 10
-59.2671355964
 20
-18.5817098351
  0
LINE
  5
5A4
100
AcDbEntity
  8
RACCORDO
100
AcDbLine
 62
250
  6
CONTINUOUS
 10
-45.7688068701
 20
3.4877357561
 11
-46.0635711482
 21
3.4877357561
  0
LINE
  5
5A5
100
AcDbEntity
  8
RACCORDO
100
AcDbLine
 62
250
  6
CONTINUOUS
 10
-46.0635711482
 20
3.4877357561
 11
-46.9642963318
 21
3.5034579727
  0
LINE
  5
5A6
100
AcDbEntity
  8
RACCORDO
100
AcDbLine
 62
7
  6
CONTINUOUS
 10
-46.0635711482
 20
3.7876900647
 11
-46.8121839289
 21
3.8007571494
  0
LINE
  5
5A7
100
AcDbEntity
  8
RACCORDO
100
AcDbLine
 62
250
  6
CONTINUOUS
 10
-56.7504251588
 20
-15.5086396597
 11
-56.7513544637
 21
-15.3169502523
  0
LINE
  5
5A8
100
AcDbEntity
  8
RACCORDO
100
AcDbLine
 62
250
  6
CONTINUOUS
 10
-56.7495506248
 20
-15.6998409466
 11
-56.7504251588
 21
-15.5086396597
  0
LINE
  5
5A9
100
AcDbEntity
  8
RACCORDO
100
AcDbLine
 62
250
  6
CONTINUOUS
 10
-56.7489994443
 20
-15.8267549324
 11
-56.7495506248
 21
-15.6998409466
  0
LINE
  5
5AA
100
AcDbEntity
  8
RACCORDO
100
AcDbLine
 62
250
  6
CONTINUOUS
 10
-56.7484744085
 20
-15.953013983
 11
-56.7489994443
 21
-15.8267549324
  0
LINE
  5
5AB
100
AcDbEntity
  8
RACCORDO
100
AcDbLine
 62
250
  6
CONTINUOUS
 10
-56.747976705
 20
-16.0784430794
 11
-56.7484744085
 21
-15.953013983
  0
LINE
  5
5AC
100
AcDbEntity
  8
RACCORDO
100
AcDbLine
 62
250
  6
CONTINUOUS
 10
-56.7475068002
 20
-16.2028640571
 11
-56.747976705
 21
-16.0784430794
  0
LINE
  5
5AD
100
AcDbEntity
  8
RACCORDO
100
AcDbLine
 62
250
  6
CONTINUOUS
 10
-56.7468552672
 20
-16.3872765217
 11
-56.7475068002
 21
-16.2028640571
  0
LINE
  5
5AE
100
AcDbEntity
  8
RACCORDO
100
AcDbLine
 62
250
  6
CONTINUOUS
 10
-56.7464572475
 20
-16.5085094459
 11
-56.7468552672
 21
-16.3872765217
  0
LINE
  5
5AF
100
AcDbEntity
  8
RACCORDO
100
AcDbLine
 62
250
  6
CONTINUOUS
 10
-56.7459166097
 20
-16.6873510667
 11
-56.7464572475
 21
-16.5085094459
  0
LINE
  5
5B0
100
AcDbEntity
  8
RACCORDO
100
AcDbLine
 62
250
  6
CONTINUOUS
 10
-56.7455945124
 20
-16.8043021725
 11
-56.7459166097
 21
-16.6873510667
  0
LINE
  5
5B1
100
AcDbEntity
  8
RACCORDO
100
AcDbLine
 62
7
  6
CONTINUOUS
 10
-55.7688099002
 20
-16.762475826
 11
-55.7688068701
 21
-16.7649375541
  0
LINE
  5
5B2
100
AcDbEntity
  8
RACCORDO
100
AcDbLine
 62
250
  6
CONTINUOUS
 10
-56.7441855178
 20
-17.394614563
 11
-56.7455945124
 21
-16.8043021725
  0
LWPOLYLINE
  5
5B3
100
AcDbEntity
  8
RACCORDO
100
AcDbPolyline
 62
250
  6
CONTINUOUS
 90
76
 70
0
 10
-56.7513544637
 20
-15.3169502523
 10
-56.7511726821
 20
-7.6874540476
 10
-56.7505885819
 20
-7.6425729301
 10
-56.7496022413
 20
-7.5980539106
 10
-56.7482405532
 20
-7.5540396811
 10
-56.7464766247
 20
-7.5103875496
 10
-56.7442297772
 20
-7.4666694402
 10
-56.7415105112
 20
-7.4228696848
 10
-56.7383083262
 20
-7.3790039514
 10
-56.734511043
 20
-7.3346911682
 10
-56.7301392061
 20
-7.2898994362
 10
-56.725172271
 20
-7.2446606544
 10
-56.7194364246
 20
-7.1986894474
 10
-56.7129495303
 20
-7.1519544931
 10
-56.7056937247
 20
-7.1044871137
 10
-56.6974416048
 20
-7.0560959007
 10
-56.6881701679
 20
-7.006609752
 10
-56.6779024165
 20
-6.9561997698
 10
-56.6664799553
 20
-6.9051878511
 10
-56.6538479941
 20
-6.8534560909
 10
-56.6400613231
 20
-6.8011223944
 10
-56.6251259172
 20
-6.748862374
 10
-56.6089993239
 20
-6.696701793
 10
-56.5917239958
 20
-6.6446148881
 10
-56.5734332658
 20
-6.5931999822
 10
-56.5541303789
 20
-6.5425734718
 10
-56.5338120901
 20
-6.4926189605
 10
-56.5126019977
 20
-6.443585582
 10
-56.4905218473
 20
-6.3955524494
 10
-56.4675498932
 20
-6.3484404496
 10
-56.4437444964
 20
-6.3022613766
 10
-56.4191058084
 20
-6.25701673
 10
-56.3936336777
 20
-6.2127050102
 10
-56.3673860113
 20
-6.1693335123
 10
-56.3403616401
 20
-6.1269008433
 10
-56.3125617332
 20
-6.0854083962
 10
-56.2840477059
 20
-6.0448676448
 10
-56.2548185058
 20
-6.0052779666
 10
-56.2248751852
 20
-5.966639984
 10
-56.1942823158
 20
-5.9289670384
 10
-56.1630476933
 20
-5.8922668955
 10
-56.131163522
 20
-5.8565317895
 10
-56.098670986
 20
-5.821751765
 10
-56.0655824767
 20
-5.7879333112
 10
-56.0318856029
 20
-5.7550699388
 10
-55.9975843743
 20
-5.7231322248
 10
-55.9626769632
 20
-5.6921111636
 10
-55.9271651973
 20
-5.6620157607
 10
-55.8910585704
 20
-5.6328436096
 10
-55.8543097326
 20
-5.604562263
 10
-55.8169660337
 20
-5.5772041681
 10
-55.7791790171
 20
-5.5508642605
 10
-55.7409208489
 20
-5.5255419551
 10
-55.7022193629
 20
-5.501237837
 10
-55.6633096034
 20
-5.4780485977
 10
-55.624216793
 20
-5.4560047656
 10
-55.5849157092
 20
-5.4350758123
 10
-55.5455657283
 20
-5.4152668445
 10
-55.5062605248
 20
-5.3966160068
 10
-55.4669064243
 20
-5.3790851547
 10
-55.42738178
 20
-5.3625649606
 10
-55.3877111452
 20
-5.3470440419
 10
-55.3478699666
 20
-5.3325337812
 10
-55.3076629378
 20
-5.3189589996
 10
-55.2670693192
 20
-5.3062850881
 10
-55.2261098504
 20
-5.2945466557
 10
-55.1846514435
 20
-5.2837723495
 10
-55.1426746332
 20
-5.2739487306
 10
-55.1001988847
 20
-5.265089238
 10
-55.0571495061
 20
-5.2572628357
 10
-55.0135163533
 20
-5.2504576686
 10
-54.9693095703
 20
-5.2446855919
 10
-54.9244848971
 20
-5.2400511361
 10
-54.8790275805
 20
-5.2365891449
 10
-54.8329523736
 20
-5.2342647746
 10
-54.7862592765
 20
-5.2330780252
  0
LINE
  5
5B4
100
AcDbEntity
  8
RACCORDO
100
AcDbLine
 62
250
  6
CONTINUOUS
 10
-56.7446769993
 20
-17.5241145472
 11
-56.7441855178
 21
-17.394614563
  0
LINE
  5
5B5
100
AcDbEntity
  8
RACCORDO
100
AcDbLine
 62
250
  6
CONTINUOUS
 10
-56.7452815768
 20
-17.596224583
 11
-56.7446769993
 21
-17.5241145472
  0
LINE
  5
5B6
100
AcDbEntity
  8
RACCORDO
100
AcDbLine
 62
250
  6
CONTINUOUS
 10
-56.7458765318
 20
-17.6423313866
 11
-56.7452815768
 21
-17.596224583
  0
LINE
  5
5B7
100
AcDbEntity
  8
RACCORDO
100
AcDbLine
 62
250
  6
CONTINUOUS
 10
-56.7465893588
 20
-17.6813396223
 11
-56.7458765318
 21
-17.6423313866
  0
LINE
  5
5B8
100
AcDbEntity
  8
RACCORDO
100
AcDbLine
 62
250
  6
CONTINUOUS
 10
-56.7471283155
 20
-17.7033067023
 11
-56.7465893588
 21
-17.6813396223
  0
LWPOLYLINE
  5
5B9
100
AcDbEntity
  8
RACCORDO
100
AcDbPolyline
 62
250
  6
CONTINUOUS
 90
3
 70
0
 10
-59.2699061428
 20
-18.8603786685
 10
-59.2696093524
 20
-18.8578070523
 10
-59.2694969645
 20
-18.8535488976
  0
LINE
  5
5BA
100
AcDbEntity
  8
RACCORDO
100
AcDbLine
 62
250
  6
CONTINUOUS
 10
-54.7862592912
 20
-5.2330780243
 11
-54.7826570823
 21
-5.4565265888
  0
LINE
  5
5BB
100
AcDbEntity
  8
RACCORDO
100
AcDbLine
 62
250
  6
CONTINUOUS
 10
-54.781002998
 20
-16.5643917397
 11
-54.7862592772
 21
-16.2307128304
  0
LINE
  5
5BC
100
AcDbEntity
  8
RACCORDO
100
AcDbLine
 62
250
  6
CONTINUOUS
 10
-54.7826570823
 20
-5.4565265888
 11
-54.7797215466
 21
-5.6749364478
  0
LINE
  5
5BD
100
AcDbEntity
  8
RACCORDO
100
AcDbLine
 62
250
  6
CONTINUOUS
 10
-54.7773478569
 20
-16.8813419287
 11
-54.781002998
 21
-16.5643917397
  0
LINE
  5
5BE
100
AcDbEntity
  8
RACCORDO
100
AcDbLine
 62
250
  6
CONTINUOUS
 10
-54.7797215466
 20
-5.6749364478
 11
-54.7775172487
 21
-5.8834479044
  0
LINE
  5
5BF
100
AcDbEntity
  8
RACCORDO
100
AcDbLine
 62
250
  6
CONTINUOUS
 10
-54.7775172487
 20
-5.8834479044
 11
-54.7760907486
 21
-6.0774287559
  0
LINE
  5
5C0
100
AcDbEntity
  8
RACCORDO
100
AcDbLine
 62
250
  6
CONTINUOUS
 10
-54.7754743783
 20
-17.1656793848
 11
-54.7773478569
 21
-16.8813419287
  0
LINE
  5
5C1
100
AcDbEntity
  8
RACCORDO
100
AcDbLine
 62
250
  6
CONTINUOUS
 10
-54.7760907486
 20
-6.0774287559
 11
-54.775473424
 21
-6.2525693266
  0
LINE
  5
5C2
100
AcDbEntity
  8
0
100
AcDbLine
 62
7
  6
CONTINUOUS
 10
-55.5688068701
 20
-7.1326972631
 11
-55.5688068701
 21
-11.4533689995
  0
LINE
  5
5C3
100
AcDbEntity
  8
RACCORDO
100
AcDbLine
 62
250
  6
CONTINUOUS
 10
-54.7862592765
 20
-6.732849568
 11
-54.7862582305
 21
-16.2307128136
  0
LINE
  5
5C4
100
AcDbEntity
  8
RACCORDO
100
AcDbLine
 62
250
  6
CONTINUOUS
 10
-54.775264465
 20
-17.3299927
 11
-54.7754743783
 21
-17.1656793848
  0
LINE
  5
5C5
100
AcDbEntity
  8
RACCORDO
100
AcDbLine
 62
250
  6
CONTINUOUS
 10
-54.775473424
 20
-6.2525693266
 11
-54.7756789762
 21
-6.4049757011
  0
LWPOLYLINE
  5
5C6
100
AcDbEntity
  8
RACCORDO
100
AcDbPolyline
 62
250
  6
CONTINUOUS
 90
9
 70
0
 10
-54.7756789762
 20
-6.4049757011
 10
-54.7767033818
 20
-6.5312594847
 10
-54.7775164985
 20
-6.5837026817
 10
-54.778524735
 20
-6.6286096402
 10
-54.779722403
 20
-6.6657291195
 10
-54.7811028463
 20
-6.6948538436
 10
-54.7826583974
 20
-6.715820071
 10
-54.7843804061
 20
-6.7285091296
 10
-54.7862592912
 20
-6.7328487333
  0
LWPOLYLINE
  5
5C7
100
AcDbEntity
  8
RACCORDO
100
AcDbPolyline
 62
7
  6
CONTINUOUS
 90
7
 70
0
 10
-55.7704133954
 20
-16.8215985504
 10
-55.7698925017
 20
-16.8115217109
 10
-55.7694827161
 20
-16.8016966965
 10
-55.7691765111
 20
-16.7921247738
 10
-55.7689505012
 20
-16.7818857473
 10
-55.76883112
 20
-16.7719016776
 10
-55.7688068701
 20
-7.7327060702
  0
LINE
  5
5C8
100
AcDbEntity
  8
0
100
AcDbLine
 62
250
  6
CONTINUOUS
 10
-63.4534019564
 20
-25.0513126297
 11
-63.3231746946
 21
-24.6731051994
  0
LINE
  5
5C9
100
AcDbEntity
  8
RACCORDO
100
AcDbLine
 62
7
  6
CONTINUOUS
 10
-46.7688068701
 20
7.75
 11
-46.0635711482
 21
7.7623099353
  0
LINE
  5
5CA
100
AcDbEntity
  8
0
100
AcDbLine
 62
250
  6
CONTINUOUS
 10
-63.4534019564
 20
25.0513126297
 11
-63.3231746946
 21
24.6731051994
  0
LINE
  5
5CB
100
AcDbEntity
  8
RACCORDO
100
AcDbLine
 62
250
  6
CONTINUOUS
 10
-47.7513544637
 20
-16.1079181127
 11
-47.74791059
 21
-16.4415252695
  0
LINE
  5
5CC
100
AcDbEntity
  8
RACCORDO
100
AcDbLine
 62
250
  6
CONTINUOUS
 10
-47.7513544637
 20
-5.1102833217
 11
-47.7479114964
 21
-5.4438340855
  0
LINE
  5
5CD
100
AcDbEntity
  8
RACCORDO
100
AcDbLine
 62
250
  6
CONTINUOUS
 10
-47.74791059
 20
-16.4415252695
 11
-47.7455127337
 21
-16.758520537
  0
LINE
  5
5CE
100
AcDbEntity
  8
RACCORDO
100
AcDbLine
 62
250
  6
CONTINUOUS
 10
-47.7455127337
 20
-16.758520537
 11
-47.7445586017
 21
-16.9526659754
  0
LINE
  5
5CF
100
AcDbEntity
  8
RACCORDO
100
AcDbLine
 62
250
  6
CONTINUOUS
 10
-47.7466515522
 20
16.2912999624
 11
-47.7495580951
 21
15.5429678862
  0
LINE
  5
5D0
100
AcDbEntity
  8
RACCORDO
100
AcDbLine
 62
250
  6
CONTINUOUS
 10
-47.744399891
 20
17.0002453913
 11
-47.7451698538
 21
16.8188341385
  0
LINE
  5
5D1
100
AcDbEntity
  8
RACCORDO
100
AcDbLine
 62
250
  6
CONTINUOUS
 10
-47.7495580951
 20
15.5429678862
 11
-47.7513557058
 21
15.1596498287
  0
LWPOLYLINE
  5
5D2
100
AcDbEntity
  8
RACCORDO
100
AcDbPolyline
 62
250
  6
CONTINUOUS
 90
10
 70
0
 10
-54.7862582112
 20
-17.7305556031
 10
-54.7843434398
 20
-17.7263236754
 10
-54.7825885383
 20
-17.7137318154
 10
-54.7810032774
 20
-17.6928503565
 10
-54.7795965803
 20
-17.6637959707
 10
-54.7783761731
 20
-17.6267310099
 10
-54.7773485951
 20
-17.581862596
 10
-54.7765196289
 20
-17.5294414673
 10
-54.7758939191
 20
-17.4697606024
 10
-54.775264465
 20
-17.3299927
  0
LINE
  5
5D3
100
AcDbEntity
  8
RACCORDO
100
AcDbLine
 62
7
  6
CONTINUOUS
 10
-46.7688068701
 20
13.75
 11
-46.0635711482
 21
13.7376900647
  0
LWPOLYLINE
  5
5D4
100
AcDbEntity
  8
RACCORDO
100
AcDbPolyline
 62
7
  6
CONTINUOUS
 90
5
 70
0
 10
-46.8178503145
 20
-11.4425536261
 10
-46.7906759121
 20
-11.7795899471
 10
-46.7795974264
 20
-11.9360751847
 10
-46.7717851321
 20
-12.0858051571
 10
-46.7688068701
 20
-12.2287798644
  0
LINE
  5
5D5
100
AcDbEntity
  8
RACCORDO
100
AcDbLine
 62
250
  6
CONTINUOUS
 10
-46.0635711482
 20
-1.8877357561
 11
-46.062304356
 21
-1.9725781849
  0
LINE
  5
5D6
100
AcDbEntity
  8
RACCORDO
100
AcDbLine
 62
250
  6
CONTINUOUS
 10
-46.0617995439
 20
3.7569032878
 11
-46.0615840044
 21
3.7411781799
  0
LINE
  5
5D7
100
AcDbEntity
  8
RACCORDO
100
AcDbLine
 62
250
  6
CONTINUOUS
 10
-46.062304356
 20
-1.9725781849
 11
-46.0617104045
 21
-2.0305686044
  0
LINE
  5
5D8
100
AcDbEntity
  8
RACCORDO
100
AcDbLine
 62
250
  6
CONTINUOUS
 10
-47.7456637119
 20
17.4705932736
 11
-47.7446759797
 21
17.3668892229
  0
LINE
  5
5D9
100
AcDbEntity
  8
RACCORDO
100
AcDbLine
 62
250
  6
CONTINUOUS
 10
-47.7479114964
 20
-5.4438340855
 11
-47.7455134337
 21
-5.7608415564
  0
LINE
  5
5DA
100
AcDbEntity
  8
RACCORDO
100
AcDbLine
 62
250
  6
CONTINUOUS
 10
-46.0615840044
 20
3.7411781799
 11
-46.0614513719
 21
3.7224980562
  0
LINE
  5
5DB
100
AcDbEntity
  8
RACCORDO
100
AcDbLine
 62
250
  6
CONTINUOUS
 10
-46.0617104045
 20
-2.0305686044
 11
-46.0614228799
 21
-2.083936904
  0
LINE
  5
5DC
100
AcDbEntity
  8
RACCORDO
100
AcDbLine
 62
250
  6
CONTINUOUS
 10
-47.7455134337
 20
-5.7608415564
 11
-47.7442845425
 21
-6.0452425383
  0
LINE
  5
5DD
100
AcDbEntity
  8
RACCORDO
100
AcDbLine
 62
250
  6
CONTINUOUS
 10
-47.7446759797
 20
17.3668892229
 11
-47.7441289585
 21
17.1635048146
  0
LINE
  5
5DE
100
AcDbEntity
  8
RACCORDO
100
AcDbLine
 62
250
  6
CONTINUOUS
 10
-47.7513544637
 20
-16.1079181127
 11
-47.7513544637
 21
-6.6100548477
  0
LINE
  5
5DF
100
AcDbEntity
  8
RACCORDO
100
AcDbLine
 62
250
  6
CONTINUOUS
 10
-47.7513544637
 20
-5.1102833217
 11
-47.7513544637
 21
15.159649807
  0
LINE
  5
5E0
100
AcDbEntity
  8
RACCORDO
100
AcDbLine
 62
250
  6
CONTINUOUS
 10
-47.7445586017
 20
-16.9526659754
 11
-47.7441459046
 21
-17.2072524014
  0
LINE
  5
5E1
100
AcDbEntity
  8
RACCORDO
100
AcDbLine
 62
7
  6
CONTINUOUS
 10
-46.9642963318
 20
3.5034579727
 11
-46.9642963318
 21
-1.9034579727
  0
LINE
  5
5E2
100
AcDbEntity
  8
RACCORDO
100
AcDbLine
 62
7
  6
CONTINUOUS
 10
-46.7688068701
 20
16.6078419577
 11
-46.7688068701
 21
12.5372983794
  0
LINE
  5
5E3
100
AcDbEntity
  8
RACCORDO
100
AcDbLine
 62
7
  6
CONTINUOUS
 10
-46.7688068701
 20
8.9627016206
 11
-46.7688068701
 21
3.8
  0
LINE
  5
5E4
100
AcDbEntity
  8
RACCORDO
100
AcDbLine
 62
7
  6
CONTINUOUS
 10
-46.7688068701
 20
-2.2
 11
-46.7688068701
 21
-9.2712104204
  0
LINE
  5
5E5
100
AcDbEntity
  8
RACCORDO
100
AcDbLine
 62
7
  6
CONTINUOUS
 10
-46.7688068701
 20
-12.2287895796
 11
-46.7688068701
 21
-16.6078419577
  0
LINE
  5
5E6
100
AcDbEntity
  8
RACCORDO
100
AcDbLine
 62
250
  6
CONTINUOUS
 10
-46.0635711482
 20
3.4877357561
 11
-46.0635711482
 21
-1.8877357561
  0
LINE
  5
5E7
100
AcDbEntity
  8
RACCORDO
100
AcDbLine
 62
250
  6
CONTINUOUS
 10
-46.0635711482
 20
-7.7623099353
 11
-46.0635711482
 21
-13.7376900647
  0
LINE
  5
5E8
100
AcDbEntity
  8
RACCORDO
100
AcDbLine
 62
250
  6
CONTINUOUS
 10
-46.0635711482
 20
13.7376900647
 11
-46.0635711482
 21
7.7623099353
  0
LINE
  5
5E9
100
AcDbEntity
  8
RACCORDO
100
AcDbLine
 62
250
  6
CONTINUOUS
 10
-46.0614513719
 20
3.7224980562
 11
-46.0614116931
 21
3.6896126869
  0
LINE
  5
5EA
100
AcDbEntity
  8
RACCORDO
100
AcDbLine
 62
250
  6
CONTINUOUS
 10
-47.7442845425
 20
-6.0452425383
 11
-47.7442842655
 21
-6.2827519336
  0
LINE
  5
5EB
100
AcDbEntity
  8
RACCORDO
100
AcDbLine
 62
250
  6
CONTINUOUS
 10
-47.7441289585
 20
17.1635048146
 11
-47.744399891
 21
17.0002453913
  0
LINE
  5
5EC
100
AcDbEntity
  8
RACCORDO
100
AcDbLine
 62
250
  6
CONTINUOUS
 10
-46.0614228799
 20
-2.083936904
 11
-46.0614340512
 21
-2.1181637199
  0
LINE
  5
5ED
100
AcDbEntity
  8
RACCORDO
100
AcDbLine
 62
250
  6
CONTINUOUS
 10
-47.7451697218
 20
16.8188341362
 11
-47.7466515522
 21
16.2912999624
  0
LINE
  5
5EE
100
AcDbEntity
  8
RACCORDO
100
AcDbLine
 62
250
  6
CONTINUOUS
 10
-47.7441459046
 20
-17.2072524014
 11
-47.7445590159
 21
-17.347029045
  0
LINE
  5
5EF
100
AcDbEntity
  8
RACCORDO
100
AcDbLine
 62
250
  6
CONTINUOUS
 10
-46.0614116931
 20
3.6896126869
 11
-46.0616502774
 21
3.6384200781
  0
LWPOLYLINE
  5
5F0
100
AcDbEntity
  8
RACCORDO
100
AcDbPolyline
 62
250
  6
CONTINUOUS
 90
9
 70
0
 10
-47.7442842655
 20
-6.2827519336
 10
-47.7449681443
 20
-6.4090496671
 10
-47.7455128195
 20
-6.4614678629
 10
-47.7461872111
 20
-6.5063285212
 10
-47.7469865855
 20
-6.5433806875
 10
-47.74791064
 20
-6.5724159033
 10
-47.7489537141
 20
-6.5932742664
 10
-47.7501048871
 20
-6.6058430149
 10
-47.7513544637
 20
-6.6100548477
  0
LINE
  5
5F1
100
AcDbEntity
  8
RACCORDO
100
AcDbLine
 62
250
  6
CONTINUOUS
 10
-46.0614340512
 20
-2.1181637199
 11
-46.0615492662
 21
-2.1375118341
  0
LWPOLYLINE
  5
5F2
100
AcDbEntity
  8
RACCORDO
100
AcDbPolyline
 62
250
  6
CONTINUOUS
 90
8
 70
0
 10
-47.7445590159
 20
-17.347029045
 10
-47.7455133478
 20
-17.4591239561
 10
-47.7461878535
 20
-17.5039829179
 10
-47.7469873489
 20
-17.5410330195
 10
-47.7479114463
 20
-17.5700635919
 10
-47.7489544151
 20
-17.5909159333
 10
-47.7501053284
 20
-17.6034798215
 10
-47.7513544637
 20
-17.6076896529
  0
LINE
  5
5F3
100
AcDbEntity
  8
RACCORDO
100
AcDbLine
 62
250
  6
CONTINUOUS
 10
-46.0616502774
 20
3.6384200781
 11
-46.0623893917
 21
3.5657952072
  0
LWPOLYLINE
  5
5F4
100
AcDbEntity
  8
RACCORDO
100
AcDbPolyline
 62
250
  6
CONTINUOUS
 90
11
 70
0
 10
-46.0615492662
 20
-2.1375118341
 10
-46.0617474319
 20
-2.1538571336
 10
-46.0618766556
 20
-2.160871087
 10
-46.0620253274
 20
-2.1670920141
 10
-46.0621931074
 20
-2.1725131835
 10
-46.0623794634
 20
-2.1771218333
 10
-46.062583808
 20
-2.1809072574
 10
-46.0628057677
 20
-2.1838640218
 10
-46.063044809
 20
-2.1859843138
 10
-46.0633001763
 20
-2.1872608843
 10
-46.0635711482
 20
-2.1876900647
  0
LINE
  5
5F5
100
AcDbEntity
  8
RACCORDO
100
AcDbLine
 62
250
  6
CONTINUOUS
 10
-46.0623893917
 20
3.5657952072
 11
-46.0635711482
 21
3.4877357561
  0
LWPOLYLINE
  5
5F6
100
AcDbEntity
  8
RACCORDO
100
AcDbPolyline
 62
7
  6
CONTINUOUS
 90
4
 70
0
 10
-46.7688068701
 20
-9.2712201356
 10
-46.7717849623
 20
-9.4141826109
 10
-46.7795971225
 20
-9.5639129212
 10
-46.7906759911
 20
-9.7204110663
  0
LWPOLYLINE
  5
5F7
100
AcDbEntity
  8
RACCORDO
100
AcDbPolyline
 62
7
  6
CONTINUOUS
 90
22
 70
0
 10
-46.7688068701
 20
12.5373006973
 10
-46.7732824689
 20
12.4050857946
 10
-46.7857638005
 20
12.2621156718
 10
-46.8048539929
 20
12.1083903291
 10
-46.8299182184
 20
11.941635049
 10
-46.8592697093
 20
11.7641245489
 10
-46.8887287607
 20
11.5826829812
 10
-46.9156214999
 20
11.397605665
 10
-46.9387703872
 20
11.2085972812
 10
-46.9552421529
 20
11.0215960239
 10
-46.9634508172
 20
10.8399252582
 10
-46.9634557796
 20
10.660261619
 10
-46.9552532722
 20
10.4785732058
 10
-46.9387802072
 20
10.291525594
 10
-46.9156267691
 20
10.1024532082
 10
-46.888730397
 20
9.9173274214
 10
-46.8592696005
 20
9.7358681258
 10
-46.8299171448
 20
9.5583554293
 10
-46.8048527753
 20
9.3916010291
 10
-46.7857629844
 20
9.2378754907
 10
-46.7732821925
 20
9.0949082486
 10
-46.7688068701
 20
8.9626993027
  0
LWPOLYLINE
  5
5F8
100
AcDbEntity
  8
RACCORDO
100
AcDbPolyline
 62
7
  6
CONTINUOUS
 90
16
 70
0
 10
-46.9642963318
 20
3.5034579727
 10
-46.9630649447
 20
3.5327447896
 10
-46.9598424184
 20
3.5620682025
 10
-46.95463514
 20
3.5911246866
 10
-46.9472037308
 20
3.6196413301
 10
-46.9377996342
 20
3.647236185
 10
-46.9271637004
 20
3.6734463126
 10
-46.9152373731
 20
3.6978790693
 10
-46.9020845755
 20
3.7203228426
 10
-46.8886286505
 20
3.7405910941
 10
-46.8748530817
 20
3.7584344857
 10
-46.860777851
 20
3.7734765214
 10
-46.8473790966
 20
3.7853921153
 10
-46.8349793265
 20
3.7939892783
 10
-46.8232491893
 20
3.7991463271
 10
-46.8121839289
 20
3.8007571494
  0
LWPOLYLINE
  5
5F9
100
AcDbEntity
  8
RACCORDO
100
AcDbPolyline
 62
7
  6
CONTINUOUS
 90
10
 70
0
 10
-46.7906759911
 20
-9.7204110663
 10
-46.8178555773
 20
-10.0575187011
 10
-46.8304118548
 20
-10.2305125113
 10
-46.8400741709
 20
-10.4030150248
 10
-46.8463195344
 20
-10.5765736136
 10
-46.8484942933
 20
-10.7501186342
 10
-46.8463161253
 20
-10.9236407459
 10
-46.8400676226
 20
-11.0971492894
 10
-46.8304043523
 20
-11.2696026434
 10
-46.8178503145
 20
-11.4425536261
  0
LWPOLYLINE
  5
5FA
100
AcDbEntity
  8
RACCORDO
100
AcDbPolyline
 62
250
  6
CONTINUOUS
 90
4
 70
0
 10
-55.7667436145
 20
-16.7624659933
 10
-55.7678927571
 20
-16.7638707682
 10
-55.7685791233
 20
-16.7646946944
 10
-55.7688068701
 20
-16.764937772
  0
LWPOLYLINE
  5
5FB
100
AcDbEntity
  8
RACCORDO
100
AcDbPolyline
 62
250
  6
CONTINUOUS
 90
12
 70
0
 10
-56.7513544637
 20
-17.7647852373
 10
-56.7509424372
 20
-17.7643490452
 10
-56.7505403317
 20
-17.7630549855
 10
-56.7501484999
 20
-17.7609033715
 10
-56.7497673694
 20
-17.7578947821
 10
-56.7493971943
 20
-17.7540306265
 10
-56.7490380447
 20
-17.7493137102
 10
-56.7486902233
 20
-17.7437470288
 10
-56.74835403
 20
-17.7373337036
 10
-56.7480295015
 20
-17.7300782034
 10
-56.7477169172
 20
-17.7219854579
 10
-56.7471283155
 20
-17.7033067023
  0
LINE
  5
5FC
100
AcDbEntity
  8
RACCORDO
100
AcDbLine
 62
250
  6
CONTINUOUS
 10
-46.7688068701
 20
15.159854668
 11
-47.7513544637
 21
15.159854668
  0
LINE
  5
5FD
100
AcDbEntity
  8
RACCORDO
100
AcDbLine
 62
250
  6
CONTINUOUS
 10
-47.7513544637
 20
15.159649807
 11
-67.2688068701
 21
15.500533067
  0
LWPOLYLINE
  5
5FE
100
AcDbEntity
  8
RACCORDO
100
AcDbPolyline
 62
250
  6
CONTINUOUS
 90
10
 70
0
 10
-46.0635711482
 20
3.7876900647
 10
-46.0633285814
 20
3.7873475135
 10
-46.0630941826
 20
3.7863038359
 10
-46.0628692217
 20
3.7845229345
 10
-46.0626546034
 20
3.7819642943
 10
-46.0624521436
 20
3.7785976773
 10
-46.0622642477
 20
3.774418278
 10
-46.0620920065
 20
3.7694107828
 10
-46.0619365099
 20
3.7635625635
 10
-46.0617995439
 20
3.7569032878
  0
LWPOLYLINE
  5
5FF
100
AcDbEntity
  8
RACCORDO
100
AcDbPolyline
 62
250
  6
CONTINUOUS
 90
16
 70
0
 10
-46.7688068702
 20
16.3449339707
 10
-46.774122883
 20
16.3937425154
 10
-46.7900114126
 20
16.4420321997
 10
-46.8163035794
 20
16.4892897516
 10
-46.8527199236
 20
16.5350128697
 10
-46.898873375
 20
16.5787155619
 10
-46.9542733675
 20
16.6199333115
 10
-47.0183310537
 20
16.6582280141
 10
-47.0903655629
 20
16.6931926346
 10
-47.1696112388
 20
16.7244555333
 10
-47.2552257776
 20
16.7516844162
 10
-47.3462991805
 20
16.774589867
 10
-47.4418634264
 20
16.7929284231
 10
-47.540902761
 20
16.8065051636
 10
-47.6423644931
 20
16.8151757811
 10
-47.7451701839
 20
16.8188481155
  0
LINE
  5
600
100
AcDbEntity
  8
RACCORDO
100
AcDbLine
 62
7
  6
CONTINUOUS
 10
-45.7688068701
 20
13.4377357561
 11
-45.7688068701
 21
8.0622642439
  0
LINE
  5
601
100
AcDbEntity
  8
RACCORDO
100
AcDbLine
 62
7
  6
CONTINUOUS
 10
-45.7688068701
 20
3.4877357561
 11
-45.7688068701
 21
-1.8877357561
  0
LINE
  5
602
100
AcDbEntity
  8
RACCORDO
100
AcDbLine
 62
7
  6
CONTINUOUS
 10
-45.7688068701
 20
-8.0622642439
 11
-45.7688068701
 21
-13.4377357561
  0
LWPOLYLINE
  5
603
100
AcDbEntity
  8
RACCORDO
100
AcDbPolyline
 62
7
  6
CONTINUOUS
 90
10
 70
0
 10
-73.7731701379
 20
16.9764881122
 10
-73.8637904944
 20
16.9715181567
 10
-73.9501920882
 20
16.9613737042
 10
-74.0297487003
 20
16.9460547546
 10
-74.1001780737
 20
16.9246756561
 10
-74.1597234403
 20
16.8981220606
 10
-74.20710974
 20
16.8690509233
 10
-74.2413846692
 20
16.8383478963
 10
-74.2619847139
 20
16.8051273275
 10
-74.2688068701
 20
16.769389217
  0
LINE
  5
604
100
AcDbEntity
  8
RACCORDO
100
AcDbLine
 62
250
  6
CONTINUOUS
 10
-76.7740428472
 20
16.4912641797
 11
-74.2688068701
 21
16.5000091385
  0
LINE
  5
605
100
AcDbEntity
  8
RACCORDO
100
AcDbLine
 62
7
  6
CONTINUOUS
 10
-73.7731701379
 20
16.9764881122
 11
-67.2688068701
 21
17.0
  0
LINE
  5
606
100
AcDbEntity
  8
RACCORDO
100
AcDbLine
 62
7
  6
CONTINUOUS
 10
-76.7740428472
 20
17.9912550412
 11
-74.2688068701
 21
18.0
  0
LINE
  5
607
100
AcDbEntity
  8
RACCORDO
100
AcDbLine
 62
250
  6
CONTINUOUS
 10
-78.2688068701
 20
16.4912641797
 11
-76.7740428473
 21
16.4912643347
  0
LINE
  5
608
100
AcDbEntity
  8
RACCORDO
100
AcDbLine
 62
250
  6
CONTINUOUS
 10
-47.7451698538
 20
16.8188341385
 11
-59.2667513728
 21
17.0199676925
  0
LINE
  5
609
100
AcDbEntity
  8
RACCORDO
100
AcDbLine
 62
7
  6
CONTINUOUS
 10
-58.7689851065
 20
17.8000031111
 11
-47.7513544637
 21
17.6076896529
  0
LINE
  5
60A
100
AcDbEntity
  8
RACCORDO
100
AcDbLine
 62
7
  6
CONTINUOUS
 10
-59.2688068701
 20
19.0698149423
 11
-67.2688068701
 21
19.0
  0
LINE
  5
60B
100
AcDbEntity
  8
RACCORDO
100
AcDbLine
 62
7
  6
CONTINUOUS
 10
-73.7731701379
 20
19.9432372817
 11
-67.2688068701
 21
20.0
  0
LINE
  5
60C
100
AcDbEntity
  8
RACCORDO
100
AcDbLine
 62
7
  6
CONTINUOUS
 10
-67.2688068701
 20
20.0
 11
-59.2664869009
 21
19.9301648116
  0
LINE
  5
60D
100
AcDbEntity
  8
RACCORDO
100
AcDbLine
 62
7
  6
CONTINUOUS
 10
-59.2699061428
 20
18.8603786685
 11
-66.5688068701
 21
18.9877814546
  0
LWPOLYLINE
  5
60E
100
AcDbEntity
  8
RACCORDO
100
AcDbPolyline
 62
250
  6
CONTINUOUS
 90
7
 70
0
 10
-47.7513544637
 20
17.6076896529
 10
-47.7501536002
 20
17.6038117293
 10
-47.7490428737
 20
17.5922363223
 10
-47.7480309926
 20
17.5730156255
 10
-47.7471277742
 20
17.546238054
 10
-47.7463385036
 20
17.5120360278
 10
-47.7456637119
 20
17.4705932736
  0
LINE
  5
60F
100
AcDbEntity
  8
RACCORDO
100
AcDbLine
 62
7
  6
CONTINUOUS
 10
-65.3986959064
 20
20.7986665407
 11
-65.3924130401
 21
20.7986665407
  0
LINE
  5
610
100
AcDbEntity
  8
DRAFT
100
AcDbLine
 62
7
  6
CONTINUOUS
 10
-59.2688068701
 20
20.6944048997
 11
-67.2688068701
 21
20.7642198421
  0
LINE
  5
611
100
AcDbEntity
  8
RACCORDO
100
AcDbLine
 62
7
  6
CONTINUOUS
 10
-67.2688068701
 20
20.7642198421
 11
-70.3775334056
 21
20.7913492875
  0
LINE
  5
612
100
AcDbEntity
  8
RACCORDO
100
AcDbLine
 62
7
  6
CONTINUOUS
 10
-62.4893464297
 20
20.7479933246
 11
-65.3924130401
 21
20.7986665407
  0
LWPOLYLINE
  5
613
100
AcDbEntity
  8
0
100
AcDbPolyline
 62
7
  6
CONTINUOUS
 90
10
 70
0
 43
0.3500000006
 10
-61.0545233002
 20
44.3469315491
 10
-60.9830921173
 20
44.2040737152
 10
-60.9830921173
 20
44.1326470642
 10
-61.1259499512
 20
43.9897892303
 10
-61.1973766022
 20
43.9897892303
 10
-61.268807785
 20
44.0612158813
 10
-61.268807785
 20
44.1326470642
 10
-61.1973766022
 20
44.2755003662
 10
-61.1259499512
 20
44.3469315491
 10
-61.0545233002
 20
44.3469315491
  0
LWPOLYLINE
  5
614
100
AcDbEntity
  8
0
100
AcDbPolyline
 62
7
  6
CONTINUOUS
 90
10
 70
0
 43
0.3500000006
 10
-55.7688061066
 20
34.3469284973
 10
-55.6973794556
 20
34.2040751953
 10
-55.6973794556
 20
34.1326440125
 10
-55.8402372894
 20
33.9897861786
 10
-55.9116639404
 20
33.9897861786
 10
-55.9830905914
 20
34.0612173615
 10
-55.9830905914
 20
34.1326440125
 10
-55.9116639404
 20
34.2755018463
 10
-55.8402372894
 20
34.3469284973
 10
-55.7688061066
 20
34.3469284973
  0
LINE
  5
615
100
AcDbEntity
  8
DRAFT
100
AcDbLine
 62
7
  6
CONTINUOUS
 10
-71.7688068701
 20
22.5
 11
-71.3688068701
 21
22.5
  0
LINE
  5
616
100
AcDbEntity
  8
RACCORDO
100
AcDbLine
 62
7
  6
CONTINUOUS
 10
-67.0205406632
 20
23.4
 11
-64.6688068701
 21
23.4
  0
LINE
  5
617
100
AcDbEntity
  8
RACCORDO
100
AcDbLine
 62
7
  6
CONTINUOUS
 10
-67.4885796083
 20
23.8
 11
-67.0874777069
 21
23.8
  0
LINE
  5
618
100
AcDbEntity
  8
RACCORDO
100
AcDbLine
 62
7
  6
CONTINUOUS
 10
-65.8588563122
 20
23.8
 11
-64.6688068701
 21
23.8
  0
LINE
  5
619
100
AcDbEntity
  8
0
100
AcDbLine
 62
250
  6
CONTINUOUS
 10
-64.5688068701
 20
23.9
 11
-64.1688068701
 21
23.9
  0
LINE
  5
61A
100
AcDbEntity
  8
SMUSSO
100
AcDbLine
 62
7
  6
CONTINUOUS
 10
-62.3184419473
 20
23.6
 11
-62.7169198265
 21
23.6348622971
  0
LINE
  5
61B
100
AcDbEntity
  8
SMUSSO
100
AcDbLine
 62
7
  6
CONTINUOUS
 10
-62.2922952245
 20
23.8988584094
 11
-62.6907731037
 21
23.9337207065
  0
LINE
  5
61C
100
AcDbEntity
  8
0
100
AcDbLine
 62
250
  6
CONTINUOUS
 10
-62.2722074813
 20
24.1284623642
 11
-62.6706853606
 21
24.1633246613
  0
LINE
  5
61D
100
AcDbEntity
  8
0
100
AcDbLine
 62
250
  6
CONTINUOUS
 10
-64.3759622188
 20
24.3106013839
 11
-64.1688068701
 21
24.3106013839
  0
LWPOLYLINE
  5
61E
100
AcDbEntity
  8
0
100
AcDbPolyline
 62
7
  6
CONTINUOUS
 90
8
 70
0
 43
0.3500000006
 10
-54.6973791504
 20
33.8469328766
 10
-53.8402366791
 20
33.8469328766
 10
-53.4116631775
 20
34.2755018463
 10
-53.4116631775
 20
35.1326443176
 10
-53.8402366791
 20
35.5612178192
 10
-54.6973791504
 20
35.5612178192
 10
-54.6973791504
 20
36.8469292603
 10
-53.4116631775
 20
36.8469292603
  0
LWPOLYLINE
  5
61F
100
AcDbEntity
  8
0
100
AcDbPolyline
 62
7
  6
CONTINUOUS
 90
7
 70
0
 43
0.3500000006
 10
-58.983091507
 20
33.8469328766
 10
-60.4830919647
 20
33.8469328766
 10
-58.983091507
 20
35.9897867889
 10
-58.983091507
 20
36.4183602905
 10
-59.4116650085
 20
36.8469292603
 10
-60.054522995
 20
36.8469292603
 10
-60.4830919647
 20
36.2040758057
  0
LWPOLYLINE
  5
620
100
AcDbEntity
  8
0
100
AcDbPolyline
 62
7
  6
CONTINUOUS
 90
6
 70
0
 43
0.3500000006
 10
-66.1973781281
 20
43.8469313965
 10
-65.1259511719
 20
43.8469313965
 10
-64.9116621552
 20
44.0612158813
 10
-64.9116621552
 20
45.1326428375
 10
-65.3402356567
 20
45.5612163391
 10
-65.7688046265
 20
45.5612163391
  0
LWPOLYLINE
  5
621
100
AcDbEntity
  8
0
100
AcDbPolyline
 62
7
  6
CONTINUOUS
 90
8
 70
0
 43
0.3500000006
 10
-59.9830918121
 20
43.8469313965
 10
-59.1259493408
 20
43.8469313965
 10
-58.6973803711
 20
44.2755003662
 10
-58.6973803711
 20
45.1326428375
 10
-59.1259493408
 20
45.5612163391
 10
-59.9830918121
 20
45.5612163391
 10
-59.9830918121
 20
46.846932312
 10
-58.6973803711
 20
46.846932312
  0
LWPOLYLINE
  5
622
100
AcDbEntity
  8
0
100
AcDbPolyline
 62
7
  6
CONTINUOUS
 90
7
 70
0
 43
0.3500000006
 10
-62.5545192261
 20
43.8469313965
 10
-64.0545196838
 20
43.8469313965
 10
-62.5545192261
 20
45.9897898407
 10
-62.5545192261
 20
46.4183588104
 10
-62.9830927277
 20
46.846932312
 10
-63.6259507141
 20
46.846932312
 10
-64.0545196838
 20
46.2040743256
  0
ARC
  5
623
100
AcDbEntity
  8
0
100
AcDbCircle
 62
7
  6
CONTINUOUS
 10
-2.9240383034
 20
-1.1
 40
1.0
100
AcDbArc
 50
35.6853347127
 51
79.7939493486
  0
ARC
  5
624
100
AcDbEntity
  8
0
100
AcDbCircle
 62
7
  6
CONTINUOUS
 10
-2.9240383034
 20
1.1
 40
1.0
100
AcDbArc
 50
280.211773486
 51
324.3146652873
  0
ARC
  5
625
100
AcDbEntity
  8
RACCORDO
100
AcDbCircle
 62
250
  6
CONTINUOUS
 10
-0.0
 20
-13.0
 40
3.1148785081
100
AcDbArc
 50
135.9382505367
 51
44.0617494633
  0
ARC
  5
626
100
AcDbEntity
  8
RACCORDO
100
AcDbCircle
 62
250
  6
CONTINUOUS
 10
-0.0
 20
-13.0
 40
2.8149281938
100
AcDbArc
 50
135.9382505367
 51
44.0612561506
  0
ARC
  5
627
100
AcDbEntity
  8
RACCORDO
100
AcDbCircle
 62
7
  6
CONTINUOUS
 10
-0.0
 20
-13.0
 40
2.8026182597
100
AcDbArc
 50
135.7865677124
 51
44.2134322876
  0
ARC
  5
628
100
AcDbEntity
  8
ASSI
100
AcDbCircle
 62
7
  6
CONTINUOUS
 10
-0.0
 20
-13.0
 40
2.75
100
AcDbArc
 50
171.7867892983
 51
8.2132107017
  0
ARC
  5
629
100
AcDbEntity
  8
RACCORDO
100
AcDbCircle
 62
250
  6
CONTINUOUS
 10
-0.0
 20
-9.5
 40
2.4648823476
100
AcDbArc
 50
333.3632031374
 51
206.6367968626
  0
ARC
  5
62A
100
AcDbEntity
  8
RACCORDO
100
AcDbCircle
 62
250
  6
CONTINUOUS
 10
-0.0
 20
-9.5
 40
2.164928195
100
AcDbArc
 50
333.3632031374
 51
206.6530051665
  0
ARC
  5
62B
100
AcDbEntity
  8
RACCORDO
100
AcDbCircle
 62
7
  6
CONTINUOUS
 10
-0.0
 20
-9.5
 40
2.1526182597
100
AcDbArc
 50
333.1744365783
 51
206.8255634228
  0
ARC
  5
62C
100
AcDbEntity
  8
0
100
AcDbCircle
 62
250
  6
CONTINUOUS
 10
1.6343303518
 20
-1.99
 40
1.55
100
AcDbArc
 50
74.419256451
 51
90.0
  0
ARC
  5
62D
100
AcDbEntity
  8
0
100
AcDbCircle
 62
7
  6
CONTINUOUS
 10
2.9240383034
 20
-1.1
 40
1.0
100
AcDbArc
 50
100.2162353936
 51
144.3146652873
  0
ARC
  5
62E
100
AcDbEntity
  8
0
100
AcDbCircle
 62
7
  6
CONTINUOUS
 10
1.6343303518
 20
-1.99
 40
1.0
100
AcDbArc
 50
87.8281251387
 51
90.0
  0
ARC
  5
62F
100
AcDbEntity
  8
0
100
AcDbCircle
 62
7
  6
CONTINUOUS
 10
1.6343303518
 20
-1.99
 40
0.9900694014
100
AcDbArc
 50
88.4948546934
 51
89.9703375206
  0
ARC
  5
630
100
AcDbEntity
  8
0
100
AcDbCircle
 62
7
  6
CONTINUOUS
 10
1.6343303518
 20
-1.99
 40
0.98
100
AcDbArc
 50
89.2062953792
 51
90.0
  0
CIRCLE
  5
631
100
AcDbEntity
  8
RACCORDO
100
AcDbCircle
 62
250
  6
CONTINUOUS
 10
0.0
 20
0.0
 40
3.1148803203
  0
CIRCLE
  5
632
100
AcDbEntity
  8
RACCORDO
100
AcDbCircle
 62
250
  6
CONTINUOUS
 10
0.0
 20
0.0
 40
2.8149281944
  0
CIRCLE
  5
633
100
AcDbEntity
  8
DRAFT
100
AcDbCircle
 62
7
  6
CONTINUOUS
 10
0.0
 20
0.0
 40
2.8026182597
  0
CIRCLE
  5
634
100
AcDbEntity
  8
ASSI
100
AcDbCircle
 62
7
  6
CONTINUOUS
 10
0.0
 20
0.0
 40
2.8
  0
CIRCLE
  5
635
100
AcDbEntity
  8
0
100
AcDbCircle
 62
7
  6
CONTINUOUS
 10
0.0
 20
0.0
 40
2.75
  0
ARC
  5
636
100
AcDbEntity
  8
0
100
AcDbCircle
 62
7
  6
CONTINUOUS
 10
0.0
 20
1.0
 40
2.6
100
AcDbArc
 50
270.0
 51
324.3146652873
  0
ARC
  5
637
100
AcDbEntity
  8
0
100
AcDbCircle
 62
7
  6
CONTINUOUS
 10
0.0
 20
1.0
 40
2.6
100
AcDbArc
 50
215.6853347127
 51
265.5623795422
  0
ARC
  5
638
100
AcDbEntity
  8
RACCORDO
100
AcDbCircle
 62
250
  6
CONTINUOUS
 10
0.0
 20
13.0
 40
3.1148785081
100
AcDbArc
 50
315.9382505367
 51
224.0617494633
  0
ARC
  5
639
100
AcDbEntity
  8
RACCORDO
100
AcDbCircle
 62
250
  6
CONTINUOUS
 10
0.0
 20
13.0
 40
2.8149281938
100
AcDbArc
 50
315.9382505367
 51
224.0612561506
  0
ARC
  5
63A
100
AcDbEntity
  8
RACCORDO
100
AcDbCircle
 62
7
  6
CONTINUOUS
 10
0.0
 20
13.0
 40
2.8026182597
100
AcDbArc
 50
315.7865677124
 51
224.2134322876
  0
ARC
  5
63B
100
AcDbEntity
  8
ASSI
100
AcDbCircle
 62
7
  6
CONTINUOUS
 10
0.0
 20
13.0
 40
2.75
100
AcDbArc
 50
351.7867892983
 51
188.2132107017
  0
ARC
  5
63C
100
AcDbEntity
  8
RACCORDO
100
AcDbCircle
 62
250
  6
CONTINUOUS
 10
0.0
 20
9.5
 40
2.4648823476
100
AcDbArc
 50
153.3632031374
 51
26.6367968626
  0
ARC
  5
63D
100
AcDbEntity
  8
RACCORDO
100
AcDbCircle
 62
250
  6
CONTINUOUS
 10
0.0
 20
9.5
 40
2.164928195
100
AcDbArc
 50
153.3632031374
 51
26.6530051665
  0
ARC
  5
63E
100
AcDbEntity
  8
RACCORDO
100
AcDbCircle
 62
7
  6
CONTINUOUS
 10
0.0
 20
9.5
 40
2.1526182597
100
AcDbArc
 50
153.1744365783
 51
26.8255634228
  0
ARC
  5
63F
100
AcDbEntity
  8
0
100
AcDbCircle
 62
7
  6
CONTINUOUS
 10
2.9240383034
 20
1.1
 40
1.0
100
AcDbArc
 50
215.6853347127
 51
259.7910316901
  0
ARC
  5
640
100
AcDbEntity
  8
DRAFT
100
AcDbCircle
 62
7
  6
CONTINUOUS
 10
-71.7688068701
 20
-20.0
 40
2.5
100
AcDbArc
 50
180.0
 51
270.0
  0
ARC
  5
641
100
AcDbEntity
  8
RACCORDO
100
AcDbCircle
 62
7
  6
CONTINUOUS
 10
-76.7688068701
 20
-16.4912641797
 40
1.5
100
AcDbArc
 50
180.0
 51
269.7999999897
  0
ARC
  5
642
100
AcDbEntity
  8
RACCORDO
100
AcDbCircle
 62
7
  6
CONTINUOUS
 10
-70.3688068701
 20
-21.7913112106
 40
1.0
100
AcDbArc
 50
90.5
 51
180.0
  0
ARC
  5
643
100
AcDbEntity
  8
0
100
AcDbCircle
 62
7
  6
CONTINUOUS
 10
-63.1624577038
 20
-24.2063491663
 40
0.8936508337
100
AcDbArc
 50
251.0
 51
5.0
  0
ARC
  5
644
100
AcDbEntity
  8
0
100
AcDbCircle
 62
7
  6
CONTINUOUS
 10
-64.6688068701
 20
-23.9
 40
0.5
100
AcDbArc
 50
0.0
 51
90.0
  0
ARC
  5
645
100
AcDbEntity
  8
RACCORDO
100
AcDbCircle
 62
7
  6
CONTINUOUS
 10
-73.7688068701
 20
-19.4432563202
 40
0.5
100
AcDbArc
 50
180.0
 51
269.5
  0
ARC
  5
646
100
AcDbEntity
  8
0
100
AcDbCircle
 62
7
  6
CONTINUOUS
 10
-63.1624577038
 20
-24.2063491663
 40
0.4936508337
100
AcDbArc
 50
251.0
 51
5.0
  0
ARC
  5
647
100
AcDbEntity
  8
RACCORDO
100
AcDbCircle
 62
7
  6
CONTINUOUS
 10
-65.3955544733
 20
-20.6186939556
 40
0.18
100
AcDbArc
 50
225.0
 51
271.0
  0
ARC
  5
648
100
AcDbEntity
  8
0
100
AcDbCircle
 62
7
  6
CONTINUOUS
 10
-64.0688068701
 20
-24.3106013839
 40
0.1
100
AcDbArc
 50
180.0
 51
251.0
  0
ARC
  5
649
100
AcDbEntity
  8
0
100
AcDbCircle
 62
7
  6
CONTINUOUS
 10
-64.6688068701
 20
-23.9
 40
0.1
100
AcDbArc
 50
0.0
 51
90.0
  0
ARC
  5
64A
100
AcDbEntity
  8
DRAFT
100
AcDbCircle
 62
7
  6
CONTINUOUS
 10
-71.7688068701
 20
20.0
 40
2.5
100
AcDbArc
 50
90.0
 51
180.0
  0
ARC
  5
64B
100
AcDbEntity
  8
RACCORDO
100
AcDbCircle
 62
7
  6
CONTINUOUS
 10
-76.7688068701
 20
16.4912641797
 40
1.5
100
AcDbArc
 50
90.2
 51
180.0
  0
ARC
  5
64C
100
AcDbEntity
  8
RACCORDO
100
AcDbCircle
 62
7
  6
CONTINUOUS
 10
-70.3688068701
 20
21.7913112106
 40
1.0
100
AcDbArc
 50
180.0
 51
269.5
  0
ARC
  5
64D
100
AcDbEntity
  8
0
100
AcDbCircle
 62
7
  6
CONTINUOUS
 10
-63.1624577038
 20
24.2063491663
 40
0.8936508337
100
AcDbArc
 50
355.0
 51
109.0
  0
ARC
  5
64E
100
AcDbEntity
  8
0
100
AcDbCircle
 62
7
  6
CONTINUOUS
 10
-64.6688068701
 20
23.9
 40
0.5
100
AcDbArc
 50
270.0
 51
360.0
  0
ARC
  5
64F
100
AcDbEntity
  8
RACCORDO
100
AcDbCircle
 62
7
  6
CONTINUOUS
 10
-73.7688068701
 20
19.4432563202
 40
0.5
100
AcDbArc
 50
90.5
 51
180.0
  0
ARC
  5
650
100
AcDbEntity
  8
0
100
AcDbCircle
 62
7
  6
CONTINUOUS
 10
-63.1624577038
 20
24.2063491663
 40
0.4936508337
100
AcDbArc
 50
355.0
 51
109.0
  0
ARC
  5
651
100
AcDbEntity
  8
RACCORDO
100
AcDbCircle
 62
7
  6
CONTINUOUS
 10
-65.3955544733
 20
20.6186939556
 40
0.18
100
AcDbArc
 50
91.0
 51
135.0
  0
ARC
  5
652
100
AcDbEntity
  8
0
100
AcDbCircle
 62
7
  6
CONTINUOUS
 10
-64.0688068701
 20
24.3106013839
 40
0.1
100
AcDbArc
 50
109.0
 51
180.0
  0
ARC
  5
653
100
AcDbEntity
  8
0
100
AcDbCircle
 62
7
  6
CONTINUOUS
 10
-64.6688068701
 20
23.9
 40
0.1
100
AcDbArc
 50
270.0
 51
360.0
  0
ARC
  5
654
100
AcDbEntity
  8
RACCORDO
100
AcDbCircle
 62
7
  6
CONTINUOUS
 10
-56.7688068701
 20
-16.7649374836
 40
1.0
100
AcDbArc
 50
270.9999999415
 51
359.9999966478
  0
ARC
  5
655
100
AcDbEntity
  8
RACCORDO
100
AcDbCircle
 62
7
  6
CONTINUOUS
 10
-59.2788068701
 20
-18.3504563439
 40
0.51
100
AcDbArc
 50
271.0
 51
360.0
  0
ARC
  5
656
100
AcDbEntity
  8
RACCORDO
100
AcDbCircle
 62
7
  6
CONTINUOUS
 10
-54.7688068701
 20
-7.7326972631
 40
1.0
100
AcDbArc
 50
90.9999015018
 51
180.0005046105
  0
ARC
  5
657
100
AcDbEntity
  8
RACCORDO
100
AcDbCircle
 62
7
  6
CONTINUOUS
 10
-47.7688068701
 20
-16.6078419577
 40
1.0
100
AcDbArc
 50
271.0
 51
360.0
  0
ARC
  5
658
100
AcDbEntity
  8
RACCORDO
100
AcDbCircle
 62
7
  6
CONTINUOUS
 10
-46.0688068701
 20
-13.4377357561
 40
0.3
100
AcDbArc
 50
271.0
 51
360.0
  0
ARC
  5
659
100
AcDbEntity
  8
RACCORDO
100
AcDbCircle
 62
7
  6
CONTINUOUS
 10
-47.7688068701
 20
-5.6102071525
 40
1.0
100
AcDbArc
 50
271.0
 51
360.0
  0
ARC
  5
65A
100
AcDbEntity
  8
RACCORDO
100
AcDbCircle
 62
7
  6
CONTINUOUS
 10
-46.0688068701
 20
-8.0622642439
 40
0.3
100
AcDbArc
 50
0.0
 51
88.9999999976
  0
ARC
  5
65B
100
AcDbEntity
  8
RACCORDO
100
AcDbCircle
 62
7
  6
CONTINUOUS
 10
-46.0688068701
 20
-1.8877357561
 40
0.3
100
AcDbArc
 50
271.0
 51
360.0
  0
ARC
  5
65C
100
AcDbEntity
  8
RACCORDO
100
AcDbCircle
 62
7
  6
CONTINUOUS
 10
-47.7688068701
 20
16.6078368128
 40
1.0
100
AcDbArc
 50
0.0002947833
 51
89.0000051444
  0
ARC
  5
65D
100
AcDbEntity
  8
RACCORDO
100
AcDbCircle
 62
7
  6
CONTINUOUS
 10
-59.2788068701
 20
18.3504563439
 40
0.51
100
AcDbArc
 50
0.0
 51
89.0
  0
ARC
  5
65E
100
AcDbEntity
  8
RACCORDO
100
AcDbCircle
 62
7
  6
CONTINUOUS
 10
-46.0688068701
 20
13.4377357561
 40
0.3
100
AcDbArc
 50
0.0
 51
88.9999999976
  0
ARC
  5
65F
100
AcDbEntity
  8
RACCORDO
100
AcDbCircle
 62
7
  6
CONTINUOUS
 10
-46.0688068701
 20
8.0622642439
 40
0.3
100
AcDbArc
 50
271.0
 51
360.0
  0
ARC
  5
660
100
AcDbEntity
  8
RACCORDO
100
AcDbCircle
 62
7
  6
CONTINUOUS
 10
-46.0688068701
 20
3.4877357561
 40
0.3
100
AcDbArc
 50
0.0
 51
89.0
  0
ELLIPSE
  5
661
100
AcDbEntity
  8
RACCORDO
100
AcDbEllipse
 62
7
  6
CONTINUOUS
 10
-3.3675990889
 20
22.3
 30
0.0
 11
0.2000304656
 21
-0.0
 31
0.0
 40
0.9998476952
 41
0.0
 42
1.5707963268
  0
ELLIPSE
  5
662
100
AcDbEntity
  8
RACCORDO
100
AcDbEllipse
 62
7
  6
CONTINUOUS
 10
3.3675990889
 20
22.3
 30
0.0
 11
0.2000304656
 21
0.0
 31
0.0
 40
0.9998476952
 41
1.5707963268
 42
3.1415926536
  0
ELLIPSE
  5
663
100
AcDbEntity
  8
RACCORDO
100
AcDbEllipse
 62
7
  6
CONTINUOUS
 10
3.3675990889
 20
-22.3
 30
0.0
 11
0.2000304656
 21
0.0
 31
0.0
 40
0.9998476952
 41
-3.1415926536
 42
-1.5707963268
  0
ELLIPSE
  5
664
100
AcDbEntity
  8
RACCORDO
100
AcDbEllipse
 62
7
  6
CONTINUOUS
 10
-3.3675990889
 20
-22.3
 30
0.0
 11
0.2000304656
 21
0.0
 31
0.0
 40
0.9998476952
 41
-1.5707963268
 42
0.0
  0
ELLIPSE
  5
665
100
AcDbEntity
  8
RACCORDO
100
AcDbEllipse
 62
7
  6
CONTINUOUS
 10
-2.0173027369
 20
19.0392709051
 30
0.0
 11
1.0
 21
-0.0
 31
0.0
 40
0.0087268678
 41
8.3717543708
 42
9.4073246682
  0
ELLIPSE
  5
666
100
AcDbEntity
  8
RACCORDO
100
AcDbEllipse
 62
7
  6
CONTINUOUS
 10
-2.0173027369
 20
-19.0392709051
 30
0.0
 11
1.0
 21
-0.0
 31
0.0
 40
0.0087268678
 41
3.1590459461
 42
4.2077089861
  0
ELLIPSE
  5
667
100
AcDbEntity
  8
RACCORDO
100
AcDbEllipse
 62
7
  6
CONTINUOUS
 10
-2.0173027369
 20
-20.724948937
 30
0.0
 11
1.0
 21
-0.0
 31
0.0
 40
0.0087268678
 41
2.6639379283
 42
3.1241393611
  0
ELLIPSE
  5
668
100
AcDbEntity
  8
RACCORDO
100
AcDbEllipse
 62
7
  6
CONTINUOUS
 10
-2.0173027369
 20
20.724948937
 30
0.0
 11
1.0
 21
-0.0
 31
0.0
 40
0.0087268678
 41
3.1590459461
 42
3.6192473789
  0
ELLIPSE
  5
669
100
AcDbEntity
  8
RACCORDO
100
AcDbEllipse
 62
7
  6
CONTINUOUS
 10
2.0173027369
 20
19.0392709051
 30
0.0
 11
1.0
 21
0.0
 31
0.0
 40
0.0087268678
 41
6.3006385997
 42
7.3493016413
  0
ELLIPSE
  5
66A
100
AcDbEntity
  8
RACCORDO
100
AcDbEllipse
 62
7
  6
CONTINUOUS
 10
2.0173027369
 20
-19.0392709051
 30
0.0
 11
1.0
 21
-0.0
 31
0.0
 40
0.0087268678
 41
5.2553437338
 42
6.2657320147
  0
ELLIPSE
  5
66B
100
AcDbEntity
  8
RACCORDO
100
AcDbEllipse
 62
7
  6
CONTINUOUS
 10
2.0173027369
 20
-20.724948937
 30
0.0
 11
1.0
 21
-0.0
 31
0.0
 40
0.0087268678
 41
6.3006385997
 42
6.7608400391
  0
ELLIPSE
  5
66C
100
AcDbEntity
  8
RACCORDO
100
AcDbEllipse
 62
7
  6
CONTINUOUS
 10
2.0173027369
 20
20.724948937
 30
0.0
 11
1.0
 21
0.0
 31
0.0
 40
0.0087268678
 41
-0.4776547319
 42
-0.0174532925
  0
ELLIPSE
  5
66D
100
AcDbEntity
  8
RACCORDO
100
AcDbEllipse
 62
7
  6
CONTINUOUS
 10
5.9729467098
 20
-21.7913112106
 30
0.0
 11
0.0
 21
1.0
 31
0.0
 40
0.0087268678
 41
0.0087266463
 42
1.5707963268
  0
ELLIPSE
  5
66E
100
AcDbEntity
  8
RACCORDO
100
AcDbEllipse
 62
7
  6
CONTINUOUS
 10
3.1501135584
 20
-21.7913112106
 30
0.0
 11
0.0
 21
1.0
 31
0.0
 40
0.0174550649
 41
-1.5707963268
 42
-0.0087266463
  0
ELLIPSE
  5
66F
100
AcDbEntity
  8
RACCORDO
100
AcDbEllipse
 62
7
  6
CONTINUOUS
 10
-3.1501135584
 20
-21.7913112106
 30
0.0
 11
0.0
 21
1.0
 31
0.0
 40
0.0174550649
 41
0.0087266463
 42
1.5707963268
  0
ELLIPSE
  5
670
100
AcDbEntity
  8
RACCORDO
100
AcDbEllipse
 62
7
  6
CONTINUOUS
 10
-5.9729467098
 20
-21.7913112106
 30
0.0
 11
-0.0
 21
1.0
 31
0.0
 40
0.0087268678
 41
-1.5707963268
 42
-0.0087266463
  0
ELLIPSE
  5
671
100
AcDbEntity
  8
RACCORDO
100
AcDbEllipse
 62
7
  6
CONTINUOUS
 10
-3.1501135584
 20
21.7913112106
 30
0.0
 11
0.0
 21
1.0
 31
0.0
 40
0.0174550649
 41
1.5707963268
 42
3.1328660073
  0
ELLIPSE
  5
672
100
AcDbEntity
  8
RACCORDO
100
AcDbEllipse
 62
7
  6
CONTINUOUS
 10
-5.9729467098
 20
21.7913112106
 30
0.0
 11
0.0
 21
1.0
 31
0.0
 40
0.0087268678
 41
-3.1328660073
 42
-1.5707963268
  0
ELLIPSE
  5
673
100
AcDbEntity
  8
RACCORDO
100
AcDbEllipse
 62
7
  6
CONTINUOUS
 10
5.9729467098
 20
21.7913112106
 30
0.0
 11
-0.0
 21
1.0
 31
0.0
 40
0.0087268678
 41
1.5707963268
 42
3.1328660073
  0
ELLIPSE
  5
674
100
AcDbEntity
  8
RACCORDO
100
AcDbEllipse
 62
7
  6
CONTINUOUS
 10
3.1501135584
 20
21.7913112106
 30
0.0
 11
0.0
 21
1.0
 31
0.0
 40
0.0174550649
 41
-3.1328660073
 42
-1.5707963268
  0
ELLIPSE
  5
675
100
AcDbEntity
  8
RACCORDO
100
AcDbEllipse
 62
7
  6
CONTINUOUS
 10
5.4474755854
 20
18.9424026726
 30
0.0
 11
0.4
 21
-0.0
 31
0.0
 40
0.0087268678
 41
-3.1381019951
 42
-1.5707963268
  0
ELLIPSE
  5
676
100
AcDbEntity
  8
RACCORDO
100
AcDbEllipse
 62
7
  6
CONTINUOUS
 10
-5.4474755854
 20
-18.9424026726
 30
0.0
 11
0.4
 21
-0.0
 31
0.0
 40
0.0087268678
 41
0.0034906585
 42
1.5707963268
  0
ELLIPSE
  5
677
100
AcDbEntity
  8
RACCORDO
100
AcDbEllipse
 62
7
  6
CONTINUOUS
 10
5.9432753594
 20
19.4432563202
 30
0.0
 11
-0.0
 21
0.5
 31
0.0
 40
0.0087268678
 41
0.0087266463
 42
1.5707963268
  0
ELLIPSE
  5
678
100
AcDbEntity
  8
RACCORDO
100
AcDbEllipse
 62
7
  6
CONTINUOUS
 10
-5.9432753594
 20
-19.4432563202
 30
0.0
 11
0.0
 21
0.5
 31
0.0
 40
0.0087268678
 41
-3.1328660073
 42
-1.5707963268
  0
ELLIPSE
  5
679
100
AcDbEntity
  8
RACCORDO
100
AcDbEllipse
 62
7
  6
CONTINUOUS
 10
6.9999908614
 20
-16.4999908614
 30
0.0
 11
1.0606730956
 21
-1.0606730956
 31
0.0
 40
0.9999878154
 41
-0.7853920711
 42
0.7853920711
  0
ELLIPSE
  5
67A
100
AcDbEntity
  8
RACCORDO
100
AcDbEllipse
 62
7
  6
CONTINUOUS
 10
-6.9999908614
 20
-16.4999908614
 30
0.0
 11
1.0606730956
 21
1.0606730956
 31
0.0
 40
0.9999878154
 41
-3.9269847247
 42
-2.3562005825
  0
ELLIPSE
  5
67B
100
AcDbEntity
  8
RACCORDO
100
AcDbEllipse
 62
7
  6
CONTINUOUS
 10
-6.9999908614
 20
16.4999908614
 30
0.0
 11
1.0606730956
 21
-1.0606730956
 31
0.0
 40
0.9999878154
 41
2.3562005825
 42
3.9269847247
  0
ELLIPSE
  5
67C
100
AcDbEntity
  8
RACCORDO
100
AcDbEllipse
 62
7
  6
CONTINUOUS
 10
6.9999908614
 20
16.4999908614
 30
0.0
 11
1.0606730956
 21
1.0606730956
 31
0.0
 40
0.9999878154
 41
-0.7853920711
 42
0.7853920711
  0
ELLIPSE
  5
67D
100
AcDbEntity
  8
DRAFT
100
AcDbEllipse
 62
7
  6
CONTINUOUS
 10
-5.9607290949
 20
-20.0
 30
0.0
 11
-0.0
 21
2.5
 31
0.0
 40
0.0087268678
 41
-3.1415926536
 42
-1.5707963268
  0
ELLIPSE
  5
67E
100
AcDbEntity
  8
DRAFT
100
AcDbEllipse
 62
7
  6
CONTINUOUS
 10
5.9607290949
 20
-20.0
 30
0.0
 11
0.0
 21
2.5
 31
0.0
 40
0.0087268678
 41
-4.7123889804
 42
-3.1415926536
  0
ELLIPSE
  5
67F
100
AcDbEntity
  8
DRAFT
100
AcDbEllipse
 62
7
  6
CONTINUOUS
 10
-5.9607290949
 20
20.0
 30
0.0
 11
0.0
 21
2.5
 31
0.0
 40
0.0087268678
 41
-1.5707963268
 42
0.0
  0
ELLIPSE
  5
680
100
AcDbEntity
  8
DRAFT
100
AcDbEllipse
 62
7
  6
CONTINUOUS
 10
5.9607290949
 20
20.0
 30
0.0
 11
0.0
 21
2.5
 31
0.0
 40
0.0087268678
 41
-0.0
 42
1.5707963268
  0
ELLIPSE
  5
681
100
AcDbEntity
  8
0
100
AcDbEllipse
 62
7
  6
CONTINUOUS
 10
0.89
 20
-1.0
 30
0.0
 11
0.0
 21
0.01
 31
0.0
 40
1.0
 41
-3.1415926536
 42
-1.5707963268
  0
ELLIPSE
  5
682
100
AcDbEntity
  8
0
100
AcDbEllipse
 62
7
  6
CONTINUOUS
 10
-95.9443317228
 20
16.0
 30
0.0
 11
-200.5454004423
 21
3.5005329858
 31
0.0
 40
0.0174497492
 41
-1.7173130233
 42
-1.7139712103
  0
ELLIPSE
  5
683
100
AcDbEntity
  8
0
100
AcDbEllipse
 62
7
  6
CONTINUOUS
 10
-95.9443317228
 20
-16.0
 30
0.0
 11
-200.5454004423
 21
-3.5005329858
 31
0.0
 40
0.0174497492
 41
1.7139712103
 42
1.7173130233
  0
ENDSEC
  0
SECTION
  2
OBJECTS
  0
DICTIONARY
  5
C
100
AcDbDictionary
280
0
281
1
  3
ACAD_GROUP
350
D
  3
ACAD_MLINESTYLE
350
17
  3
ACAD_LAYOUT
350
1A
  3
ACAD_PLOTSETTINGS
350
19
  3
ACAD_PLOTSTYLENAME
350
E
  0
DICTIONARY
  5
D
102
{ACAD_REACTORS
330
C
102
}
100
AcDbDictionary
280
0
281
1
  0
ACDBDICTIONARYWDFLT
  5
E
102
{ACAD_REACTORS
330
C
102
}
100
AcDbDictionary
281
1
  3
Normal
350
F
100
AcDbDictionaryWithDefault
340
F
  0
DICTIONARY
  5
17
102
{ACAD_REACTORS
330
C
102
}
100
AcDbDictionary
280
0
281
1
  3
Standard
350
18
  0
DICTIONARY
  5
19
102
{ACAD_REACTORS
330
C
102
}
100
AcDbDictionary
281
1
  0
DICTIONARY
  5
1A
102
{ACAD_REACTORS
330
C
102
}
100
AcDbDictionary
281
1
  3
Model
350
684
  3
Layout1
350
685
  0
ACDBPLACEHOLDER
  5
F
102
{ACAD_REACTORS
330
E
102
}
  0
MLINESTYLE
  5
18
102
{ACAD_REACTORS
330
17
102
}
100
AcDbMlineStyle
  2
STANDARD
 70
0
  3

 62
256
 51
90.0
 52
90.0
 71
2
 49
0.5
 62
256
  6
BYLAYER
 49
-0.5
 62
256
  6
BYLAYER
  0
LAYOUT
  5
684
102
{ACAD_REACTORS
330
1A
102
}
100
AcDbPlotSettings
  1

  2
none_device
  4
ISO_A4_(297.00_x_210.00_MM)
  6

 40
0.0
 41
0.0
 42
0.0
 43
0.0
 44
297.0
 45
210.0
 46
0.0
 47
0.0
 48
0.0
 49
0.0
140
0.0
141
0.0
142
1.0
143
1.0
 70
1024
 72
1
 73
0
 74
0
  7

 75
0
147
1.0
148
0.0
149
0.0
100
AcDbLayout
  1
Model
 70
0
 71
0
 10
0.0
 20
0.0
 11
297.0
 21
210.0
 12
0.0
 22
0.0
 32
0.0
 14
0.0
 24
0.0
 34
0.0
 15
0.0
 25
0.0
 35
0.0
146
0.0
 13
0.0
 23
0.0
 33
0.0
 16
1.0
 26
0.0
 36
0.0
 17
0.0
 27
1.0
 37
0.0
 76
0
330
219
345
0
346
0
  0
LAYOUT
  5
685
102
{ACAD_REACTORS
330
1A
102
}
100
AcDbPlotSettings
  1

  2
none_device
  4
ISO_A4_(297.00_x_210.00_MM)
  6

 40
0.0
 41
0.0
 42
0.0
 43
0.0
 44
297.0
 45
210.0
 46
0.0
 47
0.0
 48
0.0
 49
0.0
140
0.0
141
0.0
142
1.0
143
1.0
 70
0
 72
1
 73
0
 74
0
  7

 75
0
147
1.0
148
0.0
149
0.0
100
AcDbLayout
  1
Layout1
 70
0
 71
1
 10
0.0
 20
0.0
 11
297.0
 21
210.0
 12
0.0
 22
0.0
 32
0.0
 14
0.0
 24
0.0
 34
0.0
 15
0.0
 25
0.0
 35
0.0
146
0.0
 13
0.0
 23
0.0
 33
0.0
 16
1.0
 26
0.0
 36
0.0
 17
0.0
 27
1.0
 37
0.0
 76
0
330
21A
345
0
346
0
  0
ENDSEC
  0
EOF
