  0
SECTION
  2
HEADER
  9
$ACADVER
  1
AC1024
  9
$DWGCODEPAGE
  3
ANSI_1252
  9
$EXTMAX
 10
297.0
 20
210.0
 30
0.0
  9
$EXTMIN
 10
0.0
 20
0.0
 30
0.0
  9
$LIMMIN
 10
0.0
 20
0.0
  9
$LIMMAX
 10
297.0
 20
210.0
  9
$VIEWCTR
 10
148.5
 20
105.0
  9
$VIEWSIZE
 40
210.0
  9
$CLAYER
  8
0
  9
$LTSCALE
 40
16.335
  9
$CELTYPE
  6
BYLAYER
  9
$DIMSCALE
 40
1.0
  9
$DIMASZ
 40
3.0
  9
$DIMEXO
 40
0.5
  9
$DIMDLI
 40
11.286
  9
$DIMEXE
 40
1.5
  9
$DIMCEN
 40
2.673
  9
$DIMLFAC
 40
1.0
  9
$DIMBLK
  1
_FILLED
  9
$DIMALT
 70
0
  9
$DIMALTF
 40
0.0393700787
  9
$DIMTXT
 40
3.0
  9
$DIMTOL
 70
1
  9
$DIMLIM
 70
0
  9
$DIMTFAC
 40
1.0
  9
$DIMTP
 40
0.01
  9
$DIMTM
 40
0.01
  9
$DIMGAP
 40
0.625
  9
$DIMDSEP
 70
44
  9
$AUNITS
 70
0
  9
$PDMODE
 70
3
  9
$PDSIZE
 40
3.0
  9
$HANDSEED
  5
4E8
  9
$TILEMODE
 70
1
  9
$MEASUREMENT
 70
1
  9
$INSUNITS
 70
4
  0
ENDSEC
  0
SECTION
  2
CLASSES
  0
CLASS
  1
ACDBDICTIONARYWDFLT
  2
AcDbDictionaryWithDefault
  3
AutoCAD 2000
 90
0
 91
1
280
0
281
0
  0
CLASS
  1
ACDBPLACEHOLDER
  2
AcDbPlaceHolder
  3
AutoCAD 2000
 90
0
 91
1
280
0
281
0
  0
CLASS
  1
LAYOUT
  2
AcDbLayout
  3
AutoCAD 2000
 90
0
 91
0
280
0
281
0
  0
ENDSEC
  0
SECTION
  2
TABLES
  0
TABLE
  2
VPORT
  5
8
100
AcDbSymbolTable
 70
2
  0
VPORT
  5
1F4
100
AcDbSymbolTableRecord
100
AcDbViewportTableRecord
  2
*ACTIVE
 70
0
 10
0.0
 20
0.0
 11
1.0
 21
1.0
 12
148.5
 22
105.0
 13
0.0
 23
0.0
 14
1.0
 24
1.0
 15
0.0
 25
0.0
 16
0.0
 26
0.0
 36
1.0
 17
0.0
 27
0.0
 37
0.0
 40
210.0
 41
1.4142857143
 42
50.0
 43
0.0
 44
0.0
 50
0.0
 51
0.0
 71
0
 72
100
 73
1
 74
1
 75
0
 76
0
 77
0
 78
0
  0
ENDTAB
  0
TABLE
  2
LTYPE
  5
5
100
AcDbSymbolTable
 70
6
  0
LTYPE
  5
14
100
AcDbSymbolTableRecord
100
AcDbLinetypeTableRecord
  2
BYBLOCK
 70
0
  3

 72
65
 73
0
 40
0.0
  0
LTYPE
  5
15
100
AcDbSymbolTableRecord
100
AcDbLinetypeTableRecord
  2
BYLAYER
 70
0
  3

 72
65
 73
0
 40
0.0
  0
LTYPE
  5
16
100
AcDbSymbolTableRecord
100
AcDbLinetypeTableRecord
  2
CONTINUOUS
 70
64
  3
Solid line
 72
65
 73
0
 40
0.0
  0
LTYPE
  5
1F5
100
AcDbSymbolTableRecord
100
AcDbLinetypeTableRecord
  2
CENTER
 70
64
  3
____ _ ____ _ ____ _ ____ _ ____ _ ____ _ ____
 72
65
 73
4
 40
0.6
 49
0.375
 74
0
 49
-0.075
 74
0
 49
0.075
 74
0
 49
-0.075
 74
0
  0
LTYPE
  5
1F6
100
AcDbSymbolTableRecord
100
AcDbLinetypeTableRecord
  2
HIDDEN
 70
64
  3
- - - - - - - - - - - - - - - - - - - -
 72
65
 73
2
 40
0.2
 49
0.1
 74
0
 49
-0.1
 74
0
  0
LTYPE
  5
1F7
100
AcDbSymbolTableRecord
100
AcDbLinetypeTableRecord
  2
PHANTOM
 70
64
  3
_____ _ _ _____ _ _ _____ _ _ _____
 72
65
 73
6
 40
0.8
 49
0.45
 74
0
 49
-0.05
 74
0
 49
0.1
 74
0
 49
-0.05
 74
0
 49
0.1
 74
0
 49
-0.05
 74
0
  0
LTYPE
  5
1F8
100
AcDbSymbolTableRecord
100
AcDbLinetypeTableRecord
  2
DOT
 70
64
  3
. . . . . . . . . . . . . . . . . . . .
 72
65
 73
2
 40
0.2
 49
0.1
 74
0
 49
-0.1
 74
0
  0
LTYPE
  5
1F9
100
AcDbSymbolTableRecord
100
AcDbLinetypeTableRecord
  2
DASHED
 70
64
  3
- - - - - - - - - - - - - - - - - - - -
 72
65
 73
2
 40
0.2
 49
0.1
 74
0
 49
-0.1
 74
0
  0
ENDTAB
  0
TABLE
  2
LAYER
  5
2
100
AcDbSymbolTable
 70
36
  0
LAYER
  5
10
100
AcDbSymbolTableRecord
100
AcDbLayerTableRecord
  2
0
 70
0
 62
7
  6
CONTINUOUS
370
-3
390
F
  0
LAYER
  5
1FA
100
AcDbSymbolTableRecord
100
AcDbLayerTableRecord
  2
DEFAULT_1
 70
0
 62
7
  6
CENTER
370
-3
390
F
  0
LAYER
  5
1FB
100
AcDbSymbolTableRecord
100
AcDbLayerTableRecord
  2
DEFAULT_2
 70
0
 62
7
  6
HIDDEN
370
-3
390
F
  0
LAYER
  5
1FC
100
AcDbSymbolTableRecord
100
AcDbLayerTableRecord
  2
DEFAULT_3
 70
0
 62
7
  6
PHANTOM
370
-3
390
F
  0
LAYER
  5
1FD
100
AcDbSymbolTableRecord
100
AcDbLayerTableRecord
  2
ASSI
 70
0
 62
7
  6
CONTINUOUS
370
-3
390
F
  0
LAYER
  5
1FE
100
AcDbSymbolTableRecord
100
AcDbLayerTableRecord
  2
BASE_V3-H1_1
 70
0
 62
7
  6
CONTINUOUS
370
-3
390
F
  0
LAYER
  5
1FF
100
AcDbSymbolTableRecord
100
AcDbLayerTableRecord
  2
BASE_V3-H2_1
 70
0
 62
7
  6
CONTINUOUS
370
-3
390
F
  0
LAYER
  5
200
100
AcDbSymbolTableRecord
100
AcDbLayerTableRecord
  2
BASE_V3-H3_1
 70
0
 62
7
  6
CONTINUOUS
370
-3
390
F
  0
LAYER
  5
201
100
AcDbSymbolTableRecord
100
AcDbLayerTableRecord
  2
BATTERY_AA_2_1
 70
0
 62
7
  6
CONTINUOUS
370
-3
390
F
  0
LAYER
  5
202
100
AcDbSymbolTableRecord
100
AcDbLayerTableRecord
  2
BATTERY_AA_CLIP_2_002
 70
0
 62
7
  6
CONTINUOUS
370
-3
390
F
  0
LAYER
  5
203
100
AcDbSymbolTableRecord
100
AcDbLayerTableRecord
  2
BATTERY_AA_CLIP_2_002_1
 70
0
 62
7
  6
CONTINUOUS
370
-3
390
F
  0
LAYER
  5
204
100
AcDbSymbolTableRecord
100
AcDbLayerTableRecord
  2
COLOR41
 70
0
 62
7
  6
CONTINUOUS
370
-3
390
F
  0
LAYER
  5
205
100
AcDbSymbolTableRecord
100
AcDbLayerTableRecord
  2
COLOR47
 70
0
 62
7
  6
CONTINUOUS
370
-3
390
F
  0
LAYER
  5
206
100
AcDbSymbolTableRecord
100
AcDbLayerTableRecord
  2
COLOR48
 70
0
 62
7
  6
CONTINUOUS
370
-3
390
F
  0
LAYER
  5
207
100
AcDbSymbolTableRecord
100
AcDbLayerTableRecord
  2
COLOR49
 70
0
 62
7
  6
CONTINUOUS
370
-3
390
F
  0
LAYER
  5
208
100
AcDbSymbolTableRecord
100
AcDbLayerTableRecord
  2
COLOR5
 70
0
 62
7
  6
CONTINUOUS
370
-3
390
F
  0
LAYER
  5
209
100
AcDbSymbolTableRecord
100
AcDbLayerTableRecord
  2
COLOR50
 70
0
 62
7
  6
CONTINUOUS
370
-3
390
F
  0
LAYER
  5
20A
100
AcDbSymbolTableRecord
100
AcDbLayerTableRecord
  2
COLOR51
 70
0
 62
7
  6
CONTINUOUS
370
-3
390
F
  0
LAYER
  5
20B
100
AcDbSymbolTableRecord
100
AcDbLayerTableRecord
  2
COLOR52
 70
0
 62
7
  6
CONTINUOUS
370
-3
390
F
  0
LAYER
  5
20C
100
AcDbSymbolTableRecord
100
AcDbLayerTableRecord
  2
COLOR55
 70
0
 62
7
  6
CONTINUOUS
370
-3
390
F
  0
LAYER
  5
20D
100
AcDbSymbolTableRecord
100
AcDbLayerTableRecord
  2
COLOR56
 70
0
 62
7
  6
CONTINUOUS
370
-3
390
F
  0
LAYER
  5
20E
100
AcDbSymbolTableRecord
100
AcDbLayerTableRecord
  2
COLOR58
 70
0
 62
7
  6
CONTINUOUS
370
-3
390
F
  0
LAYER
  5
20F
100
AcDbSymbolTableRecord
100
AcDbLayerTableRecord
  2
COLOR59
 70
0
 62
7
  6
CONTINUOUS
370
-3
390
F
  0
LAYER
  5
210
100
AcDbSymbolTableRecord
100
AcDbLayerTableRecord
  2
COLOR60
 70
0
 62
7
  6
CONTINUOUS
370
-3
390
F
  0
LAYER
  5
211
100
AcDbSymbolTableRecord
100
AcDbLayerTableRecord
  2
COLOR61
 70
0
 62
7
  6
CONTINUOUS
370
-3
390
F
  0
LAYER
  5
212
100
AcDbSymbolTableRecord
100
AcDbLayerTableRecord
  2
COLOR62
 70
0
 62
7
  6
CONTINUOUS
370
-3
390
F
  0
LAYER
  5
213
100
AcDbSymbolTableRecord
100
AcDbLayerTableRecord
  2
COLOR63
 70
0
 62
7
  6
CONTINUOUS
370
-3
390
F
  0
LAYER
  5
214
100
AcDbSymbolTableRecord
100
AcDbLayerTableRecord
  2
COLOR64
 70
0
 62
7
  6
CONTINUOUS
370
-3
390
F
  0
LAYER
  5
215
100
AcDbSymbolTableRecord
100
AcDbLayerTableRecord
  2
COLOR65
 70
0
 62
7
  6
CONTINUOUS
370
-3
390
F
  0
LAYER
  5
216
100
AcDbSymbolTableRecord
100
AcDbLayerTableRecord
  2
COLOR67
 70
0
 62
7
  6
CONTINUOUS
370
-3
390
F
  0
LAYER
  5
217
100
AcDbSymbolTableRecord
100
AcDbLayerTableRecord
  2
COLOR68
 70
0
 62
7
  6
CONTINUOUS
370
-3
390
F
  0
LAYER
  5
218
100
AcDbSymbolTableRecord
100
AcDbLayerTableRecord
  2
COLOR69
 70
0
 62
7
  6
CONTINUOUS
370
-3
390
F
  0
LAYER
  5
219
100
AcDbSymbolTableRecord
100
AcDbLayerTableRecord
  2
COLOR70
 70
0
 62
7
  6
CONTINUOUS
370
-3
390
F
  0
LAYER
  5
21A
100
AcDbSymbolTableRecord
100
AcDbLayerTableRecord
  2
COLOR71
 70
0
 62
7
  6
CONTINUOUS
370
-3
390
F
  0
LAYER
  5
21B
100
AcDbSymbolTableRecord
100
AcDbLayerTableRecord
  2
COLOR72
 70
0
 62
7
  6
CONTINUOUS
370
-3
390
F
  0
LAYER
  5
21C
100
AcDbSymbolTableRecord
100
AcDbLayerTableRecord
  2
COLOR73
 70
0
 62
7
  6
CONTINUOUS
370
-3
390
F
  0
LAYER
  5
21D
100
AcDbSymbolTableRecord
100
AcDbLayerTableRecord
  2
COLOR74
 70
0
 62
7
  6
CONTINUOUS
370
-3
390
F
  0
LAYER
  5
21E
100
AcDbSymbolTableRecord
100
AcDbLayerTableRecord
  2
COLOR76
 70
0
 62
7
  6
CONTINUOUS
370
-3
390
F
  0
LAYER
  5
21F
100
AcDbSymbolTableRecord
100
AcDbLayerTableRecord
  2
COLOR77
 70
0
 62
7
  6
CONTINUOUS
370
-3
390
F
  0
LAYER
  5
220
100
AcDbSymbolTableRecord
100
AcDbLayerTableRecord
  2
COLOR78
 70
0
 62
7
  6
CONTINUOUS
370
-3
390
F
  0
LAYER
  5
221
100
AcDbSymbolTableRecord
100
AcDbLayerTableRecord
  2
COORDINATE
 70
0
 62
7
  6
CONTINUOUS
370
-3
390
F
  0
LAYER
  5
222
100
AcDbSymbolTableRecord
100
AcDbLayerTableRecord
  2
COPY_PUBLISH
 70
0
 62
7
  6
CONTINUOUS
370
-3
390
F
  0
LAYER
  5
223
100
AcDbSymbolTableRecord
100
AcDbLayerTableRecord
  2
COSMETICI
 70
0
 62
7
  6
CONTINUOUS
370
-3
390
F
  0
LAYER
  5
224
100
AcDbSymbolTableRecord
100
AcDbLayerTableRecord
  2
COVER_V3_1
 70
0
 62
7
  6
CONTINUOUS
370
-3
390
F
  0
LAYER
  5
225
100
AcDbSymbolTableRecord
100
AcDbLayerTableRecord
  2
CURVE
 70
0
 62
7
  6
CONTINUOUS
370
-3
390
F
  0
LAYER
  5
226
100
AcDbSymbolTableRecord
100
AcDbLayerTableRecord
  2
DRAFT
 70
0
 62
7
  6
CONTINUOUS
370
-3
390
F
  0
LAYER
  5
227
100
AcDbSymbolTableRecord
100
AcDbLayerTableRecord
  2
IMPORT_IGES
 70
0
 62
7
  6
CONTINUOUS
370
-3
390
F
  0
LAYER
  5
228
100
AcDbSymbolTableRecord
100
AcDbLayerTableRecord
  2
INTF_GREEN
 70
0
 62
7
  6
CONTINUOUS
370
-3
390
F
  0
LAYER
  5
229
100
AcDbSymbolTableRecord
100
AcDbLayerTableRecord
  2
MAGNETE_TONDO_1
 70
0
 62
7
  6
CONTINUOUS
370
-3
390
F
  0
LAYER
  5
22A
100
AcDbSymbolTableRecord
100
AcDbLayerTableRecord
  2
MB_PCB_LUNGO_2_1
 70
0
 62
7
  6
CONTINUOUS
370
-3
390
F
  0
LAYER
  5
22B
100
AcDbSymbolTableRecord
100
AcDbLayerTableRecord
  2
MB_PCB_LUNGO_ASM_2_ASM
 70
0
 62
7
  6
CONTINUOUS
370
-3
390
F
  0
LAYER
  5
22C
100
AcDbSymbolTableRecord
100
AcDbLayerTableRecord
  2
MC300-ASM_PCB_ASM_3_ASM
 70
0
 62
7
  6
CONTINUOUS
370
-3
390
F
  0
LAYER
  5
22D
100
AcDbSymbolTableRecord
100
AcDbLayerTableRecord
  2
MC300-BASE_33
 70
0
 62
7
  6
CONTINUOUS
370
-3
390
F
  0
LAYER
  5
22E
100
AcDbSymbolTableRecord
100
AcDbLayerTableRecord
  2
MC300-COVER_25_2
 70
0
 62
7
  6
CONTINUOUS
370
-3
390
F
  0
LAYER
  5
22F
100
AcDbSymbolTableRecord
100
AcDbLayerTableRecord
  2
MC300-TEST_BUTTON_1_1
 70
0
 62
7
  6
CONTINUOUS
370
-3
390
F
  0
LAYER
  5
230
100
AcDbSymbolTableRecord
100
AcDbLayerTableRecord
  2
MC300_ASM
 70
0
 62
7
  6
CONTINUOUS
370
-3
390
F
  0
LAYER
  5
231
100
AcDbSymbolTableRecord
100
AcDbLayerTableRecord
  2
MC300_ASM_18_ASM
 70
0
 62
7
  6
CONTINUOUS
370
-3
390
F
  0
LAYER
  5
232
100
AcDbSymbolTableRecord
100
AcDbLayerTableRecord
  2
MC300_MAGNATIC_CONTACT-V3_ASM_6
 70
0
 62
7
  6
CONTINUOUS
370
-3
390
F
  0
LAYER
  5
233
100
AcDbSymbolTableRecord
100
AcDbLayerTableRecord
  2
NOTE
 70
0
 62
7
  6
CONTINUOUS
370
-3
390
F
  0
LAYER
  5
234
100
AcDbSymbolTableRecord
100
AcDbLayerTableRecord
  2
PCB_MC300_LUNGO_ASM_4_ASM
 70
0
 62
7
  6
CONTINUOUS
370
-3
390
F
  0
LAYER
  5
235
100
AcDbSymbolTableRecord
100
AcDbLayerTableRecord
  2
PIANI
 70
0
 62
7
  6
CONTINUOUS
370
-3
390
F
  0
LAYER
  5
236
100
AcDbSymbolTableRecord
100
AcDbLayerTableRecord
  2
PUNTI
 70
0
 62
7
  6
CONTINUOUS
370
-3
390
F
  0
LAYER
  5
237
100
AcDbSymbolTableRecord
100
AcDbLayerTableRecord
  2
RACCORDO
 70
0
 62
7
  6
CONTINUOUS
370
-3
390
F
  0
LAYER
  5
238
100
AcDbSymbolTableRecord
100
AcDbLayerTableRecord
  2
REED_SWITCH_MD-SM10_2_002
 70
0
 62
7
  6
CONTINUOUS
370
-3
390
F
  0
LAYER
  5
239
100
AcDbSymbolTableRecord
100
AcDbLayerTableRecord
  2
REED_SWITCH_MD-SM10_2_002_1
 70
0
 62
7
  6
CONTINUOUS
370
-3
390
F
  0
LAYER
  5
23A
100
AcDbSymbolTableRecord
100
AcDbLayerTableRecord
  2
SCREW_2_2X4_5_2_005
 70
0
 62
7
  6
CONTINUOUS
370
-3
390
F
  0
LAYER
  5
23B
100
AcDbSymbolTableRecord
100
AcDbLayerTableRecord
  2
SCREW_2_2X4_5_2_005_1
 70
0
 62
7
  6
CONTINUOUS
370
-3
390
F
  0
LAYER
  5
23C
100
AcDbSymbolTableRecord
100
AcDbLayerTableRecord
  2
SCREW_2_2X4_5_2_005_2
 70
0
 62
7
  6
CONTINUOUS
370
-3
390
F
  0
LAYER
  5
23D
100
AcDbSymbolTableRecord
100
AcDbLayerTableRecord
  2
SCREW_2_2X4_5_2_005_3
 70
0
 62
7
  6
CONTINUOUS
370
-3
390
F
  0
LAYER
  5
23E
100
AcDbSymbolTableRecord
100
AcDbLayerTableRecord
  2
SCREW_2_2X4_5_2_005_4
 70
0
 62
7
  6
CONTINUOUS
370
-3
390
F
  0
LAYER
  5
23F
100
AcDbSymbolTableRecord
100
AcDbLayerTableRecord
  2
SCREW_2_2X6_5_1_1
 70
0
 62
7
  6
CONTINUOUS
370
-3
390
F
  0
LAYER
  5
240
100
AcDbSymbolTableRecord
100
AcDbLayerTableRecord
  2
SIMBOLI
 70
0
 62
7
  6
CONTINUOUS
370
-3
390
F
  0
LAYER
  5
241
100
AcDbSymbolTableRecord
100
AcDbLayerTableRecord
  2
SMUSSO
 70
0
 62
7
  6
CONTINUOUS
370
-3
390
F
  0
LAYER
  5
242
100
AcDbSymbolTableRecord
100
AcDbLayerTableRecord
  2
SNAPLINE
 70
0
 62
7
  6
CONTINUOUS
370
-3
390
F
  0
LAYER
  5
243
100
AcDbSymbolTableRecord
100
AcDbLayerTableRecord
  2
STRIP_F_04_2_1_1
 70
0
 62
7
  6
CONTINUOUS
370
-3
390
F
  0
LAYER
  5
244
100
AcDbSymbolTableRecord
100
AcDbLayerTableRecord
  2
STRIP_F_04_2_2_1
 70
0
 62
7
  6
CONTINUOUS
370
-3
390
F
  0
LAYER
  5
245
100
AcDbSymbolTableRecord
100
AcDbLayerTableRecord
  2
STRIP_F_04_2_3_1
 70
0
 62
7
  6
CONTINUOUS
370
-3
390
F
  0
LAYER
  5
246
100
AcDbSymbolTableRecord
100
AcDbLayerTableRecord
  2
STRIP_F_04_2_4_1
 70
0
 62
7
  6
CONTINUOUS
370
-3
390
F
  0
LAYER
  5
247
100
AcDbSymbolTableRecord
100
AcDbLayerTableRecord
  2
STRIP_F_04_2_5_1
 70
0
 62
7
  6
CONTINUOUS
370
-3
390
F
  0
LAYER
  5
248
100
AcDbSymbolTableRecord
100
AcDbLayerTableRecord
  2
STRIP_F_04_2_ASM_ASM_1_ASM
 70
0
 62
7
  6
CONTINUOUS
370
-3
390
F
  0
LAYER
  5
249
100
AcDbSymbolTableRecord
100
AcDbLayerTableRecord
  2
STRIP_M_04_ASM_1_ASM_ASM_1_ASM
 70
0
 62
7
  6
CONTINUOUS
370
-3
390
F
  0
LAYER
  5
24A
100
AcDbSymbolTableRecord
100
AcDbLayerTableRecord
  2
SUPERFICI
 70
0
 62
7
  6
CONTINUOUS
370
-3
390
F
  0
LAYER
  5
24B
100
AcDbSymbolTableRecord
100
AcDbLayerTableRecord
  2
SWITCH_SKQYAB_2_1
 70
0
 62
7
  6
CONTINUOUS
370
-3
390
F
  0
LAYER
  5
24C
100
AcDbSymbolTableRecord
100
AcDbLayerTableRecord
  2
TB_PCB_2_3
 70
0
 62
7
  6
CONTINUOUS
370
-3
390
F
  0
LAYER
  5
24D
100
AcDbSymbolTableRecord
100
AcDbLayerTableRecord
  2
TB_PCB_ASM_2_ASM
 70
0
 62
7
  6
CONTINUOUS
370
-3
390
F
  0
LAYER
  5
24E
100
AcDbSymbolTableRecord
100
AcDbLayerTableRecord
  2
TERMINAL_BLOCK_3P_2_1
 70
0
 62
7
  6
CONTINUOUS
370
-3
390
F
  0
LAYER
  5
24F
100
AcDbSymbolTableRecord
100
AcDbLayerTableRecord
  2
TRASH
 70
0
 62
7
  6
CONTINUOUS
370
-3
390
F
  0
LAYER
  5
250
100
AcDbSymbolTableRecord
100
AcDbLayerTableRecord
  2
USER_LIBRARY-STRIPM04_352-71792
 70
0
 62
7
  6
CONTINUOUS
370
-3
390
F
  0
LAYER
  5
251
100
AcDbSymbolTableRecord
100
AcDbLayerTableRecord
  2
USER_LIBRARY-STRIPM04_352-72164
 70
0
 62
7
  6
CONTINUOUS
370
-3
390
F
  0
LAYER
  5
252
100
AcDbSymbolTableRecord
100
AcDbLayerTableRecord
  2
USER_LIBRARY-STRIPM04_352-72192
 70
0
 62
7
  6
CONTINUOUS
370
-3
390
F
  0
LAYER
  5
253
100
AcDbSymbolTableRecord
100
AcDbLayerTableRecord
  2
USER_LIBRARY-STRIPM04_352-72220
 70
0
 62
7
  6
CONTINUOUS
370
-3
390
F
  0
LAYER
  5
254
100
AcDbSymbolTableRecord
100
AcDbLayerTableRecord
  2
USER_LIBRARY-STRIPM04_352-72904
 70
0
 62
7
  6
CONTINUOUS
370
-3
390
F
  0
LAYER
  5
255
100
AcDbSymbolTableRecord
100
AcDbLayerTableRecord
  2
USER_LIBRARY-STRIPM04_352-72932
 70
0
 62
7
  6
CONTINUOUS
370
-3
390
F
  0
LAYER
  5
256
100
AcDbSymbolTableRecord
100
AcDbLayerTableRecord
  2
USER_LIBRARY-STRIPM04_352-72960
 70
0
 62
7
  6
CONTINUOUS
370
-3
390
F
  0
LAYER
  5
257
100
AcDbSymbolTableRecord
100
AcDbLayerTableRecord
  2
USER_LIBRARY-STRIPM04_352-72988
 70
0
 62
7
  6
CONTINUOUS
370
-3
390
F
  0
LAYER
  5
258
100
AcDbSymbolTableRecord
100
AcDbLayerTableRecord
  2
USER_LIBRARY-STRIPM04_EXTRUDED0
 70
0
 62
7
  6
CONTINUOUS
370
-3
390
F
  0
LAYER
  5
259
100
AcDbSymbolTableRecord
100
AcDbLayerTableRecord
  2
USER_LIBRARY-STRIPM04_EXTRUDED_
 70
0
 62
7
  6
CONTINUOUS
370
-3
390
F
  0
LAYER
  5
25A
100
AcDbSymbolTableRecord
100
AcDbLayerTableRecord
  2
USER_LIBRARY-STRIPM04_EXTRUDE_1
 70
0
 62
7
  6
CONTINUOUS
370
-3
390
F
  0
LAYER
  5
25B
100
AcDbSymbolTableRecord
100
AcDbLayerTableRecord
  2
USER_LIBRARY-STRIPM04_EXTRUDE_2
 70
0
 62
7
  6
CONTINUOUS
370
-3
390
F
  0
LAYER
  5
25C
100
AcDbSymbolTableRecord
100
AcDbLayerTableRecord
  2
USER_LIBRARY-STRIPM04_EXTRUDE_3
 70
0
 62
7
  6
CONTINUOUS
370
-3
390
F
  0
LAYER
  5
25D
100
AcDbSymbolTableRecord
100
AcDbLayerTableRecord
  2
USER_LIBRARY-STRIPM04_EXTRUDE_4
 70
0
 62
7
  6
CONTINUOUS
370
-3
390
F
  0
LAYER
  5
25E
100
AcDbSymbolTableRecord
100
AcDbLayerTableRecord
  2
USER_LIBRARY-STRIPM04_EXTRUDE_5
 70
0
 62
7
  6
CONTINUOUS
370
-3
390
F
  0
LAYER
  5
25F
100
AcDbSymbolTableRecord
100
AcDbLayerTableRecord
  2
USER_LIBRARY-STRIPM04_EXTRUDE_6
 70
0
 62
7
  6
CONTINUOUS
370
-3
390
F
  0
LAYER
  5
260
100
AcDbSymbolTableRecord
100
AcDbLayerTableRecord
  2
___SHELL
 70
0
 62
7
  6
CONTINUOUS
370
-3
390
F
  0
ENDTAB
  0
TABLE
  2
STYLE
  5
3
100
AcDbSymbolTable
 70
1
  0
STYLE
  5
11
100
AcDbSymbolTableRecord
100
AcDbTextStyleTableRecord
  2
STANDARD
 70
0
 40
0.0
 41
0.8
 50
0.0
 71
0
 42
0.2
  3
txt
  4

  0
STYLE
  5
261
100
AcDbSymbolTableRecord
100
AcDbTextStyleTableRecord
  2
TEXTSTYLE_1
 70
0
 40
0.0
 41
0.8
 50
0.0
 71
0
 42
0.2
  3
gdt
  4

  0
ENDTAB
  0
TABLE
  2
VIEW
  5
6
100
AcDbSymbolTable
 70
0
  0
ENDTAB
  0
TABLE
  2
UCS
  5
7
100
AcDbSymbolTable
 70
0
  0
ENDTAB
  0
TABLE
  2
APPID
  5
9
100
AcDbSymbolTable
 70
1
  0
APPID
  5
262
100
AcDbSymbolTableRecord
100
AcDbRegAppTableRecord
  2
ACAD
 70
0
  0
ENDTAB
  0
TABLE
  2
BLOCK_RECORD
  5
1
100
AcDbSymbolTable
 70
0
  0
BLOCK_RECORD
  5
263
100
AcDbSymbolTableRecord
100
AcDbBlockTableRecord
  2
*Model_Space
  0
BLOCK_RECORD
  5
264
100
AcDbSymbolTableRecord
100
AcDbBlockTableRecord
  2
*Paper_Space
  0
BLOCK_RECORD
  5
265
100
AcDbSymbolTableRecord
100
AcDbBlockTableRecord
  2
_FILLED
  0
BLOCK_RECORD
  5
266
100
AcDbSymbolTableRecord
100
AcDbBlockTableRecord
  2
*D0
  0
BLOCK_RECORD
  5
267
100
AcDbSymbolTableRecord
100
AcDbBlockTableRecord
  2
*D1
  0
BLOCK_RECORD
  5
268
100
AcDbSymbolTableRecord
100
AcDbBlockTableRecord
  2
*D2
  0
BLOCK_RECORD
  5
269
100
AcDbSymbolTableRecord
100
AcDbBlockTableRecord
  2
*D3
  0
BLOCK_RECORD
  5
26A
100
AcDbSymbolTableRecord
100
AcDbBlockTableRecord
  2
*D4
  0
BLOCK_RECORD
  5
26B
100
AcDbSymbolTableRecord
100
AcDbBlockTableRecord
  2
*D5
  0
ENDTAB
  0
TABLE
  2
DIMSTYLE
  5
A
100
AcDbSymbolTable
 70
1
100
AcDbDimStyleTable
 71
0
  0
DIMSTYLE
105
26C
100
AcDbSymbolTableRecord
100
AcDbDimStyleTableRecord
  2
STANDARD
 70
0
  3

  4

 40
1.0
 41
3.0
 42
0.5
 43
0.38
 44
1.5
 45
0.0
 46
0.0
 47
0.01
 48
0.01
140
3.0
141
0.09
142
0.0
143
25.4
144
1.0
145
0.0
146
1.0
147
0.625
 71
1
 72
0
 73
0
 74
0
 75
0
 76
0
 77
1
 78
8
 79
2
170
0
171
1
172
0
173
0
174
0
175
0
176
0
177
0
178
0
270
2
179
2
271
2
272
2
273
2
274
2
275
0
280
0
281
0
282
0
283
1
284
8
285
0
286
0
287
3
288
0
340
11
278
44
341
265
342
265
343
265
344
265
  0
DIMSTYLE
105
26D
100
AcDbSymbolTableRecord
100
AcDbDimStyleTableRecord
  2
DIMSTYLE_1
 70
0
  3

  4

 40
1.0
 41
3.0
 42
0.5
 43
0.38
 44
1.5
 45
0.0
 46
0.0
 47
0.0
 48
0.0
140
3.0
141
0.09
142
0.0
143
25.4
144
1.0
145
0.0
146
1.0
147
0.75
 71
0
 72
0
 73
0
 74
0
 75
0
 76
0
 77
1
 78
8
 79
2
170
0
171
1
172
0
173
0
174
0
175
0
176
0
177
0
178
0
270
2
179
2
271
1
272
1
273
2
274
2
275
0
280
0
281
0
282
0
283
1
284
8
285
0
286
0
287
3
288
0
340
11
278
44
341
265
342
265
343
265
344
265
  0
DIMSTYLE
105
26E
100
AcDbSymbolTableRecord
100
AcDbDimStyleTableRecord
  2
DIMSTYLE_2
 70
0
  3

  4

 40
1.0
 41
3.0
 42
0.5
 43
0.38
 44
1.5
 45
0.0
 46
0.0
 47
0.0
 48
0.0
140
3.0
141
0.09
142
0.0
143
25.4
144
1.0
145
0.0
146
1.0
147
0.75
 71
0
 72
0
 73
0
 74
0
 75
0
 76
0
 77
1
 78
8
 79
2
170
0
171
1
172
0
173
0
174
0
175
0
176
0
177
0
178
0
270
2
179
2
271
2
272
2
273
2
274
2
275
0
280
0
281
0
282
0
283
1
284
8
285
0
286
0
287
3
288
0
340
11
278
44
341
265
342
265
343
265
344
265
  0
ENDTAB
  0
ENDSEC
  0
SECTION
  2
BLOCKS
  0
BLOCK
  5
20
100
AcDbEntity
  8
0
100
AcDbBlockBegin
  2
*Model_Space
 70
0
 10
0.0
 20
0.0
 30
0.0
  3
*Model_Space
  1

  0
ENDBLK
  5
21
100
AcDbEntity
  8
0
100
AcDbBlockEnd
  0
BLOCK
  5
1C
100
AcDbEntity
  8
0
100
AcDbBlockBegin
  2
*Paper_Space
 70
0
 10
0.0
 20
0.0
 30
0.0
  3
*Paper_Space
  1

  0
ENDBLK
  5
1D
100
AcDbEntity
  8
0
100
AcDbBlockEnd
  0
BLOCK
  5
26F
100
AcDbEntity
  8
0
100
AcDbBlockBegin
  2
_FILLED
 70
64
 10
0.0
 20
0.0
  3
_FILLED
  1

  0
SOLID
  5
270
100
AcDbEntity
  8
0
  6
BYBLOCK
 62
0
100
AcDbTrace
 10
0.0
 20
0.0
 11
-1.0
 21
0.3166666667
 12
-1.0
 22
-0.3166666667
 13
-1.0
 23
-0.3166666667
  0
ENDBLK
  5
271
100
AcDbEntity
  8
0
  6
BYBLOCK
 62
0
100
AcDbBlockEnd
  0
BLOCK
  5
272
100
AcDbEntity
  8
0
100
AcDbBlockBegin
 62
7
  6
CONTINUOUS
  2
*D0
 70
65
 10
0.0
 20
0.0
  3
*D0
  1

  0
LINE
  5
273
100
AcDbEntity
  8
0
100
AcDbLine
 62
7
  6
CONTINUOUS
 10
7.2469400974
 20
54.9045407418
 11
-24.9530670986
 21
54.9045407418
  0
LINE
  5
274
100
AcDbEntity
  8
0
100
AcDbLine
 62
7
  6
CONTINUOUS
 10
-9.7634574
 20
-54.6596345182
 11
-24.9530670985
 21
-54.6596345182
  0
LINE
  5
275
100
AcDbEntity
  8
0
100
AcDbLine
 62
7
  6
CONTINUOUS
 10
-23.4530670986
 20
54.9045407418
 11
-23.4530670985
 21
0.1224531118
  0
LINE
  5
276
100
AcDbEntity
  8
0
100
AcDbLine
 62
7
  6
CONTINUOUS
 10
-23.4530670985
 20
-54.6596345182
 11
-23.4530670985
 21
0.1224531118
  0
INSERT
  5
277
100
AcDbEntity
  8
0
100
AcDbBlockReference
 62
7
  6
CONTINUOUS
  2
_FILLED
 10
-23.4530670986
 20
54.9045407418
 41
3.0
 42
3.0
 43
3.0
 50
90.0
  0
INSERT
  5
278
100
AcDbEntity
  8
0
100
AcDbBlockReference
 62
7
  6
CONTINUOUS
  2
_FILLED
 10
-23.4530670985
 20
-54.6596345182
 41
3.0
 42
3.0
 43
3.0
 50
270.0
  0
ENDBLK
  5
279
100
AcDbEntity
  8
0
  6
BYBLOCK
 62
0
100
AcDbBlockEnd
  0
BLOCK
  5
27A
100
AcDbEntity
  8
0
100
AcDbBlockBegin
 62
7
  6
CONTINUOUS
  2
*D1
 70
65
 10
0.0
 20
0.0
  3
*D1
  1

  0
LINE
  5
27B
100
AcDbEntity
  8
0
100
AcDbLine
 62
7
  6
CONTINUOUS
 10
52.3789973312
 20
-28.6236433045
 11
40.3791342568
 21
-28.6236433045
  0
LINE
  5
27C
100
AcDbEntity
  8
0
100
AcDbLine
 62
7
  6
CONTINUOUS
 10
52.3789973298
 20
-54.7448164927
 11
40.3791342568
 21
-54.7448164927
  0
LINE
  5
27D
100
AcDbEntity
  8
0
100
AcDbLine
 62
7
  6
CONTINUOUS
 10
41.8791342568
 20
-28.6236433045
 11
41.8791342568
 21
-41.6842298986
  0
LINE
  5
27E
100
AcDbEntity
  8
0
100
AcDbLine
 62
7
  6
CONTINUOUS
 10
41.8791342568
 20
-54.7448164927
 11
41.8791342568
 21
-41.6842298986
  0
INSERT
  5
27F
100
AcDbEntity
  8
0
100
AcDbBlockReference
 62
7
  6
CONTINUOUS
  2
_FILLED
 10
41.8791342568
 20
-28.6236433045
 41
3.0
 42
3.0
 43
3.0
 50
90.0
  0
INSERT
  5
280
100
AcDbEntity
  8
0
100
AcDbBlockReference
 62
7
  6
CONTINUOUS
  2
_FILLED
 10
41.8791342568
 20
-54.7448164927
 41
3.0
 42
3.0
 43
3.0
 50
270.0
  0
ENDBLK
  5
281
100
AcDbEntity
  8
0
  6
BYBLOCK
 62
0
100
AcDbBlockEnd
  0
BLOCK
  5
282
100
AcDbEntity
  8
0
100
AcDbBlockBegin
 62
7
  6
CONTINUOUS
  2
*D2
 70
65
 10
0.0
 20
0.0
  3
*D2
  1

  0
LINE
  5
283
100
AcDbEntity
  8
0
100
AcDbLine
 62
7
  6
CONTINUOUS
 10
92.7140877659
 20
53.1045407405
 11
104.7139436039
 21
53.1045407395
  0
LINE
  5
284
100
AcDbEntity
  8
0
100
AcDbLine
 62
7
  6
CONTINUOUS
 10
92.7140929941
 20
-54.8954592571
 11
104.7139435949
 21
-54.8954592581
  0
LINE
  5
285
100
AcDbEntity
  8
0
100
AcDbLine
 62
7
  6
CONTINUOUS
 10
103.2139436039
 20
53.1045407396
 11
103.2139435994
 21
-0.8954592592
  0
LINE
  5
286
100
AcDbEntity
  8
0
100
AcDbLine
 62
7
  6
CONTINUOUS
 10
103.2139435949
 20
-54.895459258
 11
103.2139435994
 21
-0.8954592592
  0
INSERT
  5
287
100
AcDbEntity
  8
0
100
AcDbBlockReference
 62
7
  6
CONTINUOUS
  2
_FILLED
 10
103.2139436039
 20
53.1045407396
 41
3.0
 42
3.0
 43
3.0
 50
89.9999999953
  0
INSERT
  5
288
100
AcDbEntity
  8
0
100
AcDbBlockReference
 62
7
  6
CONTINUOUS
  2
_FILLED
 10
103.2139435949
 20
-54.895459258
 41
3.0
 42
3.0
 43
3.0
 50
269.9999999953
  0
ENDBLK
  5
289
100
AcDbEntity
  8
0
  6
BYBLOCK
 62
0
100
AcDbBlockEnd
  0
BLOCK
  5
28A
100
AcDbEntity
  8
0
100
AcDbBlockBegin
 62
7
  6
CONTINUOUS
  2
*D3
 70
65
 10
0.0
 20
0.0
  3
*D3
  1

  0
LINE
  5
28B
100
AcDbEntity
  8
0
100
AcDbLine
 62
7
  6
CONTINUOUS
 10
67.4139435854
 20
-54.3955740089
 11
67.4139435859
 21
-76.3954592584
  0
LINE
  5
28C
100
AcDbEntity
  8
0
100
AcDbLine
 62
7
  6
CONTINUOUS
 10
93.2139435885
 20
-54.3955187783
 11
93.213943589
 21
-76.3954592578
  0
LINE
  5
28D
100
AcDbEntity
  8
0
100
AcDbLine
 62
7
  6
CONTINUOUS
 10
67.4139435859
 20
-74.8954592584
 11
80.3139435874
 21
-74.8954592581
  0
LINE
  5
28E
100
AcDbEntity
  8
0
100
AcDbLine
 62
7
  6
CONTINUOUS
 10
93.213943589
 20
-74.8954592578
 11
80.3139435874
 21
-74.8954592581
  0
INSERT
  5
28F
100
AcDbEntity
  8
0
100
AcDbBlockReference
 62
7
  6
CONTINUOUS
  2
_FILLED
 10
67.4139435859
 20
-74.8954592584
 41
3.0
 42
3.0
 43
3.0
 50
180.0000000014
  0
INSERT
  5
290
100
AcDbEntity
  8
0
100
AcDbBlockReference
 62
7
  6
CONTINUOUS
  2
_FILLED
 10
93.213943589
 20
-74.8954592578
 41
3.0
 42
3.0
 43
3.0
 50
0.0000000014
  0
ENDBLK
  5
291
100
AcDbEntity
  8
0
  6
BYBLOCK
 62
0
100
AcDbBlockEnd
  0
BLOCK
  5
292
100
AcDbEntity
  8
0
100
AcDbBlockBegin
 62
7
  6
CONTINUOUS
  2
*D4
 70
65
 10
0.0
 20
0.0
  3
*D4
  1

  0
LINE
  5
293
100
AcDbEntity
  8
0
100
AcDbLine
 62
7
  6
CONTINUOUS
 10
51.8791342157
 20
-54.2449466374
 11
51.8791332165
 21
-66.3954592581
  0
LINE
  5
294
100
AcDbEntity
  8
0
100
AcDbLine
 62
7
  6
CONTINUOUS
 10
64.748741215
 20
-54.2449495042
 11
64.7487402158
 21
-66.3954603164
  0
LINE
  5
295
100
AcDbEntity
  8
0
100
AcDbLine
 62
7
  6
CONTINUOUS
 10
51.8791333399
 20
-64.8954592581
 11
47.8791333399
 21
-64.8954589291
  0
LINE
  5
296
100
AcDbEntity
  8
0
100
AcDbLine
 62
7
  6
CONTINUOUS
 10
47.8791333399
 20
-64.8954589291
 11
58.3139368395
 21
-64.8954597872
  0
LINE
  5
297
100
AcDbEntity
  8
0
100
AcDbLine
 62
7
  6
CONTINUOUS
 10
64.7487403392
 20
-64.8954603164
 11
68.7487403392
 21
-64.8954606453
  0
LINE
  5
298
100
AcDbEntity
  8
0
100
AcDbLine
 62
7
  6
CONTINUOUS
 10
68.7487403392
 20
-64.8954606453
 11
58.3139368395
 21
-64.8954597872
  0
INSERT
  5
299
100
AcDbEntity
  8
0
100
AcDbBlockReference
 62
7
  6
CONTINUOUS
  2
_FILLED
 10
51.8791333399
 20
-64.8954592581
 41
3.0
 42
3.0
 43
3.0
 50
359.9999952885
  0
INSERT
  5
29A
100
AcDbEntity
  8
0
100
AcDbBlockReference
 62
7
  6
CONTINUOUS
  2
_FILLED
 10
64.7487403392
 20
-64.8954603164
 41
3.0
 42
3.0
 43
3.0
 50
179.9999952885
  0
ENDBLK
  5
29B
100
AcDbEntity
  8
0
  6
BYBLOCK
 62
0
100
AcDbBlockEnd
  0
BLOCK
  5
29C
100
AcDbEntity
  8
0
100
AcDbBlockBegin
 62
7
  6
CONTINUOUS
  2
*D5
 70
65
 10
0.0
 20
0.0
  3
*D5
  1

  0
LINE
  5
29D
100
AcDbEntity
  8
0
100
AcDbLine
 62
7
  6
CONTINUOUS
 10
-13.0530670985
 20
-54.115441972
 11
-13.0530670985
 21
-66.3954592581
  0
LINE
  5
29E
100
AcDbEntity
  8
0
100
AcDbLine
 62
7
  6
CONTINUOUS
 10
13.4469329015
 20
-54.2524500293
 11
13.4469329015
 21
-66.3954592581
  0
LINE
  5
29F
100
AcDbEntity
  8
0
100
AcDbLine
 62
7
  6
CONTINUOUS
 10
-13.0530670985
 20
-64.8954592581
 11
0.1969329015
 21
-64.8954592581
  0
LINE
  5
2A0
100
AcDbEntity
  8
0
100
AcDbLine
 62
7
  6
CONTINUOUS
 10
13.4469329015
 20
-64.8954592581
 11
0.1969329015
 21
-64.8954592581
  0
INSERT
  5
2A1
100
AcDbEntity
  8
0
100
AcDbBlockReference
 62
7
  6
CONTINUOUS
  2
_FILLED
 10
-13.0530670985
 20
-64.8954592581
 41
3.0
 42
3.0
 43
3.0
 50
180.0
  0
INSERT
  5
2A2
100
AcDbEntity
  8
0
100
AcDbBlockReference
 62
7
  6
CONTINUOUS
  2
_FILLED
 10
13.4469329015
 20
-64.8954592581
 41
3.0
 42
3.0
 43
3.0
  0
ENDBLK
  5
2A3
100
AcDbEntity
  8
0
  6
BYBLOCK
 62
0
100
AcDbBlockEnd
  0
ENDSEC
  0
SECTION
  2
ENTITIES
  0
DIMENSION
  5
2A4
100
AcDbEntity
  8
0
100
AcDbDimension
 62
7
  6
CONTINUOUS
  2
*D0
 10
-23.4530670985
 20
-54.6596345182
 11
-23.4530670985
 21
-5.1275468882
 70
160
 71
2
 72
2
 41
0.9
 42
109.56417526
  3
DIMSTYLE_1
100
AcDbAlignedDimension
 13
7.7469400974
 23
54.9045407418
 14
-9.2634574
 24
-54.6596345182
 50
270.0
100
AcDbRotatedDimension
  0
DIMENSION
  5
2A5
100
AcDbEntity
  8
0
100
AcDbDimension
 62
7
  6
CONTINUOUS
  2
*D1
 10
41.8791342568
 20
-54.7448164927
 11
41.8791342568
 21
-45.75565847
 70
160
 71
2
 72
2
 41
0.9
 42
26.1211731882
  3
DIMSTYLE_1
100
AcDbAlignedDimension
 13
52.8789973312
 23
-28.6236433045
 14
52.8789973298
 24
-54.7448164927
 50
270.0
100
AcDbRotatedDimension
  0
DIMENSION
  5
2A6
100
AcDbEntity
  8
0
100
AcDbDimension
 62
7
  6
CONTINUOUS
  2
*D2
 10
103.2139435949
 20
-54.895459258
 11
103.2139435991
 21
-4.1097449733
 70
160
 71
2
 72
2
 41
0.9
 42
107.9999999976
  3
DIMSTYLE_2
100
AcDbAlignedDimension
 13
92.2140877659
 23
53.1045407405
 14
92.2140929941
 24
-54.895459257
 50
269.9999999953
100
AcDbRotatedDimension
  0
DIMENSION
  5
2A7
100
AcDbEntity
  8
0
100
AcDbDimension
 62
7
  6
CONTINUOUS
  2
*D3
 10
93.213943589
 20
-74.8954592578
 11
76.0282293018
 21
-74.8954592582
 70
160
 71
2
 72
2
 41
0.9
 42
25.8000000032
  3
DIMSTYLE_2
100
AcDbAlignedDimension
 13
67.4139435854
 23
-53.8955740089
 14
93.2139435885
 24
-53.8955187783
100
AcDbRotatedDimension
  0
DIMENSION
  5
2A8
100
AcDbEntity
  8
0
100
AcDbDimension
 62
7
  6
CONTINUOUS
  2
*D4
 10
64.7487403392
 20
-64.8954603164
 11
54.2425083914
 21
-64.8954594524
 70
160
 71
2
 72
2
 41
0.9
 42
12.8696069993
  3
DIMSTYLE_1
100
AcDbAlignedDimension
 13
51.8791342568
 23
-53.7449466374
 14
64.7487412561
 24
-53.7449495042
 50
359.9999952885
100
AcDbRotatedDimension
  0
DIMENSION
  5
2A9
100
AcDbEntity
  8
0
100
AcDbDimension
 62
7
  6
CONTINUOUS
  2
*D5
 10
13.4469329015
 20
-64.8954592581
 11
-4.0887813843
 21
-64.8954592581
 70
160
 71
2
 72
2
 41
0.9
 42
26.5
  3
DIMSTYLE_2
100
AcDbAlignedDimension
 13
-13.0530670985
 23
-53.615441972
 14
13.4469329015
 24
-53.7524500293
100
AcDbRotatedDimension
  0
LWPOLYLINE
  5
2AA
100
AcDbEntity
  8
0
100
AcDbPolyline
 62
7
  6
CONTINUOUS
 90
7
 70
0
 43
0.3500000006
 10
77.52822995
 20
-74.1454593658
 10
76.0282294922
 20
-74.1454593658
 10
77.52822995
 20
-72.0026009216
 10
77.52822995
 20
-71.5740319519
 10
77.0996609802
 20
-71.1454584503
 10
76.4567984619
 20
-71.1454584503
 10
76.0282294922
 20
-71.7883164368
  0
LWPOLYLINE
  5
2AB
100
AcDbEntity
  8
0
100
AcDbPolyline
 62
7
  6
CONTINUOUS
 90
8
 70
0
 43
0.3500000006
 10
78.3853678894
 20
-74.1454593658
 10
79.2425148926
 20
-74.1454593658
 10
79.6710838623
 20
-73.7168858643
 10
79.6710838623
 20
-72.8597433929
 10
79.2425148926
 20
-72.4311744232
 10
78.3853678894
 20
-72.4311744232
 10
78.3853678894
 20
-71.1454584503
 10
79.6710838623
 20
-71.1454584503
  0
LWPOLYLINE
  5
2AC
100
AcDbEntity
  8
0
100
AcDbPolyline
 62
7
  6
CONTINUOUS
 90
7
 70
0
 43
0.3500000006
 10
57.4567926636
 20
-64.1454608459
 10
55.9567922058
 20
-64.1454608459
 10
57.4567926636
 20
-62.0026024017
 10
57.4567926636
 20
-61.574033432
 10
57.0282236938
 20
-61.1454599304
 10
56.3853657074
 20
-61.1454599304
 10
55.9567922058
 20
-61.7883179169
  0
LINE
  5
2AD
100
AcDbEntity
  8
IMPORT_IGES
100
AcDbLine
 62
250
  6
CONTINUOUS
 10
68.908289145
 20
-54.6422292318
 11
69.0435158571
 21
-54.6383711344
  0
LINE
  5
2AE
100
AcDbEntity
  8
IMPORT_IGES
100
AcDbLine
 62
250
  6
CONTINUOUS
 10
69.0435158571
 20
-54.6383711344
 11
69.2040353634
 21
-54.6348116892
  0
LINE
  5
2AF
100
AcDbEntity
  8
IMPORT_IGES
100
AcDbLine
 62
250
  6
CONTINUOUS
 10
69.2040353634
 20
-54.6348116892
 11
69.4868420677
 21
-54.6301545947
  0
LINE
  5
2B0
100
AcDbEntity
  8
IMPORT_IGES
100
AcDbLine
 62
250
  6
CONTINUOUS
 10
69.4868420677
 20
-54.6301545947
 11
69.9285345786
 21
-54.6254304075
  0
LWPOLYLINE
  5
2B1
100
AcDbEntity
  8
IMPORT_IGES
100
AcDbPolyline
 62
250
  6
CONTINUOUS
 90
3
 70
0
 10
69.9285345786
 20
-54.6254304075
 10
70.4215345334
 20
-54.6226387661
 10
70.5506304858
 20
-54.6222597929
  0
LINE
  5
2B2
100
AcDbEntity
  8
IMPORT_IGES
100
AcDbLine
 62
7
  6
CONTINUOUS
 10
70.5506304858
 20
-54.6222597929
 11
73.7950576593
 21
-54.6158356126
  0
LINE
  5
2B3
100
AcDbEntity
  8
IMPORT_IGES
100
AcDbLine
 62
7
  6
CONTINUOUS
 10
73.7950576593
 20
-54.6158356126
 11
77.0503369966
 21
-54.6119788321
  0
LINE
  5
2B4
100
AcDbEntity
  8
IMPORT_IGES
100
AcDbLine
 62
7
  6
CONTINUOUS
 10
77.0503369966
 20
-54.6119788321
 11
80.3139641424
 21
-54.6106909376
  0
LINE
  5
2B5
100
AcDbEntity
  8
IMPORT_IGES
100
AcDbLine
 62
7
  6
CONTINUOUS
 10
92.2140929941
 20
-54.895459257
 11
68.4138014212
 21
-54.895459257
  0
LINE
  5
2B6
100
AcDbEntity
  8
IMPORT_IGES
100
AcDbLine
 62
7
  6
CONTINUOUS
 10
63.7488797018
 20
-54.7448164934
 11
52.8789973298
 21
-54.7448164927
  0
LINE
  5
2B7
100
AcDbEntity
  8
IMPORT_IGES
100
AcDbLine
 62
7
  6
CONTINUOUS
 10
53.758643787
 20
-54.4917180543
 11
53.6324611896
 21
-54.4917180544
  0
LINE
  5
2B8
100
AcDbEntity
  8
IMPORT_IGES
100
AcDbLine
 62
7
  6
CONTINUOUS
 10
62.8692317256
 20
-54.4917180543
 11
62.995414323
 21
-54.4917180544
  0
LINE
  5
2B9
100
AcDbEntity
  8
IMPORT_IGES
100
AcDbLine
 62
7
  6
CONTINUOUS
 10
60.3139377563
 20
-54.4393528596
 11
56.3139377563
 21
-54.4393528596
  0
LINE
  5
2BA
100
AcDbEntity
  8
IMPORT_IGES
100
AcDbLine
 62
7
  6
CONTINUOUS
 10
56.3139377563
 20
-54.4218977946
 11
53.758643787
 21
-54.4218977946
  0
LINE
  5
2BB
100
AcDbEntity
  8
IMPORT_IGES
100
AcDbLine
 62
7
  6
CONTINUOUS
 10
60.3139377563
 20
-54.4218977946
 11
62.8692317256
 21
-54.4218977946
  0
LINE
  5
2BC
100
AcDbEntity
  8
IMPORT_IGES
100
AcDbLine
 62
7
  6
CONTINUOUS
 10
53.7040269558
 20
-54.4201522881
 11
62.9238485568
 21
-54.4201522881
  0
LINE
  5
2BD
100
AcDbEntity
  8
IMPORT_IGES
100
AcDbLine
 62
250
  6
CONTINUOUS
 10
63.352485217
 20
-54.3484060275
 11
53.2753899176
 21
-54.3484060259
  0
LINE
  5
2BE
100
AcDbEntity
  8
IMPORT_IGES
100
AcDbLine
 62
7
  6
CONTINUOUS
 10
80.3139641424
 20
-54.6106909376
 11
83.5775912148
 21
-54.6119788687
  0
LINE
  5
2BF
100
AcDbEntity
  8
IMPORT_IGES
100
AcDbLine
 62
7
  6
CONTINUOUS
 10
83.5775912148
 20
-54.6119788687
 11
86.8328705497
 21
-54.6158356659
  0
LINE
  5
2C0
100
AcDbEntity
  8
IMPORT_IGES
100
AcDbLine
 62
7
  6
CONTINUOUS
 10
86.8328705497
 20
-54.6158356659
 11
90.0772978386
 21
-54.6222598371
  0
LINE
  5
2C1
100
AcDbEntity
  8
IMPORT_IGES
100
AcDbLine
 62
250
  6
CONTINUOUS
 10
90.0772978386
 20
-54.6222598371
 11
90.5795641575
 21
-54.6245407515
  0
LINE
  5
2C2
100
AcDbEntity
  8
IMPORT_IGES
100
AcDbLine
 62
250
  6
CONTINUOUS
 10
90.5795641575
 20
-54.6245407515
 11
91.0369416787
 21
-54.6288071794
  0
LINE
  5
2C3
100
AcDbEntity
  8
IMPORT_IGES
100
AcDbLine
 62
250
  6
CONTINUOUS
 10
91.0369416787
 20
-54.6288071794
 11
91.3349832335
 21
-54.6331658004
  0
LINE
  5
2C4
100
AcDbEntity
  8
IMPORT_IGES
100
AcDbLine
 62
250
  6
CONTINUOUS
 10
91.3349832335
 20
-54.6331658004
 11
91.5069716994
 21
-54.6365473611
  0
LWPOLYLINE
  5
2C5
100
AcDbEntity
  8
IMPORT_IGES
100
AcDbPolyline
 62
250
  6
CONTINUOUS
 90
22
 70
0
 10
53.2753988545
 20
-54.3484060286
 10
53.2003716963
 20
-54.3455646374
 10
53.1263949947
 20
-54.3371963529
 10
53.0538630532
 20
-54.3234881588
 10
52.983380908
 20
-54.3047247047
 10
52.9150442761
 20
-54.2811029431
 10
52.8484968991
 20
-54.2525605844
 10
52.783952937
 20
-54.2191452269
 10
52.7219178238
 20
-54.1810726604
 10
52.6625391865
 20
-54.1383753809
 10
52.6061942836
 20
-54.0912332379
 10
52.5532196745
 20
-54.0398305892
 10
52.5037638384
 20
-53.9841568577
 10
52.458071761
 20
-53.9242277213
 10
52.4166863609
 20
-53.8604675595
 10
52.3801565346
 20
-53.7935358406
 10
52.3487865492
 20
-53.7239043674
 10
52.3227490571
 20
-53.651856175
 10
52.3022629404
 20
-53.5778574347
 10
52.2874910327
 20
-53.5023546823
 10
52.2785539172
 20
-53.425766982
 10
52.2755448762
 20
-53.3485451291
  0
LWPOLYLINE
  5
2C6
100
AcDbEntity
  8
IMPORT_IGES
100
AcDbPolyline
 62
250
  6
CONTINUOUS
 90
22
 70
0
 10
68.6496160703
 20
-54.6596344694
 10
68.574588738
 20
-54.6567928918
 10
68.5006113075
 20
-54.6484242697
 10
68.4280781069
 20
-54.6347154439
 10
68.3575940721
 20
-54.615950854
 10
68.2892551373
 20
-54.5923273758
 10
68.2227055394
 20
-54.563782893
 10
68.158159617
 20
-54.5303651039
 10
68.0961227196
 20
-54.4922897142
 10
68.0367425447
 20
-54.4495892304
 10
67.9803964212
 20
-54.4024435311
 10
67.9274209443
 20
-54.3510369809
 10
67.8779646235
 20
-54.295358984
 10
67.832272499
 20
-54.2354252133
 10
67.7908875718
 20
-54.171660113
 10
67.7543588053
 20
-54.1047232465
 10
67.7229904568
 20
-54.0350863549
 10
67.6969552916
 20
-53.96303265
 10
67.6764723241
 20
-53.8890288056
 10
67.6617043366
 20
-53.8135215999
 10
67.6527717851
 20
-53.7369300415
 10
67.6497678589
 20
-53.6597049983
  0
LWPOLYLINE
  5
2C7
100
AcDbEntity
  8
IMPORT_IGES
100
AcDbPolyline
 62
7
  6
CONTINUOUS
 90
22
 70
0
 10
52.8789973296
 20
-54.744814508
 10
52.8034177301
 20
-54.7418628231
 10
52.7291236
 20
-54.7334804943
 10
52.6561149394
 20
-54.7196675217
 10
52.5840070885
 20
-54.7002812162
 10
52.5131847071
 20
-54.6754642668
 10
52.444801774
 20
-54.6456447408
 10
52.3788984859
 20
-54.6107444459
 10
52.3154346461
 20
-54.5708415745
 10
52.2554436438
 20
-54.5265987702
 10
52.1989808608
 20
-54.4779477975
 10
52.1459909153
 20
-54.424956892
 10
52.0973410497
 20
-54.3684934042
 10
52.0530995117
 20
-54.3085019695
 10
52.0131980538
 20
-54.2450379526
 10
51.9782991755
 20
-54.1791347984
 10
51.9484811481
 20
-54.1107523309
 10
51.9236657002
 20
-54.0399307262
 10
51.9042805186
 20
-53.9678239571
 10
51.8904681652
 20
-53.8948166815
 10
51.8820860779
 20
-53.8205242416
 10
51.8791342568
 20
-53.7449466374
  0
LWPOLYLINE
  5
2C8
100
AcDbEntity
  8
IMPORT_IGES
100
AcDbPolyline
 62
7
  6
CONTINUOUS
 90
22
 70
0
 10
68.4138014212
 20
-54.8954592565
 10
68.3382214753
 20
-54.8925062796
 10
68.263927007
 20
-54.8841228117
 10
68.1909180163
 20
-54.8703088529
 10
68.1188098094
 20
-54.8509217719
 10
68.04798708
 20
-54.8261041999
 10
67.9796039099
 20
-54.7962840304
 10
67.9137005376
 20
-54.7613830052
 10
67.8502367245
 20
-54.7214793826
 10
67.7902458361
 20
-54.6772358304
 10
67.7337832585
 20
-54.6285841314
 10
67.6807936057
 20
-54.5755925029
 10
67.6321440851
 20
-54.5191282651
 10
67.5879029259
 20
-54.4591360486
 10
67.548001899
 20
-54.3956712228
 10
67.5131035246
 20
-54.3297672162
 10
67.4832860666
 20
-54.2613838099
 10
67.458471261
 20
-54.1905612228
 10
67.4390868374
 20
-54.1184535406
 10
67.4252753721
 20
-54.0454454584
 10
67.4168942887
 20
-53.9711522812
 10
67.4139435872
 20
-53.8955740089
  0
LWPOLYLINE
  5
2C9
100
AcDbEntity
  8
0
100
AcDbPolyline
 62
7
  6
CONTINUOUS
 90
10
 70
0
 43
0.3500000006
 10
38.1291333618
 20
-42.3270865631
 10
38.7719913483
 20
-42.9699445496
 10
39.6291338196
 20
-43.3985157852
 10
40.7005607758
 20
-43.3985157852
 10
41.1291342773
 20
-42.9699445496
 10
41.1291342773
 20
-42.3270865631
 10
40.7005607758
 20
-41.8985153275
 10
39.8434183044
 20
-41.8985153275
 10
39.4148493347
 20
-42.3270865631
 10
39.4148493347
 20
-43.2556579514
  0
LWPOLYLINE
  5
2CA
100
AcDbEntity
  8
IMPORT_IGES
100
AcDbPolyline
 62
7
  6
CONTINUOUS
 90
7
 70
0
 10
67.8110444618
 20
-53.6490220943
 10
67.7643836205
 20
-53.6507917836
 10
67.7255214213
 20
-53.6525711753
 10
67.6945572326
 20
-53.6543468857
 10
67.6715723908
 20
-53.6561144538
 10
67.6566288562
 20
-53.6578783407
 10
67.6497677698
 20
-53.6596385463
  0
LWPOLYLINE
  5
2CB
100
AcDbEntity
  8
IMPORT_IGES
100
AcDbPolyline
 62
250
  6
CONTINUOUS
 90
22
 70
0
 10
63.3524772439
 20
-54.3484060315
 10
63.4273474245
 20
-54.3455765816
 10
63.5017560621
 20
-54.3371549608
 10
63.5752868537
 20
-54.3231976798
 10
63.6475240342
 20
-54.3037938062
 10
63.7180715375
 20
-54.2790600579
 10
63.7865537813
 20
-54.2491359441
 10
63.8525907528
 20
-54.2141933985
 10
63.9158159972
 20
-54.1744324098
 10
63.9758923678
 20
-54.1300692711
 10
64.0324858916
 20
-54.0813528367
 10
64.0852821429
 20
-54.028556139
 10
64.1339981067
 20
-53.9719621962
 10
64.1783607423
 20
-53.9118854507
 10
64.21812121
 20
-53.8486598633
 10
64.2530632443
 20
-53.7826225337
 10
64.2829868224
 20
-53.7141397289
 10
64.3077200087
 20
-53.6435916372
 10
64.3271234248
 20
-53.5713543565
 10
64.3410804658
 20
-53.4978241422
 10
64.3495020842
 20
-53.4234165953
 10
64.3523318304
 20
-53.348548016
  0
LINE
  5
2CC
100
AcDbEntity
  8
IMPORT_IGES
100
AcDbLine
 62
7
  6
CONTINUOUS
 10
67.927261992
 20
-53.6455119784
 11
67.8110444618
 21
-53.6490220943
  0
LINE
  5
2CD
100
AcDbEntity
  8
IMPORT_IGES
100
AcDbLine
 62
7
  6
CONTINUOUS
 10
68.0729921953
 20
-53.6420802962
 11
67.927261992
 21
-53.6455119784
  0
LINE
  5
2CE
100
AcDbEntity
  8
IMPORT_IGES
100
AcDbLine
 62
7
  6
CONTINUOUS
 10
70.4147920257
 20
-53.6164468019
 11
70.2757787623
 21
-53.619233097
  0
LINE
  5
2CF
100
AcDbEntity
  8
IMPORT_IGES
100
AcDbLine
 62
7
  6
CONTINUOUS
 10
68.3436226359
 20
-53.6371425549
 11
68.0729921953
 21
-53.6420802962
  0
LINE
  5
2D0
100
AcDbEntity
  8
IMPORT_IGES
100
AcDbLine
 62
7
  6
CONTINUOUS
 10
70.2757787623
 20
-53.619233097
 11
70.2049767973
 21
-53.6203118539
  0
LINE
  5
2D1
100
AcDbEntity
  8
IMPORT_IGES
100
AcDbLine
 62
7
  6
CONTINUOUS
 10
68.9175315478
 20
-53.6297534966
 11
68.3436226359
 21
-53.6371425549
  0
LINE
  5
2D2
100
AcDbEntity
  8
IMPORT_IGES
100
AcDbLine
 62
7
  6
CONTINUOUS
 10
70.2049767973
 20
-53.6203118539
 11
70.1333813438
 21
-53.6209888846
  0
LINE
  5
2D3
100
AcDbEntity
  8
IMPORT_IGES
100
AcDbLine
 62
7
  6
CONTINUOUS
 10
70.1333813438
 20
-53.6209888846
 11
68.9175315478
 21
-53.6297534966
  0
LINE
  5
2D4
100
AcDbEntity
  8
IMPORT_IGES
100
AcDbLine
 62
250
  6
CONTINUOUS
 10
53.3127119595
 20
-51.5833584678
 11
63.3151685134
 21
-51.5833610449
  0
LINE
  5
2D5
100
AcDbEntity
  8
IMPORT_IGES
100
AcDbLine
 62
7
  6
CONTINUOUS
 10
90.436530297
 20
-53.6208136223
 11
90.4325792112
 21
-53.6208175591
  0
LINE
  5
2D6
100
AcDbEntity
  8
IMPORT_IGES
100
AcDbLine
 62
7
  6
CONTINUOUS
 10
70.4147976151
 20
-53.6154305988
 11
90.2130897025
 21
-53.6163616781
  0
LINE
  5
2D7
100
AcDbEntity
  8
IMPORT_IGES
100
AcDbLine
 62
7
  6
CONTINUOUS
 10
90.4266313473
 20
-53.620769729
 11
90.2932487594
 21
-53.6207028065
  0
LWPOLYLINE
  5
2D8
100
AcDbEntity
  8
IMPORT_IGES
100
AcDbPolyline
 62
250
  6
CONTINUOUS
 90
22
 70
0
 10
53.3126599482
 20
-51.5833580781
 10
53.2384455424
 20
-51.5828079452
 10
53.1652474236
 20
-51.5815258359
 10
53.0934477106
 20
-51.5795369156
 10
53.0236322777
 20
-51.5768795304
 10
52.9558963357
 20
-51.5735795102
 10
52.8898985661
 20
-51.5696280543
 10
52.8258485632
 20
-51.5650320274
 10
52.7642349194
 20
-51.5598206631
 10
52.7051983685
 20
-51.5539983496
 10
52.6491041332
 20
-51.5475892077
 10
52.5962804727
 20
-51.5406181075
 10
52.5468715919
 20
-51.5330841163
 10
52.5011141168
 20
-51.5249898859
 10
52.4595348052
 20
-51.5163917269
 10
52.4226691762
 20
-51.5073765305
 10
52.390815443
 20
-51.4980061076
 10
52.3641452659
 20
-51.4883180374
 10
52.3428775627
 20
-51.4783744561
 10
52.3271747088
 20
-51.4682343514
 10
52.317157153
 20
-51.4579524832
 10
52.3129204185
 20
-51.4475879971
  0
LINE
  5
2D9
100
AcDbEntity
  8
IMPORT_IGES
100
AcDbLine
 62
7
  6
CONTINUOUS
 10
91.4392535702
 20
-53.6267098203
 11
90.4443909577
 21
-53.6208951455
  0
LWPOLYLINE
  5
2DA
100
AcDbEntity
  8
IMPORT_IGES
100
AcDbPolyline
 62
7
  6
CONTINUOUS
 90
3
 70
0
 10
90.4325792112
 20
-53.6208175591
 10
90.4286168802
 20
-53.6207909813
 10
90.4266313473
 20
-53.620769729
  0
LINE
  5
2DB
100
AcDbEntity
  8
IMPORT_IGES
100
AcDbLine
 62
7
  6
CONTINUOUS
 10
92.0051284136
 20
-53.6324632977
 11
91.4392535702
 21
-53.6267098203
  0
LWPOLYLINE
  5
2DC
100
AcDbEntity
  8
IMPORT_IGES
100
AcDbPolyline
 62
7
  6
CONTINUOUS
 90
9
 70
0
 10
90.2932487594
 20
-53.6207028065
 10
90.2829895079
 20
-53.6205459236
 10
90.272798898
 20
-53.6202590697
 10
90.2626781461
 20
-53.6198217585
 10
90.2526264691
 20
-53.6192544763
 10
90.2426410798
 20
-53.6186186813
 10
90.2327211782
 20
-53.6179348596
 10
90.2228679565
 20
-53.6171825252
 10
90.2130816041
 20
-53.6163616781
  0
LINE
  5
2DD
100
AcDbEntity
  8
IMPORT_IGES
100
AcDbLine
 62
7
  6
CONTINUOUS
 10
92.3578970886
 20
-53.63757036
 11
92.0051284136
 21
-53.6324632977
  0
LWPOLYLINE
  5
2DE
100
AcDbEntity
  8
IMPORT_IGES
100
AcDbPolyline
 62
7
  6
CONTINUOUS
 90
5
 70
0
 10
90.4443909577
 20
-53.6208951455
 10
90.4424311049
 20
-53.6208606905
 10
90.4404677441
 20
-53.620834845
 10
90.4385008749
 20
-53.6208176091
 10
90.436530297
 20
-53.6208136223
  0
LINE
  5
2DF
100
AcDbEntity
  8
IMPORT_IGES
100
AcDbLine
 62
7
  6
CONTINUOUS
 10
92.5533167218
 20
-53.6412758127
 11
92.3578970886
 21
-53.63757036
  0
LWPOLYLINE
  5
2E0
100
AcDbEntity
  8
IMPORT_IGES
100
AcDbPolyline
 62
250
  6
CONTINUOUS
 90
11
 70
0
 10
91.5069716994
 20
-54.6365473611
 10
91.6552687639
 20
-54.6402649584
 10
91.7195945492
 20
-54.6422291814
 10
91.7774143609
 20
-54.6442632263
 10
91.8281232991
 20
-54.6463463919
 10
91.8716522847
 20
-54.6484791933
 10
91.9080703968
 20
-54.6506611154
 10
91.9369799732
 20
-54.652869911
 10
91.9582484596
 20
-54.6550981644
 10
91.9720084102
 20
-54.6573532914
 10
91.978259825
 20
-54.6596352918
  0
LWPOLYLINE
  5
2E1
100
AcDbEntity
  8
0
100
AcDbPolyline
 62
7
  6
CONTINUOUS
 90
13
 70
0
 43
0.3500000006
 10
82.6710847778
 20
-72.4311744232
 10
82.3853691101
 20
-72.2168899384
 10
82.3853691101
 20
-71.5740319519
 10
82.6710847778
 20
-71.1454584503
 10
83.3139472961
 20
-71.1454584503
 10
83.5996539001
 20
-71.5740319519
 10
83.5996539001
 20
-72.2168899384
 10
83.3139472961
 20
-72.4311744232
 10
83.7425162659
 20
-72.8597433929
 10
83.7425162659
 20
-73.7168858643
 10
83.3139472961
 20
-74.1454593658
 10
82.6710847778
 20
-74.1454593658
 10
82.2425158081
 20
-73.7168858643
  0
LWPOLYLINE
  5
2E2
100
AcDbEntity
  8
0
100
AcDbPolyline
 62
7
  6
CONTINUOUS
 90
3
 70
0
 43
0.3500000006
 10
38.9862758331
 20
-39.3270879135
 10
38.1291333618
 20
-38.4699443092
 10
41.1291342773
 20
-38.4699443092
  0
LWPOLYLINE
  5
2E3
100
AcDbEntity
  8
IMPORT_IGES
100
AcDbPolyline
 62
7
  6
CONTINUOUS
 90
22
 70
0
 10
70.5505943749
 20
52.8313317312
 10
70.5404885493
 20
52.8272739185
 10
70.5304447736
 20
52.8177030654
 10
70.5205185969
 20
52.8026810831
 10
70.5107657841
 20
52.7823015684
 10
70.5012389515
 20
52.7566848279
 10
70.4919873729
 20
52.72597325
 10
70.483061427
 20
52.690340907
 10
70.4745103078
 20
52.6499889023
 10
70.4663790486
 20
52.6051338584
 10
70.4587122733
 20
52.5560241399
 10
70.4515520354
 20
52.5029314592
 10
70.4449362453
 20
52.4461368591
 10
70.4389015026
 20
52.3859519311
 10
70.4334812166
 20
52.3227070337
 10
70.4287044975
 20
52.2567352199
 10
70.4245983066
 20
52.1883978003
 10
70.4211859258
 20
52.1180694356
 10
70.4184863503
 20
52.046120555
 10
70.4165155425
 20
51.9729409869
 10
70.4152858104
 20
51.8989391088
 10
70.4148051649
 20
51.8245237247
  0
LWPOLYLINE
  5
2E4
100
AcDbEntity
  8
IMPORT_IGES
100
AcDbPolyline
 62
7
  6
CONTINUOUS
 90
9
 70
0
 10
92.9781193849
 20
-53.6595304551
 10
92.9699693225
 20
-53.6574470319
 10
92.951805203
 20
-53.655372616
 10
92.9236891951
 20
-53.6533072072
 10
92.8857154247
 20
-53.6512444387
 10
92.8380076138
 20
-53.6491906773
 10
92.7807168569
 20
-53.647165024
 10
92.7140259912
 20
-53.6451677473
 10
92.5533167218
 20
-53.6412758127
  0
LWPOLYLINE
  5
2E5
100
AcDbEntity
  8
0
100
AcDbPolyline
 62
7
  6
CONTINUOUS
 90
3
 70
0
 43
0.3500000006
 10
40.8434186096
 20
-40.3270859528
 10
41.0577076263
 20
-40.3985148697
 10
41.3434187622
 20
-40.5413727036
  0
LWPOLYLINE
  5
2E6
100
AcDbEntity
  8
IMPORT_IGES
100
AcDbPolyline
 62
250
  6
CONTINUOUS
 90
9
 70
0
 10
91.9782646081
 20
52.8687165978
 10
91.9720142621
 20
52.866435032
 10
91.9582552615
 20
52.8641802025
 10
91.9369876064
 20
52.8619521092
 10
91.9080788932
 20
52.8597432879
 10
91.8716615254
 20
52.8575612029
 10
91.8281327132
 20
52.8554282473
 10
91.7774231464
 20
52.8533449845
 10
91.7196021351
 20
52.8513108511
  0
LINE
  5
2E7
100
AcDbEntity
  8
IMPORT_IGES
100
AcDbLine
 62
7
  6
CONTINUOUS
 10
62.9238485568
 20
-54.4201522881
 11
62.995414323
 21
-54.4917180544
  0
LINE
  5
2E8
100
AcDbEntity
  8
IMPORT_IGES
100
AcDbLine
 62
250
  6
CONTINUOUS
 10
64.7487412561
 20
-53.7449495042
 11
64.3523318289
 21
-53.3485533904
  0
LINE
  5
2E9
100
AcDbEntity
  8
IMPORT_IGES
100
AcDbLine
 62
250
  6
CONTINUOUS
 10
63.352485217
 20
-54.3484060275
 11
63.7488797018
 21
-54.7448164934
  0
LWPOLYLINE
  5
2EA
100
AcDbEntity
  8
0
100
AcDbPolyline
 62
7
  6
CONTINUOUS
 90
10
 70
0
 43
0.3500000006
 10
58.9567931213
 20
-63.6454606934
 10
59.0282243042
 20
-63.7883185272
 10
59.0282243042
 20
-63.8597451782
 10
58.8853664703
 20
-64.0026030121
 10
58.8139352875
 20
-64.0026030121
 10
58.7425086365
 20
-63.9311718292
 10
58.7425086365
 20
-63.8597451782
 10
58.8139352875
 20
-63.7168873444
 10
58.8853664703
 20
-63.6454606934
 10
58.9567931213
 20
-63.6454606934
  0
LINE
  5
2EB
100
AcDbEntity
  8
IMPORT_IGES
100
AcDbLine
 62
250
  6
CONTINUOUS
 10
52.2755436949
 20
-30.0199070238
 11
51.8791342566
 21
-29.6235131611
  0
LWPOLYLINE
  5
2EC
100
AcDbEntity
  8
0
100
AcDbPolyline
 62
7
  6
CONTINUOUS
 90
7
 70
0
 43
0.3500000006
 10
41.1291342773
 20
-44.2556582565
 10
41.1291342773
 20
-45.7556587143
 10
38.9862758331
 20
-44.2556582565
 10
38.5577068634
 20
-44.2556582565
 10
38.1291333618
 20
-44.6842294922
 10
38.1291333618
 20
-45.3270874786
 10
38.7719913483
 20
-45.7556587143
  0
LWPOLYLINE
  5
2ED
100
AcDbEntity
  8
IMPORT_IGES
100
AcDbPolyline
 62
250
  6
CONTINUOUS
 90
22
 70
0
 10
53.3127071118
 20
-31.785095148
 10
53.2385536883
 20
-31.7856373921
 10
53.1653948239
 20
-31.7869129301
 10
53.0936125166
 20
-31.7888972392
 10
53.0237846457
 20
-31.7915535288
 10
52.9560165767
 20
-31.7948557276
 10
52.8899931711
 20
-31.7988098307
 10
52.8259344885
 20
-31.8034073952
 10
52.7643172668
 20
-31.8086202083
 10
52.7052738878
 20
-31.8144445442
 10
52.6491669681
 20
-31.8208567381
 10
52.5963288934
 20
-31.8278316597
 10
52.546906403
 20
-31.8353699993
 10
52.5011355918
 20
-31.8434692575
 10
52.4595445747
 20
-31.8520729446
 10
52.4226724658
 20
-31.8610932409
 10
52.3908184644
 20
-31.8704674947
 10
52.364150021
 20
-31.8801586795
 10
52.3428823395
 20
-31.8901058352
 10
52.3271779097
 20
-31.9002504064
 10
52.3171588712
 20
-31.9105372135
 10
52.3129214532
 20
-31.9209070844
  0
LINE
  5
2EE
100
AcDbEntity
  8
IMPORT_IGES
100
AcDbLine
 62
250
  6
CONTINUOUS
 10
53.3127069999
 20
-31.7850961504
 11
63.3151704154
 21
-31.7850987453
  0
LINE
  5
2EF
100
AcDbEntity
  8
IMPORT_IGES
100
AcDbLine
 62
7
  6
CONTINUOUS
 10
53.6324611896
 20
-28.8767417426
 11
53.7040269558
 21
-28.9483075088
  0
LINE
  5
2F0
100
AcDbEntity
  8
IMPORT_IGES
100
AcDbLine
 62
250
  6
CONTINUOUS
 10
53.2753902961
 20
-29.0200537698
 11
52.8789973312
 21
-28.623643304
  0
LWPOLYLINE
  5
2F1
100
AcDbEntity
  8
IMPORT_IGES
100
AcDbPolyline
 62
7
  6
CONTINUOUS
 90
22
 70
0
 10
52.8789973312
 20
-28.6236433045
 10
52.8031050347
 20
-28.6266476209
 10
52.7285808022
 20
-28.6350822333
 10
52.6554246337
 20
-28.6489471419
 10
52.5832657448
 20
-28.6683954126
 10
52.5124749199
 20
-28.6932739794
 10
52.444164512
 20
-28.7231236443
 10
52.3783752603
 20
-28.7580118526
 10
52.3150664257
 20
-28.797871159
 10
52.2552281438
 20
-28.8420400295
 10
52.1989107816
 20
-28.8905776332
 10
52.1460639723
 20
-28.943424801
 10
52.0975267506
 20
-28.9997424924
 10
52.0533582859
 20
-29.0595810739
 10
52.0134994089
 20
-29.1228901789
 10
51.9786116469
 20
-29.1886796672
 10
51.9487623719
 20
-29.2569902775
 10
51.9238842118
 20
-29.3277812712
 10
51.9044365775
 20
-29.399940292
 10
51.890572606
 20
-29.4730965545
 10
51.8821391602
 20
-29.5476208442
 10
51.8791362403
 20
-29.623513161
  0
LWPOLYLINE
  5
2F2
100
AcDbEntity
  8
IMPORT_IGES
100
AcDbPolyline
 62
250
  6
CONTINUOUS
 90
22
 70
0
 10
53.2753990299
 20
-29.0200537658
 10
53.2005284327
 20
-29.02288319
 10
53.1261194649
 20
-29.0313048346
 10
53.0525884329
 20
-29.0452621696
 10
52.9803511292
 20
-29.0646660994
 10
52.9098035893
 20
-29.0893998913
 10
52.8413213137
 20
-29.1193240547
 10
52.7752842919
 20
-29.1542666692
 10
52.7120590056
 20
-29.1940277352
 10
52.6519826025
 20
-29.2383909587
 10
52.5953890563
 20
-29.2871074842
 10
52.5425927936
 20
-29.3399042786
 10
52.4938768299
 20
-29.3964983225
 10
52.4495142065
 20
-29.4565751721
 10
52.4097537636
 20
-29.5198008656
 10
52.374811767
 20
-29.585838302
 10
52.3448882363
 20
-29.6543212199
 10
52.3201551118
 20
-29.7248694231
 10
52.3007517785
 20
-29.7971067899
 10
52.2867948376
 20
-29.870637055
 10
52.2783733279
 20
-29.9450446229
 10
52.2755436931
 20
-30.0199131928
  0
LINE
  5
2F3
100
AcDbEntity
  8
IMPORT_IGES
100
AcDbLine
 62
250
  6
CONTINUOUS
 10
53.2753902961
 20
-29.0200537698
 11
63.3524855951
 21
-29.0200537698
  0
LINE
  5
2F4
100
AcDbEntity
  8
IMPORT_IGES
100
AcDbLine
 62
7
  6
CONTINUOUS
 10
62.9238485568
 20
-28.9483075088
 11
53.7040269558
 21
-28.9483075088
  0
LINE
  5
2F5
100
AcDbEntity
  8
IMPORT_IGES
100
AcDbLine
 62
7
  6
CONTINUOUS
 10
62.8692317256
 20
-28.9465620023
 11
60.3139377563
 21
-28.9465620023
  0
LINE
  5
2F6
100
AcDbEntity
  8
IMPORT_IGES
100
AcDbLine
 62
7
  6
CONTINUOUS
 10
53.758643787
 20
-28.9465620023
 11
56.3139377563
 21
-28.9465620023
  0
LINE
  5
2F7
100
AcDbEntity
  8
IMPORT_IGES
100
AcDbLine
 62
7
  6
CONTINUOUS
 10
56.3139377563
 20
-28.9291069374
 11
60.3139377563
 21
-28.9291069374
  0
LINE
  5
2F8
100
AcDbEntity
  8
IMPORT_IGES
100
AcDbLine
 62
7
  6
CONTINUOUS
 10
62.995414323
 20
-28.8767417426
 11
62.8692317256
 21
-28.8767417428
  0
LINE
  5
2F9
100
AcDbEntity
  8
IMPORT_IGES
100
AcDbLine
 62
7
  6
CONTINUOUS
 10
53.758643787
 20
-28.8767417426
 11
53.6324611896
 21
-28.8767417426
  0
LINE
  5
2FA
100
AcDbEntity
  8
IMPORT_IGES
100
AcDbLine
 62
7
  6
CONTINUOUS
 10
63.7488797029
 20
-28.6236433045
 11
52.8789973312
 21
-28.6236433045
  0
LWPOLYLINE
  5
2FB
100
AcDbEntity
  8
IMPORT_IGES
100
AcDbPolyline
 62
250
  6
CONTINUOUS
 90
22
 70
0
 10
63.352477432
 20
-29.0200537686
 10
63.4275041725
 20
-29.0228951865
 10
63.5014805445
 20
-29.0312634481
 10
63.5740122475
 20
-29.0449715899
 10
63.6444942732
 20
-29.063734991
 10
63.7128308733
 20
-29.0873567134
 10
63.7793782228
 20
-29.1158990279
 10
63.8439221374
 20
-29.1493143226
 10
63.9059572108
 20
-29.1873868187
 10
63.9653358156
 20
-29.2300840199
 10
64.0216806942
 20
-29.2772260771
 10
64.0746552884
 20
-29.3286286335
 10
64.1241111197
 20
-29.3843022662
 10
64.1698032031
 20
-29.4442312971
 10
64.2111886216
 20
-29.5079913485
 10
64.2477184805
 20
-29.5749229558
 10
64.2790885156
 20
-29.6445543065
 10
64.3051260729
 20
-29.7166023778
 10
64.3256122595
 20
-29.7906010366
 10
64.3403842325
 20
-29.8661037622
 10
64.3493214065
 20
-29.9426914799
 10
64.3523304941
 20
-30.0199133956
  0
LWPOLYLINE
  5
2FC
100
AcDbEntity
  8
IMPORT_IGES
100
AcDbPolyline
 62
7
  6
CONTINUOUS
 90
22
 70
0
 10
63.7488797029
 20
-28.6236433045
 10
63.8244590816
 20
-28.6265959686
 10
63.8987529935
 20
-28.6349790247
 10
63.9717614386
 20
-28.6487924729
 10
64.0438690736
 20
-28.6681789278
 10
64.1146912419
 20
-28.6929957746
 10
64.1830739739
 20
-28.7228151696
 10
64.2489770734
 20
-28.7577153775
 10
64.3124407367
 20
-28.7976181335
 10
64.3724315835
 20
-28.8418607994
 10
64.4288942324
 20
-28.8905116099
 10
64.4818840647
 20
-28.9435023304
 10
64.5305338448
 20
-28.9999656183
 10
64.5747753258
 20
-29.0599568377
 10
64.6146767545
 20
-29.1234206244
 10
64.6495756353
 20
-29.1893235432
 10
64.6793936982
 20
-29.25770577
 10
64.7042092131
 20
-29.3285271287
 10
64.7235944948
 20
-29.4006336566
 10
64.7374069817
 20
-29.4736406991
 10
64.7457892354
 20
-29.5479329108
 10
64.7487412559
 20
-29.6235102915
  0
LWPOLYLINE
  5
2FD
100
AcDbEntity
  8
IMPORT_IGES
100
AcDbPolyline
 62
250
  6
CONTINUOUS
 90
9
 70
0
 10
52.2755436949
 20
-30.0199070238
 10
52.2778243021
 20
-30.0261428546
 10
52.2800784324
 20
-30.0398884509
 10
52.2823060858
 20
-30.0611438125
 10
52.2845148096
 20
-30.0900416213
 10
52.2866970565
 20
-30.1264491956
 10
52.2888301844
 20
-30.1699684897
 10
52.2909135469
 20
-30.2206685014
 10
52.2929477903
 20
-30.2784802329
  0
LINE
  5
2FE
100
AcDbEntity
  8
IMPORT_IGES
100
AcDbLine
 62
250
  6
CONTINUOUS
 10
92.2140877659
 20
53.1045407412
 11
91.9782646081
 21
52.8687165978
  0
LINE
  5
2FF
100
AcDbEntity
  8
IMPORT_IGES
100
AcDbLine
 62
250
  6
CONTINUOUS
 10
91.978259825
 20
-54.6596352918
 11
92.2140929941
 21
-54.895459257
  0
LINE
  5
300
100
AcDbEntity
  8
IMPORT_IGES
100
AcDbLine
 62
250
  6
CONTINUOUS
 10
93.2139435885
 20
-53.8955187783
 11
92.9781193957
 21
-53.6595304551
  0
LWPOLYLINE
  5
301
100
AcDbEntity
  8
0
100
AcDbPolyline
 62
7
  6
CONTINUOUS
 90
10
 70
0
 43
0.3500000006
 10
81.1710843201
 20
-73.6454592133
 10
81.2425155029
 20
-73.7883170471
 10
81.2425155029
 20
-73.8597436981
 10
81.0996622009
 20
-74.002601532
 10
81.0282310181
 20
-74.002601532
 10
80.9567998352
 20
-73.931174881
 10
80.9567998352
 20
-73.8597436981
 10
81.0282310181
 20
-73.7168858643
 10
81.0996622009
 20
-73.6454592133
 10
81.1710843201
 20
-73.6454592133
  0
LWPOLYLINE
  5
302
100
AcDbEntity
  8
IMPORT_IGES
100
AcDbPolyline
 62
250
  6
CONTINUOUS
 90
9
 70
0
 10
64.3523318289
 20
-53.3485533904
 10
64.3500512952
 20
-53.3423177055
 10
64.3477972335
 20
-53.3285727206
 10
64.345569644
 20
-53.3073184357
 10
64.3433609788
 20
-53.2784222052
 10
64.3411787856
 20
-53.2420166747
 10
64.3390457076
 20
-53.1984997813
 10
64.3369623916
 20
-53.1478025128
 10
64.3349281908
 20
-53.0899938814
  0
LWPOLYLINE
  5
303
100
AcDbEntity
  8
IMPORT_IGES
100
AcDbPolyline
 62
7
  6
CONTINUOUS
 90
8
 70
0
 10
53.275386698
 20
-29.0200537692
 10
53.2774129551
 20
-29.0273969864
 10
53.2794201813
 20
-29.0435408856
 10
53.2814083767
 20
-29.0684371955
 10
53.2833828649
 20
-29.1020129955
 10
53.2853383224
 20
-29.1441723732
 10
53.2872587778
 20
-29.1947979786
 10
53.2891439382
 20
-29.2537478057
  0
LWPOLYLINE
  5
304
100
AcDbEntity
  8
IMPORT_IGES
100
AcDbPolyline
 62
7
  6
CONTINUOUS
 90
8
 70
0
 10
63.352485217
 20
-54.3484060274
 10
63.3504605592
 20
-54.3410628109
 10
63.3484545325
 20
-54.3249189138
 10
63.3464671368
 20
-54.3000226068
 10
63.3444929152
 20
-54.2664468088
 10
63.3425373247
 20
-54.224287432
 10
63.3406167362
 20
-54.173661827
 10
63.3387315759
 20
-54.1147120007
  0
LINE
  5
305
100
AcDbEntity
  8
IMPORT_IGES
100
AcDbLine
 62
250
  6
CONTINUOUS
 10
52.2929477903
 20
-30.2784802329
 11
52.2968061176
 21
-30.4136875281
  0
LINE
  5
306
100
AcDbEntity
  8
IMPORT_IGES
100
AcDbLine
 62
7
  6
CONTINUOUS
 10
53.2891439382
 20
-29.2537478057
 11
53.2927941607
 21
-29.3959428257
  0
LINE
  5
307
100
AcDbEntity
  8
IMPORT_IGES
100
AcDbLine
 62
250
  6
CONTINUOUS
 10
52.2968061176
 20
-30.4136875281
 11
52.3003658357
 21
-30.5741889335
  0
LINE
  5
308
100
AcDbEntity
  8
IMPORT_IGES
100
AcDbLine
 62
7
  6
CONTINUOUS
 10
53.2927941607
 20
-29.3959428257
 11
53.2962432045
 21
-29.5691911193
  0
LINE
  5
309
100
AcDbEntity
  8
IMPORT_IGES
100
AcDbLine
 62
250
  6
CONTINUOUS
 10
52.3003658357
 20
-30.5741889335
 11
52.3050234147
 21
-30.856971724
  0
LINE
  5
30A
100
AcDbEntity
  8
IMPORT_IGES
100
AcDbLine
 62
7
  6
CONTINUOUS
 10
53.2962432045
 20
-29.5691911193
 11
53.3009566816
 21
-29.8830344522
  0
LINE
  5
30B
100
AcDbEntity
  8
IMPORT_IGES
100
AcDbLine
 62
250
  6
CONTINUOUS
 10
52.3050234147
 20
-30.856971724
 11
52.3097483699
 21
-31.2986398682
  0
LINE
  5
30C
100
AcDbEntity
  8
IMPORT_IGES
100
AcDbLine
 62
7
  6
CONTINUOUS
 10
53.3009566816
 20
-29.8830344522
 11
53.3073124472
 21
-30.5300553827
  0
LINE
  5
30D
100
AcDbEntity
  8
IMPORT_IGES
100
AcDbLine
 62
250
  6
CONTINUOUS
 10
52.3097483699
 20
-31.2986398682
 11
52.3125408861
 21
-31.7916258859
  0
LINE
  5
30E
100
AcDbEntity
  8
IMPORT_IGES
100
AcDbLine
 62
7
  6
CONTINUOUS
 10
53.3073124472
 20
-30.5300553827
 11
53.3119597769
 21
-31.4550588317
  0
LINE
  5
30F
100
AcDbEntity
  8
IMPORT_IGES
100
AcDbLine
 62
250
  6
CONTINUOUS
 10
52.3125408861
 20
-31.7916258859
 11
52.3193742492
 21
-35.1651270013
  0
LINE
  5
310
100
AcDbEntity
  8
IMPORT_IGES
100
AcDbLine
 62
250
  6
CONTINUOUS
 10
52.3193742492
 20
-35.1651270013
 11
52.3232490752
 21
-38.4204870705
  0
LINE
  5
311
100
AcDbEntity
  8
IMPORT_IGES
100
AcDbLine
 62
7
  6
CONTINUOUS
 10
53.3238781335
 20
-39.4099724447
 11
53.3119597769
 21
-31.4550588317
  0
LINE
  5
312
100
AcDbEntity
  8
IMPORT_IGES
100
AcDbLine
 62
250
  6
CONTINUOUS
 10
52.3232490752
 20
-38.4204870705
 11
52.3245430401
 21
-41.684272657
  0
LINE
  5
313
100
AcDbEntity
  8
IMPORT_IGES
100
AcDbLine
 62
7
  6
CONTINUOUS
 10
51.8791362403
 20
-29.623513161
 11
51.8791342568
 21
-53.7449466374
  0
LINE
  5
314
100
AcDbEntity
  8
IMPORT_IGES
100
AcDbLine
 62
250
  6
CONTINUOUS
 10
52.3245430401
 20
-41.684272657
 11
52.3232490183
 21
-44.94805824
  0
LINE
  5
315
100
AcDbEntity
  8
IMPORT_IGES
100
AcDbLine
 62
250
  6
CONTINUOUS
 10
52.3232490183
 20
-44.94805824
 11
52.3193740821
 21
-48.2034177085
  0
LINE
  5
316
100
AcDbEntity
  8
IMPORT_IGES
100
AcDbLine
 62
7
  6
CONTINUOUS
 10
53.3183969214
 20
-48.7836859245
 11
53.3238781335
 21
-39.4099724447
  0
LINE
  5
317
100
AcDbEntity
  8
IMPORT_IGES
100
AcDbLine
 62
7
  6
CONTINUOUS
 10
53.3183969214
 20
-48.7836859245
 11
53.3108122785
 21
-52.2349172445
  0
LINE
  5
318
100
AcDbEntity
  8
IMPORT_IGES
100
AcDbLine
 62
250
  6
CONTINUOUS
 10
52.3193740821
 20
-48.2034177085
 11
52.3114013489
 21
-51.82781957
  0
LINE
  5
319
100
AcDbEntity
  8
IMPORT_IGES
100
AcDbLine
 62
250
  6
CONTINUOUS
 10
52.3114013489
 20
-51.82781957
 11
52.3076145865
 21
-52.2985241234
  0
LINE
  5
31A
100
AcDbEntity
  8
IMPORT_IGES
100
AcDbLine
 62
250
  6
CONTINUOUS
 10
52.3076145865
 20
-52.2985241234
 11
52.3035701184
 21
-52.6108100036
  0
LWPOLYLINE
  5
31B
100
AcDbEntity
  8
IMPORT_IGES
100
AcDbPolyline
 62
250
  6
CONTINUOUS
 90
3
 70
0
 10
52.3035701184
 20
-52.6108100036
 10
52.3003662553
 20
-52.7942504793
 10
52.2986308072
 20
-52.8773503269
  0
LINE
  5
31C
100
AcDbEntity
  8
IMPORT_IGES
100
AcDbLine
 62
250
  6
CONTINUOUS
 10
92.9781193849
 20
51.8687281652
 11
93.2139435885
 21
52.1046576494
  0
LWPOLYLINE
  5
31D
100
AcDbEntity
  8
IMPORT_IGES
100
AcDbPolyline
 62
250
  6
CONTINUOUS
 90
22
 70
0
 10
64.3149544573
 20
-31.9208717997
 10
64.3109284183
 20
-31.9108149306
 10
64.301439175
 20
-31.900818628
 10
64.2865474913
 20
-31.8909375993
 10
64.2663452215
 20
-31.8812264512
 10
64.2409505074
 20
-31.8717373226
 10
64.2105033106
 20
-31.8625197785
 10
64.1751747137
 20
-31.8536238866
 10
64.1351622796
 20
-31.8450979036
 10
64.090678872
 20
-31.8369863451
 10
64.0419685825
 20
-31.8293333212
 10
63.989298495
 20
-31.8221804228
 10
63.9329449048
 20
-31.815565193
 10
63.8732141858
 20
-31.8095238919
 10
63.8104312583
 20
-31.8040896539
 10
63.7449237917
 20
-31.7992914069
 10
63.6770473127
 20
-31.7951559761
 10
63.6071705745
 20
-31.7917065781
 10
63.5356582932
 20
-31.7889622257
 10
63.4628943905
 20
-31.7869389638
 10
63.3892811913
 20
-31.7856492603
 10
63.3152216117
 20
-31.7851013669
  0
LINE
  5
31E
100
AcDbEntity
  8
IMPORT_IGES
100
AcDbLine
 62
7
  6
CONTINUOUS
 10
53.758643787
 20
-28.8767417427
 11
53.758643787
 21
-28.9465620023
  0
LINE
  5
31F
100
AcDbEntity
  8
IMPORT_IGES
100
AcDbLine
 62
7
  6
CONTINUOUS
 10
53.758643787
 20
-54.4218977946
 11
53.758643787
 21
-54.4917180543
  0
LINE
  5
320
100
AcDbEntity
  8
IMPORT_IGES
100
AcDbLine
 62
7
  6
CONTINUOUS
 10
56.3139377563
 20
-54.4393528596
 11
56.3139377563
 21
-54.4218977946
  0
LINE
  5
321
100
AcDbEntity
  8
IMPORT_IGES
100
AcDbLine
 62
7
  6
CONTINUOUS
 10
56.3139377563
 20
-28.9465620023
 11
56.3139377563
 21
-28.9291069374
  0
LINE
  5
322
100
AcDbEntity
  8
IMPORT_IGES
100
AcDbLine
 62
7
  6
CONTINUOUS
 10
53.3108122785
 20
-52.2349172445
 11
53.3062175632
 21
-52.97863262
  0
LINE
  5
323
100
AcDbEntity
  8
IMPORT_IGES
100
AcDbLine
 62
7
  6
CONTINUOUS
 10
53.3062175632
 20
-52.97863262
 11
53.3009651938
 21
-53.4854336223
  0
LINE
  5
324
100
AcDbEntity
  8
IMPORT_IGES
100
AcDbLine
 62
7
  6
CONTINUOUS
 10
53.3009651938
 20
-53.4854336223
 11
53.2962513523
 21
-53.7992753501
  0
LINE
  5
325
100
AcDbEntity
  8
IMPORT_IGES
100
AcDbLine
 62
7
  6
CONTINUOUS
 10
53.2962513523
 20
-53.7992753501
 11
53.2928018185
 21
-53.9725221409
  0
LWPOLYLINE
  5
326
100
AcDbEntity
  8
IMPORT_IGES
100
AcDbPolyline
 62
250
  6
CONTINUOUS
 90
11
 70
0
 10
52.2986308072
 20
-52.8773503269
 10
52.2949132437
 20
-53.0256257512
 10
52.2929490603
 20
-53.0899415084
 10
52.2909150702
 20
-53.1477518115
 10
52.2888319713
 20
-53.1984519353
 10
52.2866992042
 20
-53.2419728307
 10
52.2845173284
 20
-53.278383547
 10
52.2823087202
 20
-53.3072865071
 10
52.2800808385
 20
-53.3285491853
 10
52.2778262244
 20
-53.3423041073
 10
52.2755448779
 20
-53.3485512732
  0
LWPOLYLINE
  5
327
100
AcDbEntity
  8
IMPORT_IGES
100
AcDbPolyline
 62
7
  6
CONTINUOUS
 90
9
 70
0
 10
53.2928018185
 20
-53.9725221409
 10
53.2891509145
 20
-54.1147155555
 10
53.287265345
 20
-54.1736646025
 10
53.2853444355
 20
-54.2242894751
 10
53.2833884794
 20
-54.2664481942
 10
53.2814134521
 20
-54.3000234382
 10
53.2794246785
 20
-54.324919317
 10
53.2774168337
 20
-54.3410629303
 10
53.2753899176
 20
-54.3484060274
  0
LINE
  5
328
100
AcDbEntity
  8
IMPORT_IGES
100
AcDbLine
 62
7
  6
CONTINUOUS
 10
60.3139377563
 20
-28.9291069374
 11
60.3139377563
 21
-28.9465620023
  0
LINE
  5
329
100
AcDbEntity
  8
IMPORT_IGES
100
AcDbLine
 62
7
  6
CONTINUOUS
 10
60.3139377563
 20
-54.4218977946
 11
60.3139377563
 21
-54.4393528596
  0
LWPOLYLINE
  5
32A
100
AcDbEntity
  8
IMPORT_IGES
100
AcDbPolyline
 62
7
  6
CONTINUOUS
 90
16
 70
0
 10
67.4139438133
 20
-14.2060475545
 10
67.3873081015
 20
-14.2075528826
 10
67.3615294798
 20
-14.2116384836
 10
67.336607948
 20
-14.2183043573
 10
67.3122967115
 20
-14.2276801099
 10
67.288842565
 20
-14.2396361353
 10
67.2669858928
 20
-14.2537836156
 10
67.2467762807
 20
-14.2701888266
 10
67.2281641429
 20
-14.2887854925
 10
67.2117411056
 20
-14.3089859682
 10
67.1975730205
 20
-14.3308407071
 10
67.1855940361
 20
-14.3542992557
 10
67.1761982235
 20
-14.3786226089
 10
67.16951694
 20
-14.4035644316
 10
67.1654188284
 20
-14.4293710588
 10
67.1639038888
 20
-14.4560424906
  0
LINE
  5
32B
100
AcDbEntity
  8
IMPORT_IGES
100
AcDbLine
 62
250
  6
CONTINUOUS
 10
64.3349281908
 20
-53.0899938814
 11
64.3310699319
 21
-52.9547936681
  0
LINE
  5
32C
100
AcDbEntity
  8
IMPORT_IGES
100
AcDbLine
 62
7
  6
CONTINUOUS
 10
63.3387315759
 20
-54.1147120007
 11
63.3350813536
 21
-53.9725169813
  0
LINE
  5
32D
100
AcDbEntity
  8
IMPORT_IGES
100
AcDbLine
 62
250
  6
CONTINUOUS
 10
64.3310699319
 20
-52.9547936681
 11
64.3275102585
 21
-52.7943004338
  0
LINE
  5
32E
100
AcDbEntity
  8
IMPORT_IGES
100
AcDbLine
 62
7
  6
CONTINUOUS
 10
63.3350813536
 20
-53.9725169813
 11
63.3316323099
 21
-53.799268687
  0
LINE
  5
32F
100
AcDbEntity
  8
IMPORT_IGES
100
AcDbLine
 62
250
  6
CONTINUOUS
 10
64.3275102585
 20
-52.7943004338
 11
64.3228526942
 21
-52.5115313735
  0
LINE
  5
330
100
AcDbEntity
  8
IMPORT_IGES
100
AcDbLine
 62
7
  6
CONTINUOUS
 10
63.3316323099
 20
-53.799268687
 11
63.326918833
 21
-53.4854253511
  0
LINE
  5
331
100
AcDbEntity
  8
IMPORT_IGES
100
AcDbLine
 62
250
  6
CONTINUOUS
 10
64.3228526942
 20
-52.5115313735
 11
64.3181276491
 21
-52.0698828703
  0
LINE
  5
332
100
AcDbEntity
  8
IMPORT_IGES
100
AcDbLine
 62
7
  6
CONTINUOUS
 10
63.326918833
 20
-53.4854253511
 11
63.3205630674
 21
-52.838404412
  0
LINE
  5
333
100
AcDbEntity
  8
IMPORT_IGES
100
AcDbLine
 62
250
  6
CONTINUOUS
 10
64.3181276491
 20
-52.0698828703
 11
64.3153349099
 21
-51.5769157963
  0
LINE
  5
334
100
AcDbEntity
  8
IMPORT_IGES
100
AcDbLine
 62
7
  6
CONTINUOUS
 10
63.3205630674
 20
-52.838404412
 11
63.3159157372
 21
-51.9134009552
  0
LINE
  5
335
100
AcDbEntity
  8
IMPORT_IGES
100
AcDbLine
 62
250
  6
CONTINUOUS
 10
64.3153349099
 20
-51.5769157963
 11
64.3085013784
 21
-48.2034050789
  0
LINE
  5
336
100
AcDbEntity
  8
IMPORT_IGES
100
AcDbLine
 62
250
  6
CONTINUOUS
 10
64.3085013784
 20
-48.2034050789
 11
64.3046264835
 21
-44.9480307528
  0
LINE
  5
337
100
AcDbEntity
  8
IMPORT_IGES
100
AcDbLine
 62
7
  6
CONTINUOUS
 10
63.3039973758
 20
-43.9584789005
 11
63.3159157372
 21
-51.9134009552
  0
LINE
  5
338
100
AcDbEntity
  8
IMPORT_IGES
100
AcDbLine
 62
250
  6
CONTINUOUS
 10
64.3046264835
 20
-44.9480307528
 11
64.3033324725
 21
-41.6842307069
  0
LINE
  5
339
100
AcDbEntity
  8
IMPORT_IGES
100
AcDbLine
 62
7
  6
CONTINUOUS
 10
62.8692317256
 20
-54.4917180543
 11
62.8692317256
 21
-54.4218977946
  0
LINE
  5
33A
100
AcDbEntity
  8
IMPORT_IGES
100
AcDbLine
 62
7
  6
CONTINUOUS
 10
62.8692317256
 20
-28.9465620023
 11
62.8692317256
 21
-28.8767417426
  0
LINE
  5
33B
100
AcDbEntity
  8
IMPORT_IGES
100
AcDbLine
 62
7
  6
CONTINUOUS
 10
64.7487412561
 20
-29.6235102915
 11
64.7487412561
 21
-53.7449495042
  0
LINE
  5
33C
100
AcDbEntity
  8
IMPORT_IGES
100
AcDbLine
 62
250
  6
CONTINUOUS
 10
64.3033324725
 20
-41.6842307069
 11
64.3046264713
 21
-38.4204305747
  0
LINE
  5
33D
100
AcDbEntity
  8
IMPORT_IGES
100
AcDbLine
 62
250
  6
CONTINUOUS
 10
64.3046264713
 20
-38.4204305747
 11
64.3085014075
 21
-35.1650565798
  0
LINE
  5
33E
100
AcDbEntity
  8
IMPORT_IGES
100
AcDbLine
 62
7
  6
CONTINUOUS
 10
63.3094785962
 20
-34.5847708675
 11
63.3039973758
 21
-43.9584789005
  0
LINE
  5
33F
100
AcDbEntity
  8
IMPORT_IGES
100
AcDbLine
 62
7
  6
CONTINUOUS
 10
63.3094785962
 20
-34.5847708675
 11
63.3170627231
 21
-31.1335427337
  0
LINE
  5
340
100
AcDbEntity
  8
IMPORT_IGES
100
AcDbLine
 62
250
  6
CONTINUOUS
 10
64.3085014075
 20
-35.1650565798
 11
64.3164741471
 21
-31.54064316
  0
LINE
  5
341
100
AcDbEntity
  8
IMPORT_IGES
100
AcDbLine
 62
7
  6
CONTINUOUS
 10
63.3170627231
 20
-31.1335427337
 11
63.3216579467
 21
-30.389827177
  0
LINE
  5
342
100
AcDbEntity
  8
IMPORT_IGES
100
AcDbLine
 62
250
  6
CONTINUOUS
 10
64.3164741471
 20
-31.54064316
 11
64.3202608609
 21
-31.0699417636
  0
LINE
  5
343
100
AcDbEntity
  8
IMPORT_IGES
100
AcDbLine
 62
7
  6
CONTINUOUS
 10
63.3216579467
 20
-30.389827177
 11
63.3269103163
 21
-29.8830261743
  0
LINE
  5
344
100
AcDbEntity
  8
IMPORT_IGES
100
AcDbLine
 62
250
  6
CONTINUOUS
 10
64.3202608609
 20
-31.0699417636
 11
64.3243052761
 21
-30.7576574021
  0
LINE
  5
345
100
AcDbEntity
  8
IMPORT_IGES
100
AcDbLine
 62
7
  6
CONTINUOUS
 10
63.3269103163
 20
-29.8830261743
 11
63.3316241581
 21
-29.5691844464
  0
LINE
  5
346
100
AcDbEntity
  8
IMPORT_IGES
100
AcDbLine
 62
250
  6
CONTINUOUS
 10
64.3243052761
 20
-30.7576574021
 11
64.3275090978
 21
-30.5742174239
  0
LINE
  5
347
100
AcDbEntity
  8
IMPORT_IGES
100
AcDbLine
 62
7
  6
CONTINUOUS
 10
63.3316241581
 20
-29.5691844464
 11
63.3350736923
 21
-29.3959376556
  0
LWPOLYLINE
  5
348
100
AcDbEntity
  8
IMPORT_IGES
100
AcDbPolyline
 62
250
  6
CONTINUOUS
 90
12
 70
0
 10
64.3275090978
 20
-30.5742174239
 10
64.3310683797
 20
-30.4137271624
 10
64.3329620418
 20
-30.3428420027
 10
64.3349262018
 20
-30.2785259396
 10
64.3369601684
 20
-30.2207152018
 10
64.3390432439
 20
-30.1700145091
 10
64.3411759773
 20
-30.1264929411
 10
64.3433578198
 20
-30.0900814182
 10
64.3455664269
 20
-30.0611774206
 10
64.3477943507
 20
-30.0399134417
 10
64.3500490392
 20
-30.0261569881
 10
64.3523304925
 20
-30.0199080597
  0
LWPOLYLINE
  5
349
100
AcDbEntity
  8
IMPORT_IGES
100
AcDbPolyline
 62
7
  6
CONTINUOUS
 90
9
 70
0
 10
63.3350736923
 20
-29.3959376556
 10
63.3387245966
 20
-29.2537442413
 10
63.3406101663
 20
-29.1947951944
 10
63.342531076
 20
-29.1441703217
 10
63.3444870323
 20
-29.1020116026
 10
63.3464620599
 20
-29.0684363589
 10
63.3484508336
 20
-29.0435404805
 10
63.3504586787
 20
-29.0273968673
 10
63.3524855951
 20
-29.0200537698
  0
LWPOLYLINE
  5
34A
100
AcDbEntity
  8
IMPORT_IGES
100
AcDbPolyline
 62
7
  6
CONTINUOUS
 90
16
 70
0
 10
67.1639038888
 20
-14.4560424906
 10
67.1654177616
 20
-14.4827123408
 10
67.169514774
 20
-14.5085178366
 10
67.1761949258
 20
-14.5334589779
 10
67.1855894804
 20
-14.5577821451
 10
67.1975671744
 20
-14.5812409578
 10
67.2117342182
 20
-14.6030962751
 10
67.228156506
 20
-14.6232976826
 10
67.2467681437
 20
-14.6418955947
 10
67.2669776582
 20
-14.6583021139
 10
67.288834693
 20
-14.6724509161
 10
67.3122896048
 20
-14.6844083254
 10
67.3366019903
 20
-14.6937854161
 10
67.3615250487
 20
-14.7004525463
 10
67.3873055809
 20
-14.704539358
 10
67.413943587
 20
-14.706045851
  0
LINE
  5
34B
100
AcDbEntity
  8
IMPORT_IGES
100
AcDbLine
 62
7
  6
CONTINUOUS
 10
67.4139435854
 20
-53.8955740089
 11
67.4139435829
 21
52.1046010132
  0
LINE
  5
34C
100
AcDbEntity
  8
IMPORT_IGES
100
AcDbLine
 62
250
  6
CONTINUOUS
 10
67.6497677566
 20
51.868612171
 11
67.649767764
 21
-53.6596465967
  0
LWPOLYLINE
  5
34D
100
AcDbEntity
  8
IMPORT_IGES
100
AcDbPolyline
 62
7
  6
CONTINUOUS
 90
22
 70
0
 10
67.4139435878
 20
52.1046010132
 10
67.4168905389
 20
52.1801833794
 10
67.4252684036
 20
52.2544806352
 10
67.4390771821
 20
52.3274927808
 10
67.4584594984
 20
52.3996045763
 10
67.4832727284
 20
52.4704312616
 10
67.5130889993
 20
52.5388185555
 10
67.5479865739
 20
52.6047261878
 10
67.5878871895
 20
52.6681944288
 10
67.6321281851
 20
52.7281898081
 10
67.6807777742
 20
52.7846569362
 10
67.7337677433
 20
52.8376512026
 10
67.7902307914
 20
52.8863053064
 10
67.8502223015
 20
52.9305510301
 10
67.9136868906
 20
52.9704565912
 10
67.9795911088
 20
53.0053593402
 10
68.0479752179
 20
53.0351810141
 10
68.118798956
 20
53.0599998761
 10
68.1909080871
 20
53.0793880659
 10
68.263917866
 20
53.0932029633
 10
68.3382130379
 20
53.1015871886
 10
68.4137936029
 20
53.1045407416
  0
LWPOLYLINE
  5
34E
100
AcDbEntity
  8
IMPORT_IGES
100
AcDbPolyline
 62
7
  6
CONTINUOUS
 90
22
 70
0
 10
64.7487391476
 20
-53.7449495044
 10
64.7457878307
 20
-53.8205288983
 10
64.7374058808
 20
-53.8948228551
 10
64.7235932979
 20
-53.9678313748
 10
64.7042073913
 20
-54.0399391148
 10
64.6793908517
 20
-54.1107614178
 10
64.6495717507
 20
-54.1791443118
 10
64.6146719014
 20
-54.2450476009
 10
64.5747694907
 20
-54.3085114812
 10
64.5305271512
 20
-54.3685025686
 10
64.4818766477
 20
-54.4249654821
 10
64.4288862154
 20
-54.4779556029
 10
64.3724231922
 20
-54.5266056902
 10
64.3124322132
 20
-54.5708474976
 10
64.2489686433
 20
-54.6107492717
 10
64.183065914
 20
-54.6456485112
 10
64.1146838491
 20
-54.6754669461
 10
64.0438626249
 20
-54.7002828464
 10
63.971756202
 20
-54.7196685203
 10
63.898749234
 20
-54.7334814041
 10
63.8244570672
 20
-54.7418640614
 10
63.7488797018
 20
-54.7448164924
  0
LINE
  5
34F
100
AcDbEntity
  8
IMPORT_IGES
100
AcDbLine
 62
250
  6
CONTINUOUS
 10
80.8577270036
 20
13.6481784023
 11
80.8226691897
 21
13.6131159581
  0
LWPOLYLINE
  5
350
100
AcDbEntity
  8
IMPORT_IGES
100
AcDbPolyline
 62
7
  6
CONTINUOUS
 90
13
 70
0
 10
79.0982482665
 20
13.3202094559
 10
79.1459939892
 20
13.3649307185
 10
79.1965623053
 20
13.406435054
 10
79.2497369137
 20
13.4445446896
 10
79.3052900908
 20
13.4790961903
 10
79.3629844123
 20
13.5099417212
 10
79.4225738669
 20
13.5369495006
 10
79.4838032699
 20
13.5600034593
 10
79.5464109583
 20
13.5790047015
 10
79.6101308491
 20
13.5938719677
 10
79.6746909445
 20
13.604540967
 10
79.739814376
 20
13.610965059
 10
79.8052223744
 20
13.6131159597
  0
LWPOLYLINE
  5
351
100
AcDbEntity
  8
IMPORT_IGES
100
AcDbPolyline
 62
7
  6
CONTINUOUS
 90
22
 70
0
 10
70.4147879844
 20
-53.6164469049
 10
70.4152803065
 20
-53.6913290172
 10
70.4165180574
 20
-53.7651131261
 10
70.4184728849
 20
-53.8374098311
 10
70.4211024942
 20
-53.9075965394
 10
70.4243780278
 20
-53.9756123302
 10
70.4283095198
 20
-54.041896244
 10
70.4328915906
 20
-54.1062633918
 10
70.4380938874
 20
-54.1681922042
 10
70.4439124832
 20
-54.2275458225
 10
70.4503234814
 20
-54.2839565128
 10
70.4573017677
 20
-54.3370897439
 10
70.4648482507
 20
-54.3867983463
 10
70.4729605386
 20
-54.432843592
 10
70.4815817859
 20
-54.4746909297
 10
70.4906236337
 20
-54.5117950882
 10
70.5000229993
 20
-54.5438530744
 10
70.5097424448
 20
-54.5706945822
 10
70.5197203202
 20
-54.5921010696
 10
70.5298974584
 20
-54.6079077677
 10
70.540218172
 20
-54.6179909418
 10
70.5506226908
 20
-54.6222530147
  0
LINE
  5
352
100
AcDbEntity
  8
IMPORT_IGES
100
AcDbLine
 62
250
  6
CONTINUOUS
 10
70.4148000949
 20
51.8254433247
 11
70.4147920257
 21
-53.6164468019
  0
LINE
  5
353
100
AcDbEntity
  8
IMPORT_IGES
100
AcDbLine
 62
250
  6
CONTINUOUS
 10
81.8225188046
 20
12.61326471
 11
81.8575812482
 21
12.6483214079
  0
LINE
  5
354
100
AcDbEntity
  8
IMPORT_IGES
100
AcDbLine
 62
250
  6
CONTINUOUS
 10
78.8053683695
 20
6.5958180313
 11
78.7703059243
 21
6.5607599895
  0
LWPOLYLINE
  5
355
100
AcDbEntity
  8
0
100
AcDbPolyline
 62
7
  6
CONTINUOUS
 90
13
 70
0
 43
0.3500000006
 10
101.6068016052
 20
-2.3954589958
 10
100.3210856323
 20
-2.3954589958
 10
99.8925166626
 20
-2.181173378
 10
99.4639476929
 20
-1.7526021423
 10
99.4639476929
 20
-1.5383165245
 10
99.8925166626
 20
-1.1097441559
 10
100.3210856323
 20
-0.895459671
 10
101.6068016052
 20
-0.895459671
 10
102.035370575
 20
-1.1097441559
 10
102.4639395447
 20
-1.5383165245
 10
102.4639395447
 20
-1.7526021423
 10
102.035370575
 20
-2.181173378
 10
101.6068016052
 20
-2.3954589958
  0
LWPOLYLINE
  5
356
100
AcDbEntity
  8
0
100
AcDbPolyline
 62
7
  6
CONTINUOUS
 90
4
 70
0
 43
0.3500000006
 10
102.035370575
 20
-0.0383171997
 10
101.1782326355
 20
-0.0383171997
 10
100.7496546021
 20
0.3902540359
 10
100.7496546021
 20
1.0331120224
  0
LINE
  5
357
100
AcDbEntity
  8
IMPORT_IGES
100
AcDbLine
 62
7
  6
CONTINUOUS
 10
76.5139435863
 20
52.9736277549
 11
76.5139435863
 21
53.1045407419
  0
LINE
  5
358
100
AcDbEntity
  8
IMPORT_IGES
100
AcDbLine
 62
7
  6
CONTINUOUS
 10
77.5344717614
 20
12.7537889206
 11
77.5352881077
 21
12.7690689843
  0
LINE
  5
359
100
AcDbEntity
  8
IMPORT_IGES
100
AcDbLine
 62
7
  6
CONTINUOUS
 10
77.5352881077
 20
12.7690689843
 11
77.5362839657
 21
12.7851973642
  0
LINE
  5
35A
100
AcDbEntity
  8
IMPORT_IGES
100
AcDbLine
 62
7
  6
CONTINUOUS
 10
77.5362839657
 20
12.7851973642
 11
77.5374661181
 21
12.8022219209
  0
LINE
  5
35B
100
AcDbEntity
  8
IMPORT_IGES
100
AcDbLine
 62
7
  6
CONTINUOUS
 10
77.5374661181
 20
12.8022219209
 11
77.5388461165
 21
12.820217334
  0
LWPOLYLINE
  5
35C
100
AcDbEntity
  8
IMPORT_IGES
100
AcDbPolyline
 62
7
  6
CONTINUOUS
 90
85
 70
0
 10
77.5388461165
 20
12.820217334
 10
77.5404611881
 20
12.8392386895
 10
77.5413609988
 20
12.8491413627
 10
77.5423366754
 20
12.8593240123
 10
77.5433869063
 20
12.869783872
 10
77.5445130033
 20
12.8805237083
 10
77.5457329454
 20
12.8915705331
 10
77.5470453863
 20
12.9029236142
 10
77.5484516727
 20
12.9145836838
 10
77.5499738228
 20
12.9265799508
 10
77.551611108
 20
12.9389122934
 10
77.5533642574
 20
12.9515808335
 10
77.5552574765
 20
12.9646151452
 10
77.5572894934
 20
12.9780137503
 10
77.5594615807
 20
12.991778127
 10
77.5618017607
 20
13.0059422852
 10
77.5643073692
 20
13.020501435
 10
77.5669810715
 20
13.0354603661
 10
77.569858884
 20
13.0508674579
 10
77.5729381769
 20
13.0667232135
 10
77.5762215819
 20
13.0830271297
 10
77.579753008
 20
13.0998260759
 10
77.5835298317
 20
13.1171230369
 10
77.5875546793
 20
13.1349150279
 10
77.5918793353
 20
13.1532399636
 10
77.5964992443
 20
13.1720940486
 10
77.6014189658
 20
13.1914810783
 10
77.6067039582
 20
13.211450354
 10
77.6123491239
 20
13.2320001397
 10
77.6183595666
 20
13.2531321713
 10
77.624816048
 20
13.2749009582
 10
77.6317128196
 20
13.2973071883
 10
77.6390556388
 20
13.3203501737
 10
77.6469425283
 20
13.3440823592
 10
77.6553629589
 20
13.3684969446
 10
77.6643274728
 20
13.3936007301
 10
77.6739657029
 20
13.4194665616
 10
77.6842659088
 20
13.4460939593
 10
77.6952398504
 20
13.473483403
 10
77.7070524162
 20
13.5017091776
 10
77.7196893972
 20
13.5307743916
 10
77.7331650318
 20
13.5606759365
 10
77.7476868873
 20
13.5914787717
 10
77.7632365356
 20
13.6231882625
 10
77.7798324489
 20
13.6557990436
 10
77.7977375572
 20
13.6893599792
 10
77.816930167
 20
13.7238790523
 10
77.837432038
 20
13.7593482797
 10
77.8595712986
 20
13.7957925762
 10
77.8833110471
 20
13.8332105018
 10
77.908688284
 20
13.8716034965
 10
77.9361420198
 20
13.9110007938
 10
77.965669881
 20
13.9514637993
 10
77.9972743912
 20
13.9929311076
 10
78.0314019461
 20
14.0352477357
 10
78.0681798833
 20
14.0785795929
 10
78.1074810825
 20
14.1227607699
 10
78.149370281
 20
14.1671385565
 10
78.1941054404
 20
14.2118756362
 10
78.2414288512
 20
14.2568093254
 10
78.2906317106
 20
14.3007988628
 10
78.3417230271
 20
14.3437074696
 10
78.3946939601
 20
14.3856719246
 10
78.4488088495
 20
14.4259618036
 10
78.503846633
 20
14.4643601176
 10
78.5600284347
 20
14.5010838554
 10
78.6172818238
 20
14.5360535594
 10
78.675553289
 20
14.5692273777
 10
78.7348963855
 20
14.600647162
 10
78.7953992788
 20
14.63035901
 10
78.8571898198
 20
14.6584245476
 10
78.9201401974
 20
14.6847821487
 10
78.9839550676
 20
14.7092930332
 10
79.0487089098
 20
14.7319650992
 10
79.1143272303
 20
14.7527904485
 10
79.1802911812
 20
14.7716066063
 10
79.2466612971
 20
14.7883893949
 10
79.3133769654
 20
14.803162992
 10
79.3797375642
 20
14.8158374549
 10
79.4457473365
 20
14.826362215
 10
79.5114019055
 20
14.834787841
 10
79.5759876735
 20
14.8411760966
 10
79.6392667131
 20
14.8455475696
 10
79.7014767922
 20
14.8478816721
 10
79.762617841
 20
14.8481784042
  0
LINE
  5
35D
100
AcDbEntity
  8
IMPORT_IGES
100
AcDbLine
 62
250
  6
CONTINUOUS
 10
79.7701589665
 20
5.5609030809
 11
79.8052164088
 21
5.5959655253
  0
LWPOLYLINE
  5
35E
100
AcDbEntity
  8
IMPORT_IGES
100
AcDbPolyline
 62
7
  6
CONTINUOUS
 90
13
 70
0
 10
81.5296419152
 20
5.8888750373
 10
81.4818960689
 20
5.8441532963
 10
81.4313275776
 20
5.80264851
 10
81.3781527455
 20
5.7645384561
 10
81.3225993026
 20
5.7299865759
 10
81.2649046741
 20
5.6991407064
 10
81.2053148662
 20
5.6721326293
 10
81.1440850584
 20
5.6490784161
 10
81.0814769266
 20
5.6300769721
 10
81.0177565771
 20
5.615209565
 10
80.95319602
 20
5.6045404874
 10
80.8880721237
 20
5.5981163782
 10
80.8226636636
 20
5.5959655211
  0
LWPOLYLINE
  5
35F
100
AcDbEntity
  8
IMPORT_IGES
100
AcDbPolyline
 62
7
  6
CONTINUOUS
 90
78
 70
0
 10
80.8652693316
 20
4.3609030795
 10
80.926949034
 20
4.3612247311
 10
80.9896150105
 20
4.3635972409
 10
81.0532671926
 20
4.368020609
 10
81.1181128914
 20
4.3744736844
 10
81.1839446392
 20
4.3829776181
 10
81.25014021
 20
4.3935958626
 10
81.3167099132
 20
4.4063725132
 10
81.3836433036
 20
4.4212634746
 10
81.4502870654
 20
4.4381999134
 10
81.5166488672
 20
4.4572308273
 10
81.5827209543
 20
4.4783072186
 10
81.6478269345
 20
4.5012132606
 10
81.7118427518
 20
4.5259343827
 10
81.7748924589
 20
4.5524851556
 10
81.8366718788
 20
4.580693464
 10
81.89699843
 20
4.6104630321
 10
81.9560547479
 20
4.6418901357
 10
82.0140844898
 20
4.6750914876
 10
82.0712615265
 20
4.7101879399
 10
82.1274120223
 20
4.7470586403
 10
82.1822580818
 20
4.7854577456
 10
82.235938673
 20
4.8255615287
 10
82.2883149116
 20
4.8671937166
 10
82.3386921835
 20
4.9095796469
 10
82.3869800587
 20
4.952749843
 10
82.4332691505
 20
4.9966737814
 10
82.4771364743
 20
5.0404852295
 10
82.5184157197
 20
5.0840745329
 10
82.5572734253
 20
5.127551346
 10
82.5937858954
 20
5.1703783986
 10
82.6278858187
 20
5.2124791696
 10
82.659640705
 20
5.2539301802
 10
82.6893290697
 20
5.2944237242
 10
82.7169136911
 20
5.333871934
 10
82.7424319416
 20
5.3723626771
 10
82.7662741962
 20
5.4098518502
 10
82.788445942
 20
5.4462972164
 10
82.8089417939
 20
5.4817410126
 10
82.8281357899
 20
5.5162658463
 10
82.8460627486
 20
5.549883937
 10
82.8626879169
 20
5.5825830651
 10
82.8782809558
 20
5.6144091791
 10
82.8928643888
 20
5.6453628887
 10
82.9064157358
 20
5.6754435843
 10
82.9191371388
 20
5.7046953849
 10
82.9310413994
 20
5.7331110956
 10
82.9421157452
 20
5.7606979115
 10
82.9525239495
 20
5.7875215369
 10
82.9622778655
 20
5.8135818493
 10
82.9713656595
 20
5.8388789714
 10
82.9799155702
 20
5.8634789753
 10
82.9879372297
 20
5.8873848603
 10
82.995421019
 20
5.9105936272
 10
83.0024662964
 20
5.9331623509
 10
83.0090811613
 20
5.9550917991
 10
83.0152575232
 20
5.976381204
 10
83.0210704529
 20
5.9970853373
 10
83.0265284477
 20
6.0172059025
 10
83.0316230164
 20
6.0367411961
 10
83.036403746
 20
6.0557408794
 10
83.0408729451
 20
6.0742075985
 10
83.0450283095
 20
6.0921387072
 10
83.0489125053
 20
6.1095759281
 10
83.0525266134
 20
6.1265204115
 10
83.0558695561
 20
6.142971007
 10
83.0589807615
 20
6.158965986
 10
83.0618614213
 20
6.1745058329
 10
83.064510346
 20
6.1895900632
 10
83.066963391
 20
6.204255495
 10
83.0692218579
 20
6.2185029291
 10
83.0712844466
 20
6.2323315647
 10
83.073183109
 20
6.2457758169
 10
83.0749144574
 20
6.2588365558
 10
83.0764818805
 20
6.2715129113
 10
83.0779274939
 20
6.2838366877
 10
83.0792473843
 20
6.2958083707
 10
83.0815755935
 20
6.3187243473
  0
LINE
  5
360
100
AcDbEntity
  8
IMPORT_IGES
100
AcDbLine
 62
7
  6
CONTINUOUS
 10
80.8652693316
 20
4.3609030795
 11
79.7627668931
 21
4.3609030795
  0
LWPOLYLINE
  5
361
100
AcDbEntity
  8
IMPORT_IGES
100
AcDbPolyline
 62
7
  6
CONTINUOUS
 90
8
 70
0
 10
79.6942802736
 20
4.3619111404
 10
79.7044918706
 20
4.3618282867
 10
79.7077038318
 20
4.3617928037
 10
79.7108294246
 20
4.3617395854
 10
79.7138722983
 20
4.3616659837
 10
79.7168288033
 20
4.3615746467
 10
79.7196978633
 20
4.3614589268
 10
79.722478372
 20
4.3613067556
  0
LWPOLYLINE
  5
362
100
AcDbEntity
  8
IMPORT_IGES
100
AcDbPolyline
 62
7
  6
CONTINUOUS
 90
5
 70
0
 10
77.5321502855
 20
12.6482461204
 10
77.5319074044
 20
12.6527094541
 10
77.5317594574
 20
12.6573323332
 10
77.5317064442
 20
12.6621147577
 10
77.531775053
 20
12.6670566523
  0
LINE
  5
363
100
AcDbEntity
  8
IMPORT_IGES
100
AcDbLine
 62
250
  6
CONTINUOUS
 10
79.7703048749
 20
13.8481364707
 11
79.7626178422
 21
14.848178404
  0
LWPOLYLINE
  5
364
100
AcDbEntity
  8
IMPORT_IGES
100
AcDbPolyline
 62
7
  6
CONTINUOUS
 90
82
 70
0
 10
77.5321513904
 20
6.5607813051
 10
77.5324718307
 20
6.4999001959
 10
77.5348909089
 20
6.4379821362
 10
77.5394086331
 20
6.3750271258
 10
77.5460009836
 20
6.3108212664
 10
77.5546920163
 20
6.2455784565
 10
77.5655538637
 20
6.1799403911
 10
77.578632855
 20
6.1138970178
 10
77.5938827415
 20
6.0474583891
 10
77.6112367986
 20
5.9812963574
 10
77.6307452171
 20
5.9154073074
 10
77.6523579233
 20
5.8497948544
 10
77.6758577957
 20
5.7851416976
 10
77.7012196877
 20
5.7215894525
 10
77.7284688772
 20
5.6589965035
 10
77.7574638739
 20
5.5976207029
 10
77.7881064359
 20
5.5376380229
 10
77.8204949425
 20
5.4788724911
 10
77.8547828403
 20
5.4210540426
 10
77.891159601
 20
5.3639245255
 10
77.9294359287
 20
5.3077420917
 10
77.969197108
 20
5.2530111315
 10
78.0107151106
 20
5.1995514142
 10
78.053718109
 20
5.1475431707
 10
78.0969755997
 20
5.0980314842
 10
78.1403718718
 20
5.0512989827
 10
78.184022629
 20
5.0070630383
 10
78.227044374
 20
4.9655208507
 10
78.2692196233
 20
4.9268846112
 10
78.3107657607
 20
4.8909421284
 10
78.3514515354
 20
4.857254029
 10
78.3912168587
 20
4.8258202222
 10
78.430121716
 20
4.7966407987
 10
78.4681149581
 20
4.7692766568
 10
78.5051795451
 20
4.7436987486
 10
78.5413324251
 20
4.7199361221
 10
78.5765734313
 20
4.6976368195
 10
78.610888306
 20
4.6767808066
 10
78.6442912285
 20
4.6573881176
 10
78.6768246926
 20
4.6391668983
 10
78.7084866777
 20
4.6220960472
 10
78.7392791402
 20
4.6061966657
 10
78.7692505445
 20
4.5912402044
 10
78.7984005778
 20
4.577209343
 10
78.8267295008
 20
4.5641214018
 10
78.8542866431
 20
4.5517997915
 10
78.881068699
 20
4.5402331543
 10
78.9070789321
 20
4.5294328481
 10
78.9323765297
 20
4.5192563573
 10
78.9569624793
 20
4.5096937303
 10
78.9808357597
 20
4.5007549189
 10
79.0040525485
 20
4.4923272618
 10
79.0266132307
 20
4.484403548
 10
79.0485173945
 20
4.4769909887
 10
79.0698200246
 20
4.4699985558
 10
79.0905229444
 20
4.4634202588
 10
79.1106243092
 20
4.4572620881
 10
79.1301736038
 20
4.4514509881
 10
79.1491717282
 20
4.4459825784
 10
79.1676177655
 20
4.4408612393
 10
79.1855584766
 20
4.4360270556
 10
79.2029948922
 20
4.4314765341
 10
79.2199259681
 20
4.427213168
 10
79.2363953558
 20
4.4231875226
 10
79.25240453
 20
4.4193965531
 10
79.2679520052
 20
4.4158433042
 10
79.2830769927
 20
4.412487475
 10
79.2977803313
 20
4.4093267212
 10
79.3120611737
 20
4.4063633871
 10
79.3259562027
 20
4.4035642041
 10
79.3394666566
 20
4.4009271881
 10
79.3525912903
 20
4.3984543233
 10
79.3653630614
 20
4.3961182927
 10
79.3777829095
 20
4.393917527
 10
79.3898498894
 20
4.3918535955
 10
79.4015941331
 20
4.3899038901
 10
79.4130165103
 20
4.3880671273
 10
79.4241161468
 20
4.3863445905
 10
79.4349205582
 20
4.3847175215
 10
79.4454305944
 20
4.3831848167
 10
79.4556454019
 20
4.3817475796
 10
79.475265016
 20
4.3791121455
  0
LINE
  5
365
100
AcDbEntity
  8
IMPORT_IGES
100
AcDbLine
 62
7
  6
CONTINUOUS
 10
77.4139435863
 20
52.9736277549
 11
77.4139435863
 21
53.1045407418
  0
LINE
  5
366
100
AcDbEntity
  8
IMPORT_IGES
100
AcDbLine
 62
7
  6
CONTINUOUS
 10
77.5321525868
 20
6.5608485336
 11
77.5321506517
 21
12.6482461204
  0
LINE
  5
367
100
AcDbEntity
  8
IMPORT_IGES
100
AcDbLine
 62
7
  6
CONTINUOUS
 10
77.8139435863
 20
53.1045407419
 11
77.8139435863
 21
52.9736277549
  0
LINE
  5
368
100
AcDbEntity
  8
IMPORT_IGES
100
AcDbLine
 62
7
  6
CONTINUOUS
 10
78.2139435863
 20
53.6045407419
 11
78.2139435863
 21
54.4045407419
  0
LINE
  5
369
100
AcDbEntity
  8
IMPORT_IGES
100
AcDbLine
 62
7
  6
CONTINUOUS
 10
78.5703374639
 20
12.6481809159
 11
78.5703374639
 21
6.5609157621
  0
LINE
  5
36A
100
AcDbEntity
  8
IMPORT_IGES
100
AcDbLine
 62
7
  6
CONTINUOUS
 10
78.7703059243
 20
6.5607599895
 11
78.7703059258
 21
12.6483243763
  0
LINE
  5
36B
100
AcDbEntity
  8
IMPORT_IGES
100
AcDbLine
 62
250
  6
CONTINUOUS
 10
78.8053683695
 20
6.5958180313
 11
78.8053683698
 21
12.6132667905
  0
LINE
  5
36C
100
AcDbEntity
  8
IMPORT_IGES
100
AcDbLine
 62
250
  6
CONTINUOUS
 10
79.3052914943
 20
6.5957940562
 11
79.3052915036
 21
12.6132882925
  0
LINE
  5
36D
100
AcDbEntity
  8
IMPORT_IGES
100
AcDbLine
 62
250
  6
CONTINUOUS
 10
79.805203874
 20
6.0958893674
 11
79.8052164088
 21
5.5959655236
  0
LINE
  5
36E
100
AcDbEntity
  8
IMPORT_IGES
100
AcDbLine
 62
7
  6
CONTINUOUS
 10
80.0639435863
 20
53.1045407419
 11
80.0639435863
 21
53.3144321745
  0
LINE
  5
36F
100
AcDbEntity
  8
IMPORT_IGES
100
AcDbLine
 62
7
  6
CONTINUOUS
 10
80.5639435863
 20
53.3144321745
 11
80.5639435863
 21
53.1045407419
  0
LINE
  5
370
100
AcDbEntity
  8
IMPORT_IGES
100
AcDbLine
 62
250
  6
CONTINUOUS
 10
80.8226835413
 20
13.113192116
 11
80.8226691897
 21
13.6131159585
  0
LINE
  5
371
100
AcDbEntity
  8
IMPORT_IGES
100
AcDbLine
 62
250
  6
CONTINUOUS
 10
79.8051963857
 20
13.1131928264
 11
79.8052197995
 21
13.6131159585
  0
LINE
  5
372
100
AcDbEntity
  8
IMPORT_IGES
100
AcDbLine
 62
250
  6
CONTINUOUS
 10
80.8226818077
 20
6.0896845384
 11
80.8226661496
 21
5.5959655236
  0
LINE
  5
373
100
AcDbEntity
  8
IMPORT_IGES
100
AcDbLine
 62
7
  6
CONTINUOUS
 10
79.7703161387
 20
5.3609519179
 11
79.7627668931
 21
4.3609030803
  0
LINE
  5
374
100
AcDbEntity
  8
IMPORT_IGES
100
AcDbLine
 62
7
  6
CONTINUOUS
 10
80.8575711829
 20
13.8481418151
 11
80.8681514372
 21
14.8481784036
  0
LWPOLYLINE
  5
375
100
AcDbEntity
  8
IMPORT_IGES
100
AcDbPolyline
 62
250
  6
CONTINUOUS
 90
3
 70
0
 10
80.8227454348
 20
6.0958886843
 10
80.8227172085
 20
6.0938278621
 10
80.8226818077
 20
6.0896845384
  0
LWPOLYLINE
  5
376
100
AcDbEntity
  8
IMPORT_IGES
100
AcDbPolyline
 62
7
  6
CONTINUOUS
 90
22
 70
0
 10
79.3052915036
 20
12.6132882925
 10
79.3059206309
 20
12.6463301173
 10
79.3096572402
 20
12.6801442958
 10
79.3165013315
 20
12.714730828
 10
79.3266290279
 20
12.7507368963
 10
79.3398642064
 20
12.7875153184
 10
79.3556784974
 20
12.8231245464
 10
79.3741069947
 20
12.8571996739
 10
79.3951146047
 20
12.8901056073
 10
79.4180676771
 20
12.9209955185
 10
79.4427473349
 20
12.9495669915
 10
79.4693724551
 20
12.9761224421
 10
79.4979660185
 20
13.0007222899
 10
79.5287686521
 20
13.0235793583
 10
79.5615397288
 20
13.0444808238
 10
79.5955803485
 20
13.0628486358
 10
79.6313942214
 20
13.0786938087
 10
79.6684776373
 20
13.0920053279
 10
79.7046205647
 20
13.1021720988
 10
79.7390863267
 20
13.1089904231
 10
79.7726116004
 20
13.112663999
 10
79.8051963857
 20
13.1131928264
  0
LINE
  5
377
100
AcDbEntity
  8
IMPORT_IGES
100
AcDbLine
 62
7
  6
CONTINUOUS
 10
77.5326614039
 20
12.6941617878
 11
77.5330410724
 21
12.7124317012
  0
LWPOLYLINE
  5
378
100
AcDbEntity
  8
IMPORT_IGES
100
AcDbPolyline
 62
7
  6
CONTINUOUS
 90
6
 70
0
 10
77.5330410724
 20
12.7124317012
 10
77.5333632221
 20
12.7254984019
 10
77.5335734416
 20
12.7323005319
 10
77.5338311938
 20
12.7392786639
 10
77.5341296072
 20
12.7464367468
 10
77.5344717614
 20
12.7537889206
  0
LWPOLYLINE
  5
379
100
AcDbEntity
  8
IMPORT_IGES
100
AcDbPolyline
 62
7
  6
CONTINUOUS
 90
13
 70
0
 10
78.8053683698
 20
12.6132667905
 10
78.8075192936
 20
12.6786703196
 10
78.8139428627
 20
12.7437896024
 10
78.8246108549
 20
12.8083459175
 10
78.8394767198
 20
12.8720625288
 10
78.8584762214
 20
12.9346673742
 10
78.8815280597
 20
12.9958941282
 10
78.908533315
 20
13.055481079
 10
78.9393759715
 20
13.1131731694
 10
78.9739242735
 20
13.1687244229
 10
79.0120304149
 20
13.2218974477
 10
79.0535309921
 20
13.27246455
 10
79.0982482665
 20
13.3202094559
  0
LINE
  5
37A
100
AcDbEntity
  8
IMPORT_IGES
100
AcDbLine
 62
7
  6
CONTINUOUS
 10
77.531775053
 20
12.6670566523
 11
77.5326614039
 21
12.6941617878
  0
LWPOLYLINE
  5
37B
100
AcDbEntity
  8
IMPORT_IGES
100
AcDbPolyline
 62
7
  6
CONTINUOUS
 90
22
 70
0
 10
78.7703059263
 20
12.6483243763
 10
78.7732590636
 20
12.7239027251
 10
78.7816424685
 20
12.7981956516
 10
78.7954561412
 20
12.8712031556
 10
78.8148427017
 20
12.9433099055
 10
78.8396595299
 20
13.0141312329
 10
78.8694787656
 20
13.0825131332
 10
78.9043786616
 20
13.148415375
 10
78.9442809651
 20
13.2118781895
 10
78.9885230575
 20
13.2718682663
 10
79.0371731528
 20
13.3283302247
 10
79.0901630371
 20
13.3813194453
 10
79.1466254495
 20
13.4299687595
 10
79.2066157556
 20
13.4742099425
 10
79.2700785897
 20
13.514111219
 10
79.3359805944
 20
13.5490100937
 10
79.4043619832
 20
13.5788283092
 10
79.4751825424
 20
13.6036441228
 10
79.5472882742
 20
13.6230298112
 10
79.6202945123
 20
13.6368428002
 10
79.6945859229
 20
13.6452256639
 10
79.770162506
 20
13.6481784026
  0
LWPOLYLINE
  5
37C
100
AcDbEntity
  8
0
100
AcDbPolyline
 62
7
  6
CONTINUOUS
 90
3
 70
0
 43
0.3500000006
 10
59.0282243042
 20
-63.8597451782
 10
58.9567931213
 20
-64.0740296631
 10
58.8139352875
 20
-64.3597453308
  0
LWPOLYLINE
  5
37D
100
AcDbEntity
  8
IMPORT_IGES
100
AcDbPolyline
 62
7
  6
CONTINUOUS
 90
22
 70
0
 10
80.857723618
 20
5.5609030806
 10
80.9336143575
 20
5.5639086021
 10
81.008137015
 20
5.5723442722
 10
81.0812915908
 20
5.586210091
 10
81.1534488273
 20
5.605659186
 10
81.2242379819
 20
5.6305384298
 10
81.292546827
 20
5.6603884388
 10
81.3583346292
 20
5.6952765746
 10
81.4216421219
 20
5.7351354757
 10
81.4814792773
 20
5.779303675
 10
81.5377957362
 20
5.8278403325
 10
81.5906418578
 20
5.8806862882
 10
81.6391786922
 20
5.9370025946
 10
81.6833470794
 20
5.9968396113
 10
81.7232061793
 20
6.0601469788
 10
81.7580945217
 20
6.1259346715
 10
81.7879447453
 20
6.1942434228
 10
81.8128242113
 20
6.2650324993
 10
81.8322735331
 20
6.3371896747
 10
81.8461395817
 20
6.4103442069
 10
81.854575486
 20
6.484866838
 10
81.8575812461
 20
6.560757568
  0
LINE
  5
37E
100
AcDbEntity
  8
IMPORT_IGES
100
AcDbLine
 62
7
  6
CONTINUOUS
 10
80.8575272134
 20
5.3609453921
 11
79.7703242058
 21
5.3609453921
  0
LINE
  5
37F
100
AcDbEntity
  8
IMPORT_IGES
100
AcDbLine
 62
7
  6
CONTINUOUS
 10
80.857723618
 20
5.5609030798
 11
79.7701589665
 21
5.5609030809
  0
LINE
  5
380
100
AcDbEntity
  8
IMPORT_IGES
100
AcDbLine
 62
250
  6
CONTINUOUS
 10
79.8052164088
 20
5.5959655253
 11
80.8226661496
 21
5.5959655236
  0
LINE
  5
381
100
AcDbEntity
  8
IMPORT_IGES
100
AcDbLine
 62
250
  6
CONTINUOUS
 10
80.8227454348
 20
6.0958887271
 11
79.8051947897
 21
6.0958886843
  0
LINE
  5
382
100
AcDbEntity
  8
IMPORT_IGES
100
AcDbLine
 62
250
  6
CONTINUOUS
 10
78.5703374639
 20
6.5609157621
 11
77.5321525868
 21
6.5608485336
  0
LINE
  5
383
100
AcDbEntity
  8
IMPORT_IGES
100
AcDbLine
 62
250
  6
CONTINUOUS
 10
81.3225949608
 20
6.5958010296
 11
81.8225188046
 21
6.5958132487
  0
LINE
  5
384
100
AcDbEntity
  8
IMPORT_IGES
100
AcDbLine
 62
7
  6
CONTINUOUS
 10
82.0575444757
 20
6.5608961723
 11
83.0957319935
 21
6.5608287434
  0
LINE
  5
385
100
AcDbEntity
  8
IMPORT_IGES
100
AcDbLine
 62
250
  6
CONTINUOUS
 10
79.3052914989
 20
6.5957940562
 11
78.8053683695
 21
6.5958180313
  0
LINE
  5
386
100
AcDbEntity
  8
IMPORT_IGES
100
AcDbLine
 62
7
  6
CONTINUOUS
 10
79.6906717494
 20
4.3619533801
 11
79.6942802736
 21
4.3619111404
  0
LWPOLYLINE
  5
387
100
AcDbEntity
  8
IMPORT_IGES
100
AcDbPolyline
 62
7
  6
CONTINUOUS
 90
22
 70
0
 10
79.8051947897
 20
6.0958886843
 10
79.7721555631
 20
6.0965174125
 10
79.7383433397
 20
6.100253631
 10
79.7037581196
 20
6.1070973397
 10
79.6677525381
 20
6.1172246601
 10
79.6309739599
 20
6.1304594708
 10
79.5953644788
 20
6.1462734076
 10
79.5612891666
 20
6.164701536
 10
79.5283829516
 20
6.1857087905
 10
79.4974927131
 20
6.20866161
 10
79.468920885
 20
6.2333411394
 10
79.4423650335
 20
6.2599662337
 10
79.4177647355
 20
6.2885598967
 10
79.3949071191
 20
6.3193627981
 10
79.3740050563
 20
6.3521342681
 10
79.3556367402
 20
6.3861753007
 10
79.3397912134
 20
6.4219895696
 10
79.3264794332
 20
6.459073401
 10
79.3163124648
 20
6.4952167681
 10
79.3094939963
 20
6.5296829952
 10
79.3058203395
 20
6.5632087579
 10
79.3052914943
 20
6.5957940562
  0
LWPOLYLINE
  5
388
100
AcDbEntity
  8
IMPORT_IGES
100
AcDbPolyline
 62
7
  6
CONTINUOUS
 90
13
 70
0
 10
79.8052164088
 20
5.5959655253
 10
79.7398129045
 20
5.5981165215
 10
79.6746936565
 20
5.6045401591
 10
79.610137386
 20
5.6152082144
 10
79.5464208255
 20
5.6300741364
 10
79.4838160391
 20
5.6490736877
 10
79.4225893597
 20
5.6721255635
 10
79.3630025025
 20
5.6991308389
 10
79.3053105169
 20
5.7299734978
 10
79.2497593684
 20
5.764521788
 10
79.1965864445
 20
5.8026279051
 10
79.1460194404
 20
5.844128444
 10
79.0982746285
 20
5.8888456659
  0
LWPOLYLINE
  5
389
100
AcDbEntity
  8
IMPORT_IGES
100
AcDbPolyline
 62
7
  6
CONTINUOUS
 90
4
 70
0
 10
79.6751206963
 20
4.3623531023
 10
79.679181473
 20
4.3622131237
 10
79.6831249818
 20
4.3621031389
 10
79.6906717494
 20
4.3619533801
  0
LWPOLYLINE
  5
38A
100
AcDbEntity
  8
IMPORT_IGES
100
AcDbPolyline
 62
7
  6
CONTINUOUS
 90
22
 70
0
 10
79.7701589665
 20
5.5609030812
 10
79.6945806531
 20
5.5638562905
 10
79.6202877657
 20
5.5722397618
 10
79.5472803045
 20
5.586053495
 10
79.4751736017
 20
5.6054401105
 10
79.4043523251
 20
5.630256988
 10
79.3359704775
 20
5.6600762669
 10
79.2700682905
 20
5.6949761999
 10
79.2066055326
 20
5.7348785342
 10
79.1466155125
 20
5.7791206513
 10
79.090153611
 20
5.8277707653
 10
79.0371644474
 20
5.8807606622
 10
78.9885151888
 20
5.9372230816
 10
78.9442740597
 20
5.997213389
 10
78.9043728356
 20
6.060676219
 10
78.8694740105
 20
6.1265782149
 10
78.8396558417
 20
6.1949595901
 10
78.8148400717
 20
6.2657801312
 10
78.7954544229
 20
6.3378858414
 10
78.7816414691
 20
6.4108920551
 10
78.7732586363
 20
6.4851834378
 10
78.7703059246
 20
6.5607599895
  0
LINE
  5
38B
100
AcDbEntity
  8
IMPORT_IGES
100
AcDbLine
 62
7
  6
CONTINUOUS
 10
79.6666492502
 20
4.3627053209
 11
79.6751206963
 21
4.3623531023
  0
LINE
  5
38C
100
AcDbEntity
  8
IMPORT_IGES
100
AcDbLine
 62
7
  6
CONTINUOUS
 10
79.6577087701
 20
4.3631417998
 11
79.6666492502
 21
4.3627053209
  0
LINE
  5
38D
100
AcDbEntity
  8
IMPORT_IGES
100
AcDbLine
 62
7
  6
CONTINUOUS
 10
79.6331221574
 20
4.3644634249
 11
79.6577087701
 21
4.3631417998
  0
LINE
  5
38E
100
AcDbEntity
  8
IMPORT_IGES
100
AcDbLine
 62
7
  6
CONTINUOUS
 10
79.6223289248
 20
4.3650915023
 11
79.6331221574
 21
4.3644634249
  0
LINE
  5
38F
100
AcDbEntity
  8
IMPORT_IGES
100
AcDbLine
 62
7
  6
CONTINUOUS
 10
79.6109413238
 20
4.3658063107
 11
79.6223289248
 21
4.3650915023
  0
LINE
  5
390
100
AcDbEntity
  8
IMPORT_IGES
100
AcDbLine
 62
7
  6
CONTINUOUS
 10
79.722478372
 20
4.3613067556
 11
79.7277792952
 21
4.3609588222
  0
LINE
  5
391
100
AcDbEntity
  8
IMPORT_IGES
100
AcDbLine
 62
7
  6
CONTINUOUS
 10
79.5989199081
 20
4.3666296196
 11
79.6109413238
 21
4.3658063107
  0
LWPOLYLINE
  5
392
100
AcDbEntity
  8
IMPORT_IGES
100
AcDbPolyline
 62
7
  6
CONTINUOUS
 90
18
 70
0
 10
79.7277792952
 20
4.3609588222
 10
79.7327387378
 20
4.3606104651
 10
79.7350938927
 20
4.3605052914
 10
79.737366814
 20
4.3604798292
 10
79.7395577707
 20
4.3605207844
 10
79.7416708093
 20
4.3606495182
 10
79.7437004184
 20
4.3609012473
 10
79.7456521093
 20
4.361240755
 10
79.7475464622
 20
4.361583752
 10
79.7493792183
 20
4.3619397859
 10
79.7511546363
 20
4.3622993091
 10
79.7529060718
 20
4.3625493906
 10
79.7546524534
 20
4.3626754479
 10
79.7563748526
 20
4.3626920633
 10
79.7580498391
 20
4.3625300526
 10
79.7596696031
 20
4.3621663544
 10
79.7612419544
 20
4.36162403
 10
79.7627668931
 20
4.3609030795
  0
LINE
  5
393
100
AcDbEntity
  8
IMPORT_IGES
100
AcDbLine
 62
7
  6
CONTINUOUS
 10
79.586237429
 20
4.3675741941
 11
79.5989199081
 21
4.3666296196
  0
LINE
  5
394
100
AcDbEntity
  8
IMPORT_IGES
100
AcDbLine
 62
7
  6
CONTINUOUS
 10
79.5728516259
 20
4.3686557068
 11
79.586237429
 21
4.3675741941
  0
LINE
  5
395
100
AcDbEntity
  8
IMPORT_IGES
100
AcDbLine
 62
7
  6
CONTINUOUS
 10
79.5587153096
 20
4.3698936717
 11
79.5728516259
 21
4.3686557068
  0
LINE
  5
396
100
AcDbEntity
  8
IMPORT_IGES
100
AcDbLine
 62
7
  6
CONTINUOUS
 10
79.5437958377
 20
4.3713020916
 11
79.5587153096
 21
4.3698936717
  0
LINE
  5
397
100
AcDbEntity
  8
IMPORT_IGES
100
AcDbLine
 62
7
  6
CONTINUOUS
 10
79.5280426206
 20
4.372903159
 11
79.5437958377
 21
4.3713020916
  0
LINE
  5
398
100
AcDbEntity
  8
IMPORT_IGES
100
AcDbLine
 62
7
  6
CONTINUOUS
 10
79.5113993159
 20
4.3747238387
 11
79.5280426206
 21
4.372903159
  0
LINE
  5
399
100
AcDbEntity
  8
IMPORT_IGES
100
AcDbLine
 62
7
  6
CONTINUOUS
 10
79.4938268999
 20
4.3767833867
 11
79.5113993159
 21
4.3747238387
  0
LINE
  5
39A
100
AcDbEntity
  8
IMPORT_IGES
100
AcDbLine
 62
7
  6
CONTINUOUS
 10
79.475265016
 20
4.3791121455
 11
79.4938268999
 21
4.3767833867
  0
LINE
  5
39B
100
AcDbEntity
  8
IMPORT_IGES
100
AcDbLine
 62
7
  6
CONTINUOUS
 10
80.8652693305
 20
4.3609030795
 11
80.8575628342
 21
5.3609453928
  0
LINE
  5
39C
100
AcDbEntity
  8
IMPORT_IGES
100
AcDbLine
 62
250
  6
CONTINUOUS
 10
81.3225955838
 20
12.6133415165
 11
81.3225956194
 21
6.5957932775
  0
LINE
  5
39D
100
AcDbEntity
  8
IMPORT_IGES
100
AcDbLine
 62
250
  6
CONTINUOUS
 10
81.8225188046
 20
12.61326471
 11
81.8225188032
 21
6.5958132487
  0
LINE
  5
39E
100
AcDbEntity
  8
IMPORT_IGES
100
AcDbLine
 62
7
  6
CONTINUOUS
 10
81.8575812482
 20
12.6483214079
 11
81.8575812467
 21
6.560757568
  0
LINE
  5
39F
100
AcDbEntity
  8
IMPORT_IGES
100
AcDbLine
 62
7
  6
CONTINUOUS
 10
82.0575444757
 20
6.5608961723
 11
82.0575444757
 21
12.6481660997
  0
LWPOLYLINE
  5
3A0
100
AcDbEntity
  8
0
100
AcDbPolyline
 62
7
  6
CONTINUOUS
 90
4
 70
0
 43
0.3500000006
 10
82.2425158081
 20
-73.7168858643
 10
82.2425158081
 20
-72.8597433929
 10
82.6710847778
 20
-72.4311744232
 10
83.3139472961
 20
-72.4311744232
  0
LINE
  5
3A1
100
AcDbEntity
  8
IMPORT_IGES
100
AcDbLine
 62
7
  6
CONTINUOUS
 10
82.4139435863
 20
53.6045407419
 11
82.4139435863
 21
54.4045407419
  0
LINE
  5
3A2
100
AcDbEntity
  8
IMPORT_IGES
100
AcDbLine
 62
7
  6
CONTINUOUS
 10
82.8139435863
 20
52.9736277549
 11
82.8139435863
 21
53.1045407419
  0
LINE
  5
3A3
100
AcDbEntity
  8
IMPORT_IGES
100
AcDbLine
 62
7
  6
CONTINUOUS
 10
83.0957342786
 20
12.6482376066
 11
83.0957319935
 21
6.5608287434
  0
LINE
  5
3A4
100
AcDbEntity
  8
IMPORT_IGES
100
AcDbLine
 62
7
  6
CONTINUOUS
 10
83.2139435863
 20
53.1045407418
 11
83.2139435863
 21
52.9736277549
  0
LINE
  5
3A5
100
AcDbEntity
  8
IMPORT_IGES
100
AcDbLine
 62
7
  6
CONTINUOUS
 10
84.1139435863
 20
53.1045407419
 11
84.1139435863
 21
52.9736277549
  0
LWPOLYLINE
  5
3A6
100
AcDbEntity
  8
IMPORT_IGES
100
AcDbPolyline
 62
7
  6
CONTINUOUS
 90
22
 70
0
 10
81.3225956194
 20
6.5957932775
 10
81.3219654117
 20
6.5627428207
 10
81.3182269859
 20
6.5289210556
 10
81.3113803419
 20
6.4943279822
 10
81.3012491701
 20
6.4583163551
 10
81.2880097802
 20
6.4215334198
 10
81.2721911017
 20
6.3859209127
 10
81.253757815
 20
6.351843813
 10
81.2327452397
 20
6.3189371416
 10
81.2097882642
 20
6.288047698
 10
81.1851065098
 20
6.259478157
 10
81.1584803553
 20
6.2329258439
 10
81.129885825
 20
6.2083295326
 10
81.0990813482
 20
6.1854763537
 10
81.0663084957
 20
6.1645791768
 10
81.0322680038
 20
6.1462153845
 10
80.9964549574
 20
6.1303737247
 10
80.9593742717
 20
6.1170654494
 10
80.9232414283
 20
6.1069016981
 10
80.8887949214
 20
6.1000861839
 10
80.8552962568
 20
6.0964151936
 10
80.8227454348
 20
6.0958887271
  0
LWPOLYLINE
  5
3A7
100
AcDbEntity
  8
IMPORT_IGES
100
AcDbPolyline
 62
7
  6
CONTINUOUS
 90
13
 70
0
 10
81.8225188032
 20
6.5958132487
 10
81.8203678132
 20
6.5304101543
 10
81.8139442352
 20
6.4652913122
 10
81.8032762925
 20
6.4007354384
 10
81.7884105347
 20
6.3370192601
 10
81.7694111981
 20
6.2744148366
 10
81.7463595852
 20
6.2131884956
 10
81.7193546186
 20
6.1536019479
 10
81.6885123118
 20
6.0959102383
 10
81.6539644137
 20
6.0403593279
 10
81.6158587252
 20
5.9871866004
 10
81.5743586476
 20
5.9366197471
 10
81.5296419152
 20
5.8888750373
  0
LINE
  5
3A8
100
AcDbEntity
  8
IMPORT_IGES
100
AcDbLine
 62
7
  6
CONTINUOUS
 10
83.0815755935
 20
6.3187243473
 11
83.0882737389
 21
6.3892897023
  0
LINE
  5
3A9
100
AcDbEntity
  8
IMPORT_IGES
100
AcDbLine
 62
7
  6
CONTINUOUS
 10
83.0882737389
 20
6.3892897023
 11
83.0900624768
 21
6.4069573138
  0
LWPOLYLINE
  5
3AA
100
AcDbEntity
  8
IMPORT_IGES
100
AcDbPolyline
 62
7
  6
CONTINUOUS
 90
13
 70
0
 10
83.0900624768
 20
6.4069573138
 10
83.0919040538
 20
6.4235994048
 10
83.0927499987
 20
6.4315622315
 10
83.0935250505
 20
6.439302753
 10
83.0942254472
 20
6.4468125903
 10
83.0947656242
 20
6.454090992
 10
83.0951237451
 20
6.4611364578
 10
83.0953216465
 20
6.467950488
 10
83.0953392735
 20
6.4745368309
 10
83.0951446931
 20
6.4808892498
 10
83.0947698382
 20
6.4870139815
 10
83.0942904529
 20
6.4929334855
 10
83.0936821031
 20
6.4986442617
  0
LWPOLYLINE
  5
3AB
100
AcDbEntity
  8
IMPORT_IGES
100
AcDbPolyline
 62
250
  6
CONTINUOUS
 90
22
 70
0
 10
64.3149548572
 20
-51.4475527311
 10
64.3109273472
 20
-51.4576139333
 10
64.3014363797
 20
-51.4676145264
 10
64.2865427175
 20
-51.4774997902
 10
64.2663382287
 20
-51.4872151044
 10
64.2409410538
 20
-51.496708309
 10
64.2104911126
 20
-51.5059298137
 10
64.1751594439
 20
-51.5148295367
 10
64.1351436311
 20
-51.5233591928
 10
64.090656594
 20
-51.5314742228
 10
64.0419424575
 20
-51.5391304956
 10
63.9892683219
 20
-51.5462864037
 10
63.9329105411
 20
-51.5529043728
 10
63.8731755496
 20
-51.5589481262
 10
63.8103882907
 20
-51.5643845174
 10
63.7448764415
 20
-51.5691845998
 10
63.676995536
 20
-51.5733215387
 10
63.6071144086
 20
-51.5767721049
 10
63.5355979006
 20
-51.5795172668
 10
63.4628300157
 20
-51.5815409726
 10
63.3892131098
 20
-51.5828307564
 10
63.3151501538
 20
-51.583378367
  0
LINE
  5
3AC
100
AcDbEntity
  8
IMPORT_IGES
100
AcDbLine
 62
250
  6
CONTINUOUS
 10
81.8575812467
 20
6.560757568
 11
81.8225188032
 21
6.5958132487
  0
LINE
  5
3AD
100
AcDbEntity
  8
IMPORT_IGES
100
AcDbLine
 62
250
  6
CONTINUOUS
 10
80.8226661496
 20
5.5959655236
 11
80.857723618
 21
5.5609030798
  0
LWPOLYLINE
  5
3AE
100
AcDbEntity
  8
IMPORT_IGES
100
AcDbPolyline
 62
7
  6
CONTINUOUS
 90
13
 70
0
 10
79.0982746285
 20
5.8888456659
 10
79.0535533681
 20
5.9365914203
 10
79.0120490355
 20
5.9871597721
 10
78.9739394041
 20
6.0403344203
 10
78.9393879116
 20
6.0958876385
 10
78.9085423914
 20
6.1535820053
 10
78.8815346222
 20
6.2131715185
 10
78.8584806695
 20
6.2744010131
 10
78.8394794407
 20
6.337008808
 10
78.8246122082
 20
6.4007287705
 10
78.8139432581
 20
6.4652888837
 10
78.8075192193
 20
6.5304122942
 10
78.8053683686
 20
6.5958202322
  0
LWPOLYLINE
  5
3AF
100
AcDbEntity
  8
IMPORT_IGES
100
AcDbPolyline
 62
7
  6
CONTINUOUS
 90
14
 70
0
 10
83.0936821031
 20
6.4986442617
 10
83.0923008579
 20
6.509483091
 10
83.091693774
 20
6.5146460809
 10
83.0911312058
 20
6.5196368032
 10
83.0907119039
 20
6.5244822874
 10
83.0904451237
 20
6.5291939887
 10
83.0903216098
 20
6.533760452
 10
83.0904123472
 20
6.5381743409
 10
83.0907358591
 20
6.5424558098
 10
83.0912736222
 20
6.5465847043
 10
83.0920410508
 20
6.5504932248
 10
83.0930432829
 20
6.5541587716
 10
83.0942751799
 20
6.5576039445
 10
83.0957367414
 20
6.5608287434
  0
LINE
  5
3B0
100
AcDbEntity
  8
IMPORT_IGES
100
AcDbLine
 62
7
  6
CONTINUOUS
 10
62.9238485568
 20
-28.9483075088
 11
62.995414323
 21
-28.8767417426
  0
LINE
  5
3B1
100
AcDbEntity
  8
IMPORT_IGES
100
AcDbLine
 62
250
  6
CONTINUOUS
 10
63.7488797029
 20
-28.6236433038
 11
63.3524855951
 21
-29.0200537698
  0
LINE
  5
3B2
100
AcDbEntity
  8
IMPORT_IGES
100
AcDbLine
 62
250
  6
CONTINUOUS
 10
64.3523304925
 20
-30.0199080597
 11
64.7487412561
 21
-29.6235102915
  0
LWPOLYLINE
  5
3B3
100
AcDbEntity
  8
IMPORT_IGES
100
AcDbPolyline
 62
7
  6
CONTINUOUS
 90
9
 70
0
 10
80.8663849606
 20
14.8481612149
 10
80.8679814911
 20
14.8482885836
 10
80.8696116036
 20
14.8483797356
 10
80.871275298
 20
14.8484346706
 10
80.8729806751
 20
14.8484457093
 10
80.8747196341
 20
14.8484205311
 10
80.8764678732
 20
14.8483821748
 10
80.8782222297
 20
14.8483328861
 10
80.8817439692
 20
14.848211076
  0
LWPOLYLINE
  5
3B4
100
AcDbEntity
  8
IMPORT_IGES
100
AcDbPolyline
 62
7
  6
CONTINUOUS
 90
31
 70
0
 10
67.4139435865
 20
12.9151260508
 10
67.3872955284
 20
12.9136254315
 10
67.3614961621
 20
12.9095329202
 10
67.3365454876
 20
12.9028485168
 10
67.312176552
 20
12.8934220661
 10
67.2886563082
 20
12.8814037234
 10
67.2667856146
 20
12.8672439542
 10
67.2466619674
 20
12.8509119064
 10
67.2281878705
 20
12.8324384321
 10
67.211871694
 20
12.8123665534
 10
67.1977495739
 20
12.7906314072
 10
67.1857853741
 20
12.7672978566
 10
67.1763790579
 20
12.7431035121
 10
67.1696159568
 20
12.7180071895
 10
67.1654107392
 20
12.692050073
 10
67.1639073731
 20
12.6660933252
 10
67.1651964231
 20
12.6401522802
 10
67.1691873246
 20
12.614211604
 10
67.1757523524
 20
12.5890864567
 10
67.1849634609
 20
12.5648040397
 10
67.1967486956
 20
12.5413371516
 10
67.2107644683
 20
12.5194193479
 10
67.227072758
 20
12.4990880008
 10
67.2456115857
 20
12.480305738
 10
67.2658514257
 20
12.4636939987
 10
67.287912394
 20
12.4493013664
 10
67.3116743747
 20
12.4370792576
 10
67.3362474943
 20
12.4275033604
 10
67.3613351286
 20
12.4207322376
 10
67.387233902
 20
12.4166073265
 10
67.4139438144
 20
12.4151286271
  0
LINE
  5
3B5
100
AcDbEntity
  8
IMPORT_IGES
100
AcDbLine
 62
250
  6
CONTINUOUS
 10
79.3052922121
 20
12.6132806968
 11
78.8053683695
 21
12.6132667905
  0
LINE
  5
3B6
100
AcDbEntity
  8
IMPORT_IGES
100
AcDbLine
 62
250
  6
CONTINUOUS
 10
82.0575444757
 20
12.6481660997
 11
83.0957342786
 21
12.6482376066
  0
LINE
  5
3B7
100
AcDbEntity
  8
IMPORT_IGES
100
AcDbLine
 62
250
  6
CONTINUOUS
 10
79.8051963857
 20
13.1131928264
 11
80.8226923613
 21
13.1131928264
  0
LINE
  5
3B8
100
AcDbEntity
  8
IMPORT_IGES
100
AcDbLine
 62
250
  6
CONTINUOUS
 10
79.8052197995
 20
13.6131159585
 11
80.8226691897
 21
13.6131159581
  0
LINE
  5
3B9
100
AcDbEntity
  8
IMPORT_IGES
100
AcDbLine
 62
7
  6
CONTINUOUS
 10
79.770162506
 20
13.6481784038
 11
80.8577270036
 21
13.6481784023
  0
LINE
  5
3BA
100
AcDbEntity
  8
IMPORT_IGES
100
AcDbLine
 62
7
  6
CONTINUOUS
 10
80.8575788533
 20
13.8481364716
 11
79.7703185928
 21
13.8481364716
  0
LINE
  5
3BB
100
AcDbEntity
  8
IMPORT_IGES
100
AcDbLine
 62
7
  6
CONTINUOUS
 10
79.762617841
 20
14.8481784042
 11
80.8663849606
 21
14.8481612149
  0
LINE
  5
3BC
100
AcDbEntity
  8
IMPORT_IGES
100
AcDbLine
 62
7
  6
CONTINUOUS
 10
78.5703374639
 20
12.6481809159
 11
77.5321506517
 21
12.6482461204
  0
LINE
  5
3BD
100
AcDbEntity
  8
IMPORT_IGES
100
AcDbLine
 62
250
  6
CONTINUOUS
 10
81.8225188046
 20
12.61326471
 11
81.328685184
 21
12.6132794748
  0
LINE
  5
3BE
100
AcDbEntity
  8
IMPORT_IGES
100
AcDbLine
 62
7
  6
CONTINUOUS
 10
80.8921614159
 20
14.8480013303
 11
80.9038345483
 21
14.8479438415
  0
LWPOLYLINE
  5
3BF
100
AcDbEntity
  8
IMPORT_IGES
100
AcDbPolyline
 62
250
  6
CONTINUOUS
 90
3
 70
0
 10
81.328685184
 20
12.6132794748
 10
81.3246185489
 20
12.6133139923
 10
81.3225956194
 20
12.6133415165
  0
LINE
  5
3C0
100
AcDbEntity
  8
IMPORT_IGES
100
AcDbLine
 62
7
  6
CONTINUOUS
 10
80.9038345483
 20
14.8479438415
 11
80.9083253395
 21
14.8478961379
  0
LINE
  5
3C1
100
AcDbEntity
  8
IMPORT_IGES
100
AcDbLine
 62
7
  6
CONTINUOUS
 10
80.9083253395
 20
14.8478961379
 11
80.9131139588
 21
14.8478219713
  0
LWPOLYLINE
  5
3C2
100
AcDbEntity
  8
IMPORT_IGES
100
AcDbPolyline
 62
7
  6
CONTINUOUS
 90
22
 70
0
 10
80.8226923613
 20
13.1131928264
 10
80.8557374613
 20
13.1125636489
 10
80.8895554404
 20
13.1088260362
 10
80.9241462986
 20
13.1019799883
 10
80.9601577741
 20
13.0918491492
 10
80.9969421288
 20
13.0786098748
 10
81.0325561477
 20
13.0627912334
 10
81.0666344591
 20
13.0443579505
 10
81.0995424347
 20
13.0233453007
 10
81.1304329747
 20
13.0003881762
 10
81.1590032104
 20
12.9757062794
 10
81.1855560104
 20
12.9490799078
 10
81.2101528804
 20
12.9204848464
 10
81.2330068639
 20
12.8896793428
 10
81.2539049172
 20
12.8569051494
 10
81.2722694155
 20
12.8228633086
 10
81.2881115548
 20
12.7870486952
 10
81.301420139
 20
12.7499664343
 10
81.3115839553
 20
12.7138329442
 10
81.3183992661
 20
12.6793870309
 10
81.3220698089
 20
12.6458898883
 10
81.3225955838
 20
12.6133415165
  0
LINE
  5
3C3
100
AcDbEntity
  8
IMPORT_IGES
100
AcDbLine
 62
7
  6
CONTINUOUS
 10
80.9131139588
 20
14.8478219713
 11
80.9182033671
 21
14.8477195782
  0
LWPOLYLINE
  5
3C4
100
AcDbEntity
  8
IMPORT_IGES
100
AcDbPolyline
 62
7
  6
CONTINUOUS
 90
4
 70
0
 10
80.8852326115
 20
14.8481090632
 10
80.8869702615
 20
14.8480680885
 10
80.8886917212
 20
14.8480387021
 10
80.8921614159
 20
14.8480013303
  0
LINE
  5
3C5
100
AcDbEntity
  8
IMPORT_IGES
100
AcDbLine
 62
7
  6
CONTINUOUS
 10
80.9182033671
 20
14.8477195782
 11
80.9264281089
 21
14.8475103225
  0
LINE
  5
3C6
100
AcDbEntity
  8
IMPORT_IGES
100
AcDbLine
 62
7
  6
CONTINUOUS
 10
80.8817439692
 20
14.848211076
 11
80.8852326115
 21
14.8481090632
  0
LWPOLYLINE
  5
3C7
100
AcDbEntity
  8
IMPORT_IGES
100
AcDbPolyline
 62
7
  6
CONTINUOUS
 90
13
 70
0
 10
80.8226691897
 20
13.6131159581
 10
80.8880722197
 20
13.6109650963
 10
80.9531910119
 20
13.6045416542
 10
81.0177468512
 20
13.5938738532
 10
81.0814630078
 20
13.5790082421
 10
81.1440674257
 20
13.5600090547
 10
81.2052937851
 20
13.5369575887
 10
81.2648803802
 20
13.5099527604
 10
81.3225721591
 20
13.4791105821
 10
81.3781231503
 20
13.4445628055
 10
81.4312959667
 20
13.406457232
 10
81.4818629192
 20
13.3649572605
 10
81.5296077375
 20
13.3202406242
  0
LINE
  5
3C8
100
AcDbEntity
  8
IMPORT_IGES
100
AcDbLine
 62
7
  6
CONTINUOUS
 10
80.9264281089
 20
14.8475103225
 11
80.9385413357
 21
14.8471285154
  0
LINE
  5
3C9
100
AcDbEntity
  8
IMPORT_IGES
100
AcDbLine
 62
7
  6
CONTINUOUS
 10
80.9385413357
 20
14.8471285154
 11
80.9521179869
 21
14.8466326656
  0
LWPOLYLINE
  5
3CA
100
AcDbEntity
  8
IMPORT_IGES
100
AcDbPolyline
 62
7
  6
CONTINUOUS
 90
22
 70
0
 10
80.8577270036
 20
13.6481784017
 10
80.9333053841
 20
13.6452252784
 10
81.0075983419
 20
13.6368418828
 10
81.0806058768
 20
13.623028215
 10
81.1527126578
 20
13.6036416548
 10
81.2235340159
 20
13.5788248223
 10
81.2919159451
 20
13.5490055782
 10
81.3578182139
 20
13.5141056696
 10
81.4212810537
 20
13.4742033495
 10
81.4812711527
 20
13.4299612372
 10
81.5377331303
 20
13.3813111185
 10
81.5907223671
 20
13.3283212076
 10
81.6393716934
 20
13.2718587665
 10
81.6836128846
 20
13.2118684294
 10
81.7235141652
 20
13.1484055621
 10
81.7584130395
 20
13.0825035235
 10
81.7882312498
 20
13.0141221
 10
81.8130470538
 20
12.9433015051
 10
81.8324327278
 20
12.8711957386
 10
81.8462456974
 20
12.7981894667
 10
81.8546285372
 20
12.7238980232
 10
81.857581247
 20
12.6483214079
  0
LINE
  5
3CB
100
AcDbEntity
  8
IMPORT_IGES
100
AcDbLine
 62
7
  6
CONTINUOUS
 10
80.9521179869
 20
14.8466326656
 11
80.9673261796
 21
14.8459999349
  0
LINE
  5
3CC
100
AcDbEntity
  8
IMPORT_IGES
100
AcDbLine
 62
7
  6
CONTINUOUS
 10
80.9673261796
 20
14.8459999349
 11
80.9798754498
 21
14.8454111415
  0
LINE
  5
3CD
100
AcDbEntity
  8
IMPORT_IGES
100
AcDbLine
 62
7
  6
CONTINUOUS
 10
80.9798754498
 20
14.8454111415
 11
80.993460225
 21
14.8446998736
  0
LINE
  5
3CE
100
AcDbEntity
  8
IMPORT_IGES
100
AcDbLine
 62
7
  6
CONTINUOUS
 10
80.993460225
 20
14.8446998736
 11
81.0031260138
 21
14.8441443968
  0
LINE
  5
3CF
100
AcDbEntity
  8
IMPORT_IGES
100
AcDbLine
 62
7
  6
CONTINUOUS
 10
81.0031260138
 20
14.8441443968
 11
81.0133236425
 21
14.8435092292
  0
LINE
  5
3D0
100
AcDbEntity
  8
IMPORT_IGES
100
AcDbLine
 62
7
  6
CONTINUOUS
 10
81.0133236425
 20
14.8435092292
 11
81.0240793281
 21
14.8427858237
  0
LINE
  5
3D1
100
AcDbEntity
  8
IMPORT_IGES
100
AcDbLine
 62
7
  6
CONTINUOUS
 10
81.0240793281
 20
14.8427858237
 11
81.0354370501
 21
14.8419608212
  0
LINE
  5
3D2
100
AcDbEntity
  8
IMPORT_IGES
100
AcDbLine
 62
7
  6
CONTINUOUS
 10
81.0354370501
 20
14.8419608212
 11
81.04741944
 21
14.8410221951
  0
LINE
  5
3D3
100
AcDbEntity
  8
IMPORT_IGES
100
AcDbLine
 62
7
  6
CONTINUOUS
 10
81.04741944
 20
14.8410221951
 11
81.0600493033
 21
14.8399607323
  0
LINE
  5
3D4
100
AcDbEntity
  8
IMPORT_IGES
100
AcDbLine
 62
7
  6
CONTINUOUS
 10
81.0600493033
 20
14.8399607323
 11
81.0733685952
 21
14.8387615201
  0
LINE
  5
3D5
100
AcDbEntity
  8
IMPORT_IGES
100
AcDbLine
 62
7
  6
CONTINUOUS
 10
81.0733685952
 20
14.8387615201
 11
81.0874225522
 21
14.837406874
  0
LINE
  5
3D6
100
AcDbEntity
  8
IMPORT_IGES
100
AcDbLine
 62
7
  6
CONTINUOUS
 10
81.0874225522
 20
14.837406874
 11
81.1022429295
 21
14.8358834947
  0
LINE
  5
3D7
100
AcDbEntity
  8
IMPORT_IGES
100
AcDbLine
 62
7
  6
CONTINUOUS
 10
81.1022429295
 20
14.8358834947
 11
81.1178794708
 21
14.8341698199
  0
LINE
  5
3D8
100
AcDbEntity
  8
IMPORT_IGES
100
AcDbLine
 62
7
  6
CONTINUOUS
 10
81.1178794708
 20
14.8341698199
 11
81.1343880601
 21
14.832237589
  0
LINE
  5
3D9
100
AcDbEntity
  8
IMPORT_IGES
100
AcDbLine
 62
7
  6
CONTINUOUS
 10
81.1343880601
 20
14.832237589
 11
81.1518073536
 21
14.83006653
  0
LINE
  5
3DA
100
AcDbEntity
  8
IMPORT_IGES
100
AcDbLine
 62
7
  6
CONTINUOUS
 10
81.1518073536
 20
14.83006653
 11
81.1701972905
 21
14.8276241972
  0
LWPOLYLINE
  5
3DB
100
AcDbEntity
  8
IMPORT_IGES
100
AcDbPolyline
 62
7
  6
CONTINUOUS
 90
82
 70
0
 10
81.1701972905
 20
14.8276241972
 10
81.1896248119
 20
14.8248710255
 10
81.1997358724
 20
14.8233730935
 10
81.2101363137
 20
14.8217785913
 10
81.220825315
 20
14.8200885364
 10
81.2318036936
 20
14.8183019113
 10
81.2430981828
 20
14.8164002569
 10
81.2547079447
 20
14.8143848
 10
81.2666338128
 20
14.8122543137
 10
81.2789050273
 20
14.8099866582
 10
81.2915196363
 20
14.8075835749
 10
81.3044795862
 20
14.8050433224
 10
81.3178199638
 20
14.8023385361
 10
81.3315387601
 20
14.7994714186
 10
81.3456379773
 20
14.7964397674
 10
81.3601587179
 20
14.7932096111
 10
81.3751028553
 20
14.7897826311
 10
81.3904685076
 20
14.786157146
 10
81.4062911432
 20
14.78229414
 10
81.4225681057
 20
14.7781968215
 10
81.439302041
 20
14.7738619821
 10
81.4565363694
 20
14.7692409813
 10
81.4742698492
 20
14.7643374449
 10
81.4925037089
 20
14.7591477471
 10
81.5112850722
 20
14.7536123701
 10
81.5306126531
 20
14.7477359032
 10
81.5504877209
 20
14.741513757
 10
81.5709612316
 20
14.7348726464
 10
81.592031926
 20
14.7278184289
 10
81.6137010422
 20
14.7203452469
 10
81.6360232794
 20
14.7123622421
 10
81.6589976838
 20
14.7038769072
 10
81.6826251828
 20
14.6948817495
 10
81.7069632938
 20
14.685263433
 10
81.7320110257
 20
14.6750319394
 10
81.7577693364
 20
14.6641772871
 10
81.7842986628
 20
14.6525561951
 10
81.8116012315
 20
14.6401805785
 10
81.839674774
 20
14.6270385223
 10
81.8685729813
 20
14.6129510006
 10
81.8982915618
 20
14.5979385259
 10
81.9288347551
 20
14.5819805858
 10
81.9602690434
 20
14.564836617
 10
81.9925983012
 20
14.5465282876
 10
82.0258185888
 20
14.5270339297
 10
82.0599846616
 20
14.5060479757
 10
82.0951082292
 20
14.483595308
 10
82.1311775014
 20
14.4596510442
 10
82.1682119774
 20
14.4338349702
 10
82.2062298568
 20
14.40618072
 10
82.2452128438
 20
14.3766546594
 10
82.2851256919
 20
14.3447756715
 10
82.3260023472
 20
14.3105822897
 10
82.367808754
 20
14.2740359805
 10
82.4104076668
 20
14.234540026
 10
82.454197336
 20
14.1916756479
 10
82.498779386
 20
14.1458616245
 10
82.5428217083
 20
14.0977575732
 10
82.5863101363
 20
14.0471416425
 10
82.6292588649
 20
13.9942356838
 10
82.6703784717
 20
13.9403648689
 10
82.7092268447
 20
13.8859862944
 10
82.746246282
 20
13.8306428636
 10
82.7814740443
 20
13.7742884582
 10
82.8148923356
 20
13.716970111
 10
82.8465191084
 20
13.6586407893
 10
82.8764452372
 20
13.5991132768
 10
82.9047573016
 20
13.538212199
 10
82.9313688535
 20
13.4761129304
 10
82.9561112246
 20
13.4131543778
 10
82.9789885566
 20
13.3492472722
 10
82.9999968355
 20
13.2844808827
 10
83.0189551656
 20
13.2194619235
 10
83.0358245083
 20
13.1541732947
 10
83.0506440128
 20
13.0886320963
 10
83.0633500646
 20
13.0234963427
 10
83.0738971464
 20
12.9587706713
 10
83.0823308517
 20
12.8944504447
 10
83.088724222
 20
12.8311797655
 10
83.0931016155
 20
12.7691733342
 10
83.0954387082
 20
12.7082164503
 10
83.0957355076
 20
12.6483091135
  0
LINE
  5
3DC
100
AcDbEntity
  8
IMPORT_IGES
100
AcDbLine
 62
250
  6
CONTINUOUS
 10
78.7703059258
 20
12.6483243763
 11
78.8053683698
 21
12.6132667905
  0
LINE
  5
3DD
100
AcDbEntity
  8
IMPORT_IGES
100
AcDbLine
 62
250
  6
CONTINUOUS
 10
79.8052197995
 20
13.6131159585
 11
79.770162506
 21
13.6481784038
  0
LWPOLYLINE
  5
3DE
100
AcDbEntity
  8
IMPORT_IGES
100
AcDbPolyline
 62
7
  6
CONTINUOUS
 90
13
 70
0
 10
81.5296077375
 20
13.3202406242
 10
81.5743296528
 20
13.2724947971
 10
81.6158346064
 20
13.2219263124
 10
81.65394482
 20
13.1687514756
 10
81.6884968536
 20
13.1131980147
 10
81.7193428675
 20
13.0555033591
 10
81.746351076
 20
12.9959135255
 10
81.7694054026
 20
12.9346837146
 10
81.7884069532
 20
12.8720755854
 10
81.8032744722
 20
12.8083551946
 10
81.8139436617
 20
12.7437945345
 10
81.8203678704
 20
12.6786704903
 10
81.8225188068
 20
12.6132618387
  0
LINE
  5
3DF
100
AcDbEntity
  8
IMPORT_IGES
100
AcDbLine
 62
250
  6
CONTINUOUS
 10
90.2130869656
 20
51.824512082
 11
90.2130897025
 21
-53.6163616781
  0
LWPOLYLINE
  5
3E0
100
AcDbEntity
  8
IMPORT_IGES
100
AcDbPolyline
 62
7
  6
CONTINUOUS
 90
22
 70
0
 10
90.2130835199
 20
-53.6154421743
 10
90.2126010247
 20
-53.6900126834
 10
90.2113788676
 20
-53.7635919207
 10
90.2094422899
 20
-53.8357914739
 10
90.2068297323
 20
-53.9060158247
 10
90.2035673951
 20
-53.9741679236
 10
90.1996466609
 20
-54.0405949721
 10
90.1950742571
 20
-54.1050849358
 10
90.1898794327
 20
-54.1671410173
 10
90.1840665864
 20
-54.2266194459
 10
90.1776599666
 20
-54.2831487999
 10
90.1706845156
 20
-54.3363961043
 10
90.163139095
 20
-54.3862154585
 10
90.1550261442
 20
-54.4323666819
 10
90.1464025228
 20
-54.4743134217
 10
90.1373562231
 20
-54.5115100735
 10
90.1279499804
 20
-54.5436526741
 10
90.118221736
 20
-54.5705671381
 10
90.1082341356
 20
-54.5920312549
 10
90.0980468591
 20
-54.6078793762
 10
90.0877155443
 20
-54.6179881402
 10
90.0773001905
 20
-54.6222598425
  0
LWPOLYLINE
  5
3E1
100
AcDbEntity
  8
0
100
AcDbPolyline
 62
7
  6
CONTINUOUS
 90
3
 70
0
 43
0.3500000006
 10
100.3210856323
 20
-4.1097450714
 10
99.4639476929
 20
-3.2526026001
 10
102.4639395447
 20
-3.2526026001
  0
LWPOLYLINE
  5
3E2
100
AcDbEntity
  8
IMPORT_IGES
100
AcDbPolyline
 62
250
  6
CONTINUOUS
 90
22
 70
0
 10
92.9781193126
 20
51.8687869097
 10
92.9752954676
 20
51.9436581952
 10
92.9668791951
 20
52.0180690022
 10
92.952926833
 20
52.0916029809
 10
92.9335272237
 20
52.1638445063
 10
92.9087969584
 20
52.2343971993
 10
92.8788756719
 20
52.3028847675
 10
92.8439354005
 20
52.3689269416
 10
92.8041760643
 20
52.4321574042
 10
92.7598139743
 20
52.4922389376
 10
92.7110980085
 20
52.5488375038
 10
92.658301219
 20
52.6016386261
 10
92.6017066431
 20
52.6503592436
 10
92.5416287572
 20
52.6947262616
 10
92.4784015575
 20
52.7344907926
 10
92.4123621678
 20
52.7694365345
 10
92.3438768097
 20
52.7993635462
 10
92.2733258
 20
52.824099702
 10
92.2010855614
 20
52.8435052833
 10
92.1275525191
 20
52.8574636707
 10
92.0531422496
 20
52.8658860134
 10
91.9782711012
 20
52.8687159521
  0
LINE
  5
3E3
100
AcDbEntity
  8
IMPORT_IGES
100
AcDbLine
 62
250
  6
CONTINUOUS
 10
92.9781193849
 20
51.8687281652
 11
92.9781193957
 21
-53.6595304551
  0
LINE
  5
3E4
100
AcDbEntity
  8
IMPORT_IGES
100
AcDbLine
 62
7
  6
CONTINUOUS
 10
93.2139435885
 20
52.1046576494
 11
93.2139435885
 21
-53.8955187783
  0
LWPOLYLINE
  5
3E5
100
AcDbEntity
  8
IMPORT_IGES
100
AcDbPolyline
 62
250
  6
CONTINUOUS
 90
22
 70
0
 10
92.9781193304
 20
-53.6596240973
 10
92.9752894627
 20
-53.7346558876
 10
92.9669318063
 20
-53.8086386714
 10
92.9532331535
 20
-53.8811780218
 10
92.934477876
 20
-53.9516689567
 10
92.9108628496
 20
-54.0200153829
 10
92.8823260399
 20
-54.0865728244
 10
92.8489151917
 20
-54.1511267902
 10
92.8108459805
 20
-54.2131719598
 10
92.7681508715
 20
-54.272560692
 10
92.7210097064
 20
-54.3289156094
 10
92.6696068653
 20
-54.3819000167
 10
92.6139317574
 20
-54.4313653732
 10
92.5540000178
 20
-54.4770666198
 10
92.4902361185
 20
-54.518460616
 10
92.4232997562
 20
-54.5549982129
 10
92.3536628203
 20
-54.5863750788
 10
92.2816084734
 20
-54.6124184558
 10
92.2076032504
 20
-54.6329092732
 10
92.13209391
 20
-54.6476846805
 10
92.0554995701
 20
-54.6566241742
 10
91.9782711511
 20
-54.6596345182
  0
LWPOLYLINE
  5
3E6
100
AcDbEntity
  8
IMPORT_IGES
100
AcDbPolyline
 62
7
  6
CONTINUOUS
 90
22
 70
0
 10
93.2139435854
 20
-53.8955187783
 10
93.210996687
 20
-53.9711012043
 10
93.2026188648
 20
-54.0453985233
 10
93.1888101188
 20
-54.1184107353
 10
93.1694278241
 20
-54.1905226032
 10
93.1446146056
 20
-54.2613493641
 10
93.1147983381
 20
-54.3297367293
 10
93.0799007591
 20
-54.3956444262
 10
93.0400001311
 20
-54.4591127274
 10
92.9957591166
 20
-54.5191081619
 10
92.947109503
 20
-54.5755753398
 10
92.8941195028
 20
-54.628569651
 10
92.8376564161
 20
-54.6772237944
 10
92.7776648595
 20
-54.7214695538
 10
92.7142002164
 20
-54.7613751453
 10
92.6482959372
 20
-54.7962779172
 10
92.5799117573
 20
-54.8260996066
 10
92.5090879412
 20
-54.8509184764
 10
92.4369787325
 20
-54.8703066627
 10
92.363968879
 20
-54.8841215442
 10
92.2896736329
 20
-54.8925057423
 10
92.2140929941
 20
-54.895459257
  0
LWPOLYLINE
  5
3E7
100
AcDbEntity
  8
0
100
AcDbPolyline
 62
7
  6
CONTINUOUS
 90
13
 70
0
 43
0.3500000006
 10
100.7496546021
 20
0.3902540359
 10
100.5353701172
 20
0.1045406342
 10
99.8925166626
 20
0.1045406342
 10
99.4639476929
 20
0.3902540359
 10
99.4639476929
 20
1.0331120224
 10
99.8925166626
 20
1.3188254242
 10
100.5353701172
 20
1.3188254242
 10
100.7496546021
 20
1.0331120224
 10
101.1782326355
 20
1.4616832581
 10
102.035370575
 20
1.4616832581
 10
102.4639395447
 20
1.0331120224
 10
102.4639395447
 20
0.3902540359
 10
102.035370575
 20
-0.0383171997
  0
LINE
  5
3E8
100
AcDbEntity
  8
IMPORT_IGES
100
AcDbLine
 62
250
  6
CONTINUOUS
 10
52.2755448779
 20
-53.3485512732
 11
51.8791342566
 21
-53.7449466374
  0
LWPOLYLINE
  5
3E9
100
AcDbEntity
  8
0
100
AcDbPolyline
 62
7
  6
CONTINUOUS
 90
10
 70
0
 43
0.3500000006
 10
40.6291341248
 20
-40.3985148697
 10
40.7719919586
 20
-40.3270859528
 10
40.8434186096
 20
-40.3270859528
 10
40.9862764435
 20
-40.4699437866
 10
40.9862764435
 20
-40.5413727036
 10
40.9148497925
 20
-40.6128016205
 10
40.8434186096
 20
-40.6128016205
 10
40.7005607758
 20
-40.5413727036
 10
40.6291341248
 20
-40.4699437866
 10
40.6291341248
 20
-40.3985148697
  0
LINE
  5
3EA
100
AcDbEntity
  8
IMPORT_IGES
100
AcDbLine
 62
250
  6
CONTINUOUS
 10
52.8789973298
 20
-54.7448164927
 11
53.2753899176
 21
-54.3484060259
  0
LINE
  5
3EB
100
AcDbEntity
  8
IMPORT_IGES
100
AcDbLine
 62
7
  6
CONTINUOUS
 10
53.6324611896
 20
-54.4917180544
 11
53.7040269558
 21
-54.4201522881
  0
LWPOLYLINE
  5
3EC
100
AcDbEntity
  8
0
100
AcDbPolyline
 62
7
  6
CONTINUOUS
 90
3
 70
0
 43
0.3500000006
 10
81.2425155029
 20
-73.8597436981
 10
81.1710843201
 20
-74.0740327148
 10
81.0282310181
 20
-74.3597438507
  0
LWPOLYLINE
  5
3ED
100
AcDbEntity
  8
0
100
AcDbPolyline
 62
7
  6
CONTINUOUS
 90
3
 70
0
 43
0.3500000006
 10
54.2425072632
 20
-62.0026024017
 10
55.0996497345
 20
-61.1454599304
 10
55.0996497345
 20
-64.1454608459
  0
LINE
  5
3EE
100
AcDbEntity
  8
IMPORT_IGES
100
AcDbLine
 62
250
  6
CONTINUOUS
 10
67.649767764
 20
-53.6596465967
 11
67.4139435854
 21
-53.8955740089
  0
LINE
  5
3EF
100
AcDbEntity
  8
IMPORT_IGES
100
AcDbLine
 62
250
  6
CONTINUOUS
 10
68.6496248588
 20
52.8687199432
 11
68.4137936029
 21
53.1045407414
  0
LINE
  5
3F0
100
AcDbEntity
  8
IMPORT_IGES
100
AcDbLine
 62
250
  6
CONTINUOUS
 10
67.4139435829
 20
52.1046010132
 11
67.6497677566
 21
51.868612171
  0
LINE
  5
3F1
100
AcDbEntity
  8
IMPORT_IGES
100
AcDbLine
 62
250
  6
CONTINUOUS
 10
68.4138014212
 20
-54.895459257
 11
68.6496225223
 21
-54.6596351091
  0
LWPOLYLINE
  5
3F2
100
AcDbEntity
  8
0
100
AcDbPolyline
 62
7
  6
CONTINUOUS
 90
10
 70
0
 43
0.3500000006
 10
60.4567935791
 20
-64.1454608459
 10
61.3139360504
 20
-63.2883183746
 10
61.5282205353
 20
-62.4311759033
 10
61.5282205353
 20
-61.574033432
 10
61.0996515656
 20
-61.1454599304
 10
60.4567935791
 20
-61.1454599304
 10
60.0282246094
 20
-61.574033432
 10
60.0282246094
 20
-62.4311759033
 10
60.4567935791
 20
-62.859744873
 10
61.3853672333
 20
-62.859744873
  0
LWPOLYLINE
  5
3F3
100
AcDbEntity
  8
IMPORT_IGES
100
AcDbPolyline
 62
7
  6
CONTINUOUS
 90
7
 70
0
 10
92.9781193757
 20
51.8687200899
 10
92.9712590504
 20
51.8669598117
 10
92.9563173774
 20
51.865195886
 10
92.933335307
 20
51.8634283128
 10
92.9023746116
 20
51.861652639
 10
92.8635164294
 20
51.8598733176
 10
92.8168599078
 20
51.8581037082
  0
LWPOLYLINE
  5
3F4
100
AcDbEntity
  8
IMPORT_IGES
100
AcDbPolyline
 62
250
  6
CONTINUOUS
 90
9
 70
0
 10
68.6496225223
 20
-54.6596351091
 10
68.6558730004
 20
-54.6573535206
 10
68.6696322462
 20
-54.6550986703
 10
68.6909002597
 20
-54.6528705583
 10
68.7198094498
 20
-54.6506617206
 10
68.7562274075
 20
-54.6484796211
 10
68.7997569057
 20
-54.6463466521
 10
68.8504672551
 20
-54.6442633767
 10
68.908289145
 20
-54.6422292318
  0
LWPOLYLINE
  5
3F5
100
AcDbEntity
  8
IMPORT_IGES
100
AcDbPolyline
 62
7
  6
CONTINUOUS
 90
3
 70
0
 10
92.8168599078
 20
51.8581037082
 10
92.7006511077
 20
51.8545937767
 10
92.6313934904
 20
51.8528665104
  0
LWPOLYLINE
  5
3F6
100
AcDbEntity
  8
IMPORT_IGES
100
AcDbPolyline
 62
250
  6
CONTINUOUS
 90
22
 70
0
 10
68.6496160286
 20
52.8687159948
 10
68.574740918
 20
52.8658857522
 10
68.5003268051
 20
52.8574625214
 10
68.426790102
 20
52.843502684
 10
68.3545464576
 20
52.8240951226
 10
68.283992342
 20
52.7993564886
 10
68.2155041975
 20
52.7694265237
 10
68.1494623868
 20
52.7344773864
 10
68.0862331868
 20
52.6947090621
 10
68.0261537544
 20
52.65033789
 10
67.9695581289
 20
52.6016128069
 10
67.9167608219
 20
52.5488069586
 10
67.8680448898
 20
52.4922034445
 10
67.8236834168
 20
52.4321167996
 10
67.7839253041
 20
52.3688811196
 10
67.7489868702
 20
52.3028336573
 10
67.719068053
 20
52.2343407871
 10
67.6943409056
 20
52.163782848
 10
67.6749450697
 20
52.0915361888
 10
67.6609971402
 20
52.0179972533
 10
67.6525859582
 20
51.9435817406
 10
67.6497678521
 20
51.8687060717
  0
LINE
  5
3F7
100
AcDbEntity
  8
IMPORT_IGES
100
AcDbLine
 62
250
  6
CONTINUOUS
 10
91.7196021351
 20
52.8513108511
 11
91.5843774166
 21
52.8474527722
  0
LINE
  5
3F8
100
AcDbEntity
  8
IMPORT_IGES
100
AcDbLine
 62
250
  6
CONTINUOUS
 10
91.5843774166
 20
52.8474527722
 11
91.4238601953
 21
52.843893339
  0
LINE
  5
3F9
100
AcDbEntity
  8
IMPORT_IGES
100
AcDbLine
 62
7
  6
CONTINUOUS
 10
92.6313934904
 20
51.8528665104
 11
92.3811651958
 21
51.8478349033
  0
LINE
  5
3FA
100
AcDbEntity
  8
IMPORT_IGES
100
AcDbLine
 62
7
  6
CONTINUOUS
 10
90.3521532465
 20
51.8283158647
 11
90.2130897026
 21
51.8255282509
  0
LINE
  5
3FB
100
AcDbEntity
  8
IMPORT_IGES
100
AcDbLine
 62
250
  6
CONTINUOUS
 10
91.4238601953
 20
52.843893339
 11
91.1410573097
 21
52.8392362479
  0
LINE
  5
3FC
100
AcDbEntity
  8
IMPORT_IGES
100
AcDbLine
 62
7
  6
CONTINUOUS
 10
90.4229348574
 20
51.8293938982
 11
90.3521532465
 21
51.8283158647
  0
LINE
  5
3FD
100
AcDbEntity
  8
IMPORT_IGES
100
AcDbLine
 62
7
  6
CONTINUOUS
 10
92.3811651958
 20
51.8478349033
 11
91.9567583669
 21
51.8416424877
  0
LINE
  5
3FE
100
AcDbEntity
  8
IMPORT_IGES
100
AcDbLine
 62
250
  6
CONTINUOUS
 10
91.1410573097
 20
52.8392362479
 11
90.699370235
 21
52.8345120354
  0
LINE
  5
3FF
100
AcDbEntity
  8
IMPORT_IGES
100
AcDbLine
 62
7
  6
CONTINUOUS
 10
90.4944846471
 20
51.8300703946
 11
90.4229348574
 21
51.8293938982
  0
LINE
  5
400
100
AcDbEntity
  8
IMPORT_IGES
100
AcDbLine
 62
7
  6
CONTINUOUS
 10
91.9567583669
 20
51.8416424877
 11
91.1615265658
 21
51.8339514219
  0
LWPOLYLINE
  5
401
100
AcDbEntity
  8
IMPORT_IGES
100
AcDbPolyline
 62
250
  6
CONTINUOUS
 90
3
 70
0
 10
90.699370235
 20
52.8345120354
 10
90.2063755073
 20
52.8317203324
 10
90.0772807725
 20
52.831341338
  0
LINE
  5
402
100
AcDbEntity
  8
IMPORT_IGES
100
AcDbLine
 62
7
  6
CONTINUOUS
 10
90.4944846471
 20
51.8300703946
 11
91.1615265658
 21
51.8339514219
  0
LINE
  5
403
100
AcDbEntity
  8
IMPORT_IGES
100
AcDbLine
 62
7
  6
CONTINUOUS
 10
90.0772807725
 20
52.831341338
 11
86.8328505051
 21
52.8249171307
  0
LINE
  5
404
100
AcDbEntity
  8
IMPORT_IGES
100
AcDbLine
 62
7
  6
CONTINUOUS
 10
86.8328505051
 20
52.8249171307
 11
83.5775679981
 21
52.82106033
  0
LINE
  5
405
100
AcDbEntity
  8
IMPORT_IGES
100
AcDbLine
 62
7
  6
CONTINUOUS
 10
83.5775679981
 20
52.82106033
 11
80.3139376172
 21
52.8197724217
  0
LINE
  5
406
100
AcDbEntity
  8
IMPORT_IGES
100
AcDbLine
 62
7
  6
CONTINUOUS
 10
84.1139435863
 20
52.9736277549
 11
82.8139435863
 21
52.9736277549
  0
LINE
  5
407
100
AcDbEntity
  8
IMPORT_IGES
100
AcDbLine
 62
7
  6
CONTINUOUS
 10
77.8139435863
 20
52.9736277549
 11
76.5139435863
 21
52.9736277549
  0
LINE
  5
408
100
AcDbEntity
  8
IMPORT_IGES
100
AcDbLine
 62
7
  6
CONTINUOUS
 10
77.4139435863
 20
53.0643940925
 11
77.8139435863
 21
53.0643940925
  0
LINE
  5
409
100
AcDbEntity
  8
IMPORT_IGES
100
AcDbLine
 62
7
  6
CONTINUOUS
 10
82.8139435863
 20
53.0643940925
 11
83.2139435863
 21
53.0643940925
  0
LINE
  5
40A
100
AcDbEntity
  8
IMPORT_IGES
100
AcDbLine
 62
7
  6
CONTINUOUS
 10
92.2140877659
 20
53.1045407405
 11
83.2139435863
 21
53.1045407416
  0
LINE
  5
40B
100
AcDbEntity
  8
IMPORT_IGES
100
AcDbLine
 62
7
  6
CONTINUOUS
 10
77.4139435863
 20
53.1045407418
 11
68.4137936029
 21
53.1045407416
  0
LINE
  5
40C
100
AcDbEntity
  8
IMPORT_IGES
100
AcDbLine
 62
7
  6
CONTINUOUS
 10
77.8139435863
 20
53.1045407419
 11
82.8139435863
 21
53.1045407419
  0
LINE
  5
40D
100
AcDbEntity
  8
IMPORT_IGES
100
AcDbLine
 62
7
  6
CONTINUOUS
 10
80.0639435863
 20
53.3144321745
 11
80.5639435863
 21
53.3144321745
  0
LINE
  5
40E
100
AcDbEntity
  8
IMPORT_IGES
100
AcDbLine
 62
250
  6
CONTINUOUS
 10
82.4139435863
 20
53.6045407419
 11
78.2139435863
 21
53.6045407419
  0
LINE
  5
40F
100
AcDbEntity
  8
IMPORT_IGES
100
AcDbLine
 62
250
  6
CONTINUOUS
 10
82.4139435863
 20
54.4045407419
 11
78.2139435872
 21
54.4045407419
  0
LINE
  5
410
100
AcDbEntity
  8
IMPORT_IGES
100
AcDbLine
 62
7
  6
CONTINUOUS
 10
81.9139386682
 20
54.9045407419
 11
78.7139485038
 21
54.9045407419
  0
LINE
  5
411
100
AcDbEntity
  8
IMPORT_IGES
100
AcDbLine
 62
7
  6
CONTINUOUS
 10
90.2130869656
 20
51.824512082
 11
70.4147920258
 21
51.8254433247
  0
LINE
  5
412
100
AcDbEntity
  8
IMPORT_IGES
100
AcDbLine
 62
7
  6
CONTINUOUS
 10
80.3139376172
 20
52.8197724217
 11
77.0503072819
 21
52.8210603438
  0
LINE
  5
413
100
AcDbEntity
  8
IMPORT_IGES
100
AcDbLine
 62
7
  6
CONTINUOUS
 10
77.0503072819
 20
52.8210603438
 11
73.7950246791
 21
52.8249171371
  0
LINE
  5
414
100
AcDbEntity
  8
IMPORT_IGES
100
AcDbLine
 62
7
  6
CONTINUOUS
 10
73.7950246791
 20
52.8249171371
 11
70.5505941246
 21
52.8313413095
  0
LINE
  5
415
100
AcDbEntity
  8
IMPORT_IGES
100
AcDbLine
 62
250
  6
CONTINUOUS
 10
70.5505941246
 20
52.8313413095
 11
70.0482985477
 21
52.833622407
  0
LINE
  5
416
100
AcDbEntity
  8
IMPORT_IGES
100
AcDbLine
 62
7
  6
CONTINUOUS
 10
70.2014875634
 20
51.8298505499
 11
69.3444039841
 21
51.83457309
  0
LINE
  5
417
100
AcDbEntity
  8
IMPORT_IGES
100
AcDbLine
 62
250
  6
CONTINUOUS
 10
70.0482985477
 20
52.833622407
 11
69.5908984076
 21
52.8378892369
  0
LINE
  5
418
100
AcDbEntity
  8
IMPORT_IGES
100
AcDbLine
 62
7
  6
CONTINUOUS
 10
69.3444039841
 20
51.83457309
 11
68.6227839105
 21
51.8415447009
  0
LINE
  5
419
100
AcDbEntity
  8
IMPORT_IGES
100
AcDbLine
 62
7
  6
CONTINUOUS
 10
68.6227839105
 20
51.8415447009
 11
68.269993125
 21
51.8466517194
  0
LINE
  5
41A
100
AcDbEntity
  8
IMPORT_IGES
100
AcDbLine
 62
250
  6
CONTINUOUS
 10
69.5908984076
 20
52.8378892369
 11
69.2928469546
 21
52.8422482794
  0
LINE
  5
41B
100
AcDbEntity
  8
IMPORT_IGES
100
AcDbLine
 62
7
  6
CONTINUOUS
 10
68.269993125
 20
51.8466517194
 11
68.0745667831
 21
51.85035708
  0
LINE
  5
41C
100
AcDbEntity
  8
IMPORT_IGES
100
AcDbLine
 62
250
  6
CONTINUOUS
 10
69.2928469546
 20
52.8422482794
 11
69.1208560726
 21
52.8456301614
  0
LWPOLYLINE
  5
41D
100
AcDbEntity
  8
IMPORT_IGES
100
AcDbPolyline
 62
7
  6
CONTINUOUS
 90
9
 70
0
 10
68.0745667831
 20
51.85035708
 10
67.9138554218
 20
51.8542489128
 10
67.8471647424
 20
51.8562461594
 10
67.7898747262
 20
51.8582718011
 10
67.7421680092
 20
51.8603255721
 10
67.7041954545
 20
51.8623884016
 10
67.6760805915
 20
51.8644539328
 10
67.6579173681
 20
51.8665285226
 10
67.649767764
 20
51.868612171
  0
LWPOLYLINE
  5
41E
100
AcDbEntity
  8
IMPORT_IGES
100
AcDbPolyline
 62
250
  6
CONTINUOUS
 90
11
 70
0
 10
69.1208560726
 20
52.8456301614
 10
68.9725602566
 20
52.8493481024
 10
68.9082365887
 20
52.8513125015
 10
68.8504198782
 20
52.8533467249
 10
68.7997150682
 20
52.8554300673
 10
68.7561912564
 20
52.8575630439
 10
68.7197793452
 20
52.8597451394
 10
68.6908769849
 20
52.8619541022
 10
68.6696167254
 20
52.8641825152
 10
68.6558660167
 20
52.8664377955
 10
68.6496248588
 20
52.8687199432
  0
LWPOLYLINE
  5
41F
100
AcDbEntity
  8
IMPORT_IGES
100
AcDbPolyline
 62
7
  6
CONTINUOUS
 90
22
 70
0
 10
92.2140877659
 20
53.1045407405
 10
92.2896675083
 20
53.1015876265
 10
92.3639617699
 20
53.0932040524
 10
92.4369705507
 20
53.0793900181
 10
92.5090785399
 20
53.0600028939
 10
92.5799010484
 20
53.0351853096
 10
92.6482840086
 20
53.005365155
 10
92.7141871845
 20
52.9704641721
 10
92.7776508121
 20
52.9305606188
 10
92.8376415324
 20
52.8863171583
 10
92.89410396
 20
52.8376655728
 10
92.9470934803
 20
52.7846740802
 10
92.9957428902
 20
52.7282099966
 10
93.0399839602
 20
52.6682179535
 10
93.0798849199
 20
52.6047533195
 10
93.1147832544
 20
52.5388495169
 10
93.1446007007
 20
52.4704663295
 10
93.1694155218
 20
52.3996439735
 10
93.1887999934
 20
52.3275365204
 10
93.2026115404
 20
52.2545286606
 10
93.2109927377
 20
52.1802357036
 10
93.2139435854
 20
52.1046576494
  0
LWPOLYLINE
  5
420
100
AcDbEntity
  8
IMPORT_IGES
100
AcDbPolyline
 62
7
  6
CONTINUOUS
 90
10
 70
0
 10
70.4148000949
 20
51.8254433247
 10
70.4050711083
 20
51.8262601088
 10
70.395263458
 20
51.8270097572
 10
70.3853773472
 20
51.82769227
 10
70.3754137194
 20
51.8283269185
 10
70.3653720536
 20
51.8288944314
 10
70.3552503683
 20
51.8293369946
 10
70.3450481596
 20
51.8296353366
 10
70.334766398
 20
51.829808729
 10
70.2014875634
 20
51.8298505499
  0
LWPOLYLINE
  5
421
100
AcDbEntity
  8
IMPORT_IGES
100
AcDbPolyline
 62
7
  6
CONTINUOUS
 90
22
 70
0
 10
90.077281221
 20
52.8313412808
 10
90.0873666234
 20
52.8272927822
 10
90.0973928231
 20
52.817745686
 10
90.1073045779
 20
52.8027614424
 10
90.1170473719
 20
52.7824329643
 10
90.1265679342
 20
52.7568798397
 10
90.1358143481
 20
52.7262438785
 10
90.1447354537
 20
52.6906983823
 10
90.153283167
 20
52.6504433673
 10
90.1614125573
 20
52.6056943706
 10
90.1690791376
 20
52.5566985306
 10
90.1762409773
 20
52.503726229
 10
90.1828602277
 20
52.447057135
 10
90.1889003771
 20
52.3870013417
 10
90.1943280843
 20
52.3238876523
 10
90.1991142479
 20
52.2580475742
 10
90.2032319376
 20
52.1898407597
 10
90.206657881
 20
52.1196401908
 10
90.2093730353
 20
52.0478146824
 10
90.211361397
 20
51.9747523888
 10
90.2126106191
 20
51.9008599655
 10
90.2131126182
 20
51.8265445483
  0
LWPOLYLINE
  5
422
100
AcDbEntity
  8
0
100
AcDbPolyline
 62
7
  6
CONTINUOUS
 90
8
 70
0
 43
0.3500000006
 10
2.3397900109
 20
-64.1454608459
 10
3.1969329071
 20
-64.1454608459
 10
3.625504426
 20
-63.7168873444
 10
3.625504426
 20
-62.859744873
 10
3.1969329071
 20
-62.4311713715
 10
2.3397900109
 20
-62.4311713715
 10
2.3397900109
 20
-61.1454599304
 10
3.625504426
 20
-61.1454599304
  0
LWPOLYLINE
  5
423
100
AcDbEntity
  8
0
100
AcDbPolyline
 62
7
  6
CONTINUOUS
 90
7
 70
0
 43
0.3500000006
 10
-2.5887813234
 20
-64.1454608459
 10
-4.088781498
 20
-64.1454608459
 10
-2.5887813234
 20
-62.0026024017
 10
-2.5887813234
 20
-61.5740289001
 10
-3.0173528423
 20
-61.1454599304
 10
-3.6602099791
 20
-61.1454599304
 10
-4.088781498
 20
-61.7883179169
  0
LINE
  5
424
100
AcDbEntity
  8
IMPORT_IGES
100
AcDbLine
 62
250
  6
CONTINUOUS
 10
6.4123035624
 20
-53.8662019471
 11
4.7469328286
 21
-53.895556359
  0
LINE
  5
425
100
AcDbEntity
  8
IMPORT_IGES
100
AcDbLine
 62
7
  6
CONTINUOUS
 10
4.7469329236
 20
-54.8954592578
 11
12.9556591621
 21
-54.7521754083
  0
LINE
  5
426
100
AcDbEntity
  8
IMPORT_IGES
100
AcDbLine
 62
250
  6
CONTINUOUS
 10
12.9627966721
 20
-53.7525059638
 11
6.4836812465
 21
-53.8658331318
  0
LINE
  5
427
100
AcDbEntity
  8
IMPORT_IGES
100
AcDbLine
 62
7
  6
CONTINUOUS
 10
6.4123033026
 20
-53.8662019471
 11
6.4836812465
 21
-53.8658331318
  0
LINE
  5
428
100
AcDbEntity
  8
IMPORT_IGES
100
AcDbLine
 62
7
  6
CONTINUOUS
 10
-12.3485883805
 20
-53.6207038724
 11
-12.3642157625
 21
-53.6207297183
  0
LINE
  5
429
100
AcDbEntity
  8
IMPORT_IGES
100
AcDbLine
 62
250
  6
CONTINUOUS
 10
13.4469329015
 20
-53.7524500293
 11
12.9627966721
 21
-53.7525059638
  0
LINE
  5
42A
100
AcDbEntity
  8
IMPORT_IGES
100
AcDbLine
 62
7
  6
CONTINUOUS
 10
-13.0530669315
 20
-53.6154419974
 11
-12.3779375172
 21
-53.6163616781
  0
LINE
  5
42B
100
AcDbEntity
  8
IMPORT_IGES
100
AcDbLine
 62
7
  6
CONTINUOUS
 10
-12.3396197978
 20
-53.6208182452
 11
-12.3454378456
 21
-53.6207517429
  0
LWPOLYLINE
  5
42C
100
AcDbEntity
  8
IMPORT_IGES
100
AcDbPolyline
 62
7
  6
CONTINUOUS
 90
3
 70
0
 10
-12.3387910675
 20
-53.6208176091
 10
-12.3392057125
 20
-53.6208136223
 10
-12.3396197978
 20
-53.6208182452
  0
LINE
  5
42D
100
AcDbEntity
  8
IMPORT_IGES
100
AcDbLine
 62
7
  6
CONTINUOUS
 10
-9.2634265468
 20
-53.6595304551
 11
-11.626911217
 21
-53.6309031644
  0
LINE
  5
42E
100
AcDbEntity
  8
IMPORT_IGES
100
AcDbLine
 62
7
  6
CONTINUOUS
 10
-12.3454378456
 20
-53.6207517429
 11
-12.3485883805
 21
-53.6207038724
  0
LWPOLYLINE
  5
42F
100
AcDbEntity
  8
IMPORT_IGES
100
AcDbPolyline
 62
7
  6
CONTINUOUS
 90
10
 70
0
 10
-12.3642157625
 20
-53.6207297183
 10
-12.3659159651
 20
-53.6207028065
 10
-12.3675705801
 20
-53.6205459236
 10
-12.3691803102
 20
-53.6202590697
 10
-12.370745701
 20
-53.6198217585
 10
-12.372267606
 20
-53.6192544763
 10
-12.3737471543
 20
-53.6186186813
 10
-12.3751851466
 20
-53.6179348596
 10
-12.3765820875
 20
-53.6171825252
 10
-12.377938627
 20
-53.6163616781
  0
LINE
  5
430
100
AcDbEntity
  8
IMPORT_IGES
100
AcDbLine
 62
7
  6
CONTINUOUS
 10
-11.626911217
 20
-53.6309031644
 11
-12.3375439644
 21
-53.6208951455
  0
LINE
  5
431
100
AcDbEntity
  8
IMPORT_IGES
100
AcDbLine
 62
7
  6
CONTINUOUS
 10
4.2469328389
 20
-54.895459257
 11
-12.0705183849
 21
-54.6106370863
  0
LINE
  5
432
100
AcDbEntity
  8
IMPORT_IGES
100
AcDbLine
 62
7
  6
CONTINUOUS
 10
4.2469329015
 20
-54.5842298985
 11
4.7469329015
 21
-54.5929574309
  0
LINE
  5
433
100
AcDbEntity
  8
IMPORT_IGES
100
AcDbLine
 62
7
  6
CONTINUOUS
 10
13.0629306523
 20
-54.7381137116
 11
13.4469327664
 21
-54.7448164934
  0
LINE
  5
434
100
AcDbEntity
  8
IMPORT_IGES
100
AcDbLine
 62
250
  6
CONTINUOUS
 10
4.2469330284
 20
-53.8955187783
 11
-9.26342593
 21
-53.6595304551
  0
LINE
  5
435
100
AcDbEntity
  8
IMPORT_IGES
100
AcDbLine
 62
7
  6
CONTINUOUS
 10
4.2469330284
 20
-53.6867164951
 11
4.7469328997
 21
-53.6954440253
  0
LINE
  5
436
100
AcDbEntity
  8
IMPORT_IGES
100
AcDbLine
 62
250
  6
CONTINUOUS
 10
4.7469328529
 20
-52.6955933458
 11
4.2469330284
 21
-52.6868658053
  0
LINE
  5
437
100
AcDbEntity
  8
IMPORT_IGES
100
AcDbLine
 62
7
  6
CONTINUOUS
 10
-12.3400331921
 20
-53.6208175591
 11
-12.3404458485
 21
-53.6208069246
  0
LINE
  5
438
100
AcDbEntity
  8
IMPORT_IGES
100
AcDbLine
 62
7
  6
CONTINUOUS
 10
-12.3408578037
 20
-53.6207909813
 11
-12.3412690525
 21
-53.620769729
  0
LWPOLYLINE
  5
439
100
AcDbEntity
  8
IMPORT_IGES
100
AcDbPolyline
 62
7
  6
CONTINUOUS
 90
4
 70
0
 10
-12.3375439644
 20
-53.6208951455
 10
-12.3379602081
 20
-53.6208606905
 10
-12.3383759112
 20
-53.620834845
 10
-12.3408578037
 20
-53.6207909813
  0
LWPOLYLINE
  5
43A
100
AcDbEntity
  8
0
100
AcDbPolyline
 62
7
  6
CONTINUOUS
 90
10
 70
0
 43
0.3500000006
 10
1.2683614969
 20
-63.6454606934
 10
1.339789989
 20
-63.7883185272
 10
1.339789989
 20
-63.8597451782
 10
1.1969328632
 20
-64.0026030121
 10
1.1255043004
 20
-64.0026030121
 10
1.0540757375
 20
-63.9311718292
 10
1.0540757375
 20
-63.8597451782
 10
1.1255043004
 20
-63.7168873444
 10
1.1969328632
 20
-63.6454606934
 10
1.2683614969
 20
-63.6454606934
  0
LWPOLYLINE
  5
43B
100
AcDbEntity
  8
0
100
AcDbPolyline
 62
7
  6
CONTINUOUS
 90
3
 70
0
 43
0.3500000006
 10
-26.3459248352
 20
-5.127546524
 10
-27.2030673065
 20
-4.2704040527
 10
-24.203066391
 20
-4.2704040527
  0
LINE
  5
43C
100
AcDbEntity
  8
IMPORT_IGES
100
AcDbLine
 62
7
  6
CONTINUOUS
 10
-13.0509741675
 20
14.8481612149
 11
-13.0509301073
 21
14.848446418
  0
LWPOLYLINE
  5
43D
100
AcDbEntity
  8
0
100
AcDbPolyline
 62
7
  6
CONTINUOUS
 90
10
 70
0
 43
0.3500000006
 10
-24.203066391
 20
-0.6275474167
 10
-25.0602088623
 20
0.2295950546
 10
-25.9173535995
 20
0.4438818054
 10
-26.7744960709
 20
0.4438818054
 10
-27.2030673065
 20
0.0153105698
 10
-27.2030673065
 20
-0.6275474167
 10
-26.7744960709
 20
-1.0561186523
 10
-25.9173535995
 20
-1.0561186523
 10
-25.4887823639
 20
-0.6275474167
 10
-25.4887823639
 20
0.3010239716
  0
LWPOLYLINE
  5
43E
100
AcDbEntity
  8
0
100
AcDbPolyline
 62
7
  6
CONTINUOUS
 90
10
 70
0
 43
0.3500000006
 10
-27.2030673065
 20
4.0867384415
 10
-26.5602093201
 20
3.4438827209
 10
-25.7030668488
 20
3.0153092194
 10
-24.6316376266
 20
3.0153092194
 10
-24.203066391
 20
3.4438827209
 10
-24.203066391
 20
4.0867384415
 10
-24.6316376266
 20
4.5153096771
 10
-25.4887823639
 20
4.5153096771
 10
-25.9173535995
 20
4.0867384415
 10
-25.9173535995
 20
3.1581670532
  0
LINE
  5
43F
100
AcDbEntity
  8
IMPORT_IGES
100
AcDbLine
 62
7
  6
CONTINUOUS
 10
-13.0490394437
 20
14.8381041695
 11
-13.0489642496
 21
14.837406874
  0
LINE
  5
440
100
AcDbEntity
  8
IMPORT_IGES
100
AcDbLine
 62
7
  6
CONTINUOUS
 10
-13.0488863515
 20
14.8366691217
 11
-13.0486347661
 21
14.8341698199
  0
LINE
  5
441
100
AcDbEntity
  8
IMPORT_IGES
100
AcDbLine
 62
7
  6
CONTINUOUS
 10
-13.0486347661
 20
14.8341698199
 11
-13.0483537063
 21
14.8311861327
  0
LINE
  5
442
100
AcDbEntity
  8
IMPORT_IGES
100
AcDbLine
 62
7
  6
CONTINUOUS
 10
-13.0483537063
 20
14.8311861327
 11
-13.0480390878
 21
14.8276241972
  0
LINE
  5
443
100
AcDbEntity
  8
IMPORT_IGES
100
AcDbLine
 62
7
  6
CONTINUOUS
 10
-13.0480390878
 20
14.8276241972
 11
-13.0476861838
 21
14.8233730935
  0
LINE
  5
444
100
AcDbEntity
  8
IMPORT_IGES
100
AcDbLine
 62
7
  6
CONTINUOUS
 10
-13.0476861838
 20
14.8233730935
 11
-13.0472895115
 21
14.8183019113
  0
LINE
  5
445
100
AcDbEntity
  8
IMPORT_IGES
100
AcDbLine
 62
7
  6
CONTINUOUS
 10
-13.0472895115
 20
14.8183019113
 11
-13.0466812997
 21
14.8099866582
  0
LINE
  5
446
100
AcDbEntity
  8
IMPORT_IGES
100
AcDbLine
 62
7
  6
CONTINUOUS
 10
-13.0466812997
 20
14.8099866582
 11
-13.0459656405
 21
14.7994714186
  0
LINE
  5
447
100
AcDbEntity
  8
IMPORT_IGES
100
AcDbLine
 62
7
  6
CONTINUOUS
 10
-13.0459656405
 20
14.7994714186
 11
-13.0451192763
 21
14.786157146
  0
LINE
  5
448
100
AcDbEntity
  8
IMPORT_IGES
100
AcDbLine
 62
7
  6
CONTINUOUS
 10
-13.0451192763
 20
14.786157146
 11
-13.0438336477
 21
14.7643374449
  0
LINE
  5
449
100
AcDbEntity
  8
IMPORT_IGES
100
AcDbLine
 62
7
  6
CONTINUOUS
 10
-13.0438336477
 20
14.7643374449
 11
-13.0422305415
 21
14.7348726464
  0
LINE
  5
44A
100
AcDbEntity
  8
IMPORT_IGES
100
AcDbLine
 62
7
  6
CONTINUOUS
 10
-13.0422305415
 20
14.7348726464
 11
-13.0397585573
 21
14.685263433
  0
LINE
  5
44B
100
AcDbEntity
  8
IMPORT_IGES
100
AcDbLine
 62
7
  6
CONTINUOUS
 10
-13.0397585573
 20
14.685263433
 11
-13.0364911108
 21
14.6129510006
  0
LINE
  5
44C
100
AcDbEntity
  8
IMPORT_IGES
100
AcDbLine
 62
7
  6
CONTINUOUS
 10
-13.0364911108
 20
14.6129510006
 11
-13.0321574137
 21
14.5060479757
  0
LINE
  5
44D
100
AcDbEntity
  8
IMPORT_IGES
100
AcDbLine
 62
7
  6
CONTINUOUS
 10
-13.0321574137
 20
14.5060479757
 11
-13.0264163647
 21
14.3447756715
  0
LWPOLYLINE
  5
44E
100
AcDbEntity
  8
IMPORT_IGES
100
AcDbPolyline
 62
7
  6
CONTINUOUS
 90
22
 70
0
 10
-12.3779127513
 20
-53.6154421743
 10
-12.3756944648
 20
-53.6900126834
 10
-12.3680611805
 20
-53.7635919207
 10
-12.3551903088
 20
-53.8357914739
 10
-12.3373518868
 20
-53.9060158247
 10
-12.3147354881
 20
-53.9741679236
 10
-12.287284525
 20
-54.0405949721
 10
-12.2550444664
 20
-54.1050849358
 10
-12.2182199978
 20
-54.1671410173
 10
-12.1768407083
 20
-54.2266194459
 10
-12.13107706
 20
-54.2831487999
 10
-12.0811052492
 20
-54.3363961043
 10
-12.0269144219
 20
-54.3862154585
 10
-11.9685181879
 20
-54.4323666819
 10
-11.9063220992
 20
-54.4743134217
 10
-11.8409587313
 20
-54.5115100735
 10
-11.7728805687
 20
-54.5436526741
 10
-11.7023614383
 20
-54.5705671381
 10
-11.6298546
 20
-54.5920312549
 10
-11.5557926578
 20
-54.6078793762
 10
-11.480579459
 20
-54.6179881402
 10
-11.4046511246
 20
-54.6222598425
  0
LINE
  5
44F
100
AcDbEntity
  8
IMPORT_IGES
100
AcDbLine
 62
7
  6
CONTINUOUS
 10
-13.0264163647
 20
14.3447756715
 11
-13.0203246292
 21
14.1458616245
  0
LINE
  5
450
100
AcDbEntity
  8
IMPORT_IGES
100
AcDbLine
 62
7
  6
CONTINUOUS
 10
-13.0203246292
 20
14.1458616245
 11
-13.014978005
 21
13.9403648689
  0
LINE
  5
451
100
AcDbEntity
  8
IMPORT_IGES
100
AcDbLine
 62
7
  6
CONTINUOUS
 10
-13.014978005
 20
13.9403648689
 11
-13.0101615278
 21
13.716970111
  0
LINE
  5
452
100
AcDbEntity
  8
IMPORT_IGES
100
AcDbLine
 62
7
  6
CONTINUOUS
 10
-13.4530112124
 20
6.0958400642
 11
-13.4526595281
 21
6.0770866756
  0
LINE
  5
453
100
AcDbEntity
  8
IMPORT_IGES
100
AcDbLine
 62
7
  6
CONTINUOUS
 10
-13.0101615278
 20
13.716970111
 11
-13.0060706687
 21
13.4761129304
  0
LINE
  5
454
100
AcDbEntity
  8
IMPORT_IGES
100
AcDbLine
 62
7
  6
CONTINUOUS
 10
-13.0060706687
 20
13.4761129304
 11
-13.0028716807
 21
13.2194619235
  0
LINE
  5
455
100
AcDbEntity
  8
IMPORT_IGES
100
AcDbLine
 62
7
  6
CONTINUOUS
 10
-13.0028716807
 20
13.2194619235
 11
-13.0008111777
 21
12.9587706713
  0
LINE
  5
456
100
AcDbEntity
  8
IMPORT_IGES
100
AcDbLine
 62
7
  6
CONTINUOUS
 10
-13.0008111777
 20
12.9587706713
 11
-12.9999919765
 21
12.7082164503
  0
LINE
  5
457
100
AcDbEntity
  8
IMPORT_IGES
100
AcDbLine
 62
7
  6
CONTINUOUS
 10
-12.9999957725
 20
6.4745368309
 11
-13.0001871516
 21
6.533760452
  0
LINE
  5
458
100
AcDbEntity
  8
IMPORT_IGES
100
AcDbLine
 62
7
  6
CONTINUOUS
 10
-13.4530670985
 20
13.1131928264
 11
-13.4530670985
 21
6.0958887271
  0
LINE
  5
459
100
AcDbEntity
  8
IMPORT_IGES
100
AcDbLine
 62
7
  6
CONTINUOUS
 10
-13.0530670985
 20
51.824512082
 11
-13.0530670985
 21
14.8481784041
  0
LINE
  5
45A
100
AcDbEntity
  8
IMPORT_IGES
100
AcDbLine
 62
7
  6
CONTINUOUS
 10
-13.0530670985
 20
4.3609030794
 11
-13.0530670985
 21
-53.615441972
  0
LINE
  5
45B
100
AcDbEntity
  8
IMPORT_IGES
100
AcDbLine
 62
7
  6
CONTINUOUS
 10
-12.9999919765
 20
12.7082164503
 11
-12.9999783401
 21
6.5608287434
  0
LINE
  5
45C
100
AcDbEntity
  8
IMPORT_IGES
100
AcDbLine
 62
250
  6
CONTINUOUS
 10
-12.3779378923
 20
51.824512082
 11
-12.3779375172
 21
-53.6163616781
  0
LINE
  5
45D
100
AcDbEntity
  8
IMPORT_IGES
100
AcDbLine
 62
7
  6
CONTINUOUS
 10
-13.0001871516
 20
6.533760452
 11
-13.0001508674
 21
6.5465847043
  0
LINE
  5
45E
100
AcDbEntity
  8
IMPORT_IGES
100
AcDbLine
 62
7
  6
CONTINUOUS
 10
-13.0016175726
 20
6.1265204115
 11
-12.9999957725
 21
6.4745368309
  0
LINE
  5
45F
100
AcDbEntity
  8
IMPORT_IGES
100
AcDbLine
 62
7
  6
CONTINUOUS
 10
-13.0001508674
 20
6.5465847043
 11
-13.000083387
 21
6.5541587716
  0
LINE
  5
460
100
AcDbEntity
  8
IMPORT_IGES
100
AcDbLine
 62
7
  6
CONTINUOUS
 10
-13.0043105794
 20
5.8634789753
 11
-13.0016175726
 21
6.1265204115
  0
LINE
  5
461
100
AcDbEntity
  8
IMPORT_IGES
100
AcDbLine
 62
7
  6
CONTINUOUS
 10
-13.0079583285
 20
5.6144091791
 11
-13.0043105794
 21
5.8634789753
  0
LINE
  5
462
100
AcDbEntity
  8
IMPORT_IGES
100
AcDbLine
 62
7
  6
CONTINUOUS
 10
-13.000083387
 20
6.5541587716
 11
-12.9999805979
 21
6.5608287434
  0
LINE
  5
463
100
AcDbEntity
  8
IMPORT_IGES
100
AcDbLine
 62
7
  6
CONTINUOUS
 10
-13.0126124113
 20
5.3723626771
 11
-13.0079583285
 21
5.6144091791
  0
LINE
  5
464
100
AcDbEntity
  8
IMPORT_IGES
100
AcDbLine
 62
7
  6
CONTINUOUS
 10
-13.0174144244
 20
5.1703783986
 11
-13.0126124113
 21
5.3723626771
  0
LINE
  5
465
100
AcDbEntity
  8
IMPORT_IGES
100
AcDbLine
 62
7
  6
CONTINUOUS
 10
-13.0235904583
 20
4.952749843
 11
-13.0174144244
 21
5.1703783986
  0
LINE
  5
466
100
AcDbEntity
  8
IMPORT_IGES
100
AcDbLine
 62
7
  6
CONTINUOUS
 10
-13.0291258072
 20
4.7854577456
 11
-13.0235904583
 21
4.952749843
  0
LINE
  5
467
100
AcDbEntity
  8
IMPORT_IGES
100
AcDbLine
 62
7
  6
CONTINUOUS
 10
-13.0345728586
 20
4.6418901357
 11
-13.0291258072
 21
4.7854577456
  0
LINE
  5
468
100
AcDbEntity
  8
IMPORT_IGES
100
AcDbLine
 62
7
  6
CONTINUOUS
 10
-13.0384288226
 20
4.5524851556
 11
-13.0345728586
 21
4.6418901357
  0
LINE
  5
469
100
AcDbEntity
  8
IMPORT_IGES
100
AcDbLine
 62
7
  6
CONTINUOUS
 10
-13.0420268201
 20
4.4783072186
 11
-13.0384288226
 21
4.5524851556
  0
LINE
  5
46A
100
AcDbEntity
  8
IMPORT_IGES
100
AcDbLine
 62
7
  6
CONTINUOUS
 10
-13.0442114184
 20
4.4381999134
 11
-13.0420268201
 21
4.4783072186
  0
LWPOLYLINE
  5
46B
100
AcDbEntity
  8
IMPORT_IGES
100
AcDbPolyline
 62
7
  6
CONTINUOUS
 90
9
 70
0
 10
-13.0507224738
 20
4.3608234121
 10
-13.0504901091
 20
4.3612247311
 10
-13.0499362884
 20
4.3635972409
 10
-13.0493186064
 20
4.368020609
 10
-13.0486321918
 20
4.3744736844
 10
-13.0478763342
 20
4.3829776181
 10
-13.047056353
 20
4.3935958626
 10
-13.0461711134
 20
4.4063725132
 10
-13.0442114184
 20
4.4381999134
  0
LWPOLYLINE
  5
46C
100
AcDbEntity
  8
0
100
AcDbPolyline
 62
7
  6
CONTINUOUS
 90
10
 70
0
 43
0.3500000006
 10
-24.7030665436
 20
1.9438822632
 10
-24.5602109756
 20
2.0153111801
 10
-24.4887820587
 20
2.0153111801
 10
-24.3459242249
 20
1.8724533463
 10
-24.3459242249
 20
1.8010244293
 10
-24.4173531418
 20
1.7295955124
 10
-24.4887820587
 20
1.7295955124
 10
-24.6316376266
 20
1.8010244293
 10
-24.7030665436
 20
1.8724533463
 10
-24.7030665436
 20
1.9438822632
  0
LINE
  5
46D
100
AcDbEntity
  8
IMPORT_IGES
100
AcDbLine
 62
7
  6
CONTINUOUS
 10
-13.0496616521
 20
14.8431602076
 11
-13.0496087454
 21
14.8427858237
  0
LINE
  5
46E
100
AcDbEntity
  8
IMPORT_IGES
100
AcDbLine
 62
7
  6
CONTINUOUS
 10
-13.049553946
 20
14.8423860036
 11
-13.049497234
 21
14.8419608212
  0
LINE
  5
46F
100
AcDbEntity
  8
IMPORT_IGES
100
AcDbLine
 62
7
  6
CONTINUOUS
 10
-13.0494384835
 20
14.8415061187
 11
-13.0493776715
 21
14.8410221951
  0
LINE
  5
470
100
AcDbEntity
  8
IMPORT_IGES
100
AcDbLine
 62
7
  6
CONTINUOUS
 10
-13.0493147429
 20
14.8405087512
 11
-13.0492495163
 21
14.8399607323
  0
LINE
  5
471
100
AcDbEntity
  8
IMPORT_IGES
100
AcDbLine
 62
7
  6
CONTINUOUS
 10
-13.0491819506
 20
14.8393784137
 11
-13.0491119949
 21
14.8387615201
  0
LWPOLYLINE
  5
472
100
AcDbEntity
  8
IMPORT_IGES
100
AcDbPolyline
 62
250
  6
CONTINUOUS
 90
8
 70
0
 10
-9.2699045793
 20
-54.518460616
 10
-9.2693739669
 20
-54.5549982129
 10
-9.2687052088
 20
-54.5863750788
 10
-9.2679011583
 20
-54.6124184558
 10
-9.266968913
 20
-54.6329092732
 10
-9.2659143544
 20
-54.6476846805
 10
-9.2647417689
 20
-54.6566241742
 10
-9.2634574
 20
-54.6596345182
  0
LINE
  5
473
100
AcDbEntity
  8
IMPORT_IGES
100
AcDbLine
 62
250
  6
CONTINUOUS
 10
-9.2634304954
 20
51.8687869097
 11
-9.2677967035
 21
52.1638445063
  0
LINE
  5
474
100
AcDbEntity
  8
IMPORT_IGES
100
AcDbLine
 62
250
  6
CONTINUOUS
 10
-9.2677967035
 20
52.1638445063
 11
-9.2698119321
 21
52.3689269416
  0
LINE
  5
475
100
AcDbEntity
  8
IMPORT_IGES
100
AcDbLine
 62
250
  6
CONTINUOUS
 10
-9.2705434416
 20
-54.4313653732
 11
-9.2699045793
 21
-54.518460616
  0
LINE
  5
476
100
AcDbEntity
  8
IMPORT_IGES
100
AcDbLine
 62
250
  6
CONTINUOUS
 10
-9.2698119321
 20
52.3689269416
 11
-9.2706360553
 21
52.5488375038
  0
LINE
  5
477
100
AcDbEntity
  8
IMPORT_IGES
100
AcDbLine
 62
250
  6
CONTINUOUS
 10
-9.2634265467
 20
51.8687281652
 11
-9.26342593
 21
-53.6595304551
  0
LINE
  5
478
100
AcDbEntity
  8
IMPORT_IGES
100
AcDbLine
 62
250
  6
CONTINUOUS
 10
-9.2706242268
 20
-54.3289156094
 11
-9.2705434416
 21
-54.4313653732
  0
LINE
  5
479
100
AcDbEntity
  8
IMPORT_IGES
100
AcDbLine
 62
250
  6
CONTINUOUS
 10
-9.2706360553
 20
52.5488375038
 11
-9.2705020109
 21
52.6503592436
  0
LINE
  5
47A
100
AcDbEntity
  8
IMPORT_IGES
100
AcDbLine
 62
250
  6
CONTINUOUS
 10
-9.26975351
 20
-54.1511267902
 11
-9.2706242268
 21
-54.3289156094
  0
LWPOLYLINE
  5
47B
100
AcDbEntity
  8
IMPORT_IGES
100
AcDbPolyline
 62
250
  6
CONTINUOUS
 90
9
 70
0
 10
-9.2705020109
 20
52.6503592436
 10
-9.2698228256
 20
52.7344907926
 10
-9.2692828127
 20
52.7694365345
 10
-9.268612783
 20
52.7993635462
 10
-9.267816366
 20
52.824099702
 10
-9.2668976403
 20
52.8435052833
 10
-9.2658614723
 20
52.8574636707
 10
-9.2647135827
 20
52.8658860134
 10
-9.263460255
 20
52.8687159521
  0
LINE
  5
47C
100
AcDbEntity
  8
IMPORT_IGES
100
AcDbLine
 62
250
  6
CONTINUOUS
 10
-9.2677655114
 20
-53.9516689567
 11
-9.26975351
 21
-54.1511267902
  0
LINE
  5
47D
100
AcDbEntity
  8
IMPORT_IGES
100
AcDbLine
 62
250
  6
CONTINUOUS
 10
-9.2634289093
 20
-53.6596240973
 11
-9.2677655114
 21
-53.9516689567
  0
LWPOLYLINE
  5
47E
100
AcDbEntity
  8
IMPORT_IGES
100
AcDbPolyline
 62
7
  6
CONTINUOUS
 90
4
 70
0
 10
-13.0508425454
 20
14.8481585079
 10
-13.05082892
 20
14.8481090632
 10
-13.0508152837
 20
14.8480680885
 10
-13.0508017335
 20
14.8480387021
  0
LWPOLYLINE
  5
47F
100
AcDbEntity
  8
IMPORT_IGES
100
AcDbPolyline
 62
7
  6
CONTINUOUS
 90
21
 70
0
 10
-13.0504448233
 20
14.8473335311
 10
-13.0504187135
 20
14.8472343999
 10
-13.0503917209
 20
14.8471285154
 10
-13.0503638293
 20
14.8470155991
 10
-13.0503349483
 20
14.8468951903
 10
-13.0503050561
 20
14.8467676742
 10
-13.0502741472
 20
14.8466326656
 10
-13.0502421526
 20
14.8464885489
 10
-13.0502090556
 20
14.84633546
 10
-13.0501748414
 20
14.846173263
 10
-13.0501394419
 20
14.8459999349
 10
-13.0501028387
 20
14.8458156272
 10
-13.0500650141
 20
14.8456201885
 10
-13.0500258988
 20
14.8454111415
 10
-13.0499854817
 20
14.8451887295
 10
-13.0499437328
 20
14.8449527092
 10
-13.0499005517
 20
14.8446998736
 10
-13.0498559277
 20
14.8444305428
 10
-13.0498098238
 20
14.8441443968
 10
-13.0497620945
 20
14.8438372686
 10
-13.0497127146
 20
14.8435092292
  0
LINE
  5
480
100
AcDbEntity
  8
IMPORT_IGES
100
AcDbLine
 62
7
  6
CONTINUOUS
 10
-13.0508835139
 20
14.8483328861
 11
-13.0508698429
 21
14.8482704193
  0
LWPOLYLINE
  5
481
100
AcDbEntity
  8
0
100
AcDbPolyline
 62
7
  6
CONTINUOUS
 90
13
 70
0
 43
0.3500000006
 10
-25.0602088623
 20
-3.4132615814
 10
-26.3459248352
 20
-3.4132615814
 10
-26.7744960709
 20
-3.1989759636
 10
-27.2030673065
 20
-2.770403595
 10
-27.2030673065
 20
-2.5561179771
 10
-26.7744960709
 20
-2.1275467415
 10
-26.3459248352
 20
-1.9132611237
 10
-25.0602088623
 20
-1.9132611237
 10
-24.6316376266
 20
-2.1275467415
 10
-24.203066391
 20
-2.5561179771
 10
-24.203066391
 20
-2.770403595
 10
-24.6316376266
 20
-3.1989759636
 10
-25.0602088623
 20
-3.4132615814
  0
LINE
  5
482
100
AcDbEntity
  8
IMPORT_IGES
100
AcDbLine
 62
7
  6
CONTINUOUS
 10
13.2627976479
 20
-4.1341373212
 11
10.9034709182
 21
-4.0929551199
  0
LWPOLYLINE
  5
483
100
AcDbEntity
  8
0
100
AcDbPolyline
 62
7
  6
CONTINUOUS
 90
3
 70
0
 43
0.3500000006
 10
-24.4887820587
 20
2.0153111801
 10
-24.2744953079
 20
1.9438822632
 10
-23.9887819061
 20
1.8010244293
  0
LINE
  5
484
100
AcDbEntity
  8
IMPORT_IGES
100
AcDbLine
 62
7
  6
CONTINUOUS
 10
-13.0509826122
 20
4.3609030795
 11
-13.0507224738
 21
4.3608234121
  0
LWPOLYLINE
  5
485
100
AcDbEntity
  8
IMPORT_IGES
100
AcDbPolyline
 62
7
  6
CONTINUOUS
 90
10
 70
0
 10
-13.0506628925
 20
14.8479227865
 10
-13.0506443159
 20
14.8478961379
 10
-13.0506250569
 20
14.8478626203
 10
-13.0506051198
 20
14.8478219713
 10
-13.0505844858
 20
14.8477744533
 10
-13.0505631169
 20
14.8477195782
 10
-13.0505410028
 20
14.8476572002
 10
-13.050518137
 20
14.847587465
 10
-13.0504944871
 20
14.8475103225
 10
-13.0504700567
 20
14.8474256305
  0
LINE
  5
486
100
AcDbEntity
  8
IMPORT_IGES
100
AcDbLine
 62
7
  6
CONTINUOUS
 10
4.2469329015
 20
53.1045407405
 11
4.2469329015
 21
-54.895459257
  0
LINE
  5
487
100
AcDbEntity
  8
IMPORT_IGES
100
AcDbLine
 62
7
  6
CONTINUOUS
 10
10.9035227066
 20
2.3020375076
 11
13.2627976479
 21
2.3432188049
  0
LWPOLYLINE
  5
488
100
AcDbEntity
  8
IMPORT_IGES
100
AcDbPolyline
 62
250
  6
CONTINUOUS
 90
11
 70
0
 10
6.4864887807
 20
52.7967126393
 10
6.485585497
 20
52.8461679804
 10
6.4844815746
 20
52.8918612904
 10
6.4831810024
 20
52.9332498776
 10
6.4816951192
 20
52.9697850314
 10
6.4800335755
 20
53.0011626097
 10
6.4782023381
 20
53.0272098927
 10
6.4762123851
 20
53.0477078915
 10
6.4740750434
 20
53.0624938304
 10
6.4718014967
 20
53.0714472431
 10
6.4694044148
 20
53.0744748897
  0
LINE
  5
489
100
AcDbEntity
  8
IMPORT_IGES
100
AcDbLine
 62
250
  6
CONTINUOUS
 10
6.483681713
 20
-53.8656904278
 11
6.4859243701
 21
-54.0146456083
  0
LINE
  5
48A
100
AcDbEntity
  8
IMPORT_IGES
100
AcDbLine
 62
250
  6
CONTINUOUS
 10
6.412301468
 20
-53.8662628214
 11
6.4166382931
 21
-54.1583330049
  0
LINE
  5
48B
100
AcDbEntity
  8
IMPORT_IGES
100
AcDbLine
 62
250
  6
CONTINUOUS
 10
6.4877076826
 20
52.6873988712
 11
6.4864887807
 21
52.7967126393
  0
LINE
  5
48C
100
AcDbEntity
  8
IMPORT_IGES
100
AcDbLine
 62
250
  6
CONTINUOUS
 10
6.4859243701
 20
-54.0146456083
 11
6.4873883622
 21
-54.1576192121
  0
LINE
  5
48D
100
AcDbEntity
  8
IMPORT_IGES
100
AcDbLine
 62
250
  6
CONTINUOUS
 10
6.4166382931
 20
-54.1583330049
 11
6.4186269051
 21
-54.357810973
  0
LINE
  5
48E
100
AcDbEntity
  8
IMPORT_IGES
100
AcDbLine
 62
250
  6
CONTINUOUS
 10
6.4186286106
 20
52.9461807761
 11
6.4193378934
 21
52.8653921505
  0
LINE
  5
48F
100
AcDbEntity
  8
IMPORT_IGES
100
AcDbLine
 62
250
  6
CONTINUOUS
 10
6.4873883622
 20
-54.1576192121
 11
6.4880860356
 21
-54.2924704907
  0
LINE
  5
490
100
AcDbEntity
  8
IMPORT_IGES
100
AcDbLine
 62
250
  6
CONTINUOUS
 10
6.4186269051
 20
-54.357810973
 11
6.4194980755
 21
-54.5356212633
  0
LINE
  5
491
100
AcDbEntity
  8
IMPORT_IGES
100
AcDbLine
 62
250
  6
CONTINUOUS
 10
6.4881517766
 20
52.5659964844
 11
6.4877076826
 21
52.6873988712
  0
LINE
  5
492
100
AcDbEntity
  8
IMPORT_IGES
100
AcDbLine
 62
250
  6
CONTINUOUS
 10
6.4193378934
 20
52.8653921505
 11
6.4195256671
 21
52.7668248456
  0
LINE
  5
493
100
AcDbEntity
  8
IMPORT_IGES
100
AcDbLine
 62
7
  6
CONTINUOUS
 10
4.7469329015
 20
-54.8954592577
 11
4.7469329015
 21
53.1045407416
  0
LINE
  5
494
100
AcDbEntity
  8
IMPORT_IGES
100
AcDbLine
 62
250
  6
CONTINUOUS
 10
6.4123035624
 20
52.0753842879
 11
6.4123035624
 21
-53.8662019471
  0
LINE
  5
495
100
AcDbEntity
  8
IMPORT_IGES
100
AcDbLine
 62
250
  6
CONTINUOUS
 10
6.4836812465
 20
-53.8658331318
 11
6.4836812465
 21
52.0747906848
  0
LINE
  5
496
100
AcDbEntity
  8
IMPORT_IGES
100
AcDbLine
 62
7
  6
CONTINUOUS
 10
7.0469329015
 20
53.3144321745
 11
7.0469329015
 21
53.0643940925
  0
LINE
  5
497
100
AcDbEntity
  8
IMPORT_IGES
100
AcDbLine
 62
7
  6
CONTINUOUS
 10
7.2469329015
 20
54.4045407419
 11
7.2469329015
 21
53.6045407419
  0
LINE
  5
498
100
AcDbEntity
  8
IMPORT_IGES
100
AcDbLine
 62
250
  6
CONTINUOUS
 10
6.4880860356
 20
-54.2924704907
 11
6.4880259798
 21
-54.4190175239
  0
LINE
  5
499
100
AcDbEntity
  8
IMPORT_IGES
100
AcDbLine
 62
250
  6
CONTINUOUS
 10
6.4194980755
 20
-54.5356212633
 11
6.4194175089
 21
-54.6380847765
  0
LINE
  5
49A
100
AcDbEntity
  8
IMPORT_IGES
100
AcDbLine
 62
250
  6
CONTINUOUS
 10
6.4878303182
 20
52.4349206715
 11
6.4881517766
 21
52.5659964844
  0
LINE
  5
49B
100
AcDbEntity
  8
IMPORT_IGES
100
AcDbLine
 62
250
  6
CONTINUOUS
 10
6.4195256671
 20
52.7668248456
 11
6.4187773386
 21
52.5874216437
  0
LINE
  5
49C
100
AcDbEntity
  8
IMPORT_IGES
100
AcDbLine
 62
250
  6
CONTINUOUS
 10
6.486753206
 20
52.2961213619
 11
6.4878303182
 21
52.4349206715
  0
LWPOLYLINE
  5
49D
100
AcDbEntity
  8
IMPORT_IGES
100
AcDbPolyline
 62
250
  6
CONTINUOUS
 90
13
 70
0
 10
6.4880259798
 20
-54.4190175239
 10
6.4871945778
 20
-54.5347145729
 10
6.4864880338
 20
-54.5876787419
 10
6.4855846641
 20
-54.6371260409
 10
6.4844806946
 20
-54.6828117099
 10
6.4831801156
 20
-54.7241932018
 10
6.4816942702
 20
-54.7607218695
 10
6.4800328137
 20
-54.7920936542
 10
6.4782017096
 20
-54.8181360676
 10
6.4762119249
 20
-54.8386303435
 10
6.4740747795
 20
-54.8534137676
 10
6.4718014564
 20
-54.8623658628
 10
6.4694046211
 20
-54.8653934024
  0
LWPOLYLINE
  5
49E
100
AcDbEntity
  8
IMPORT_IGES
100
AcDbPolyline
 62
250
  6
CONTINUOUS
 90
9
 70
0
 10
6.4194175089
 20
-54.6380847765
 10
6.4187787842
 20
-54.725192791
 10
6.4182482058
 20
-54.761736036
 10
6.4175803829
 20
-54.7931178829
 10
6.4167772428
 20
-54.8191655033
 10
6.4158431069
 20
-54.8396597796
 10
6.4147829319
 20
-54.8544378021
 10
6.4136019304
 20
-54.8633789909
 10
6.4123063466
 20
-54.8663900565
  0
LINE
  5
49F
100
AcDbEntity
  8
IMPORT_IGES
100
AcDbLine
 62
250
  6
CONTINUOUS
 10
6.4187773386
 20
52.5874216437
 11
6.4167746352
 21
52.378766631
  0
LWPOLYLINE
  5
4A0
100
AcDbEntity
  8
IMPORT_IGES
100
AcDbPolyline
 62
250
  6
CONTINUOUS
 90
3
 70
0
 10
6.4836791897
 20
52.074627191
 10
6.484897797
 20
52.1496391736
 10
6.486753206
 20
52.2961213619
  0
LINE
  5
4A1
100
AcDbEntity
  8
IMPORT_IGES
100
AcDbLine
 62
250
  6
CONTINUOUS
 10
6.4167746352
 20
52.378766631
 11
6.4123025425
 21
52.075405865
  0
LINE
  5
4A2
100
AcDbEntity
  8
IMPORT_IGES
100
AcDbLine
 62
250
  6
CONTINUOUS
 10
-13.4530670985
 20
6.5958010296
 11
-12.9999792283
 21
6.5958122793
  0
LINE
  5
4A3
100
AcDbEntity
  8
IMPORT_IGES
100
AcDbLine
 62
7
  6
CONTINUOUS
 10
8.2757186372
 20
53.0429455577
 11
8.2757186372
 21
53.1045407419
  0
LINE
  5
4A4
100
AcDbEntity
  8
IMPORT_IGES
100
AcDbLine
 62
7
  6
CONTINUOUS
 10
8.4469329015
 20
-1.5935969839
 11
8.4469329015
 21
-0.19734892
  0
LINE
  5
4A5
100
AcDbEntity
  8
IMPORT_IGES
100
AcDbLine
 62
7
  6
CONTINUOUS
 10
10.4469328996
 20
53.1045407419
 11
10.4469328996
 21
53.0050468718
  0
LINE
  5
4A6
100
AcDbEntity
  8
IMPORT_IGES
100
AcDbLine
 62
7
  6
CONTINUOUS
 10
11.4469329014
 20
53.6045407419
 11
11.4469329014
 21
54.4045407419
  0
LINE
  5
4A7
100
AcDbEntity
  8
IMPORT_IGES
100
AcDbLine
 62
7
  6
CONTINUOUS
 10
12.962690941
 20
52.8270680855
 11
12.963939533
 21
52.7429576837
  0
LINE
  5
4A8
100
AcDbEntity
  8
IMPORT_IGES
100
AcDbLine
 62
7
  6
CONTINUOUS
 10
12.963939533
 20
52.7429576837
 11
12.9647949066
 21
52.6414605486
  0
LINE
  5
4A9
100
AcDbEntity
  8
IMPORT_IGES
100
AcDbLine
 62
7
  6
CONTINUOUS
 10
12.9627969452
 20
-53.7525059637
 11
12.9648483455
 21
-54.0475126651
  0
LINE
  5
4AA
100
AcDbEntity
  8
IMPORT_IGES
100
AcDbLine
 62
7
  6
CONTINUOUS
 10
12.9647949066
 20
52.6414605486
 11
12.9652987448
 21
52.4615907423
  0
LINE
  5
4AB
100
AcDbEntity
  8
IMPORT_IGES
100
AcDbLine
 62
7
  6
CONTINUOUS
 10
12.9648483455
 20
-54.0475126651
 11
12.9653002756
 21
-54.2525442999
  0
LINE
  5
4AC
100
AcDbEntity
  8
IMPORT_IGES
100
AcDbLine
 62
250
  6
CONTINUOUS
 10
12.9627966721
 20
-53.7525059638
 11
12.962796399
 21
-4.1289007799
  0
LINE
  5
4AD
100
AcDbEntity
  8
IMPORT_IGES
100
AcDbLine
 62
250
  6
CONTINUOUS
 10
12.9627963698
 20
2.3379822634
 11
12.9627963501
 21
51.9615346869
  0
LINE
  5
4AE
100
AcDbEntity
  8
IMPORT_IGES
100
AcDbLine
 62
7
  6
CONTINUOUS
 10
13.2627976479
 20
2.3432188049
 11
13.2627976479
 21
-4.1341373212
  0
LINE
  5
4AF
100
AcDbEntity
  8
IMPORT_IGES
100
AcDbLine
 62
7
  6
CONTINUOUS
 10
13.4469329015
 20
52.4613328753
 11
13.4469329015
 21
-54.7448164924
  0
LINE
  5
4B0
100
AcDbEntity
  8
IMPORT_IGES
100
AcDbLine
 62
7
  6
CONTINUOUS
 10
12.9653002756
 20
-54.2525442999
 11
12.9647965469
 21
-54.4324025239
  0
LINE
  5
4B1
100
AcDbEntity
  8
IMPORT_IGES
100
AcDbLine
 62
7
  6
CONTINUOUS
 10
12.9652987448
 20
52.4615907423
 11
12.9644849455
 21
52.1843198865
  0
LINE
  5
4B2
100
AcDbEntity
  8
IMPORT_IGES
100
AcDbLine
 62
7
  6
CONTINUOUS
 10
12.9644849455
 20
52.1843198865
 11
12.9627964423
 21
51.961534686
  0
LINE
  5
4B3
100
AcDbEntity
  8
IMPORT_IGES
100
AcDbLine
 62
7
  6
CONTINUOUS
 10
12.9647965469
 20
-54.4324025239
 11
12.9639411378
 21
-54.5338922963
  0
LWPOLYLINE
  5
4B4
100
AcDbEntity
  8
IMPORT_IGES
100
AcDbPolyline
 62
7
  6
CONTINUOUS
 90
9
 70
0
 10
12.9639411378
 20
-54.5338922963
 10
12.9626924221
 20
-54.6179963218
 10
12.9619250785
 20
-54.6529305922
 10
12.96107063
 20
-54.6828476959
 10
12.9601368869
 20
-54.707575562
 10
12.959119257
 20
-54.7269748121
 10
12.9580235723
 20
-54.7409286584
 10
12.9568661493
 20
-54.7493477627
 10
12.9556592018
 20
-54.7521754076
  0
LWPOLYLINE
  5
4B5
100
AcDbEntity
  8
IMPORT_IGES
100
AcDbPolyline
 62
250
  6
CONTINUOUS
 90
5
 70
0
 10
-13.452726469
 20
12.6132832066
 10
-13.4527988555
 20
12.6132812988
 10
-13.4528624107
 20
12.6132799053
 10
-13.4529172193
 20
12.6132790261
 10
-13.4529633659
 20
12.6132765516
  0
LINE
  5
4B6
100
AcDbEntity
  8
IMPORT_IGES
100
AcDbLine
 62
250
  6
CONTINUOUS
 10
-12.999980527
 20
12.6132653298
 11
-13.452726469
 21
12.6132832066
  0
LWPOLYLINE
  5
4B7
100
AcDbEntity
  8
0
100
AcDbPolyline
 62
7
  6
CONTINUOUS
 90
3
 70
0
 43
0.3500000006
 10
1.339789989
 20
-63.8597451782
 10
1.2683614969
 20
-64.0740296631
 10
1.1255043004
 20
-64.3597453308
  0
LWPOLYLINE
  5
4B8
100
AcDbEntity
  8
IMPORT_IGES
100
AcDbPolyline
 62
250
  6
CONTINUOUS
 90
8
 70
0
 10
6.4123062824
 20
53.0754715414
 10
6.4135664031
 20
53.0726294853
 10
6.4147117009
 20
53.0642593993
 10
6.4157385538
 20
53.0505482009
 10
6.4166413673
 20
53.0317804548
 10
6.4174219037
 20
53.0081530994
 10
6.418085288
 20
52.9796039663
 10
6.4186286106
 20
52.9461807761
  0
LWPOLYLINE
  5
4B9
100
AcDbEntity
  8
IMPORT_IGES
100
AcDbPolyline
 62
7
  6
CONTINUOUS
 90
8
 70
0
 10
12.955658922
 20
52.9612568962
 10
12.9568656028
 20
52.9584290085
 10
12.9580227964
 20
52.9500094215
 10
12.9591182859
 20
52.9360547478
 10
12.960135752
 20
52.9166541805
 10
12.9610693574
 20
52.8919244395
 10
12.9619236909
 20
52.8620050222
 10
12.962690941
 20
52.8270680855
  0
LWPOLYLINE
  5
4BA
100
AcDbEntity
  8
0
100
AcDbPolyline
 62
7
  6
CONTINUOUS
 90
10
 70
0
 43
0.3500000006
 10
-0.6602099841
 20
-61.1454599304
 10
-1.30306705
 20
-61.7883179169
 10
-1.7316385689
 20
-62.6454603882
 10
-1.7316385689
 20
-63.7168873444
 10
-1.30306705
 20
-64.1454608459
 10
-0.6602099841
 20
-64.1454608459
 10
-0.2316385183
 20
-63.7168873444
 10
-0.2316385183
 20
-62.859744873
 10
-0.6602099841
 20
-62.4311713715
 10
-1.5887814431
 20
-62.4311713715
  0
LWPOLYLINE
  5
4BB
100
AcDbEntity
  8
IMPORT_IGES
100
AcDbPolyline
 62
7
  6
CONTINUOUS
 90
22
 70
0
 10
-11.404653732
 20
52.8313412808
 10
-11.4782081643
 20
52.8272927822
 10
-11.5512205863
 20
52.817745686
 10
-11.6232889114
 20
52.8027614424
 10
-11.6940122623
 20
52.7824329643
 10
-11.7630085899
 20
52.7568798397
 10
-11.829915438
 20
52.7262438785
 10
-11.8943670207
 20
52.6906983823
 10
-11.9560114498
 20
52.6504433673
 10
-12.0145250543
 20
52.6056943706
 10
-12.0695875268
 20
52.5566985306
 10
-12.1208976092
 20
52.503726229
 10
-12.1681844152
 20
52.447057135
 10
-12.21118694
 20
52.3870013417
 10
-12.2496676207
 20
52.3238876523
 10
-12.2834202738
 20
52.2580475742
 10
-12.312254683
 20
52.1898407597
 10
-12.3360075268
 20
52.1196401908
 10
-12.3545466252
 20
52.0478146824
 10
-12.3677620907
 20
51.9747523888
 10
-12.3755708167
 20
51.9008599655
 10
-12.3779209275
 20
51.8265445483
  0
LWPOLYLINE
  5
4BC
100
AcDbEntity
  8
IMPORT_IGES
100
AcDbPolyline
 62
7
  6
CONTINUOUS
 90
10
 70
0
 10
-12.3179744369
 20
51.830269087
 10
-12.3264679562
 20
51.8300703946
 10
-12.3344840765
 20
51.8297786651
 10
-12.342031185
 20
51.8293938982
 10
-12.3491176819
 20
51.8289014001
 10
-12.3557520229
 20
51.8283158647
 10
-12.3619427054
 20
51.8276813739
 10
-12.3676982057
 20
51.8270126216
 10
-12.3730269832
 20
51.826294914
 10
-12.3779375171
 20
51.8255282509
  0
LINE
  5
4BD
100
AcDbEntity
  8
IMPORT_IGES
100
AcDbLine
 62
250
  6
CONTINUOUS
 10
4.2469330284
 20
50.8959470656
 11
4.7469328529
 21
50.9046745959
  0
LINE
  5
4BE
100
AcDbEntity
  8
IMPORT_IGES
100
AcDbLine
 62
7
  6
CONTINUOUS
 10
4.7469329057
 20
51.9045255091
 11
4.2469330284
 21
51.8957979788
  0
LINE
  5
4BF
100
AcDbEntity
  8
IMPORT_IGES
100
AcDbLine
 62
250
  6
CONTINUOUS
 10
-9.2634265467
 20
51.8687281652
 11
4.2469330284
 21
52.1046576494
  0
LINE
  5
4C0
100
AcDbEntity
  8
IMPORT_IGES
100
AcDbLine
 62
7
  6
CONTINUOUS
 10
4.2469328647
 20
53.1045407412
 11
-12.0705183766
 21
52.8197185703
  0
LINE
  5
4C1
100
AcDbEntity
  8
IMPORT_IGES
100
AcDbLine
 62
7
  6
CONTINUOUS
 10
-12.0201155301
 20
51.8350710153
 11
-12.2710612311
 21
51.830871848
  0
LINE
  5
4C2
100
AcDbEntity
  8
IMPORT_IGES
100
AcDbLine
 62
7
  6
CONTINUOUS
 10
-12.3179744369
 20
51.830269087
 11
-12.2710612311
 21
51.830871848
  0
LINE
  5
4C3
100
AcDbEntity
  8
IMPORT_IGES
100
AcDbLine
 62
7
  6
CONTINUOUS
 10
-9.263427076
 20
51.8687200899
 11
-12.0201155301
 21
51.8350710153
  0
LINE
  5
4C4
100
AcDbEntity
  8
IMPORT_IGES
100
AcDbLine
 62
7
  6
CONTINUOUS
 10
-12.3779378923
 20
51.824512082
 11
-13.0530670985
 21
51.824512082
  0
LINE
  5
4C5
100
AcDbEntity
  8
IMPORT_IGES
100
AcDbLine
 62
250
  6
CONTINUOUS
 10
12.9627963698
 20
51.9615346869
 11
13.4469329015
 21
51.9615150103
  0
LINE
  5
4C6
100
AcDbEntity
  8
IMPORT_IGES
100
AcDbLine
 62
7
  6
CONTINUOUS
 10
7.7665941456
 20
53.1045407419
 11
10.9469154454
 21
53.1045407419
  0
LINE
  5
4C7
100
AcDbEntity
  8
IMPORT_IGES
100
AcDbLine
 62
250
  6
CONTINUOUS
 10
11.4469329014
 20
53.6045407419
 11
7.2470182559
 21
53.6045407419
  0
LINE
  5
4C8
100
AcDbEntity
  8
IMPORT_IGES
100
AcDbLine
 62
250
  6
CONTINUOUS
 10
11.4469329014
 20
54.4045407419
 11
7.2469329015
 21
54.4045407419
  0
LINE
  5
4C9
100
AcDbEntity
  8
IMPORT_IGES
100
AcDbLine
 62
7
  6
CONTINUOUS
 10
10.9469015755
 20
54.9045407419
 11
7.7469482975
 21
54.9045407419
  0
LINE
  5
4CA
100
AcDbEntity
  8
IMPORT_IGES
100
AcDbLine
 62
7
  6
CONTINUOUS
 10
6.451774074
 20
52.0751409547
 11
6.4359314857
 21
52.0751257145
  0
LWPOLYLINE
  5
4CB
100
AcDbEntity
  8
IMPORT_IGES
100
AcDbPolyline
 62
7
  6
CONTINUOUS
 90
3
 70
0
 10
6.4359314857
 20
52.0751257145
 10
6.4201614725
 20
52.0752693664
 10
6.4123038222
 20
52.0753842879
  0
LINE
  5
4CC
100
AcDbEntity
  8
IMPORT_IGES
100
AcDbLine
 62
250
  6
CONTINUOUS
 10
6.4836812465
 20
52.0747906848
 11
12.9627963501
 21
51.9615346869
  0
LINE
  5
4CD
100
AcDbEntity
  8
IMPORT_IGES
100
AcDbLine
 62
7
  6
CONTINUOUS
 10
12.9556589085
 20
52.9612568964
 11
4.7469329294
 21
53.1045407414
  0
LINE
  5
4CE
100
AcDbEntity
  8
IMPORT_IGES
100
AcDbLine
 62
7
  6
CONTINUOUS
 10
7.0469329015
 20
53.3144321745
 11
7.3593023619
 21
53.3089797453
  0
LINE
  5
4CF
100
AcDbEntity
  8
IMPORT_IGES
100
AcDbLine
 62
250
  6
CONTINUOUS
 10
4.746932907
 20
52.1046811369
 11
6.4123035624
 21
52.0753842879
  0
LWPOLYLINE
  5
4D0
100
AcDbEntity
  8
IMPORT_IGES
100
AcDbPolyline
 62
7
  6
CONTINUOUS
 90
5
 70
0
 10
6.4836807855
 20
52.0747906848
 10
6.4756764
 20
52.0749395869
 10
6.4676904517
 20
52.0750512635
 10
6.4597229635
 20
52.0751257145
 10
6.451774074
 20
52.0751409547
  0
LWPOLYLINE
  5
4D1
100
AcDbEntity
  8
IMPORT_IGES
100
AcDbPolyline
 62
7
  6
CONTINUOUS
 90
13
 70
0
 10
7.7665983258
 20
53.1045407419
 10
7.7264854061
 20
53.1061739026
 10
7.6871460177
 20
53.1107734463
 10
7.6485801604
 20
53.118339373
 10
7.6105677173
 20
53.1289611795
 10
7.5733288055
 20
53.142549369
 10
7.5375237757
 20
53.1588354512
 10
7.503181021
 20
53.1778666317
 10
7.4702721484
 20
53.199595705
 10
7.439372329
 20
53.2236125637
 10
7.4106732867
 20
53.2497805054
 10
7.3839832977
 20
53.2782362326
 10
7.3593023619
 20
53.3089797453
  0
ARC
  5
4D2
100
AcDbEntity
  8
IMPORT_IGES
100
AcDbCircle
 62
7
  6
CONTINUOUS
 10
80.8574208289
 20
12.6480176044
 40
1.2001184872
100
AcDbArc
 50
0.0070894053
 51
89.9928206883
  0
ARC
  5
4D3
100
AcDbEntity
  8
IMPORT_IGES
100
AcDbCircle
 62
7
  6
CONTINUOUS
 10
79.7704663437
 20
6.5610638793
 40
1.2001184872
100
AcDbArc
 50
180.0070713453
 51
269.9933178173
  0
ARC
  5
4D4
100
AcDbEntity
  8
IMPORT_IGES
100
AcDbCircle
 62
7
  6
CONTINUOUS
 10
80.8574204492
 20
6.561063499
 40
1.2001184868
100
AcDbArc
 50
270.0050971068
 51
359.9920116309
  0
ARC
  5
4D5
100
AcDbEntity
  8
IMPORT_IGES
100
AcDbCircle
 62
7
  6
CONTINUOUS
 10
79.7704667234
 20
12.6480179848
 40
1.2001184868
100
AcDbArc
 50
90.0070720083
 51
179.9922214422
  0
ARC
  5
4D6
100
AcDbEntity
  8
IMPORT_IGES
100
AcDbCircle
 62
7
  6
CONTINUOUS
 10
78.7139435863
 20
54.4045407419
 40
0.5
100
AcDbArc
 50
90.0001222728
 51
180.0
  0
ARC
  5
4D7
100
AcDbEntity
  8
IMPORT_IGES
100
AcDbCircle
 62
7
  6
CONTINUOUS
 10
81.9139435863
 20
54.4045407419
 40
0.5
100
AcDbArc
 50
0.0
 51
89.9998777271
  0
ARC
  5
4D8
100
AcDbEntity
  8
IMPORT_IGES
100
AcDbCircle
 62
7
  6
CONTINUOUS
 10
78.7139435863
 20
53.6045407418
 40
0.5
100
AcDbArc
 50
180.0000000001
 51
270.005635859
  0
ARC
  5
4D9
100
AcDbEntity
  8
IMPORT_IGES
100
AcDbCircle
 62
7
  6
CONTINUOUS
 10
81.9139435863
 20
53.6045407418
 40
0.5
100
AcDbArc
 50
269.9950521974
 51
360.0
  0
ARC
  5
4DA
100
AcDbEntity
  8
IMPORT_IGES
100
AcDbCircle
 62
7
  6
CONTINUOUS
 10
10.9469329015
 20
-0.1975855847
 40
2.5
100
AcDbArc
 50
90.9949378355
 51
179.9945759778
  0
ARC
  5
4DB
100
AcDbEntity
  8
IMPORT_IGES
100
AcDbCircle
 62
7
  6
CONTINUOUS
 10
10.9469329015
 20
-1.5933329315
 40
2.5
100
AcDbArc
 50
180.0060516331
 51
269.0038745372
  0
ARC
  5
4DC
100
AcDbEntity
  8
IMPORT_IGES
100
AcDbCircle
 62
7
  6
CONTINUOUS
 10
-12.0530659783
 20
-53.6107893969
 40
0.9999999942
100
AcDbArc
 50
180.2665706593
 51
269.1472258677
  0
ARC
  5
4DD
100
AcDbEntity
  8
IMPORT_IGES
100
AcDbCircle
 62
7
  6
CONTINUOUS
 10
-12.0530659702
 20
51.819870881
 40
0.9999999941
100
AcDbArc
 50
90.8527735454
 51
179.7334292659
  0
ARC
  5
4DE
100
AcDbEntity
  8
IMPORT_IGES
100
AcDbCircle
 62
7
  6
CONTINUOUS
 10
10.9469329015
 20
54.4045407419
 40
0.5
100
AcDbArc
 50
0.0
 51
90.0005553935
  0
ARC
  5
4DF
100
AcDbEntity
  8
IMPORT_IGES
100
AcDbCircle
 62
7
  6
CONTINUOUS
 10
7.7469329015
 20
54.4045407419
 40
0.5
100
AcDbArc
 50
89.9994446099
 51
180.0
  0
ARC
  5
4E0
100
AcDbEntity
  8
IMPORT_IGES
100
AcDbCircle
 62
7
  6
CONTINUOUS
 10
7.7469329015
 20
53.6045407419
 40
0.5
100
AcDbArc
 50
180.0
 51
216.1973399338
  0
ARC
  5
4E1
100
AcDbEntity
  8
IMPORT_IGES
100
AcDbCircle
 62
7
  6
CONTINUOUS
 10
10.9469329015
 20
53.6045407418
 40
0.5
100
AcDbArc
 50
269.9995820873
 51
360.0
  0
ARC
  5
4E2
100
AcDbEntity
  8
IMPORT_IGES
100
AcDbCircle
 62
7
  6
CONTINUOUS
 10
-12.9530670985
 20
6.0958893734
 40
0.5
100
AcDbArc
 50
180.0000789709
 51
263.6641817973
  0
ARC
  5
4E3
100
AcDbEntity
  8
IMPORT_IGES
100
AcDbCircle
 62
7
  6
CONTINUOUS
 10
-12.9530671639
 20
13.1132449142
 40
0.4999458725
100
AcDbArc
 50
96.3347103726
 51
180.0060502285
  0
ARC
  5
4E4
100
AcDbEntity
  8
IMPORT_IGES
100
AcDbCircle
 62
7
  6
CONTINUOUS
 10
12.9469318508
 20
52.4614111309
 40
0.4999126526
100
AcDbArc
 50
359.9910323787
 51
88.9997364329
  0
ARC
  5
4E5
100
AcDbEntity
  8
IMPORT_IGES
100
AcDbCircle
 62
7
  6
CONTINUOUS
 10
12.9469322796
 20
-54.2523293669
 40
0.4999122926
100
AcDbArc
 50
271.0002271092
 51
0.0007298585
  0
ENDSEC
  0
SECTION
  2
OBJECTS
  0
DICTIONARY
  5
C
100
AcDbDictionary
280
0
281
1
  3
ACAD_GROUP
350
D
  3
ACAD_MLINESTYLE
350
17
  3
ACAD_LAYOUT
350
1A
  3
ACAD_PLOTSETTINGS
350
19
  3
ACAD_PLOTSTYLENAME
350
E
  0
DICTIONARY
  5
D
102
{ACAD_REACTORS
330
C
102
}
100
AcDbDictionary
280
0
281
1
  0
ACDBDICTIONARYWDFLT
  5
E
102
{ACAD_REACTORS
330
C
102
}
100
AcDbDictionary
281
1
  3
Normal
350
F
100
AcDbDictionaryWithDefault
340
F
  0
DICTIONARY
  5
17
102
{ACAD_REACTORS
330
C
102
}
100
AcDbDictionary
280
0
281
1
  3
Standard
350
18
  0
DICTIONARY
  5
19
102
{ACAD_REACTORS
330
C
102
}
100
AcDbDictionary
281
1
  0
DICTIONARY
  5
1A
102
{ACAD_REACTORS
330
C
102
}
100
AcDbDictionary
281
1
  3
Model
350
4E6
  3
Layout1
350
4E7
  0
ACDBPLACEHOLDER
  5
F
102
{ACAD_REACTORS
330
E
102
}
  0
MLINESTYLE
  5
18
102
{ACAD_REACTORS
330
17
102
}
100
AcDbMlineStyle
  2
STANDARD
 70
0
  3

 62
256
 51
90.0
 52
90.0
 71
2
 49
0.5
 62
256
  6
BYLAYER
 49
-0.5
 62
256
  6
BYLAYER
  0
LAYOUT
  5
4E6
102
{ACAD_REACTORS
330
1A
102
}
100
AcDbPlotSettings
  1

  2
none_device
  4
ISO_A4_(297.00_x_210.00_MM)
  6

 40
0.0
 41
0.0
 42
0.0
 43
0.0
 44
297.0
 45
210.0
 46
0.0
 47
0.0
 48
0.0
 49
0.0
140
0.0
141
0.0
142
1.0
143
1.0
 70
1024
 72
1
 73
0
 74
0
  7

 75
0
147
1.0
148
0.0
149
0.0
100
AcDbLayout
  1
Model
 70
0
 71
0
 10
0.0
 20
0.0
 11
297.0
 21
210.0
 12
0.0
 22
0.0
 32
0.0
 14
0.0
 24
0.0
 34
0.0
 15
0.0
 25
0.0
 35
0.0
146
0.0
 13
0.0
 23
0.0
 33
0.0
 16
1.0
 26
0.0
 36
0.0
 17
0.0
 27
1.0
 37
0.0
 76
0
330
263
345
0
346
0
  0
LAYOUT
  5
4E7
102
{ACAD_REACTORS
330
1A
102
}
100
AcDbPlotSettings
  1

  2
none_device
  4
ISO_A4_(297.00_x_210.00_MM)
  6

 40
0.0
 41
0.0
 42
0.0
 43
0.0
 44
297.0
 45
210.0
 46
0.0
 47
0.0
 48
0.0
 49
0.0
140
0.0
141
0.0
142
1.0
143
1.0
 70
0
 72
1
 73
0
 74
0
  7

 75
0
147
1.0
148
0.0
149
0.0
100
AcDbLayout
  1
Layout1
 70
0
 71
1
 10
0.0
 20
0.0
 11
297.0
 21
210.0
 12
0.0
 22
0.0
 32
0.0
 14
0.0
 24
0.0
 34
0.0
 15
0.0
 25
0.0
 35
0.0
146
0.0
 13
0.0
 23
0.0
 33
0.0
 16
1.0
 26
0.0
 36
0.0
 17
0.0
 27
1.0
 37
0.0
 76
0
330
264
345
0
346
0
  0
ENDSEC
  0
EOF
