  0
SECTION
  2
HEADER
  9
$ACADVER
  1
AC1024
  9
$DWGCODEPAGE
  3
ANSI_1252
  9
$EXTMAX
 10
297.0
 20
210.0
 30
0.0
  9
$EXTMIN
 10
0.0
 20
0.0
 30
0.0
  9
$LIMMIN
 10
0.0
 20
0.0
  9
$LIMMAX
 10
297.0
 20
210.0
  9
$VIEWCTR
 10
148.5
 20
105.0
  9
$VIEWSIZE
 40
210.0
  9
$CLAYER
  8
0
  9
$LTSCALE
 40
16.335
  9
$CELTYPE
  6
BYLAYER
  9
$DIMSCALE
 40
1.0
  9
$DIMASZ
 40
3.0
  9
$DIMEXO
 40
0.5
  9
$DIMDLI
 40
11.286
  9
$DIMEXE
 40
1.5
  9
$DIMCEN
 40
2.673
  9
$DIMLFAC
 40
1.0
  9
$DIMBLK
  1
_FILLED
  9
$DIMALT
 70
0
  9
$DIMALTF
 40
0.0393700787
  9
$DIMTXT
 40
3.0
  9
$DIMTOL
 70
1
  9
$DIMLIM
 70
0
  9
$DIMTFAC
 40
1.0
  9
$DIMTP
 40
0.01
  9
$DIMTM
 40
0.01
  9
$DIMGAP
 40
0.625
  9
$DIMDSEP
 70
44
  9
$AUNITS
 70
0
  9
$PDMODE
 70
3
  9
$PDSIZE
 40
3.0
  9
$HANDSEED
  5
501
  9
$TILEMODE
 70
1
  9
$MEASUREMENT
 70
1
  9
$INSUNITS
 70
4
  0
ENDSEC
  0
SECTION
  2
CLASSES
  0
CLASS
  1
ACDBDICTIONARYWDFLT
  2
AcDbDictionaryWithDefault
  3
AutoCAD 2000
 90
0
 91
1
280
0
281
0
  0
CLASS
  1
ACDBPLACEHOLDER
  2
AcDbPlaceHolder
  3
AutoCAD 2000
 90
0
 91
1
280
0
281
0
  0
CLASS
  1
LAYOUT
  2
AcDbLayout
  3
AutoCAD 2000
 90
0
 91
0
280
0
281
0
  0
ENDSEC
  0
SECTION
  2
TABLES
  0
TABLE
  2
VPORT
  5
8
100
AcDbSymbolTable
 70
2
  0
VPORT
  5
1F4
100
AcDbSymbolTableRecord
100
AcDbViewportTableRecord
  2
*ACTIVE
 70
0
 10
0.0
 20
0.0
 11
1.0
 21
1.0
 12
148.5
 22
105.0
 13
0.0
 23
0.0
 14
1.0
 24
1.0
 15
0.0
 25
0.0
 16
0.0
 26
0.0
 36
1.0
 17
0.0
 27
0.0
 37
0.0
 40
210.0
 41
1.4142857143
 42
50.0
 43
0.0
 44
0.0
 50
0.0
 51
0.0
 71
0
 72
100
 73
1
 74
1
 75
0
 76
0
 77
0
 78
0
  0
ENDTAB
  0
TABLE
  2
LTYPE
  5
5
100
AcDbSymbolTable
 70
6
  0
LTYPE
  5
14
100
AcDbSymbolTableRecord
100
AcDbLinetypeTableRecord
  2
BYBLOCK
 70
0
  3

 72
65
 73
0
 40
0.0
  0
LTYPE
  5
15
100
AcDbSymbolTableRecord
100
AcDbLinetypeTableRecord
  2
BYLAYER
 70
0
  3

 72
65
 73
0
 40
0.0
  0
LTYPE
  5
16
100
AcDbSymbolTableRecord
100
AcDbLinetypeTableRecord
  2
CONTINUOUS
 70
64
  3
Solid line
 72
65
 73
0
 40
0.0
  0
LTYPE
  5
1F5
100
AcDbSymbolTableRecord
100
AcDbLinetypeTableRecord
  2
CENTER
 70
64
  3
____ _ ____ _ ____ _ ____ _ ____ _ ____ _ ____
 72
65
 73
4
 40
0.6
 49
0.375
 74
0
 49
-0.075
 74
0
 49
0.075
 74
0
 49
-0.075
 74
0
  0
LTYPE
  5
1F6
100
AcDbSymbolTableRecord
100
AcDbLinetypeTableRecord
  2
HIDDEN
 70
64
  3
- - - - - - - - - - - - - - - - - - - -
 72
65
 73
2
 40
0.2
 49
0.1
 74
0
 49
-0.1
 74
0
  0
LTYPE
  5
1F7
100
AcDbSymbolTableRecord
100
AcDbLinetypeTableRecord
  2
PHANTOM
 70
64
  3
_____ _ _ _____ _ _ _____ _ _ _____
 72
65
 73
6
 40
0.8
 49
0.45
 74
0
 49
-0.05
 74
0
 49
0.1
 74
0
 49
-0.05
 74
0
 49
0.1
 74
0
 49
-0.05
 74
0
  0
LTYPE
  5
1F8
100
AcDbSymbolTableRecord
100
AcDbLinetypeTableRecord
  2
DOT
 70
64
  3
. . . . . . . . . . . . . . . . . . . .
 72
65
 73
2
 40
0.2
 49
0.1
 74
0
 49
-0.1
 74
0
  0
LTYPE
  5
1F9
100
AcDbSymbolTableRecord
100
AcDbLinetypeTableRecord
  2
DASHED
 70
64
  3
- - - - - - - - - - - - - - - - - - - -
 72
65
 73
2
 40
0.2
 49
0.1
 74
0
 49
-0.1
 74
0
  0
ENDTAB
  0
TABLE
  2
LAYER
  5
2
100
AcDbSymbolTable
 70
36
  0
LAYER
  5
10
100
AcDbSymbolTableRecord
100
AcDbLayerTableRecord
  2
0
 70
0
 62
7
  6
CONTINUOUS
370
-3
390
F
  0
LAYER
  5
1FA
100
AcDbSymbolTableRecord
100
AcDbLayerTableRecord
  2
DEFAULT_1
 70
0
 62
7
  6
CENTER
370
-3
390
F
  0
LAYER
  5
1FB
100
AcDbSymbolTableRecord
100
AcDbLayerTableRecord
  2
DEFAULT_2
 70
0
 62
7
  6
HIDDEN
370
-3
390
F
  0
LAYER
  5
1FC
100
AcDbSymbolTableRecord
100
AcDbLayerTableRecord
  2
DEFAULT_3
 70
0
 62
7
  6
PHANTOM
370
-3
390
F
  0
LAYER
  5
1FD
100
AcDbSymbolTableRecord
100
AcDbLayerTableRecord
  2
ASSI
 70
0
 62
7
  6
CONTINUOUS
370
-3
390
F
  0
LAYER
  5
1FE
100
AcDbSymbolTableRecord
100
AcDbLayerTableRecord
  2
COORDINATE
 70
0
 62
7
  6
CONTINUOUS
370
-3
390
F
  0
LAYER
  5
1FF
100
AcDbSymbolTableRecord
100
AcDbLayerTableRecord
  2
COPY_PUBLISH
 70
0
 62
7
  6
CONTINUOUS
370
-3
390
F
  0
LAYER
  5
200
100
AcDbSymbolTableRecord
100
AcDbLayerTableRecord
  2
COSMETIC
 70
0
 62
7
  6
CONTINUOUS
370
-3
390
F
  0
LAYER
  5
201
100
AcDbSymbolTableRecord
100
AcDbLayerTableRecord
  2
COSMETICI
 70
0
 62
7
  6
CONTINUOUS
370
-3
390
F
  0
LAYER
  5
202
100
AcDbSymbolTableRecord
100
AcDbLayerTableRecord
  2
CURVE
 70
0
 62
7
  6
CONTINUOUS
370
-3
390
F
  0
LAYER
  5
203
100
AcDbSymbolTableRecord
100
AcDbLayerTableRecord
  2
DRAFT
 70
0
 62
7
  6
CONTINUOUS
370
-3
390
F
  0
LAYER
  5
204
100
AcDbSymbolTableRecord
100
AcDbLayerTableRecord
  2
IGES
 70
0
 62
7
  6
CONTINUOUS
370
-3
390
F
  0
LAYER
  5
205
100
AcDbSymbolTableRecord
100
AcDbLayerTableRecord
  2
IMPORT_IGES
 70
0
 62
7
  6
CONTINUOUS
370
-3
390
F
  0
LAYER
  5
206
100
AcDbSymbolTableRecord
100
AcDbLayerTableRecord
  2
INTF_1
 70
0
 62
7
  6
CONTINUOUS
370
-3
390
F
  0
LAYER
  5
207
100
AcDbSymbolTableRecord
100
AcDbLayerTableRecord
  2
INTF_11
 70
0
 62
7
  6
CONTINUOUS
370
-3
390
F
  0
LAYER
  5
208
100
AcDbSymbolTableRecord
100
AcDbLayerTableRecord
  2
INTF_12
 70
0
 62
7
  6
CONTINUOUS
370
-3
390
F
  0
LAYER
  5
209
100
AcDbSymbolTableRecord
100
AcDbLayerTableRecord
  2
INTF_13
 70
0
 62
7
  6
CONTINUOUS
370
-3
390
F
  0
LAYER
  5
20A
100
AcDbSymbolTableRecord
100
AcDbLayerTableRecord
  2
INTF_2
 70
0
 62
7
  6
CONTINUOUS
370
-3
390
F
  0
LAYER
  5
20B
100
AcDbSymbolTableRecord
100
AcDbLayerTableRecord
  2
INTF_3
 70
0
 62
7
  6
CONTINUOUS
370
-3
390
F
  0
LAYER
  5
20C
100
AcDbSymbolTableRecord
100
AcDbLayerTableRecord
  2
INTF_GREEN
 70
0
 62
7
  6
CONTINUOUS
370
-3
390
F
  0
LAYER
  5
20D
100
AcDbSymbolTableRecord
100
AcDbLayerTableRecord
  2
INTF_RED
 70
0
 62
7
  6
CONTINUOUS
370
-3
390
F
  0
LAYER
  5
20E
100
AcDbSymbolTableRecord
100
AcDbLayerTableRecord
  2
INTF_YELLOW
 70
0
 62
7
  6
CONTINUOUS
370
-3
390
F
  0
LAYER
  5
20F
100
AcDbSymbolTableRecord
100
AcDbLayerTableRecord
  2
MIXEDCOLOR
 70
0
 62
7
  6
CONTINUOUS
370
-3
390
F
  0
LAYER
  5
210
100
AcDbSymbolTableRecord
100
AcDbLayerTableRecord
  2
NOTE
 70
0
 62
7
  6
CONTINUOUS
370
-3
390
F
  0
LAYER
  5
211
100
AcDbSymbolTableRecord
100
AcDbLayerTableRecord
  2
PIANI
 70
0
 62
7
  6
CONTINUOUS
370
-3
390
F
  0
LAYER
  5
212
100
AcDbSymbolTableRecord
100
AcDbLayerTableRecord
  2
PUNTI
 70
0
 62
7
  6
CONTINUOUS
370
-3
390
F
  0
LAYER
  5
213
100
AcDbSymbolTableRecord
100
AcDbLayerTableRecord
  2
RACCORDO
 70
0
 62
7
  6
CONTINUOUS
370
-3
390
F
  0
LAYER
  5
214
100
AcDbSymbolTableRecord
100
AcDbLayerTableRecord
  2
SIMBOLI
 70
0
 62
7
  6
CONTINUOUS
370
-3
390
F
  0
LAYER
  5
215
100
AcDbSymbolTableRecord
100
AcDbLayerTableRecord
  2
SKEL
 70
0
 62
7
  6
CONTINUOUS
370
-3
390
F
  0
LAYER
  5
216
100
AcDbSymbolTableRecord
100
AcDbLayerTableRecord
  2
SMUSSO
 70
0
 62
7
  6
CONTINUOUS
370
-3
390
F
  0
LAYER
  5
217
100
AcDbSymbolTableRecord
100
AcDbLayerTableRecord
  2
SUPERFICI
 70
0
 62
7
  6
CONTINUOUS
370
-3
390
F
  0
LAYER
  5
218
100
AcDbSymbolTableRecord
100
AcDbLayerTableRecord
  2
TRASH
 70
0
 62
7
  6
CONTINUOUS
370
-3
390
F
  0
LAYER
  5
219
100
AcDbSymbolTableRecord
100
AcDbLayerTableRecord
  2
XSEC_DATUMS
 70
0
 62
7
  6
CONTINUOUS
370
-3
390
F
  0
ENDTAB
  0
TABLE
  2
STYLE
  5
3
100
AcDbSymbolTable
 70
1
  0
STYLE
  5
11
100
AcDbSymbolTableRecord
100
AcDbTextStyleTableRecord
  2
STANDARD
 70
0
 40
0.0
 41
0.8
 50
0.0
 71
0
 42
0.2
  3
txt
  4

  0
STYLE
  5
21A
100
AcDbSymbolTableRecord
100
AcDbTextStyleTableRecord
  2
TEXTSTYLE_1
 70
0
 40
0.0
 41
0.8
 50
0.0
 71
0
 42
0.2
  3
gdt
  4

  0
ENDTAB
  0
TABLE
  2
VIEW
  5
6
100
AcDbSymbolTable
 70
0
  0
ENDTAB
  0
TABLE
  2
UCS
  5
7
100
AcDbSymbolTable
 70
0
  0
ENDTAB
  0
TABLE
  2
APPID
  5
9
100
AcDbSymbolTable
 70
1
  0
APPID
  5
21B
100
AcDbSymbolTableRecord
100
AcDbRegAppTableRecord
  2
ACAD
 70
0
  0
ENDTAB
  0
TABLE
  2
BLOCK_RECORD
  5
1
100
AcDbSymbolTable
 70
0
  0
BLOCK_RECORD
  5
21C
100
AcDbSymbolTableRecord
100
AcDbBlockTableRecord
  2
*Model_Space
  0
BLOCK_RECORD
  5
21D
100
AcDbSymbolTableRecord
100
AcDbBlockTableRecord
  2
*Paper_Space
  0
BLOCK_RECORD
  5
21E
100
AcDbSymbolTableRecord
100
AcDbBlockTableRecord
  2
_FILLED
  0
BLOCK_RECORD
  5
21F
100
AcDbSymbolTableRecord
100
AcDbBlockTableRecord
  2
*D0
  0
BLOCK_RECORD
  5
220
100
AcDbSymbolTableRecord
100
AcDbBlockTableRecord
  2
*D1
  0
BLOCK_RECORD
  5
221
100
AcDbSymbolTableRecord
100
AcDbBlockTableRecord
  2
*D2
  0
ENDTAB
  0
TABLE
  2
DIMSTYLE
  5
A
100
AcDbSymbolTable
 70
1
100
AcDbDimStyleTable
 71
0
  0
DIMSTYLE
105
222
100
AcDbSymbolTableRecord
100
AcDbDimStyleTableRecord
  2
STANDARD
 70
0
  3

  4

 40
1.0
 41
3.0
 42
0.5
 43
0.38
 44
1.5
 45
0.0
 46
0.0
 47
0.01
 48
0.01
140
3.0
141
0.09
142
0.0
143
25.4
144
1.0
145
0.0
146
1.0
147
0.625
 71
1
 72
0
 73
0
 74
0
 75
0
 76
0
 77
1
 78
8
 79
2
170
0
171
1
172
0
173
0
174
0
175
0
176
0
177
0
178
0
270
2
179
2
271
2
272
2
273
2
274
2
275
0
280
0
281
0
282
0
283
1
284
8
285
0
286
0
287
3
288
0
340
11
278
44
341
21E
342
21E
343
21E
344
21E
  0
DIMSTYLE
105
223
100
AcDbSymbolTableRecord
100
AcDbDimStyleTableRecord
  2
DIMSTYLE_1
 70
0
  3

  4

 40
1.0
 41
3.0
 42
0.5
 43
0.38
 44
1.5
 45
0.0
 46
0.0
 47
0.0
 48
0.0
140
3.0
141
0.09
142
0.0
143
25.4
144
1.0
145
0.0
146
1.0
147
0.75
 71
0
 72
0
 73
0
 74
0
 75
0
 76
0
 77
1
 78
8
 79
2
170
0
171
1
172
0
173
0
174
0
175
0
176
0
177
0
178
0
270
2
179
2
271
1
272
1
273
2
274
2
275
0
280
0
281
0
282
0
283
1
284
8
285
0
286
0
287
3
288
0
340
11
278
44
341
21E
342
21E
343
21E
344
21E
  0
ENDTAB
  0
ENDSEC
  0
SECTION
  2
BLOCKS
  0
BLOCK
  5
20
100
AcDbEntity
  8
0
100
AcDbBlockBegin
  2
*Model_Space
 70
0
 10
0.0
 20
0.0
 30
0.0
  3
*Model_Space
  1

  0
ENDBLK
  5
21
100
AcDbEntity
  8
0
100
AcDbBlockEnd
  0
BLOCK
  5
1C
100
AcDbEntity
  8
0
100
AcDbBlockBegin
  2
*Paper_Space
 70
0
 10
0.0
 20
0.0
 30
0.0
  3
*Paper_Space
  1

  0
ENDBLK
  5
1D
100
AcDbEntity
  8
0
100
AcDbBlockEnd
  0
BLOCK
  5
224
100
AcDbEntity
  8
0
100
AcDbBlockBegin
  2
_FILLED
 70
64
 10
0.0
 20
0.0
  3
_FILLED
  1

  0
SOLID
  5
225
100
AcDbEntity
  8
0
  6
BYBLOCK
 62
0
100
AcDbTrace
 10
0.0
 20
0.0
 11
-1.0
 21
0.3166666667
 12
-1.0
 22
-0.3166666667
 13
-1.0
 23
-0.3166666667
  0
ENDBLK
  5
226
100
AcDbEntity
  8
0
  6
BYBLOCK
 62
0
100
AcDbBlockEnd
  0
BLOCK
  5
227
100
AcDbEntity
  8
0
100
AcDbBlockBegin
 62
7
  6
CONTINUOUS
  2
*D0
 70
65
 10
0.0
 20
0.0
  3
*D0
  1

  0
LINE
  5
228
100
AcDbEntity
  8
0
100
AcDbLine
 62
7
  6
CONTINUOUS
 10
-9.9190942643
 20
39.0182742439
 11
-9.9190942643
 21
57.8442004728
  0
LINE
  5
229
100
AcDbEntity
  8
0
100
AcDbLine
 62
7
  6
CONTINUOUS
 10
9.9190944722
 20
39.0182490392
 11
9.9190944722
 21
57.8442004728
  0
LINE
  5
22A
100
AcDbEntity
  8
0
100
AcDbLine
 62
7
  6
CONTINUOUS
 10
-9.9190942643
 20
56.3442004728
 11
0.000000104
 21
56.3442004728
  0
LINE
  5
22B
100
AcDbEntity
  8
0
100
AcDbLine
 62
7
  6
CONTINUOUS
 10
9.9190944722
 20
56.3442004728
 11
0.000000104
 21
56.3442004728
  0
INSERT
  5
22C
100
AcDbEntity
  8
0
100
AcDbBlockReference
 62
7
  6
CONTINUOUS
  2
_FILLED
 10
-9.9190942643
 20
56.3442004728
 41
3.0
 42
3.0
 43
3.0
 50
180.0
  0
INSERT
  5
22D
100
AcDbEntity
  8
0
100
AcDbBlockReference
 62
7
  6
CONTINUOUS
  2
_FILLED
 10
9.9190944722
 20
56.3442004728
 41
3.0
 42
3.0
 43
3.0
  0
ENDBLK
  5
22E
100
AcDbEntity
  8
0
  6
BYBLOCK
 62
0
100
AcDbBlockEnd
  0
BLOCK
  5
22F
100
AcDbEntity
  8
0
100
AcDbBlockBegin
 62
7
  6
CONTINUOUS
  2
*D1
 70
65
 10
0.0
 20
0.0
  3
*D1
  1

  0
LINE
  5
230
100
AcDbEntity
  8
0
100
AcDbLine
 62
7
  6
CONTINUOUS
 10
0.499111545
 20
48.0537183407
 11
20.0798501453
 21
48.0537183407
  0
LINE
  5
231
100
AcDbEntity
  8
0
100
AcDbLine
 62
7
  6
CONTINUOUS
 10
0.4999973058
 20
-14.9992431035
 11
20.0798501453
 21
-14.9992431035
  0
LINE
  5
232
100
AcDbEntity
  8
0
100
AcDbLine
 62
7
  6
CONTINUOUS
 10
18.5798501453
 20
48.0537183407
 11
18.5798501453
 21
16.5272376186
  0
LINE
  5
233
100
AcDbEntity
  8
0
100
AcDbLine
 62
7
  6
CONTINUOUS
 10
18.5798501453
 20
-14.9992431035
 11
18.5798501453
 21
16.5272376186
  0
INSERT
  5
234
100
AcDbEntity
  8
0
100
AcDbBlockReference
 62
7
  6
CONTINUOUS
  2
_FILLED
 10
18.5798501453
 20
48.0537183407
 41
3.0
 42
3.0
 43
3.0
 50
90.0
  0
INSERT
  5
235
100
AcDbEntity
  8
0
100
AcDbBlockReference
 62
7
  6
CONTINUOUS
  2
_FILLED
 10
18.5798501453
 20
-14.9992431035
 41
3.0
 42
3.0
 43
3.0
 50
270.0
  0
ENDBLK
  5
236
100
AcDbEntity
  8
0
  6
BYBLOCK
 62
0
100
AcDbBlockEnd
  0
BLOCK
  5
237
100
AcDbEntity
  8
0
100
AcDbBlockBegin
 62
7
  6
CONTINUOUS
  2
*D2
 70
65
 10
0.0
 20
0.0
  3
*D2
  1

  0
LINE
  5
238
100
AcDbEntity
  8
0
100
AcDbLine
 62
7
  6
CONTINUOUS
 10
-26.6779708666
 20
29.6707651073
 11
-26.6779708666
 21
58.2797620033
  0
LINE
  5
239
100
AcDbEntity
  8
0
100
AcDbLine
 62
7
  6
CONTINUOUS
 10
-40.4043660005
 20
47.7119179132
 11
-40.4043660005
 21
58.2797620033
  0
LINE
  5
23A
100
AcDbEntity
  8
0
100
AcDbLine
 62
7
  6
CONTINUOUS
 10
-26.6779708666
 20
56.7797620033
 11
-33.5411684335
 21
56.7797620033
  0
LINE
  5
23B
100
AcDbEntity
  8
0
100
AcDbLine
 62
7
  6
CONTINUOUS
 10
-40.4043660005
 20
56.7797620033
 11
-33.5411684335
 21
56.7797620033
  0
INSERT
  5
23C
100
AcDbEntity
  8
0
100
AcDbBlockReference
 62
7
  6
CONTINUOUS
  2
_FILLED
 10
-26.6779708666
 20
56.7797620033
 41
3.0
 42
3.0
 43
3.0
  0
INSERT
  5
23D
100
AcDbEntity
  8
0
100
AcDbBlockReference
 62
7
  6
CONTINUOUS
  2
_FILLED
 10
-40.4043660005
 20
56.7797620033
 41
3.0
 42
3.0
 43
3.0
 50
180.0
  0
ENDBLK
  5
23E
100
AcDbEntity
  8
0
  6
BYBLOCK
 62
0
100
AcDbBlockEnd
  0
ENDSEC
  0
SECTION
  2
ENTITIES
  0
DIMENSION
  5
23F
100
AcDbEntity
  8
0
100
AcDbDimension
 62
7
  6
CONTINUOUS
  2
*D0
 10
9.9190944722
 20
56.3442004728
 11
-4.0714284674
 21
56.3442004728
 70
160
 71
2
 72
2
 41
0.9
 42
19.8381887365
  3
DIMSTYLE_1
100
AcDbAlignedDimension
 13
-9.9190942643
 23
38.5182742439
 14
9.9190944722
 24
38.5182490392
100
AcDbRotatedDimension
  0
DIMENSION
  5
240
100
AcDbEntity
  8
0
100
AcDbDimension
 62
7
  6
CONTINUOUS
  2
*D1
 10
18.5798501453
 20
-14.9992431035
 11
18.5798501453
 21
12.5629519043
 70
160
 71
2
 72
2
 41
0.9
 42
63.0529614442
  3
DIMSTYLE_1
100
AcDbAlignedDimension
 13
-0.000888455
 23
48.0537183407
 14
-0.0000026942
 24
-14.9992431035
 50
270.0
100
AcDbRotatedDimension
  0
DIMENSION
  5
241
100
AcDbEntity
  8
0
100
AcDbDimension
 62
7
  6
CONTINUOUS
  2
*D2
 10
-40.4043660005
 20
56.7797620033
 11
-37.5054541478
 21
56.7797620033
 70
160
 71
2
 72
2
 41
0.9
 42
13.7263951339
  3
DIMSTYLE_1
100
AcDbAlignedDimension
 13
-26.6779708666
 23
29.1707651073
 14
-40.4043660005
 24
47.2119179132
 50
180.0
100
AcDbRotatedDimension
  0
LWPOLYLINE
  5
242
100
AcDbEntity
  8
0
100
AcDbPolyline
 62
7
  6
CONTINUOUS
 90
3
 70
0
 43
0.3500000006
 10
-4.0714284382
 20
59.2370566406
 10
-3.2142856836
 20
60.0942036438
 10
-3.2142856836
 20
57.0942027283
  0
LWPOLYLINE
  5
243
100
AcDbEntity
  8
0
100
AcDbPolyline
 62
7
  6
CONTINUOUS
 90
10
 70
0
 43
0.3500000006
 10
-1.9285712686
 20
57.0942027283
 10
-1.0714284432
 20
57.9513406677
 10
-0.8571427546
 20
58.8084876709
 10
-0.8571427546
 20
59.6656256104
 10
-1.2857141318
 20
60.0942036438
 10
-1.9285712686
 20
60.0942036438
 10
-2.3571427875
 20
59.6656256104
 10
-2.3571427875
 20
58.8084876709
 10
-1.9285712686
 20
58.3799187012
 10
-0.9999998803
 20
58.3799187012
  0
LINE
  5
244
100
AcDbEntity
  8
SUPERFICI
100
AcDbLine
 62
7
  6
CONTINUOUS
 10
-1.551886116
 20
23.710246123
 11
-1.29702134
 21
23.8076090436
  0
LWPOLYLINE
  5
245
100
AcDbEntity
  8
SUPERFICI
100
AcDbPolyline
 62
7
  6
CONTINUOUS
 90
6
 70
0
 10
-1.29702134
 20
23.8076090436
 10
-1.0400727408
 20
23.8863146852
 10
-0.7814751028
 20
23.9463005592
 10
-0.5216543108
 20
23.9875259415
 10
-0.2610269605
 20
24.0099717156
 10
-0.0
 20
24.0136401863
  0
LWPOLYLINE
  5
246
100
AcDbEntity
  8
RACCORDO
100
AcDbPolyline
 62
250
  6
CONTINUOUS
 90
4
 70
0
 10
-9.6477447743
 20
40.0201450591
 10
-9.7302099143
 20
39.6763608826
 10
-9.7949973022
 20
39.3434089451
 10
-9.8429680374
 20
39.0189832394
  0
LWPOLYLINE
  5
247
100
AcDbEntity
  8
SUPERFICI
100
AcDbPolyline
 62
7
  6
CONTINUOUS
 90
7
 70
0
 10
-2.8476088094
 20
22.87427904
 10
-2.6463280627
 20
23.0508505913
 10
-2.4389211813
 20
23.2129767496
 10
-2.2255726463
 20
23.3603175878
 10
-2.0064779196
 20
23.4925341118
 10
-1.7818433585
 20
23.6092887929
 10
-1.551886116
 20
23.710246123
  0
LINE
  5
248
100
AcDbEntity
  8
0
100
AcDbLine
 62
7
  6
CONTINUOUS
 10
-2.4817153083
 20
21.905048821
 11
-2.0301540674
 21
22.294923404
  0
LWPOLYLINE
  5
249
100
AcDbEntity
  8
0
100
AcDbPolyline
 62
7
  6
CONTINUOUS
 90
5
 70
0
 10
-2.0301540674
 20
22.294923404
 10
-1.5504804543
 20
22.6005530859
 10
-1.0511714763
 20
22.8155493744
 10
-0.5326500258
 20
22.9463007618
 10
-0.0
 20
22.9928072481
  0
LWPOLYLINE
  5
24A
100
AcDbEntity
  8
SUPERFICI
100
AcDbPolyline
 62
7
  6
CONTINUOUS
 90
5
 70
0
 10
-0.8365684818
 20
23.101851121
 10
-1.2343796838
 20
22.967931861
 10
-1.6222896554
 20
22.7783098159
 10
-1.9965509278
 20
22.536332527
 10
-2.3459210951
 20
22.2528877251
  0
LINE
  5
24B
100
AcDbEntity
  8
RACCORDO
100
AcDbLine
 62
250
  6
CONTINUOUS
 10
-9.8429680374
 20
39.0189832394
 11
-9.8749294477
 21
38.7030837657
  0
LWPOLYLINE
  5
24C
100
AcDbEntity
  8
0
100
AcDbPolyline
 62
7
  6
CONTINUOUS
 90
3
 70
0
 43
0.3500000006
 10
0.7142858412
 20
57.379918396
 10
0.6428572783
 20
57.1656248474
 10
0.5000001172
 20
56.8799182434
  0
LWPOLYLINE
  5
24D
100
AcDbEntity
  8
0
100
AcDbPolyline
 62
7
  6
CONTINUOUS
 90
3
 70
0
 10
-3.2519684569
 20
20.9294039581
 10
-2.8895945601
 20
21.4500948136
 10
-2.4817153083
 20
21.905048821
  0
LWPOLYLINE
  5
24E
100
AcDbEntity
  8
SUPERFICI
100
AcDbPolyline
 62
7
  6
CONTINUOUS
 90
5
 70
0
 10
-2.3459210951
 20
22.2528877251
 10
-2.6672901151
 20
21.9275615979
 10
-2.9637680299
 20
21.5598603164
 10
-3.2334425596
 20
21.1607585686
 10
-3.4749147221
 20
20.7316750921
  0
LINE
  5
24F
100
AcDbEntity
  8
0
100
AcDbLine
 62
7
  6
CONTINUOUS
 10
0.2576658636
 20
17.4496693221
 11
1.44280771
 21
18.0639865104
  0
LINE
  5
250
100
AcDbEntity
  8
0
100
AcDbLine
 62
7
  6
CONTINUOUS
 10
0.327071425
 20
16.8356003054
 11
1.442814675
 21
17.4139480354
  0
LINE
  5
251
100
AcDbEntity
  8
0
100
AcDbLine
 62
7
  6
CONTINUOUS
 10
-1.442814675
 20
14.4434770254
 11
1.442822635
 21
15.3699603304
  0
LINE
  5
252
100
AcDbEntity
  8
0
100
AcDbLine
 62
7
  6
CONTINUOUS
 10
0.875338315
 20
14.6106410054
 11
1.442814675
 21
14.7928314754
  0
LINE
  5
253
100
AcDbEntity
  8
0
100
AcDbLine
 62
7
  6
CONTINUOUS
 10
-0.54408988
 20
14.1548981704
 11
0.327071425
 21
14.4345966504
  0
LWPOLYLINE
  5
254
100
AcDbEntity
  8
SUPERFICI
100
AcDbPolyline
 62
7
  6
CONTINUOUS
 90
7
 70
0
 10
-1.4588102438
 20
-14.781620052
 10
-0.8679978903
 20
-14.9231741958
 10
-0.2633841758
 20
-14.9922665126
 10
0.3461128999
 20
-14.9871950153
 10
0.9495022387
 20
-14.9081066473
 10
1.5378878273
 20
-14.756798597
 10
1.7485220846
 20
-14.6835218215
  0
LINE
  5
255
100
AcDbEntity
  8
SUPERFICI
100
AcDbLine
 62
7
  6
CONTINUOUS
 10
-1.7485216523
 20
-14.6835226983
 11
-1.4588102438
 21
-14.781620052
  0
LWPOLYLINE
  5
256
100
AcDbEntity
  8
SUPERFICI
100
AcDbPolyline
 62
7
  6
CONTINUOUS
 90
10
 70
0
 10
-1.7485199016
 20
-14.6835249132
 10
-1.8026831757
 20
-14.6595742043
 10
-1.8534306149
 20
-14.629511708
 10
-1.9003009598
 20
-14.5936490953
 10
-1.9426884377
 20
-14.5524758364
 10
-1.9799275575
 20
-14.5065686679
 10
-2.0114766472
 20
-14.456592853
 10
-2.0369060316
 20
-14.4033173483
 10
-2.0558587056
 20
-14.347435451
 10
-2.0681218084
 20
-14.289462567
  0
LWPOLYLINE
  5
257
100
AcDbEntity
  8
RACCORDO
100
AcDbPolyline
 62
250
  6
CONTINUOUS
 90
8
 70
0
 10
-9.8944995586
 20
38.2534447547
 10
-9.8944889415
 20
38.1508904444
 10
-9.8928995458
 20
38.0517452135
 10
-9.8898712877
 20
37.9560070591
 10
-9.8855348011
 20
37.8636779841
 10
-9.8800113158
 20
37.7742793636
 10
-9.8734119978
 20
37.6877942086
 10
-9.8658583087
 20
37.6042395081
  0
LWPOLYLINE
  5
258
100
AcDbEntity
  8
RACCORDO
100
AcDbPolyline
 62
7
  6
CONTINUOUS
 90
6
 70
0
 10
-9.9123192849
 20
38.8502937603
 10
-9.9187980278
 20
38.5877753768
 10
-9.9139517585
 20
38.227931956
 10
-9.8937299185
 20
37.8733098379
 10
-9.858907771
 20
37.5250114671
 10
-9.8280875591
 20
37.2977154896
  0
LINE
  5
259
100
AcDbEntity
  8
RACCORDO
100
AcDbLine
 62
7
  6
CONTINUOUS
 10
-9.9123517093
 20
38.8494789725
 11
-9.9123192849
 21
38.8502937603
  0
LWPOLYLINE
  5
25A
100
AcDbEntity
  8
RACCORDO
100
AcDbPolyline
 62
250
  6
CONTINUOUS
 90
5
 70
0
 10
-9.8749294477
 20
38.7030837657
 10
-9.8831273297
 20
38.5847930565
 10
-9.8890030177
 20
38.4703960608
 10
-9.8927375945
 20
38.3598927786
 10
-9.8944995586
 20
38.2534447547
  0
LWPOLYLINE
  5
25B
100
AcDbEntity
  8
SUPERFICI
100
AcDbPolyline
 62
7
  6
CONTINUOUS
 90
7
 70
0
 10
-4.2423477243
 20
20.8154501467
 10
-4.0562336996
 20
21.2188941709
 10
-3.85193483
 20
21.6000232963
 10
-3.629132068
 20
21.9575489018
 10
-3.3875767677
 20
22.2900930569
 10
-3.1270978312
 20
22.59618849
 10
-2.8476088094
 20
22.87427904
  0
LWPOLYLINE
  5
25C
100
AcDbEntity
  8
SUPERFICI
100
AcDbPolyline
 62
7
  6
CONTINUOUS
 90
7
 70
0
 10
-3.4749147221
 20
20.7316750921
 10
-3.6895834995
 20
20.2705051323
 10
-3.879733559
 20
19.7831886656
 10
-4.0453131877
 20
19.2706722424
 10
-4.1863740985
 20
18.731576357
 10
-4.3053560967
 20
18.1685155269
 10
-4.4024773703
 20
17.5822438033
  0
LINE
  5
25D
100
AcDbEntity
  8
0
100
AcDbLine
 62
7
  6
CONTINUOUS
 10
-1.44280771
 20
10.6049391604
 11
0.436417945
 21
11.1437993204
  0
LINE
  5
25E
100
AcDbEntity
  8
0
100
AcDbLine
 62
7
  6
CONTINUOUS
 10
-0.460057155
 20
10.3096082354
 11
1.442822635
 21
10.8552423554
  0
LWPOLYLINE
  5
25F
100
AcDbEntity
  8
SUPERFICI
100
AcDbPolyline
 62
250
  6
CONTINUOUS
 90
8
 70
0
 10
-0.000000065
 20
-12.8345990937
 10
-0.1841099091
 20
-12.8720062959
 10
-0.3531077625
 20
-12.9297207121
 10
-0.5068916268
 20
-13.0073921231
 10
-0.6429976779
 20
-13.1083603905
 10
-0.7639086377
 20
-13.2269838868
 10
-0.876960912
 20
-13.3495470446
 10
-0.9840635384
 20
-13.4716218746
  0
LINE
  5
260
100
AcDbEntity
  8
RACCORDO
100
AcDbLine
 62
250
  6
CONTINUOUS
 10
-2.4402937881
 20
-9.239209463
 11
-2.4203682676
 21
-9.2365860431
  0
LWPOLYLINE
  5
261
100
AcDbEntity
  8
SUPERFICI
100
AcDbPolyline
 62
250
  6
CONTINUOUS
 90
4
 70
0
 10
-0.0
 20
-12.5772148139
 10
0.2363573128
 20
-12.5989826104
 10
0.4610444455
 20
-12.645037905
 10
0.6685606782
 20
-12.7153806977
  0
LINE
  5
262
100
AcDbEntity
  8
SUPERFICI
100
AcDbLine
 62
250
  6
CONTINUOUS
 10
2.3318565074
 20
-9.0473500043
 11
2.2988743909
 21
-9.0431993841
  0
LINE
  5
263
100
AcDbEntity
  8
RACCORDO
100
AcDbLine
 62
250
  6
CONTINUOUS
 10
2.4403410399
 20
-9.2392185444
 11
2.4203923656
 21
-9.2365892189
  0
LWPOLYLINE
  5
264
100
AcDbEntity
  8
SUPERFICI
100
AcDbPolyline
 62
250
  6
CONTINUOUS
 90
4
 70
0
 10
0.5067559186
 20
-13.0072959261
 10
0.3529948871
 20
-12.929642101
 10
0.1840421573
 20
-12.8719593042
 10
-0.000000065
 20
-12.8345990937
  0
LWPOLYLINE
  5
265
100
AcDbEntity
  8
SUPERFICI
100
AcDbPolyline
 62
250
  6
CONTINUOUS
 90
3
 70
0
 10
0.6685606782
 20
-12.7153806977
 10
0.858444891
 20
-12.8157888298
 10
1.0306467606
 20
-12.94048446
  0
LWPOLYLINE
  5
266
100
AcDbEntity
  8
SUPERFICI
100
AcDbPolyline
 62
250
  6
CONTINUOUS
 90
11
 70
0
 10
1.0306467606
 20
-12.94048446
 10
1.1871712566
 20
-13.0721340644
 10
1.3278890915
 20
-13.2085203411
 10
1.4535967039
 20
-13.3518605919
 10
1.5699189763
 20
-13.4914731993
 10
1.6751230736
 20
-13.6260021255
 10
1.7669442335
 20
-13.7568034082
 10
1.8476373813
 20
-13.8772635424
 10
1.915047435
 20
-13.9881472787
 10
1.9695524894
 20
-14.0886898666
 10
2.0448770706
 20
-14.2290590748
  0
LWPOLYLINE
  5
267
100
AcDbEntity
  8
RACCORDO
100
AcDbPolyline
 62
250
  6
CONTINUOUS
 90
5
 70
0
 10
-9.858907771
 20
37.5250114671
 10
-9.8574274928
 20
37.5231876036
 10
-9.8481863381
 20
37.4444959425
 10
-9.8382246323
 20
37.3683070775
 10
-9.8280921997
 20
37.2977493562
  0
LWPOLYLINE
  5
268
100
AcDbEntity
  8
SUPERFICI
100
AcDbPolyline
 62
7
  6
CONTINUOUS
 90
4
 70
0
 10
-4.5765377097
 20
14.2903857471
 10
-4.5525622359
 20
13.559732248
 10
-4.5092208105
 20
12.8052083255
 10
-4.4465134335
 20
12.0270856991
  0
LWPOLYLINE
  5
269
100
AcDbEntity
  8
0
100
AcDbPolyline
 62
7
  6
CONTINUOUS
 90
10
 70
0
 10
-4.6226405299
 20
14.6088898245
 10
-4.6101191528
 20
15.3316028195
 10
-4.5715038643
 20
16.0763280824
 10
-4.5046619229
 20
16.8359131758
 10
-4.4021202025
 20
17.5822735421
 10
-4.2588167764
 20
18.3162866455
 10
-4.0736276097
 20
19.0370750219
 10
-3.8453539916
 20
19.7139217218
 10
-3.5717073246
 20
20.3436336782
 10
-3.2519684569
 20
20.9294039581
  0
LWPOLYLINE
  5
26A
100
AcDbEntity
  8
SUPERFICI
100
AcDbPolyline
 62
7
  6
CONTINUOUS
 90
6
 70
0
 10
-4.4024773703
 20
17.5822438033
 10
-4.4775197314
 20
16.9718120245
 10
-4.5322684217
 20
16.3373714972
 10
-4.5670092821
 20
15.6790967176
 10
-4.5814564717
 20
14.996850776
 10
-4.5765377097
 20
14.2903857471
  0
LWPOLYLINE
  5
26B
100
AcDbEntity
  8
RACCORDO
100
AcDbPolyline
 62
250
  6
CONTINUOUS
 90
3
 70
0
 10
9.8750628756
 20
38.7017459881
 10
9.9050740782
 20
38.7775056183
 10
9.912394867
 20
38.8490526871
  0
LWPOLYLINE
  5
26C
100
AcDbEntity
  8
0
100
AcDbPolyline
 62
7
  6
CONTINUOUS
 90
10
 70
0
 43
0.3500000006
 10
17.3298498459
 20
17.7058081284
 10
17.4727076797
 20
17.7772370453
 10
17.5441354637
 20
17.7772370453
 10
17.6869932976
 20
17.6343814774
 10
17.6869932976
 20
17.5629525604
 10
17.6155643806
 20
17.4915236435
 10
17.5441354637
 20
17.4915236435
 10
17.4012787628
 20
17.5629525604
 10
17.3298498459
 20
17.6343814774
 10
17.3298498459
 20
17.7058081284
  0
LINE
  5
26D
100
AcDbEntity
  8
0
100
AcDbLine
 62
7
  6
CONTINUOUS
 10
-1.44280771
 20
6.3405452754
 11
0.544104805
 21
6.9784716154
  0
LINE
  5
26E
100
AcDbEntity
  8
0
100
AcDbLine
 62
7
  6
CONTINUOUS
 10
-1.44280771
 20
5.7634164204
 11
1.4428296
 21
6.6898927604
  0
LINE
  5
26F
100
AcDbEntity
  8
RACCORDO
100
AcDbLine
 62
250
  6
CONTINUOUS
 10
-2.8191593881
 20
-6.4024114874
 11
-2.7955396471
 21
-6.3992230291
  0
LINE
  5
270
100
AcDbEntity
  8
SUPERFICI
100
AcDbLine
 62
250
  6
CONTINUOUS
 10
-2.6886583714
 20
-6.2481945291
 11
-2.6524154818
 21
-6.2434863602
  0
LINE
  5
271
100
AcDbEntity
  8
SUPERFICI
100
AcDbLine
 62
250
  6
CONTINUOUS
 10
2.6881267746
 20
-6.248090446
 11
2.65313367
 21
-6.243541336
  0
LINE
  5
272
100
AcDbEntity
  8
RACCORDO
100
AcDbLine
 62
250
  6
CONTINUOUS
 10
2.8190879649
 20
-6.4024091047
 11
2.7954985136
 21
-6.3992174656
  0
LINE
  5
273
100
AcDbEntity
  8
RACCORDO
100
AcDbLine
 62
250
  6
CONTINUOUS
 10
-3.5616741025
 20
-4.3573979791
 11
-3.5622341933
 21
-4.3568108219
  0
LWPOLYLINE
  5
274
100
AcDbEntity
  8
SUPERFICI
100
AcDbPolyline
 62
250
  6
CONTINUOUS
 90
4
 70
0
 10
0.8768871635
 20
-13.3494637617
 10
0.7638073652
 20
-13.2268890492
 10
0.6428684044
 20
-13.1082598933
 10
0.5067559186
 20
-13.0072959261
  0
LWPOLYLINE
  5
275
100
AcDbEntity
  8
SUPERFICI
100
AcDbPolyline
 62
250
  6
CONTINUOUS
 90
4
 70
0
 10
1.1764253463
 20
-13.7189134805
 10
1.0833201034
 20
-13.5955994037
 10
0.9840107389
 20
-13.4715575672
 10
0.8768871635
 20
-13.3494637617
  0
LWPOLYLINE
  5
276
100
AcDbEntity
  8
RACCORDO
100
AcDbPolyline
 62
250
  6
CONTINUOUS
 90
4
 70
0
 10
-3.546003256
 20
-4.3802181454
 10
-3.5566188553
 20
-4.3648183743
 10
-3.5598204972
 20
-4.3600671632
 10
-3.5616741025
 20
-4.3573979791
  0
LINE
  5
277
100
AcDbEntity
  8
RACCORDO
100
AcDbLine
 62
250
  6
CONTINUOUS
 10
-3.5384028924
 20
-4.3915641692
 11
-3.546003256
 21
-4.3802181454
  0
LINE
  5
278
100
AcDbEntity
  8
RACCORDO
100
AcDbLine
 62
7
  6
CONTINUOUS
 10
-3.5156237425
 20
-4.4779340107
 11
-3.515672578
 21
-4.477860312
  0
LWPOLYLINE
  5
279
100
AcDbEntity
  8
SUPERFICI
100
AcDbPolyline
 62
250
  6
CONTINUOUS
 90
5
 70
0
 10
1.4878075152
 20
-14.1803334883
 10
1.4204703373
 20
-14.0714247934
 10
1.3459489292
 20
-13.9574548051
 10
1.2642515732
 20
-13.8397064447
 10
1.1764253463
 20
-13.7189134805
  0
LINE
  5
27A
100
AcDbEntity
  8
RACCORDO
100
AcDbLine
 62
7
  6
CONTINUOUS
 10
-3.515672578
 20
-4.477860312
 11
-3.5259450928
 21
-4.4611963434
  0
LWPOLYLINE
  5
27B
100
AcDbEntity
  8
RACCORDO
100
AcDbPolyline
 62
7
  6
CONTINUOUS
 90
5
 70
0
 10
-3.5259450955
 20
-4.4611963437
 10
-3.5072620499
 20
-4.4926386611
 10
-3.4520312428
 20
-4.5891101532
 10
-3.3708834301
 20
-4.7396864508
 10
-3.2753302728
 20
-4.9311502771
  0
LWPOLYLINE
  5
27C
100
AcDbEntity
  8
RACCORDO
100
AcDbPolyline
 62
250
  6
CONTINUOUS
 90
8
 70
0
 10
-3.4157445748
 20
-4.5918076541
 10
-3.4374595629
 20
-4.5543468481
 10
-3.457313504
 20
-4.5206713496
 10
-3.4753040045
 20
-4.4907788963
 10
-3.4914471785
 20
-4.4646717505
 10
-3.5058048193
 20
-4.4417560874
 10
-3.5183807958
 20
-4.4220294179
 10
-3.5384028924
 20
-4.3915641692
  0
LWPOLYLINE
  5
27D
100
AcDbEntity
  8
RACCORDO
100
AcDbPolyline
 62
250
  6
CONTINUOUS
 90
3
 70
0
 10
-3.3667449347
 20
-4.6798269127
 10
-3.3921687274
 20
-4.6336543799
 10
-3.4157445748
 20
-4.5918076541
  0
LINE
  5
27E
100
AcDbEntity
  8
RACCORDO
100
AcDbLine
 62
7
  6
CONTINUOUS
 10
-3.4197175547
 20
-4.6366449606
 11
-3.3207849774
 21
-4.8214129707
  0
LINE
  5
27F
100
AcDbEntity
  8
RACCORDO
100
AcDbLine
 62
7
  6
CONTINUOUS
 10
-3.3207849774
 20
-4.8214129707
 11
-3.2068311138
 21
-5.0604660728
  0
LINE
  5
280
100
AcDbEntity
  8
0
100
AcDbLine
 62
7
  6
CONTINUOUS
 10
-2.893182949
 20
-4.4977184257
 11
-3.0410429412
 21
-4.1861759677
  0
LWPOLYLINE
  5
281
100
AcDbEntity
  8
SUPERFICI
100
AcDbPolyline
 62
250
  6
CONTINUOUS
 90
3
 70
0
 10
2.0448770706
 20
-14.2290590748
 10
2.0633324575
 20
-14.2688856951
 10
2.068121684
 20
-14.2894634102
  0
LWPOLYLINE
  5
282
100
AcDbEntity
  8
SUPERFICI
100
AcDbPolyline
 62
250
  6
CONTINUOUS
 90
9
 70
0
 10
1.7485203118
 20
-14.6835240192
 10
1.7438482785
 20
-14.6733337121
 10
1.7312196788
 20
-14.6439093971
 10
1.7106151339
 20
-14.5975716683
 10
1.6818680707
 20
-14.5364605774
 10
1.6450646134
 20
-14.4624538511
 10
1.6005479942
 20
-14.377244706
 10
1.5481004042
 20
-14.2826740913
 10
1.4878075152
 20
-14.1803334883
  0
LINE
  5
283
100
AcDbEntity
  8
RACCORDO
100
AcDbLine
 62
7
  6
CONTINUOUS
 10
-3.2753302728
 20
-4.9311502771
 11
-3.1739154902
 21
-5.155385382
  0
LWPOLYLINE
  5
284
100
AcDbEntity
  8
RACCORDO
100
AcDbPolyline
 62
250
  6
CONTINUOUS
 90
7
 70
0
 10
-3.1783748476
 20
-5.0630231111
 10
-3.2136033038
 20
-4.9850688171
 10
-3.247407801
 20
-4.9130411337
 10
-3.2797777303
 20
-4.8469924758
 10
-3.3105020062
 20
-4.786110687
 10
-3.3394997027
 20
-4.7303853653
 10
-3.3667449347
 20
-4.6798269127
  0
LINE
  5
285
100
AcDbEntity
  8
RACCORDO
100
AcDbLine
 62
7
  6
CONTINUOUS
 10
-3.2068311138
 20
-5.0604660728
 11
-3.0921349464
 21
-5.3386766289
  0
LWPOLYLINE
  5
286
100
AcDbEntity
  8
RACCORDO
100
AcDbPolyline
 62
250
  6
CONTINUOUS
 90
3
 70
0
 10
-3.1046091502
 20
-5.2378381763
 10
-3.1418729089
 20
-5.1469564305
 10
-3.1783748476
 20
-5.0630231111
  0
LINE
  5
287
100
AcDbEntity
  8
RACCORDO
100
AcDbLine
 62
7
  6
CONTINUOUS
 10
-3.1739154902
 20
-5.155385382
 11
-3.0730894969
 21
-5.4080113026
  0
LWPOLYLINE
  5
288
100
AcDbEntity
  8
0
100
AcDbPolyline
 62
7
  6
CONTINUOUS
 90
3
 70
0
 10
-2.6233095961
 20
-5.1690057055
 10
-2.747742155
 20
-4.8275320525
 10
-2.893182949
 20
-4.4977184257
  0
LINE
  5
289
100
AcDbEntity
  8
RACCORDO
100
AcDbLine
 62
7
  6
CONTINUOUS
 10
-3.0921349464
 20
-5.3386766289
 11
-2.9869016333
 21
-5.6444066891
  0
LWPOLYLINE
  5
28A
100
AcDbEntity
  8
RACCORDO
100
AcDbPolyline
 62
7
  6
CONTINUOUS
 90
3
 70
0
 10
-3.0730894969
 20
-5.4080113026
 10
-2.9800178195
 20
-5.6823590106
 10
-2.9007249519
 20
-5.9708781872
  0
LINE
  5
28B
100
AcDbEntity
  8
SUPERFICI
100
AcDbLine
 62
250
  6
CONTINUOUS
 10
-2.7642875901
 20
-5.6759034627
 11
-2.8411678889
 21
-5.4088395463
  0
LWPOLYLINE
  5
28C
100
AcDbEntity
  8
RACCORDO
100
AcDbPolyline
 62
250
  6
CONTINUOUS
 90
6
 70
0
 10
-2.9154660686
 20
-5.8021608427
 10
-2.9523191928
 20
-5.6737396593
 10
-2.9899537521
 20
-5.553143373
 10
-3.028024456
 20
-5.4405089006
 10
-3.0665776653
 20
-5.3356993252
 10
-3.1046091502
 20
-5.2378381763
  0
LWPOLYLINE
  5
28D
100
AcDbEntity
  8
RACCORDO
100
AcDbPolyline
 62
7
  6
CONTINUOUS
 90
3
 70
0
 10
-2.9869016333
 20
-5.6444066891
 10
-2.8996662739
 20
-5.9665418115
 10
-2.8356065238
 20
-6.2910999833
  0
LWPOLYLINE
  5
28E
100
AcDbEntity
  8
RACCORDO
100
AcDbPolyline
 62
250
  6
CONTINUOUS
 90
3
 70
0
 10
-2.8498596088
 20
-6.0840303007
 10
-2.8810922476
 20
-5.9388726432
 10
-2.9154660686
 20
-5.8021608427
  0
LINE
  5
28F
100
AcDbEntity
  8
RACCORDO
100
AcDbLine
 62
7
  6
CONTINUOUS
 10
-2.9007249519
 20
-5.9708781872
 11
-2.8626461407
 21
-6.154103997
  0
LINE
  5
290
100
AcDbEntity
  8
SUPERFICI
100
AcDbLine
 62
7
  6
CONTINUOUS
 10
-2.0681215658
 20
-14.2894641959
 11
-2.3899417927
 21
-12.1500479942
  0
LINE
  5
291
100
AcDbEntity
  8
RACCORDO
100
AcDbLine
 62
7
  6
CONTINUOUS
 10
-2.3899417927
 20
-12.1500479942
 11
-2.518610758
 21
-11.2946745712
  0
LINE
  5
292
100
AcDbEntity
  8
RACCORDO
100
AcDbLine
 62
7
  6
CONTINUOUS
 10
-9.8280921997
 20
37.2977493562
 11
-3.5622341933
 21
-4.3568108219
  0
LWPOLYLINE
  5
293
100
AcDbEntity
  8
RACCORDO
100
AcDbPolyline
 62
7
  6
CONTINUOUS
 90
3
 70
0
 10
-2.4402938607
 20
-9.2392094726
 10
-2.4136018491
 20
-9.4904120706
 10
-2.3969925349
 20
-9.8194598678
  0
LWPOLYLINE
  5
294
100
AcDbEntity
  8
SUPERFICI
100
AcDbPolyline
 62
7
  6
CONTINUOUS
 90
24
 70
0
 10
-4.4465134335
 20
12.0270856991
 10
-4.3858657027
 20
11.4352713734
 10
-4.3195861896
 20
10.8600247126
 10
-4.2476748942
 20
10.3015502025
 10
-4.1695853713
 20
9.7604302197
 10
-4.0858640661
 20
9.2363991317
 10
-3.9981503144
 20
8.7283470704
 10
-3.906721355
 20
8.2363669163
 10
-3.811299949
 20
7.7605343402
 10
-3.7126937163
 20
7.2996867409
 10
-3.6110691918
 20
6.8538718868
 10
-3.5062598404
 20
6.4231086247
 10
-3.3985736773
 20
6.0061772392
 10
-3.2881763068
 20
5.6030600799
 10
-3.1749021245
 20
5.2137749081
 10
-3.0585623321
 20
4.8371508983
 10
-2.93939072
 20
4.4730707867
 10
-2.8171534979
 20
4.1216110534
 10
-2.6909604963
 20
3.7818920125
 10
-2.5608463177
 20
3.453276108
 10
-2.4267763597
 20
3.1363360049
 10
-2.2877566456
 20
2.8319986643
 10
-2.1441021387
 20
2.5397826167
 10
-1.9954978758
 20
2.2600661068
  0
LWPOLYLINE
  5
295
100
AcDbEntity
  8
0
100
AcDbPolyline
 62
7
  6
CONTINUOUS
 90
6
 70
0
 10
-4.4276158404
 20
11.2911220047
 10
-4.4908261188
 20
11.9128194723
 10
-4.5446719064
 20
12.5530014839
 10
-4.5851153948
 20
13.2146705713
 10
-4.6117869161
 20
13.90103666
 10
-4.6226405299
 20
14.6088898245
  0
LINE
  5
296
100
AcDbEntity
  8
SUPERFICI
100
AcDbLine
 62
250
  6
CONTINUOUS
 10
-2.2739470075
 20
-9.3344721236
 11
-2.2986273764
 21
-9.043196739
  0
LINE
  5
297
100
AcDbEntity
  8
0
100
AcDbLine
 62
7
  6
CONTINUOUS
 10
-2.0270304071
 20
-9.314346439
 11
-2.0521433038
 21
-8.9855245289
  0
LWPOLYLINE
  5
298
100
AcDbEntity
  8
RACCORDO
100
AcDbPolyline
 62
250
  6
CONTINUOUS
 90
6
 70
0
 10
-2.3791721347
 20
-9.7646338882
 10
-2.3834126853
 20
-9.6552451177
 10
-2.389585917
 20
-9.5474207225
 10
-2.3976909376
 20
-9.4422447877
 10
-2.407928887
 20
-9.3386332282
 10
-2.4203682755
 20
-9.2365860441
  0
LINE
  5
299
100
AcDbEntity
  8
SUPERFICI
100
AcDbLine
 62
250
  6
CONTINUOUS
 10
-2.2636867928
 20
-9.6121084238
 11
-2.2739470075
 21
-9.3344721236
  0
LINE
  5
29A
100
AcDbEntity
  8
0
100
AcDbLine
 62
7
  6
CONTINUOUS
 10
-2.0186196727
 20
-9.6490851785
 11
-2.0270304071
 21
-9.314346439
  0
LINE
  5
29B
100
AcDbEntity
  8
0
100
AcDbLine
 62
7
  6
CONTINUOUS
 10
-1.442814675
 20
13.8663262804
 11
-1.442814675
 21
14.4434770254
  0
LINE
  5
29C
100
AcDbEntity
  8
0
100
AcDbLine
 62
7
  6
CONTINUOUS
 10
-1.442814675
 20
15.7547059354
 11
-1.442814675
 21
17.1061298604
  0
LINE
  5
29D
100
AcDbEntity
  8
0
100
AcDbLine
 62
7
  6
CONTINUOUS
 10
-1.44280771
 20
5.7634164204
 11
-1.44280771
 21
6.3405452754
  0
LINE
  5
29E
100
AcDbEntity
  8
0
100
AcDbLine
 62
7
  6
CONTINUOUS
 10
-1.44280771
 20
7.6163909904
 11
-1.44280771
 21
8.1935198454
  0
LINE
  5
29F
100
AcDbEntity
  8
0
100
AcDbLine
 62
7
  6
CONTINUOUS
 10
-1.44280771
 20
8.5782654504
 11
-1.44280771
 21
9.1553873404
  0
LINE
  5
2A0
100
AcDbEntity
  8
0
100
AcDbLine
 62
7
  6
CONTINUOUS
 10
-1.44280771
 20
9.7324873404
 11
-1.44280771
 21
10.6049391604
  0
LINE
  5
2A1
100
AcDbEntity
  8
0
100
AcDbLine
 62
7
  6
CONTINUOUS
 10
-1.44280771
 20
11.6826594804
 11
-1.44280771
 21
12.5551122954
  0
LINE
  5
2A2
100
AcDbEntity
  8
0
100
AcDbLine
 62
7
  6
CONTINUOUS
 10
-0.90897628
 20
16.3238708104
 11
-0.90897628
 21
17.0260263904
  0
LINE
  5
2A3
100
AcDbEntity
  8
0
100
AcDbLine
 62
7
  6
CONTINUOUS
 10
-0.20677493
 20
16.3238777754
 11
-0.20677493
 21
17.0260263904
  0
LINE
  5
2A4
100
AcDbEntity
  8
0
100
AcDbLine
 62
250
  6
CONTINUOUS
 10
-0.0
 20
47.2119179132
 11
-0.0
 21
22.9928072481
  0
LINE
  5
2A5
100
AcDbEntity
  8
0
100
AcDbLine
 62
250
  6
CONTINUOUS
 10
-0.0
 20
0.3324184534
 11
-0.0
 21
-12.5772148139
  0
LINE
  5
2A6
100
AcDbEntity
  8
SUPERFICI
100
AcDbLine
 62
250
  6
CONTINUOUS
 10
-0.0
 20
-0.2559031412
 11
-0.0
 21
0.5428724644
  0
LINE
  5
2A7
100
AcDbEntity
  8
SUPERFICI
100
AcDbLine
 62
250
  6
CONTINUOUS
 10
-0.0
 20
23.2147563982
 11
-0.0
 21
24.0136401863
  0
LINE
  5
2A8
100
AcDbEntity
  8
SUPERFICI
100
AcDbLine
 62
250
  6
CONTINUOUS
 10
0.0
 20
-12.5772139688
 11
-0.0000000632
 21
-12.8347264539
  0
LINE
  5
2A9
100
AcDbEntity
  8
0
100
AcDbLine
 62
7
  6
CONTINUOUS
 10
0.32706446
 20
16.3318994654
 11
0.327071425
 21
16.8356003054
  0
LINE
  5
2AA
100
AcDbEntity
  8
0
100
AcDbLine
 62
7
  6
CONTINUOUS
 10
0.327071425
 20
13.8752136204
 11
0.327071425
 21
14.4345966504
  0
LWPOLYLINE
  5
2AB
100
AcDbEntity
  8
RACCORDO
100
AcDbPolyline
 62
250
  6
CONTINUOUS
 90
3
 70
0
 10
-0.0
 20
47.2119179208
 10
-0.0007883159
 20
48.0514670973
 10
-0.0007487157
 20
48.0537184959
  0
LINE
  5
2AC
100
AcDbEntity
  8
RACCORDO
100
AcDbLine
 62
7
  6
CONTINUOUS
 10
-2.3969925349
 20
-9.8194598678
 11
-2.3993976576
 21
-10.138488312
  0
LWPOLYLINE
  5
2AD
100
AcDbEntity
  8
RACCORDO
100
AcDbPolyline
 62
250
  6
CONTINUOUS
 90
4
 70
0
 10
-2.3791523635
 20
-10.0821780051
 10
-2.3771918309
 20
-9.978100332
 10
-2.377077101
 20
-9.8723347787
 10
-2.3791721347
 20
-9.7646338882
  0
LINE
  5
2AE
100
AcDbEntity
  8
0
100
AcDbLine
 62
7
  6
CONTINUOUS
 10
-2.0269111004
 20
-9.9847030904
 11
-2.0186196727
 21
-9.6490851785
  0
LINE
  5
2AF
100
AcDbEntity
  8
RACCORDO
100
AcDbLine
 62
7
  6
CONTINUOUS
 10
-2.3993976576
 20
-10.138488312
 11
-2.4164945027
 21
-10.4344405244
  0
LWPOLYLINE
  5
2B0
100
AcDbEntity
  8
SUPERFICI
100
AcDbPolyline
 62
250
  6
CONTINUOUS
 90
3
 70
0
 10
-2.2811563166
 20
-10.1241336205
 10
-2.2665292892
 20
-9.8752449318
 10
-2.2636867928
 20
-9.6121084238
  0
LWPOLYLINE
  5
2B1
100
AcDbEntity
  8
RACCORDO
100
AcDbPolyline
 62
250
  6
CONTINUOUS
 90
4
 70
0
 10
-2.3935003127
 20
-10.3682182419
 10
-2.3874288666
 20
-10.2772369601
 10
-2.3825689133
 20
-10.1820579138
 10
-2.3791523635
 20
-10.0821780051
  0
LINE
  5
2B2
100
AcDbEntity
  8
0
100
AcDbLine
 62
7
  6
CONTINUOUS
 10
-2.0562824503
 20
-10.3156978473
 11
-2.0269111004
 21
-9.9847030904
  0
LWPOLYLINE
  5
2B3
100
AcDbEntity
  8
RACCORDO
100
AcDbPolyline
 62
250
  6
CONTINUOUS
 90
3
 70
0
 10
-2.4073978976
 20
-10.5342431445
 10
-2.4001761893
 20
-10.4540011691
 10
-2.3935003127
 20
-10.3682182419
  0
LWPOLYLINE
  5
2B4
100
AcDbEntity
  8
RACCORDO
100
AcDbPolyline
 62
7
  6
CONTINUOUS
 90
4
 70
0
 10
-2.4164945027
 20
-10.4344405244
 10
-2.442078959
 20
-10.6951360017
 10
-2.4697433928
 20
-10.9083602255
 10
-2.4940768323
 20
-11.0668621021
  0
LINE
  5
2B5
100
AcDbEntity
  8
RACCORDO
100
AcDbLine
 62
250
  6
CONTINUOUS
 10
-2.4151034144
 20
-10.6092867652
 11
-2.4073978976
 21
-10.5342431445
  0
LWPOLYLINE
  5
2B6
100
AcDbEntity
  8
RACCORDO
100
AcDbPolyline
 62
250
  6
CONTINUOUS
 90
6
 70
0
 10
-2.4526935886
 20
-10.9082705569
 10
-2.4455752
 20
-10.8577769114
 10
-2.4381652262
 20
-10.8028925245
 10
-2.4304809897
 20
-10.7436114552
 10
-2.4228088479
 20
-10.6791592322
 10
-2.4151034144
 20
-10.6092867652
  0
LINE
  5
2B7
100
AcDbEntity
  8
0
100
AcDbLine
 62
7
  6
CONTINUOUS
 10
-2.1023559624
 20
-10.6353657455
 11
-2.0562824503
 21
-10.3156978473
  0
LWPOLYLINE
  5
2B8
100
AcDbEntity
  8
RACCORDO
100
AcDbPolyline
 62
250
  6
CONTINUOUS
 90
3
 70
0
 10
-2.4721545979
 20
-11.035727071
 10
-2.4660450002
 20
-10.9968244491
 10
-2.4526935886
 20
-10.9082705569
  0
LINE
  5
2B9
100
AcDbEntity
  8
0
100
AcDbLine
 62
7
  6
CONTINUOUS
 10
-2.1519983565
 20
-10.9360692319
 11
-2.1023559624
 21
-10.6353657455
  0
LWPOLYLINE
  5
2BA
100
AcDbEntity
  8
RACCORDO
100
AcDbPolyline
 62
250
  6
CONTINUOUS
 90
3
 70
0
 10
-2.4881841286
 20
-11.132108088
 10
-2.4832608718
 20
-11.1031116807
 10
-2.4721545979
 20
-11.035727071
  0
LINE
  5
2BB
100
AcDbEntity
  8
RACCORDO
100
AcDbLine
 62
7
  6
CONTINUOUS
 10
-2.4940768323
 20
-11.0668621021
 11
-2.5108823473
 21
-11.1637923934
  0
LINE
  5
2BC
100
AcDbEntity
  8
RACCORDO
100
AcDbLine
 62
250
  6
CONTINUOUS
 10
-2.5005196478
 20
-11.2015924195
 11
-2.4881841286
 21
-11.132108088
  0
LINE
  5
2BD
100
AcDbEntity
  8
RACCORDO
100
AcDbLine
 62
250
  6
CONTINUOUS
 10
-2.5093145996
 20
-11.2484712554
 11
-2.5005196478
 21
-11.2015924195
  0
LINE
  5
2BE
100
AcDbEntity
  8
RACCORDO
100
AcDbLine
 62
250
  6
CONTINUOUS
 10
-2.5150283391
 20
-11.2774173216
 11
-2.5093145996
 21
-11.2484712554
  0
LWPOLYLINE
  5
2BF
100
AcDbEntity
  8
RACCORDO
100
AcDbPolyline
 62
250
  6
CONTINUOUS
 90
5
 70
0
 10
-2.518610758
 20
-11.2946745712
 10
-2.5184598777
 20
-11.2940683355
 10
-2.5180363223
 20
-11.2920218189
 10
-2.5173318202
 20
-11.2885350215
 10
-2.5150283391
 20
-11.2774173216
  0
LWPOLYLINE
  5
2C0
100
AcDbEntity
  8
SUPERFICI
100
AcDbPolyline
 62
7
  6
CONTINUOUS
 90
6
 70
0
 10
1.7318710523
 20
1.8238713899
 10
1.5773727124
 20
1.5994956627
 10
1.4165682934
 20
1.3885810636
 10
1.2450487792
 20
1.1953064422
 10
1.0606814111
 20
1.0160441717
 10
0.8655989477
 20
0.8542679965
  0
LINE
  5
2C1
100
AcDbEntity
  8
0
100
AcDbLine
 62
7
  6
CONTINUOUS
 10
1.5485458212
 20
1.3964234088
 11
1.36506236
 21
1.1565377483
  0
LINE
  5
2C2
100
AcDbEntity
  8
0
100
AcDbLine
 62
7
  6
CONTINUOUS
 10
1.36506236
 20
1.1565377483
 11
1.1707430605
 21
0.9350940037
  0
LWPOLYLINE
  5
2C3
100
AcDbEntity
  8
0
100
AcDbPolyline
 62
7
  6
CONTINUOUS
 90
4
 70
0
 10
1.1707430605
 20
0.9350940037
 10
0.9649439104
 20
0.7351966478
 10
0.7461264023
 20
0.5733318027
 10
0.5121499877
 20
0.4549948423
  0
LWPOLYLINE
  5
2C4
100
AcDbEntity
  8
SUPERFICI
100
AcDbPolyline
 62
7
  6
CONTINUOUS
 90
4
 70
0
 10
0.8655989477
 20
0.8542679965
 10
0.6617906485
 20
0.7247232653
 10
0.4499196002
 20
0.6322263533
 10
0.2293227162
 20
0.5717428013
  0
LINE
  5
2C5
100
AcDbEntity
  8
0
100
AcDbLine
 62
7
  6
CONTINUOUS
 10
0.5121499877
 20
0.4549948423
 11
0.2630243178
 21
0.3746903925
  0
LWPOLYLINE
  5
2C6
100
AcDbEntity
  8
SUPERFICI
100
AcDbPolyline
 62
7
  6
CONTINUOUS
 90
7
 70
0
 10
0.5128155908
 20
-0.191387303
 10
0.6627992596
 20
-0.1470849697
 10
0.8099823689
 20
-0.0897492142
 10
0.9545205925
 20
-0.0193171252
 10
1.0965653674
 20
0.0642531923
 10
1.2362634413
 20
0.1609845727
 10
1.3737564826
 20
0.270882642
  0
LINE
  5
2C7
100
AcDbEntity
  8
0
100
AcDbLine
 62
7
  6
CONTINUOUS
 10
0.2630243178
 20
0.3746903925
 11
-0.0
 21
0.3324184534
  0
LINE
  5
2C8
100
AcDbEntity
  8
SUPERFICI
100
AcDbLine
 62
7
  6
CONTINUOUS
 10
0.2293227162
 20
0.5717428013
 11
-0.0000000035
 21
0.5432146214
  0
LWPOLYLINE
  5
2C9
100
AcDbEntity
  8
SUPERFICI
100
AcDbPolyline
 62
7
  6
CONTINUOUS
 90
7
 70
0
 10
-0.0
 20
-0.2559034792
 10
0.0882407262
 20
-0.2536620592
 10
0.1753380899
 20
-0.2480555565
 10
0.2613182056
 20
-0.2390524408
 10
0.3462071615
 20
-0.2266238455
 10
0.430030982
 20
-0.2107434397
 10
0.5128155908
 20
-0.191387303
  0
LINE
  5
2CA
100
AcDbEntity
  8
SUPERFICI
100
AcDbLine
 62
7
  6
CONTINUOUS
 10
-0.2494454532
 20
0.578654897
 11
-0.0000000035
 21
0.5432146214
  0
LINE
  5
2CB
100
AcDbEntity
  8
0
100
AcDbLine
 62
7
  6
CONTINUOUS
 10
-0.0
 20
0.3324184535
 11
-0.27024098
 21
0.3775319842
  0
LWPOLYLINE
  5
2CC
100
AcDbEntity
  8
SUPERFICI
100
AcDbPolyline
 62
7
  6
CONTINUOUS
 90
7
 70
0
 10
-0.5127767879
 20
-0.1912276456
 10
-0.4299986606
 20
-0.2105945365
 10
-0.3461812481
 20
-0.2264920128
 10
-0.2612986764
 20
-0.2389439998
 10
-0.1753249727
 20
-0.2479768303
 10
-0.0882341008
 20
-0.2536193691
 10
-0.0
 20
-0.2559031412
  0
LINE
  5
2CD
100
AcDbEntity
  8
0
100
AcDbLine
 62
7
  6
CONTINUOUS
 10
-0.27024098
 20
0.3775319842
 11
-0.5256133126
 21
0.4619612206
  0
LWPOLYLINE
  5
2CE
100
AcDbEntity
  8
SUPERFICI
100
AcDbPolyline
 62
7
  6
CONTINUOUS
 90
3
 70
0
 10
-0.7150529592
 20
0.7559527722
 10
-0.4877964384
 20
0.6495425535
 10
-0.2494454532
 20
0.578654897
  0
LINE
  5
2CF
100
AcDbEntity
  8
0
100
AcDbLine
 62
7
  6
CONTINUOUS
 10
-0.5256133126
 20
0.4619612206
 11
-0.7647518129
 21
0.5857061628
  0
LINE
  5
2D0
100
AcDbEntity
  8
SUPERFICI
100
AcDbLine
 62
7
  6
CONTINUOUS
 10
-0.9314225468
 20
0.9036314457
 11
-0.7150529592
 21
0.7559527722
  0
LINE
  5
2D1
100
AcDbEntity
  8
0
100
AcDbLine
 62
7
  6
CONTINUOUS
 10
-0.7647518129
 20
0.5857061628
 11
-0.9878872826
 21
0.7547423124
  0
LINE
  5
2D2
100
AcDbEntity
  8
SUPERFICI
100
AcDbLine
 62
7
  6
CONTINUOUS
 10
-1.1366976699
 20
1.0871080015
 11
-0.9314225468
 21
0.9036314457
  0
LWPOLYLINE
  5
2D3
100
AcDbEntity
  8
0
100
AcDbPolyline
 62
7
  6
CONTINUOUS
 90
3
 70
0
 10
-0.9878872826
 20
0.7547423124
 10
-1.1971393757
 20
0.9630941678
 10
-1.3941864206
 20
1.1928352235
  0
LWPOLYLINE
  5
2D4
100
AcDbEntity
  8
SUPERFICI
100
AcDbPolyline
 62
7
  6
CONTINUOUS
 90
7
 70
0
 10
-1.7371659129
 20
0.6233137693
 10
-1.5512197767
 20
0.4264997575
 10
-1.3586883656
 20
0.2544139067
 10
-1.1590853033
 20
0.1068759245
 10
-0.9519094497
 20
-0.0163536507
 10
-0.7366474033
 20
-0.1155875817
 10
-0.5127767879
 20
-0.1912276456
  0
LINE
  5
2D5
100
AcDbEntity
  8
0
100
AcDbLine
 62
7
  6
CONTINUOUS
 10
-1.3941864206
 20
1.1928352235
 11
-1.5794892793
 21
1.4400727723
  0
LWPOLYLINE
  5
2D6
100
AcDbEntity
  8
SUPERFICI
100
AcDbPolyline
 62
7
  6
CONTINUOUS
 90
4
 70
0
 10
-1.6785866729
 20
1.7437965766
 10
-1.5102797329
 20
1.5070995853
 10
-1.3302557352
 20
1.2895949765
 10
-1.1366976699
 20
1.0871080015
  0
LWPOLYLINE
  5
2D7
100
AcDbEntity
  8
0
100
AcDbPolyline
 62
7
  6
CONTINUOUS
 90
7
 70
0
 10
-1.5794892793
 20
1.4400727723
 10
-1.7542239226
 20
1.7086995214
 10
-1.9217007968
 20
1.9924670869
 10
-2.082859379
 20
2.2898126634
 10
-2.2377098829
 20
2.6022990563
 10
-2.3878850997
 20
2.9283662976
 10
-2.5341356619
 20
3.2674515839
  0
LWPOLYLINE
  5
2D8
100
AcDbEntity
  8
SUPERFICI
100
AcDbPolyline
 62
7
  6
CONTINUOUS
 90
3
 70
0
 10
-1.9954978758
 20
2.2600661068
 10
-1.8400049905
 20
1.9950394136
 10
-1.6785866729
 20
1.7437965766
  0
LWPOLYLINE
  5
2D9
100
AcDbEntity
  8
SUPERFICI
100
AcDbPolyline
 62
7
  6
CONTINUOUS
 90
7
 70
0
 10
-2.5725272873
 20
1.9247560187
 10
-2.4470274959
 20
1.6822222192
 10
-2.3163539497
 20
1.4502404689
 10
-2.1802691831
 20
1.2285878223
 10
-2.0385346777
 20
1.0170381098
 10
-1.8909123206
 20
0.8153598296
 10
-1.7371659129
 20
0.6233137693
  0
LINE
  5
2DA
100
AcDbEntity
  8
SUPERFICI
100
AcDbLine
 62
7
  6
CONTINUOUS
 10
-2.6064689824
 20
1.9941956585
 11
-2.5725272873
 21
1.9247560187
  0
LWPOLYLINE
  5
2DB
100
AcDbEntity
  8
SUPERFICI
100
AcDbPolyline
 62
7
  6
CONTINUOUS
 90
6
 70
0
 10
-2.7705630846
 20
2.3546247362
 10
-2.7384758198
 20
2.2807586182
 10
-2.7060278482
 20
2.2077875171
 10
-2.6732141182
 20
2.1357065614
 10
-2.6400295388
 20
2.0645108918
 10
-2.6064689824
 20
1.9941956585
  0
LWPOLYLINE
  5
2DC
100
AcDbEntity
  8
0
100
AcDbPolyline
 62
7
  6
CONTINUOUS
 90
11
 70
0
 10
-2.5341356619
 20
3.2674515839
 10
-2.676246228
 20
3.6201177187
 10
-2.8143552549
 20
3.9864931442
 10
-2.9486068295
 20
4.3663292414
 10
-3.0791919731
 20
4.7598746293
 10
-3.2063112772
 20
5.1680036071
 10
-3.3303770366
 20
5.5907016856
 10
-3.4512909922
 20
6.027983354
 10
-3.5685637702
 20
6.4807663791
 10
-3.6823959701
 20
6.9490194322
 10
-3.7927683756
 20
7.4327738419
  0
LWPOLYLINE
  5
2DD
100
AcDbEntity
  8
SUPERFICI
100
AcDbPolyline
 62
7
  6
CONTINUOUS
 90
7
 70
0
 10
-2.7705630846
 20
2.3546247362
 10
-3.0769455573
 20
3.1379154991
 10
-3.3552500712
 20
3.9349290908
 10
-3.6077248015
 20
4.7501807925
 10
-3.834869963
 20
5.5873241902
 10
-4.0406344542
 20
6.4520370307
 10
-4.2319046576
 20
7.3507316993
  0
LINE
  5
2DE
100
AcDbEntity
  8
RACCORDO
100
AcDbLine
 62
250
  6
CONTINUOUS
 10
2.5184046975
 20
-11.2940874522
 11
2.518610758
 21
-11.2946745712
  0
LINE
  5
2DF
100
AcDbEntity
  8
0
100
AcDbLine
 62
7
  6
CONTINUOUS
 10
-2.5260816182
 20
-5.5155823857
 11
-2.6233095961
 21
-5.1690057055
  0
LINE
  5
2E0
100
AcDbEntity
  8
SUPERFICI
100
AcDbLine
 62
250
  6
CONTINUOUS
 10
-2.7010145645
 20
-5.9545882403
 11
-2.7642875901
 21
-5.6759034627
  0
LINE
  5
2E1
100
AcDbEntity
  8
0
100
AcDbLine
 62
7
  6
CONTINUOUS
 10
-2.4498618754
 20
-5.8605429399
 11
-2.5260816182
 21
-5.5155823857
  0
LWPOLYLINE
  5
2E2
100
AcDbEntity
  8
0
100
AcDbPolyline
 62
7
  6
CONTINUOUS
 90
5
 70
0
 10
-3.7927683756
 20
7.4327738419
 10
-3.8988313701
 20
7.9330413616
 10
-4.0007202786
 20
8.4498749199
 10
-4.0982665254
 20
8.9832215882
 10
-4.1900774545
 20
9.5339343341
  0
LWPOLYLINE
  5
2E3
100
AcDbEntity
  8
RACCORDO
100
AcDbPolyline
 62
250
  6
CONTINUOUS
 90
4
 70
0
 10
2.5140014858
 20
-11.2723501088
 10
2.5170098524
 20
-11.2869956162
 10
2.517883234
 20
-11.2915278005
 10
2.5184046975
 20
-11.2940874522
  0
LINE
  5
2E4
100
AcDbEntity
  8
RACCORDO
100
AcDbLine
 62
250
  6
CONTINUOUS
 10
2.5062933563
 20
-11.2326395111
 11
2.5140014858
 21
-11.2723501088
  0
LWPOLYLINE
  5
2E5
100
AcDbEntity
  8
SUPERFICI
100
AcDbPolyline
 62
7
  6
CONTINUOUS
 90
4
 70
0
 10
-4.2319046576
 20
7.3507316993
 10
-4.411382839
 20
8.2872988025
 10
-4.5778985524
 20
9.264366048
 10
-4.7316183638
 20
10.2853564157
  0
LINE
  5
2E6
100
AcDbEntity
  8
0
100
AcDbLine
 62
7
  6
CONTINUOUS
 10
2.1481488986
 20
-10.9155913392
 11
2.2009821664
 21
-11.1920495727
  0
LWPOLYLINE
  5
2E7
100
AcDbEntity
  8
RACCORDO
100
AcDbPolyline
 62
7
  6
CONTINUOUS
 90
3
 70
0
 10
2.5167608805
 20
-11.1945020731
 10
2.5100221894
 20
-11.1591368756
 10
2.4910500805
 20
-11.0483582002
  0
LINE
  5
2E8
100
AcDbEntity
  8
RACCORDO
100
AcDbLine
 62
250
  6
CONTINUOUS
 10
2.4942725298
 20
-11.1670073557
 11
2.5062933563
 21
-11.2326395111
  0
LINE
  5
2E9
100
AcDbEntity
  8
SUPERFICI
100
AcDbLine
 62
250
  6
CONTINUOUS
 10
-2.6521241024
 20
-6.243486868
 11
-2.7010145645
 21
-5.9545882403
  0
LINE
  5
2EA
100
AcDbEntity
  8
0
100
AcDbLine
 62
7
  6
CONTINUOUS
 10
-2.3946503679
 20
-6.1984323847
 11
-2.4498618754
 21
-5.8605429399
  0
LINE
  5
2EB
100
AcDbEntity
  8
0
100
AcDbLine
 62
7
  6
CONTINUOUS
 10
2.0993940924
 20
-10.6165738414
 11
2.1481488986
 21
-10.9155913392
  0
LWPOLYLINE
  5
2EC
100
AcDbEntity
  8
RACCORDO
100
AcDbPolyline
 62
250
  6
CONTINUOUS
 90
3
 70
0
 10
-2.7954985236
 20
-6.399217467
 10
-2.8213210408
 20
-6.2374785753
 10
-2.8498596088
 20
-6.0840303007
  0
LWPOLYLINE
  5
2ED
100
AcDbEntity
  8
0
100
AcDbPolyline
 62
7
  6
CONTINUOUS
 90
4
 70
0
 10
-4.1900774545
 20
9.5339343341
 10
-4.276131051
 20
10.1019246579
 10
-4.3560315173
 20
10.6872810593
 10
-4.4276158404
 20
11.2911220047
  0
LINE
  5
2EE
100
AcDbEntity
  8
RACCORDO
100
AcDbLine
 62
7
  6
CONTINUOUS
 10
-2.8356065238
 20
-6.2910999833
 11
-2.8191590495
 21
-6.4024114164
  0
LINE
  5
2EF
100
AcDbEntity
  8
0
100
AcDbLine
 62
7
  6
CONTINUOUS
 10
2.054581094
 20
-10.3004103718
 11
2.0993940924
 21
-10.6165738414
  0
LINE
  5
2F0
100
AcDbEntity
  8
RACCORDO
100
AcDbLine
 62
7
  6
CONTINUOUS
 10
-2.8190889626
 20
-6.4024017307
 11
-2.5778271489
 21
-8.2001877723
  0
LINE
  5
2F1
100
AcDbEntity
  8
RACCORDO
100
AcDbLine
 62
7
  6
CONTINUOUS
 10
-2.5778271489
 20
-8.2001877723
 11
-2.4402937948
 21
-9.2392094639
  0
LINE
  5
2F2
100
AcDbEntity
  8
RACCORDO
100
AcDbLine
 62
250
  6
CONTINUOUS
 10
-2.4203682755
 20
-9.2365860441
 11
-2.7954985236
 21
-6.399217467
  0
LINE
  5
2F3
100
AcDbEntity
  8
SUPERFICI
100
AcDbLine
 62
250
  6
CONTINUOUS
 10
-2.6521241024
 20
-6.243486868
 11
-2.3766171926
 21
-8.4180659481
  0
LINE
  5
2F4
100
AcDbEntity
  8
SUPERFICI
100
AcDbLine
 62
250
  6
CONTINUOUS
 10
-2.3766171926
 20
-8.4180659481
 11
-2.2986273764
 21
-9.043196739
  0
LINE
  5
2F5
100
AcDbEntity
  8
SUPERFICI
100
AcDbLine
 62
7
  6
CONTINUOUS
 10
-2.3947420982
 20
-6.1984324638
 11
-2.2025990994
 21
-7.7504097497
  0
LINE
  5
2F6
100
AcDbEntity
  8
SUPERFICI
100
AcDbLine
 62
7
  6
CONTINUOUS
 10
-2.2025990994
 20
-7.7504097497
 11
-2.0521714582
 21
-8.9855227848
  0
LINE
  5
2F7
100
AcDbEntity
  8
RACCORDO
100
AcDbLine
 62
7
  6
CONTINUOUS
 10
2.4353521329
 20
-10.6353972143
 11
2.4105740318
 21
-10.3539634885
  0
LINE
  5
2F8
100
AcDbEntity
  8
0
100
AcDbLine
 62
7
  6
CONTINUOUS
 10
2.0262004603
 20
-9.9734436992
 11
2.054581094
 21
-10.3004103718
  0
LWPOLYLINE
  5
2F9
100
AcDbEntity
  8
RACCORDO
100
AcDbPolyline
 62
250
  6
CONTINUOUS
 90
11
 70
0
 10
2.3832723959
 20
-10.2002949589
 10
2.3894678554
 20
-10.3089847191
 10
2.3966174371
 20
-10.4105398423
 10
2.4045680856
 20
-10.5048414222
 10
2.4132852418
 20
-10.5920083651
 10
2.4220576228
 20
-10.6726109818
 10
2.4308227042
 20
-10.7465272276
 10
2.4396318792
 20
-10.8138791471
 10
2.448062737
 20
-10.875603185
 10
2.4561004692
 20
-10.931694405
 10
2.4709460675
 20
-11.0279444525
  0
LINE
  5
2FA
100
AcDbEntity
  8
RACCORDO
100
AcDbLine
 62
7
  6
CONTINUOUS
 10
2.4105740318
 20
-10.3539634885
 11
2.3967946455
 21
-10.0420310392
  0
LINE
  5
2FB
100
AcDbEntity
  8
RACCORDO
100
AcDbLine
 62
250
  6
CONTINUOUS
 10
2.3790977945
 20
-10.0842569689
 11
2.3832723959
 21
-10.2002949589
  0
LINE
  5
2FC
100
AcDbEntity
  8
0
100
AcDbLine
 62
7
  6
CONTINUOUS
 10
2.0184157101
 20
-9.6416693851
 11
2.0262004603
 21
-9.9734436992
  0
LWPOLYLINE
  5
2FD
100
AcDbEntity
  8
SUPERFICI
100
AcDbPolyline
 62
250
  6
CONTINUOUS
 90
3
 70
0
 10
2.2637210989
 20
-9.6280234863
 10
2.2672588109
 20
-9.8962492694
 10
2.2830319742
 20
-10.1479412861
  0
LINE
  5
2FE
100
AcDbEntity
  8
0
100
AcDbLine
 62
7
  6
CONTINUOUS
 10
0.875338315
 20
13.6991772254
 11
0.875338315
 21
14.6106410054
  0
LINE
  5
2FF
100
AcDbEntity
  8
0
100
AcDbLine
 62
7
  6
CONTINUOUS
 10
1.442814675
 20
14.7928314754
 11
1.442822635
 21
15.3699603304
  0
LINE
  5
300
100
AcDbEntity
  8
0
100
AcDbLine
 62
7
  6
CONTINUOUS
 10
1.442814675
 20
15.7547059354
 11
1.442814675
 21
16.3318347904
  0
LINE
  5
301
100
AcDbEntity
  8
0
100
AcDbLine
 62
7
  6
CONTINUOUS
 10
1.442822635
 20
9.7324873404
 11
1.442822635
 21
10.3096082354
  0
LINE
  5
302
100
AcDbEntity
  8
0
100
AcDbLine
 62
7
  6
CONTINUOUS
 10
1.442822635
 20
11.9779904054
 11
1.442822635
 21
12.5551122954
  0
LINE
  5
303
100
AcDbEntity
  8
0
100
AcDbLine
 62
7
  6
CONTINUOUS
 10
1.4428296
 20
6.6898927604
 11
1.442822635
 21
7.2670365404
  0
LINE
  5
304
100
AcDbEntity
  8
0
100
AcDbLine
 62
7
  6
CONTINUOUS
 10
1.4428296
 20
8.5782584854
 11
1.442822635
 21
9.1553793804
  0
LINE
  5
305
100
AcDbEntity
  8
0
100
AcDbLine
 62
7
  6
CONTINUOUS
 10
1.442822635
 20
10.8552423554
 11
1.442814675
 21
11.4323493204
  0
LINE
  5
306
100
AcDbEntity
  8
0
100
AcDbLine
 62
7
  6
CONTINUOUS
 10
1.442822635
 20
12.9398579004
 11
1.442814675
 21
13.5169787954
  0
LINE
  5
307
100
AcDbEntity
  8
0
100
AcDbLine
 62
7
  6
CONTINUOUS
 10
1.442814675
 20
17.4139480354
 11
1.44280771
 21
18.0639865104
  0
LWPOLYLINE
  5
308
100
AcDbEntity
  8
0
100
AcDbPolyline
 62
7
  6
CONTINUOUS
 90
4
 70
0
 43
0.3500000006
 10
1.7142857924
 20
57.522771698
 10
1.7142857924
 20
58.3799187012
 10
2.1428573112
 20
58.8084876709
 10
2.785714448
 20
58.8084876709
  0
LWPOLYLINE
  5
309
100
AcDbEntity
  8
RACCORDO
100
AcDbPolyline
 62
250
  6
CONTINUOUS
 90
3
 70
0
 10
2.3774625169
 20
-9.8297496807
 10
2.3770869157
 20
-9.9606774397
 10
2.3790977945
 20
-10.0842569689
  0
LWPOLYLINE
  5
30A
100
AcDbEntity
  8
SUPERFICI
100
AcDbPolyline
 62
7
  6
CONTINUOUS
 90
5
 70
0
 10
4.5761581181
 20
14.2161504263
 10
4.5814891522
 20
14.9762950196
 10
4.5651302131
 20
15.7163226184
 10
4.5259095504
 20
16.4351327351
 10
4.4603119118
 20
17.1299037915
  0
LWPOLYLINE
  5
30B
100
AcDbEntity
  8
RACCORDO
100
AcDbPolyline
 62
7
  6
CONTINUOUS
 90
4
 70
0
 10
2.3967946455
 20
-10.0420310392
 10
2.4001088764
 20
-9.7155500564
 10
2.4230761542
 20
-9.3869716329
 10
2.4403410399
 20
-9.2392185444
  0
LINE
  5
30C
100
AcDbEntity
  8
0
100
AcDbLine
 62
7
  6
CONTINUOUS
 10
4.6210548879
 20
14.7651646136
 11
4.613088086
 21
13.989527327
  0
LWPOLYLINE
  5
30D
100
AcDbEntity
  8
0
100
AcDbPolyline
 62
7
  6
CONTINUOUS
 90
5
 70
0
 10
4.613088086
 20
13.989527327
 10
4.5864810658
 20
13.2415721714
 10
4.5432432542
 20
12.5304751747
 10
4.4845613498
 20
11.847060309
 10
4.4162534624
 20
11.1897269957
  0
LWPOLYLINE
  5
30E
100
AcDbEntity
  8
SUPERFICI
100
AcDbPolyline
 62
7
  6
CONTINUOUS
 90
3
 70
0
 10
4.4969108789
 20
12.6338592519
 10
4.5479653604
 20
13.4352354342
 10
4.5761581181
 20
14.2161504263
  0
LWPOLYLINE
  5
30F
100
AcDbEntity
  8
0
100
AcDbPolyline
 62
7
  6
CONTINUOUS
 90
3
 70
0
 10
2.0521433038
 20
-8.9855245289
 10
2.0270633246
 20
-9.3107462062
 10
2.0184157101
 20
-9.6416693851
  0
LWPOLYLINE
  5
310
100
AcDbEntity
  8
SUPERFICI
100
AcDbPolyline
 62
250
  6
CONTINUOUS
 90
3
 70
0
 10
2.2986255805
 20
-9.0432128947
 10
2.2737080515
 20
-9.3433797855
 10
2.2637210989
 20
-9.6280234863
  0
LWPOLYLINE
  5
311
100
AcDbEntity
  8
SUPERFICI
100
AcDbPolyline
 62
7
  6
CONTINUOUS
 90
6
 70
0
 10
4.4969108789
 20
12.6338592519
 10
4.4460544667
 20
12.0439256727
 10
4.3892462614
 20
11.4703440044
 10
4.3264862629
 20
10.9133341901
 10
4.2571446263
 20
10.3735508277
 10
4.1818511966
 20
9.850686375
  0
LWPOLYLINE
  5
312
100
AcDbEntity
  8
RACCORDO
100
AcDbPolyline
 62
250
  6
CONTINUOUS
 90
5
 70
0
 10
2.4203682755
 20
-9.2365860441
 10
2.403080237
 20
-9.3953192657
 10
2.390222116
 20
-9.5470705937
 10
2.3816197161
 20
-9.691840028
 10
2.3774625169
 20
-9.8297496807
  0
LWPOLYLINE
  5
313
100
AcDbEntity
  8
0
100
AcDbPolyline
 62
7
  6
CONTINUOUS
 90
4
 70
0
 10
4.4162534624
 20
11.1897269957
 10
4.3397089672
 20
10.5592655131
 10
4.2547076875
 20
9.9548855829
 10
4.1639910282
 20
9.3726157911
  0
LINE
  5
314
100
AcDbEntity
  8
SUPERFICI
100
AcDbLine
 62
7
  6
CONTINUOUS
 10
2.3947407256
 20
-6.1984324638
 11
2.0521700857
 21
-8.9855227848
  0
LINE
  5
315
100
AcDbEntity
  8
SUPERFICI
100
AcDbLine
 62
250
  6
CONTINUOUS
 10
2.2986255805
 20
-9.0432128947
 11
2.5335697667
 21
-7.1729608203
  0
LINE
  5
316
100
AcDbEntity
  8
SUPERFICI
100
AcDbLine
 62
250
  6
CONTINUOUS
 10
2.5335697667
 20
-7.1729608203
 11
2.6521149207
 21
-6.2435679174
  0
LWPOLYLINE
  5
317
100
AcDbEntity
  8
RACCORDO
100
AcDbPolyline
 62
250
  6
CONTINUOUS
 90
15
 70
0
 10
9.8384146017
 20
37.3696902811
 10
9.848518231
 20
37.4471720627
 10
9.8578560143
 20
37.5270663534
 10
9.866345591
 20
37.6092729486
 10
9.8739178244
 20
37.6938920529
 10
9.8804884205
 20
37.7812242803
 10
9.8859436483
 20
37.871251343
 10
9.8901816422
 20
37.9639915289
 10
9.893087581
 20
38.0598003152
 10
9.8945475566
 20
38.1586751269
 10
9.8944367842
 20
38.260618539
 10
9.8925825641
 20
38.3659937539
 10
9.8888113297
 20
38.4749218388
 10
9.882979003
 20
38.5872817265
 10
9.874930233
 20
38.7030734168
  0
LINE
  5
318
100
AcDbEntity
  8
RACCORDO
100
AcDbLine
 62
7
  6
CONTINUOUS
 10
2.4402933909
 20
-9.2392125315
 11
2.6584118971
 21
-7.596340624
  0
LINE
  5
319
100
AcDbEntity
  8
RACCORDO
100
AcDbLine
 62
250
  6
CONTINUOUS
 10
2.7954985236
 20
-6.399217467
 11
2.4203682755
 21
-9.2365860441
  0
LINE
  5
31A
100
AcDbEntity
  8
RACCORDO
100
AcDbLine
 62
7
  6
CONTINUOUS
 10
2.6584118971
 20
-7.596340624
 11
2.8190879649
 21
-6.4024091047
  0
LWPOLYLINE
  5
31B
100
AcDbEntity
  8
RACCORDO
100
AcDbPolyline
 62
7
  6
CONTINUOUS
 90
6
 70
0
 10
9.8279341026
 20
37.2966913306
 10
9.8492128485
 20
37.4481450157
 10
9.887252266
 20
37.7956807523
 10
9.9108404101
 20
38.1503420875
 10
9.919090351
 20
38.5110926112
 10
9.912334225
 20
38.8499345956
  0
LINE
  5
31C
100
AcDbEntity
  8
SUPERFICI
100
AcDbLine
 62
7
  6
CONTINUOUS
 10
2.3899417927
 20
-12.1500479942
 11
2.068121684
 21
-14.2894634102
  0
LINE
  5
31D
100
AcDbEntity
  8
RACCORDO
100
AcDbLine
 62
7
  6
CONTINUOUS
 10
2.3899417927
 20
-12.1500479942
 11
2.518610758
 21
-11.2946745712
  0
LINE
  5
31E
100
AcDbEntity
  8
RACCORDO
100
AcDbLine
 62
7
  6
CONTINUOUS
 10
3.5622341933
 20
-4.3568108219
 11
9.8279383682
 21
37.2967235178
  0
LINE
  5
31F
100
AcDbEntity
  8
RACCORDO
100
AcDbLine
 62
7
  6
CONTINUOUS
 10
2.8191400584
 20
-6.4024164489
 11
2.8400425217
 21
-6.2638357278
  0
LWPOLYLINE
  5
320
100
AcDbEntity
  8
SUPERFICI
100
AcDbPolyline
 62
7
  6
CONTINUOUS
 90
20
 70
0
 10
4.1818511966
 20
9.850686375
 10
4.1024955083
 20
9.3434737027
 10
4.0193627789
 20
8.8519773786
 10
3.9321677911
 20
8.376328182
 10
3.8419444276
 20
7.915329257
 10
3.7488760614
 20
7.4689826765
 10
3.6527793195
 20
7.0373774596
 10
3.5541379661
 20
6.6194309171
 10
3.4530886991
 20
6.2151468377
 10
3.3494948206
 20
5.8245418242
 10
3.2434300004
 20
5.4465451185
 10
3.1350396888
 20
5.0811457702
 10
3.0241784355
 20
4.7283296903
 10
2.9104835593
 20
4.3870208463
 10
2.794061731
 20
4.0569574109
 10
2.6748062799
 20
3.7383504909
 10
2.552034512
 20
3.4308334682
 10
2.4258271891
 20
3.1339575434
 10
2.2961035495
 20
2.8480996398
 10
2.1619386139
 20
2.5741228061
  0
LINE
  5
321
100
AcDbEntity
  8
RACCORDO
100
AcDbLine
 62
250
  6
CONTINUOUS
 10
2.8196732081
 20
-6.2463567473
 11
2.7954985236
 21
-6.399217467
  0
LINE
  5
322
100
AcDbEntity
  8
0
100
AcDbLine
 62
7
  6
CONTINUOUS
 10
2.4517674719
 20
-5.8527632237
 11
2.3946503679
 21
-6.1984323847
  0
LWPOLYLINE
  5
323
100
AcDbEntity
  8
0
100
AcDbPolyline
 62
7
  6
CONTINUOUS
 90
5
 70
0
 10
4.1639910282
 20
9.3726157911
 10
4.0681022474
 20
8.8121586709
 10
3.9668764712
 20
8.2738116892
 10
3.8617784924
 20
7.7544958324
 10
3.7529308422
 20
7.2537505967
  0
LINE
  5
324
100
AcDbEntity
  8
RACCORDO
100
AcDbLine
 62
7
  6
CONTINUOUS
 10
2.8305155662
 20
-6.3269982528
 11
2.8784119782
 21
-6.0677273794
  0
LWPOLYLINE
  5
325
100
AcDbEntity
  8
SUPERFICI
100
AcDbPolyline
 62
7
  6
CONTINUOUS
 90
4
 70
0
 10
4.2322415233
 20
7.3532566522
 10
4.4133782735
 20
8.2953338752
 10
4.5797739082
 20
9.2714765859
 10
4.7315795435
 20
10.2853620216
  0
LWPOLYLINE
  5
326
100
AcDbEntity
  8
RACCORDO
100
AcDbPolyline
 62
7
  6
CONTINUOUS
 90
4
 70
0
 10
2.8400425217
 20
-6.2638357278
 10
2.8992126185
 20
-5.9685052347
 10
2.9761974515
 20
-5.6796070469
 10
3.067421249
 20
-5.4051104215
  0
LWPOLYLINE
  5
327
100
AcDbEntity
  8
SUPERFICI
100
AcDbPolyline
 62
250
  6
CONTINUOUS
 90
3
 70
0
 10
2.7486646045
 20
-5.7248669871
 10
2.6911979328
 20
-5.985471721
 10
2.6521149207
 20
-6.2435679174
  0
LINE
  5
328
100
AcDbEntity
  8
0
100
AcDbLine
 62
7
  6
CONTINUOUS
 10
2.5307854908
 20
-5.4992011631
 11
2.4517674719
 21
-5.8527632237
  0
LWPOLYLINE
  5
329
100
AcDbEntity
  8
SUPERFICI
100
AcDbPolyline
 62
250
  6
CONTINUOUS
 90
4
 70
0
 10
-2.0681215658
 20
-14.2894641959
 10
-2.0633318538
 20
-14.2688848647
 10
-2.0448746061
 20
-14.2290544102
 10
-1.9695413575
 20
-14.0886703004
  0
LWPOLYLINE
  5
32A
100
AcDbEntity
  8
0
100
AcDbPolyline
 62
7
  6
CONTINUOUS
 90
11
 70
0
 10
3.7529308422
 20
7.2537505967
 10
3.6401880728
 20
6.772036486
 10
3.5245362646
 20
6.3076559982
 10
3.4060575525
 20
5.8606637334
 10
3.2844437432
 20
5.4310050915
 10
3.1600809621
 20
5.0168187705
 10
3.0330238262
 20
4.6179565279
 10
2.9028998562
 20
4.2345666062
 10
2.7695491374
 20
3.865232431
 10
2.6328555359
 20
3.5097745407
 10
2.4925613015
 20
3.1683723969
  0
LWPOLYLINE
  5
32B
100
AcDbEntity
  8
RACCORDO
100
AcDbPolyline
 62
250
  6
CONTINUOUS
 90
4
 70
0
 10
2.9072312246
 20
-5.8332900403
 10
2.8753522502
 20
-5.9633070914
 10
2.8462959354
 20
-6.1010532888
 10
2.8196732081
 20
-6.2463567473
  0
LWPOLYLINE
  5
32C
100
AcDbEntity
  8
RACCORDO
100
AcDbPolyline
 62
7
  6
CONTINUOUS
 90
3
 70
0
 10
2.8784119782
 20
-6.0677273794
 10
2.9549606936
 20
-5.7663750081
 10
3.0489907841
 20
-5.4743703136
  0
LINE
  5
32D
100
AcDbEntity
  8
0
100
AcDbLine
 62
7
  6
CONTINUOUS
 10
2.6317044249
 20
-5.1436793296
 11
2.5307854908
 21
-5.4992011631
  0
LINE
  5
32E
100
AcDbEntity
  8
SUPERFICI
100
AcDbLine
 62
250
  6
CONTINUOUS
 10
2.8238170244
 20
-5.4633491004
 11
2.7486646045
 21
-5.7248669871
  0
LINE
  5
32F
100
AcDbEntity
  8
SUPERFICI
100
AcDbLine
 62
250
  6
CONTINUOUS
 10
2.9185672881
 20
-5.1946702664
 11
2.8238170244
 21
-5.4633491004
  0
LINE
  5
330
100
AcDbEntity
  8
0
100
AcDbLine
 62
7
  6
CONTINUOUS
 10
2.7617333823
 20
-4.7925034374
 11
2.6317044249
 21
-5.1436793296
  0
LWPOLYLINE
  5
331
100
AcDbEntity
  8
RACCORDO
100
AcDbPolyline
 62
250
  6
CONTINUOUS
 90
6
 70
0
 10
3.0836881406
 20
-5.2908914896
 10
3.0479427062
 20
-5.3858347003
 10
3.0118552531
 20
-5.4871025803
 10
2.9763420886
 20
-5.5954120657
 10
2.9413765589
 20
-5.7108302503
 10
2.9072312246
 20
-5.8332900403
  0
LINE
  5
332
100
AcDbEntity
  8
RACCORDO
100
AcDbLine
 62
7
  6
CONTINUOUS
 10
3.0489907841
 20
-5.4743703136
 11
3.1552363677
 21
-5.1996443834
  0
LINE
  5
333
100
AcDbEntity
  8
RACCORDO
100
AcDbLine
 62
7
  6
CONTINUOUS
 10
3.067421249
 20
-5.4051104215
 11
3.1667524664
 21
-5.1527087542
  0
LWPOLYLINE
  5
334
100
AcDbEntity
  8
SUPERFICI
100
AcDbPolyline
 62
7
  6
CONTINUOUS
 90
7
 70
0
 10
2.7706051333
 20
2.3545932753
 10
3.0682152049
 20
3.1052193046
 10
3.3413426351
 20
3.883878315
 10
3.5922038721
 20
4.6942147805
 10
3.8229754656
 20
5.5454695934
 10
4.0357735794
 20
6.4360337027
 10
4.2322415233
 20
7.3532566522
  0
LINE
  5
335
100
AcDbEntity
  8
RACCORDO
100
AcDbLine
 62
250
  6
CONTINUOUS
 10
3.1188736428
 20
-5.2023223662
 11
3.0836881406
 21
-5.2908914896
  0
LWPOLYLINE
  5
336
100
AcDbEntity
  8
RACCORDO
100
AcDbPolyline
 62
250
  6
CONTINUOUS
 90
3
 70
0
 10
3.1871311466
 20
-5.0432929367
 10
3.1535132011
 20
-5.120077912
 10
3.1188736428
 20
-5.2023223662
  0
LWPOLYLINE
  5
337
100
AcDbEntity
  8
0
100
AcDbPolyline
 62
7
  6
CONTINUOUS
 90
5
 70
0
 10
2.4925613015
 20
3.1683723969
 10
2.3482434109
 20
2.8401478093
 10
2.2001227049
 20
2.5244093379
 10
2.0474425088
 20
2.2218484227
 10
1.8882384474
 20
1.9336611932
  0
LINE
  5
338
100
AcDbEntity
  8
RACCORDO
100
AcDbLine
 62
7
  6
CONTINUOUS
 10
3.1552363677
 20
-5.1996443834
 11
3.2647204448
 21
-4.9534920827
  0
LINE
  5
339
100
AcDbEntity
  8
0
100
AcDbLine
 62
7
  6
CONTINUOUS
 10
2.9136632548
 20
-4.4541678447
 11
2.7617333823
 21
-4.7925034374
  0
LINE
  5
33A
100
AcDbEntity
  8
RACCORDO
100
AcDbLine
 62
7
  6
CONTINUOUS
 10
3.1667524664
 20
-5.1527087542
 11
3.267526775
 21
-4.9292991493
  0
LINE
  5
33B
100
AcDbEntity
  8
SUPERFICI
100
AcDbLine
 62
250
  6
CONTINUOUS
 10
-1.7438476448
 20
-14.6733343349
 11
-1.7485199016
 21
-14.6835249133
  0
LINE
  5
33C
100
AcDbEntity
  8
0
100
AcDbLine
 62
7
  6
CONTINUOUS
 10
3.0265584766
 20
-4.2202268567
 11
2.9136632548
 21
-4.4541678447
  0
LWPOLYLINE
  5
33D
100
AcDbEntity
  8
RACCORDO
100
AcDbPolyline
 62
7
  6
CONTINUOUS
 90
4
 70
0
 10
3.2647204448
 20
-4.9534920827
 10
3.366599416
 20
-4.7479173452
 10
3.450903411
 20
-4.5911291784
 10
3.5072007828
 20
-4.4927465847
  0
LWPOLYLINE
  5
33E
100
AcDbEntity
  8
RACCORDO
100
AcDbPolyline
 62
7
  6
CONTINUOUS
 90
4
 70
0
 10
3.267526775
 20
-4.9292991493
 10
3.3629451111
 20
-4.7403365072
 10
3.44418071
 20
-4.5939928807
 10
3.4992954457
 20
-4.5030132661
  0
LWPOLYLINE
  5
33F
100
AcDbEntity
  8
SUPERFICI
100
AcDbPolyline
 62
7
  6
CONTINUOUS
 90
4
 70
0
 10
2.4323006666
 20
1.6544407581
 10
2.5492965451
 20
1.8784766203
 10
2.6620027862
 20
2.1118016248
 10
2.7706051333
 20
2.3545932753
  0
LWPOLYLINE
  5
340
100
AcDbEntity
  8
SUPERFICI
100
AcDbPolyline
 62
7
  6
CONTINUOUS
 90
4
 70
0
 10
2.1619386139
 20
2.5741228061
 10
2.0236456503
 20
2.3116556122
 10
1.8809113908
 20
2.0609694202
 10
1.7318710523
 20
1.8238713899
  0
LWPOLYLINE
  5
341
100
AcDbEntity
  8
RACCORDO
100
AcDbPolyline
 62
250
  6
CONTINUOUS
 90
7
 70
0
 10
3.3616939461
 20
-4.6891200998
 10
3.3362542677
 20
-4.7367525271
 10
3.3092679425
 20
-4.788415907
 10
3.2808089567
 20
-4.8448296926
 10
3.2508929312
 20
-4.9059973439
 10
3.2195943438
 20
-4.9719154009
 10
3.1871311466
 20
-5.0432929367
  0
LWPOLYLINE
  5
342
100
AcDbEntity
  8
SUPERFICI
100
AcDbPolyline
 62
250
  6
CONTINUOUS
 90
11
 70
0
 10
-1.9695413575
 20
-14.0886703004
 10
-1.9150291839
 20
-13.9881166452
 10
-1.8476101722
 20
-13.8772213584
 10
-1.7669070979
 20
-13.7567488982
 10
-1.675073745
 20
-13.6259348064
 10
-1.5698561933
 20
-13.4913952002
 10
-1.4535212264
 20
-13.3517733986
 10
-1.3278003523
 20
-13.2084260827
 10
-1.1870708835
 20
-13.0720394122
 10
-1.030535228
 20
-12.9403995313
 10
-0.8583257507
 20
-12.8157202959
  0
LWPOLYLINE
  5
343
100
AcDbEntity
  8
0
100
AcDbPolyline
 62
7
  6
CONTINUOUS
 90
3
 70
0
 10
1.8882384474
 20
1.9336611932
 10
1.7221241322
 20
1.6578554582
 10
1.5485458212
 20
1.3964234088
  0
LWPOLYLINE
  5
344
100
AcDbEntity
  8
SUPERFICI
100
AcDbPolyline
 62
7
  6
CONTINUOUS
 90
4
 70
0
 10
2.0536814729
 20
1.03628642
 10
2.1846839434
 20
1.2335254567
 10
2.3108265958
 20
1.439516567
 10
2.4323006666
 20
1.6544407581
  0
LWPOLYLINE
  5
345
100
AcDbEntity
  8
SUPERFICI
100
AcDbPolyline
 62
7
  6
CONTINUOUS
 90
7
 70
0
 10
1.3737564826
 20
0.270882642
 10
1.4981063097
 20
0.3794268992
 10
1.6178357773
 20
0.4953854606
 10
1.733102458
 20
0.618910335
 10
1.8440628821
 20
0.750145212
 10
1.9508717982
 20
0.8892268638
 10
2.0536814729
 20
1.03628642
  0
LWPOLYLINE
  5
346
100
AcDbEntity
  8
RACCORDO
100
AcDbPolyline
 62
250
  6
CONTINUOUS
 90
3
 70
0
 10
-9.8749938267
 20
38.7022780206
 10
-9.9049972444
 20
38.7778456557
 10
-9.9123517093
 20
38.8494789725
  0
LWPOLYLINE
  5
347
100
AcDbEntity
  8
RACCORDO
100
AcDbPolyline
 62
250
  6
CONTINUOUS
 90
3
 70
0
 10
2.4709460675
 20
-11.0279444525
 10
2.4775520861
 20
-11.0690946119
 10
2.4942725298
 20
-11.1670073557
  0
LINE
  5
348
100
AcDbEntity
  8
RACCORDO
100
AcDbLine
 62
7
  6
CONTINUOUS
 10
2.4910500805
 20
-11.0483582002
 11
2.4643979478
 21
-10.8703806073
  0
LINE
  5
349
100
AcDbEntity
  8
RACCORDO
100
AcDbLine
 62
7
  6
CONTINUOUS
 10
2.4643979478
 20
-10.8703806073
 11
2.4353521329
 21
-10.6353972143
  0
LWPOLYLINE
  5
34A
100
AcDbEntity
  8
RACCORDO
100
AcDbPolyline
 62
250
  6
CONTINUOUS
 90
5
 70
0
 10
3.4476042768
 20
-4.5369826698
 10
3.4285052162
 20
-4.5696890808
 10
3.4078305256
 20
-4.6058320598
 10
3.3855572236
 20
-4.6454606035
 10
3.3616939461
 20
-4.6891200998
  0
LINE
  5
34B
100
AcDbEntity
  8
RACCORDO
100
AcDbLine
 62
7
  6
CONTINUOUS
 10
3.5072007828
 20
-4.4927465847
 11
3.5259343398
 21
-4.4612154333
  0
LINE
  5
34C
100
AcDbEntity
  8
RACCORDO
100
AcDbLine
 62
7
  6
CONTINUOUS
 10
3.515726097
 20
-4.4777840743
 11
3.5259361668
 21
-4.4612171995
  0
LWPOLYLINE
  5
34D
100
AcDbEntity
  8
RACCORDO
100
AcDbPolyline
 62
250
  6
CONTINUOUS
 90
4
 70
0
 10
3.4951406852
 20
-4.458639337
 10
3.4809429085
 20
-4.4816281445
 10
3.4650979699
 20
-4.5077618236
 10
3.4476042768
 20
-4.5369826698
  0
LWPOLYLINE
  5
34E
100
AcDbEntity
  8
RACCORDO
100
AcDbPolyline
 62
250
  6
CONTINUOUS
 90
3
 70
0
 10
3.5284733043
 20
-4.4064920136
 10
3.5188589923
 20
-4.4213517128
 10
3.4951406852
 20
-4.458639337
  0
LINE
  5
34F
100
AcDbEntity
  8
RACCORDO
100
AcDbLine
 62
7
  6
CONTINUOUS
 10
3.4992954457
 20
-4.5030132661
 11
3.5156389447
 21
-4.4779156535
  0
LINE
  5
350
100
AcDbEntity
  8
RACCORDO
100
AcDbLine
 62
7
  6
CONTINUOUS
 10
3.5156600318
 20
-4.4778838296
 11
3.515726097
 21
-4.4777840743
  0
LWPOLYLINE
  5
351
100
AcDbEntity
  8
RACCORDO
100
AcDbPolyline
 62
250
  6
CONTINUOUS
 90
3
 70
0
 10
3.5494719079
 20
-4.375116474
 10
3.5436671604
 20
-4.3837161887
 10
3.5284733043
 20
-4.4064920136
  0
LWPOLYLINE
  5
352
100
AcDbEntity
  8
RACCORDO
100
AcDbPolyline
 62
250
  6
CONTINUOUS
 90
5
 70
0
 10
3.5622341933
 20
-4.3568108219
 10
3.5617497343
 20
-4.3574214407
 10
3.5602378635
 20
-4.3595815032
 10
3.5576854791
 20
-4.3632910092
 10
3.5494719079
 20
-4.375116474
  0
LWPOLYLINE
  5
353
100
AcDbEntity
  8
SUPERFICI
100
AcDbPolyline
 62
250
  6
CONTINUOUS
 90
14
 70
0
 10
-0.9840635384
 20
-13.4716218746
 10
-1.0833525292
 20
-13.5956407302
 10
-1.1764415418
 20
-13.71893629
 10
-1.2642574821
 20
-13.8397166785
 10
-1.3459486561
 20
-13.9574555996
 10
-1.4204660645
 20
-14.0714196851
 10
-1.4878013895
 20
-14.1803257877
 10
-1.5480946151
 20
-14.2826659059
 10
-1.6005429729
 20
-14.377237335
 10
-1.6450604746
 20
-14.4624483202
 10
-1.6818652873
 20
-14.5364572195
 10
-1.7106134573
 20
-14.597570116
 10
-1.7312186325
 20
-14.6439091711
 10
-1.7438476448
 20
-14.6733343349
  0
LINE
  5
354
100
AcDbEntity
  8
0
100
AcDbLine
 62
7
  6
CONTINUOUS
 10
-1.44280771
 20
8.5782654504
 11
1.4428296
 21
8.5782584854
  0
LINE
  5
355
100
AcDbEntity
  8
0
100
AcDbLine
 62
7
  6
CONTINUOUS
 10
-1.44280771
 20
9.1553873404
 11
1.442822635
 21
9.1553793804
  0
LINE
  5
356
100
AcDbEntity
  8
0
100
AcDbLine
 62
7
  6
CONTINUOUS
 10
-1.44280771
 20
9.7324873404
 11
1.442822635
 21
9.7324873404
  0
LINE
  5
357
100
AcDbEntity
  8
0
100
AcDbLine
 62
7
  6
CONTINUOUS
 10
0.544104805
 20
6.9784716154
 11
-1.44280771
 21
7.6163909904
  0
LINE
  5
358
100
AcDbEntity
  8
0
100
AcDbLine
 62
7
  6
CONTINUOUS
 10
1.442822635
 20
7.2670365404
 11
-1.44280771
 21
8.1935198454
  0
LWPOLYLINE
  5
359
100
AcDbEntity
  8
SUPERFICI
100
AcDbPolyline
 62
7
  6
CONTINUOUS
 90
14
 70
0
 10
4.4603119118
 20
17.1299037915
 10
4.3685577614
 20
17.8014440253
 10
4.2504266353
 20
18.4488850203
 10
4.1017418888
 20
19.0670789265
 10
3.9222455353
 20
19.6578640854
 10
3.7121955614
 20
20.2197693482
 10
3.468189283
 20
20.7429946155
 10
3.1879386472
 20
21.2300642679
 10
2.8737317069
 20
21.6793393483
 10
2.5290299372
 20
22.0752296597
 10
2.1485927497
 20
22.4174950351
 10
1.7376607327
 20
22.7077162654
 10
1.3154171271
 20
22.9333684226
 10
0.8882563465
 20
23.0906817444
  0
LWPOLYLINE
  5
35A
100
AcDbEntity
  8
RACCORDO
100
AcDbPolyline
 62
250
  6
CONTINUOUS
 90
3
 70
0
 10
9.874930233
 20
38.7030734168
 10
9.8423193464
 20
39.0244973537
 10
9.7928846033
 20
39.3559815701
  0
LWPOLYLINE
  5
35B
100
AcDbEntity
  8
RACCORDO
100
AcDbPolyline
 62
7
  6
CONTINUOUS
 90
16
 70
0
 10
9.912394867
 20
38.8490526871
 10
9.8946198402
 20
39.1514868736
 10
9.73834525
 20
40.2604502168
 10
9.448866441
 20
41.3372468013
 10
9.0345166525
 20
42.3724883967
 10
8.5021760103
 20
43.3547847025
 10
7.8605106019
 20
44.2704585188
 10
7.1174511794
 20
45.1090185335
 10
6.2813323986
 20
45.8603435382
 10
5.365205405
 20
46.512197511
 10
4.3830862078
 20
47.0557388596
 10
3.3500136802
 20
47.4840100325
 10
2.2855799787
 20
47.7922177301
 10
1.2095857471
 20
47.9803826723
 10
0.1402166915
 20
48.0525113311
 10
-0.0007451633
 20
48.0537212399
  0
LINE
  5
35C
100
AcDbEntity
  8
RACCORDO
100
AcDbLine
 62
7
  6
CONTINUOUS
 10
9.912394867
 20
38.8490526871
 11
9.9123598584
 21
38.8499335283
  0
LINE
  5
35D
100
AcDbEntity
  8
SUPERFICI
100
AcDbLine
 62
250
  6
CONTINUOUS
 10
-0.8583257507
 20
-12.8157202959
 11
-0.6684450509
 21
-12.7153294337
  0
LWPOLYLINE
  5
35E
100
AcDbEntity
  8
SUPERFICI
100
AcDbPolyline
 62
7
  6
CONTINUOUS
 90
10
 70
0
 10
1.7485203118
 20
-14.6835240192
 10
1.8026835415
 20
-14.6595732907
 10
1.8534309367
 20
-14.6295107843
 10
1.9003012384
 20
-14.5936481707
 10
1.9426886755
 20
-14.5524749199
 10
1.9799277584
 20
-14.5065677678
 10
2.0114768167
 20
-14.4565919757
 10
2.0369061764
 20
-14.4033164985
 10
2.0558588331
 20
-14.3474346321
 10
2.0681219266
 20
-14.2894617812
  0
LWPOLYLINE
  5
35F
100
AcDbEntity
  8
SUPERFICI
100
AcDbPolyline
 62
250
  6
CONTINUOUS
 90
4
 70
0
 10
-0.6684450509
 20
-12.7153294337
 10
-0.4609505963
 20
-12.6450028539
 10
-0.236300965
 20
-12.5989646473
 10
-0.0
 20
-12.5772148139
  0
LINE
  5
360
100
AcDbEntity
  8
0
100
AcDbLine
 62
7
  6
CONTINUOUS
 10
-0.460057155
 20
10.3096082354
 11
1.442822635
 21
10.3096082354
  0
LINE
  5
361
100
AcDbEntity
  8
0
100
AcDbLine
 62
7
  6
CONTINUOUS
 10
-0.460057155
 20
11.9779834404
 11
1.442822635
 21
11.9779904054
  0
LINE
  5
362
100
AcDbEntity
  8
0
100
AcDbLine
 62
7
  6
CONTINUOUS
 10
-1.44280771
 20
12.5551122954
 11
1.442822635
 21
12.5551122954
  0
LINE
  5
363
100
AcDbEntity
  8
0
100
AcDbLine
 62
7
  6
CONTINUOUS
 10
0.436417945
 20
11.1437993204
 11
-1.44280771
 21
11.6826594804
  0
LINE
  5
364
100
AcDbEntity
  8
0
100
AcDbLine
 62
7
  6
CONTINUOUS
 10
1.442814675
 20
11.4323493204
 11
-0.460057155
 21
11.9779834404
  0
LINE
  5
365
100
AcDbEntity
  8
0
100
AcDbLine
 62
7
  6
CONTINUOUS
 10
1.442822635
 20
12.9398579004
 11
-1.442814675
 21
13.8663262804
  0
LINE
  5
366
100
AcDbEntity
  8
0
100
AcDbLine
 62
7
  6
CONTINUOUS
 10
1.442814675
 20
13.5169787954
 11
0.875338315
 21
13.6991772254
  0
LINE
  5
367
100
AcDbEntity
  8
0
100
AcDbLine
 62
7
  6
CONTINUOUS
 10
0.327071425
 20
13.8752136204
 11
-0.54408988
 21
14.1548981704
  0
LWPOLYLINE
  5
368
100
AcDbEntity
  8
0
100
AcDbPolyline
 62
7
  6
CONTINUOUS
 90
6
 70
0
 43
0.3500000006
 10
17.8298499985
 20
14.9200939636
 10
17.8298499985
 20
15.9915231857
 10
17.6155643806
 20
16.2058099365
 10
16.5441362915
 20
16.2058099365
 10
16.1155639229
 20
15.7772387009
 10
16.1155639229
 20
15.3486651993
  0
LINE
  5
369
100
AcDbEntity
  8
0
100
AcDbLine
 62
7
  6
CONTINUOUS
 10
-1.442814675
 20
15.7547059354
 11
1.442814675
 21
15.7547059354
  0
LINE
  5
36A
100
AcDbEntity
  8
0
100
AcDbLine
 62
7
  6
CONTINUOUS
 10
-0.90897628
 20
16.3238708104
 11
-0.20677493
 21
16.3238777754
  0
LINE
  5
36B
100
AcDbEntity
  8
0
100
AcDbLine
 62
7
  6
CONTINUOUS
 10
0.32706446
 20
16.3318994654
 11
1.442814675
 21
16.3318347904
  0
LINE
  5
36C
100
AcDbEntity
  8
0
100
AcDbLine
 62
7
  6
CONTINUOUS
 10
1.9817746641
 20
22.3303104895
 11
2.4243254936
 21
21.9606428834
  0
LWPOLYLINE
  5
36D
100
AcDbEntity
  8
SUPERFICI
100
AcDbPolyline
 62
7
  6
CONTINUOUS
 90
16
 70
0
 10
2.8480255447
 20
22.8747811533
 10
3.1837438018
 20
22.5336699361
 10
3.4913100184
 20
22.1527275704
 10
3.7709806139
 20
21.7346948947
 10
4.023923651
 20
21.2828570378
 10
4.2499405227
 20
20.798756219
 10
4.4476987447
 20
20.2824505054
 10
4.6182394481
 20
19.7360971011
 10
4.7627797092
 20
19.161563514
 10
4.8809227156
 20
18.5585062431
 10
4.9745893232
 20
17.928012924
 10
5.0450490921
 20
17.2718262544
 10
5.0915301951
 20
16.5904222215
 10
5.1150591343
 20
15.8844004198
 10
5.1180674721
 20
15.1544164152
 10
5.1020478294
 20
14.400661238
  0
LWPOLYLINE
  5
36E
100
AcDbEntity
  8
0
100
AcDbPolyline
 62
7
  6
CONTINUOUS
 90
12
 70
0
 10
2.4243254936
 20
21.9606428834
 10
2.825342045
 20
21.53043486
 10
3.1823730493
 20
21.0407706757
 10
3.4988814457
 20
20.4905660741
 10
3.7732120009
 20
19.895729148
 10
4.006534908
 20
19.2570695742
 10
4.1999648757
 20
18.573777676
 10
4.3540098772
 20
17.8593325159
 10
4.4706222886
 20
17.1072578186
 10
4.5524889236
 20
16.3240298594
 10
4.6023213079
 20
15.5425565263
 10
4.6210548879
 20
14.7651646136
  0
LWPOLYLINE
  5
36F
100
AcDbEntity
  8
RACCORDO
100
AcDbPolyline
 62
250
  6
CONTINUOUS
 90
3
 70
0
 10
9.7928846033
 20
39.3559815701
 10
9.7255920006
 20
39.6975260661
 10
9.6394755108
 20
40.0512874633
  0
LINE
  5
370
100
AcDbEntity
  8
SUPERFICI
100
AcDbLine
 62
7
  6
CONTINUOUS
 10
-0.4251085807
 20
23.1841277299
 11
-0.8365684818
 21
23.101851121
  0
LINE
  5
371
100
AcDbEntity
  8
SUPERFICI
100
AcDbLine
 62
7
  6
CONTINUOUS
 10
0.0000000195
 20
23.2149439321
 11
-0.4251085807
 21
23.1841277299
  0
LWPOLYLINE
  5
372
100
AcDbEntity
  8
0
100
AcDbPolyline
 62
7
  6
CONTINUOUS
 90
5
 70
0
 10
-0.0
 20
22.9928072481
 10
0.5193123677
 20
22.9483317174
 10
1.025086087
 20
22.8241549065
 10
1.5126683104
 20
22.6202768153
 10
1.9817746641
 20
22.3303104895
  0
LWPOLYLINE
  5
373
100
AcDbEntity
  8
SUPERFICI
100
AcDbPolyline
 62
7
  6
CONTINUOUS
 90
3
 70
0
 10
0.8882563465
 20
23.0906817444
 10
0.4497839773
 20
23.1844552023
 10
0.0000000195
 20
23.2149439321
  0
LWPOLYLINE
  5
374
100
AcDbEntity
  8
0
100
AcDbPolyline
 62
7
  6
CONTINUOUS
 90
3
 70
0
 43
0.3500000006
 10
17.5441354637
 20
17.7772370453
 10
17.7584210815
 20
17.7058081284
 10
18.0441356163
 20
17.5629525604
  0
LINE
  5
375
100
AcDbEntity
  8
SUPERFICI
100
AcDbLine
 62
7
  6
CONTINUOUS
 10
1.2960719143
 20
23.8088744763
 11
1.552490829
 21
23.7117225832
  0
LWPOLYLINE
  5
376
100
AcDbEntity
  8
SUPERFICI
100
AcDbPolyline
 62
7
  6
CONTINUOUS
 90
7
 70
0
 10
1.552490829
 20
23.7117225832
 10
1.7823397384
 20
23.6111850685
 10
2.0069028007
 20
23.4946202228
 10
2.2259583954
 20
23.3623610421
 10
2.439295616
 20
23.2147429949
 10
2.6467143833
 20
23.0521034548
 10
2.8480255447
 20
22.8747811533
  0
LWPOLYLINE
  5
377
100
AcDbEntity
  8
0
100
AcDbPolyline
 62
7
  6
CONTINUOUS
 90
10
 70
0
 43
0.3500000006
 10
14.8298502159
 20
13.6343802567
 10
15.4727070694
 20
12.9915222702
 10
16.3298506737
 20
12.5629510345
 10
17.4012787628
 20
12.5629510345
 10
17.8298499985
 20
12.9915222702
 10
17.8298499985
 20
13.6343802567
 10
17.4012787628
 20
14.0629514923
 10
16.5441362915
 20
14.0629514923
 10
16.1155639229
 20
13.6343802567
 10
16.1155639229
 20
12.7058088684
  0
LWPOLYLINE
  5
378
100
AcDbEntity
  8
0
100
AcDbPolyline
 62
7
  6
CONTINUOUS
 90
5
 70
0
 43
0.3500000006
 10
16.1155639229
 20
15.7772387009
 10
15.9012783051
 20
16.1343810196
 10
15.2584214516
 20
16.1343810196
 10
14.8298502159
 20
15.7772387009
 10
14.8298502159
 20
14.9200939636
  0
LWPOLYLINE
  5
379
100
AcDbEntity
  8
RACCORDO
100
AcDbPolyline
 62
250
  6
CONTINUOUS
 90
48
 70
0
 10
9.6394755108
 20
40.0512874633
 10
9.5336925006
 20
40.41510914
 10
9.4082616249
 20
40.782521231
 10
9.2627308617
 20
41.1536884403
 10
9.0967273951
 20
41.5284460638
 10
8.9114815071
 20
41.8998301242
 10
8.7057876244
 20
42.2690707998
 10
8.4811033399
 20
42.6349379124
 10
8.2430706608
 20
42.9867769495
 10
7.9933521126
 20
43.3232785289
 10
7.7315907556
 20
43.645752033
 10
7.4654902688
 20
43.9474710967
 10
7.2006950627
 20
44.2249479761
 10
6.9360364527
 20
44.4816704151
 10
6.6712729459
 20
44.7213752804
 10
6.4072961668
 20
44.9441685909
 10
6.1449321416
 20
45.1499443277
 10
5.8827524649
 20
45.3421213013
 10
5.6215293938
 20
45.521258856
 10
5.3629034088
 20
45.6867976475
 10
5.1074319346
 20
45.8404784535
 10
4.8550864965
 20
45.9823555623
 10
4.6064325846
 20
46.1123746856
 10
4.3624335346
 20
46.2321137364
 10
4.1242152143
 20
46.3414160459
 10
3.8916798815
 20
46.4404382829
 10
3.6642346944
 20
46.5312283673
 10
3.4422746918
 20
46.6138830215
 10
3.2259279424
 20
46.6883055231
 10
3.0141796792
 20
46.7562536241
 10
2.8071407535
 20
46.817891978
 10
2.6052800832
 20
46.8730559314
 10
2.4080528605
 20
46.9230092757
 10
2.2154543867
 20
46.9678470011
 10
2.0275774447
 20
47.0074741175
 10
1.8442365415
 20
47.0428694462
 10
1.6657227347
 20
47.0740767611
 10
1.4922069008
 20
47.1010522884
 10
1.3232760127
 20
47.124643528
 10
1.1589938478
 20
47.1448934967
 10
0.9994217931
 20
47.1617591777
 10
0.8441942487
 20
47.1759590207
 10
0.6933804675
 20
47.1875360079
 10
0.5469534157
 20
47.196447157
 10
0.4044371429
 20
47.2032819718
 10
0.2656811161
 20
47.2082369534
 10
0.1308642611
 20
47.2111156005
 10
-0.0
 20
47.2119179132
  0
LWPOLYLINE
  5
37A
100
AcDbEntity
  8
SUPERFICI
100
AcDbPolyline
 62
7
  6
CONTINUOUS
 90
6
 70
0
 10
-0.0
 20
24.0136401453
 10
0.2596088572
 20
24.0100630211
 10
0.5194480174
 20
23.9878480243
 10
0.7790966281
 20
23.9469335648
 10
1.0381204093
 20
23.8872808769
 10
1.2960719143
 20
23.8088744763
  0
LWPOLYLINE
  5
37B
100
AcDbEntity
  8
0
100
AcDbPolyline
 62
7
  6
CONTINUOUS
 90
3
 70
0
 43
0.3500000006
 10
15.6869926872
 20
18.7772373505
 10
14.8298502159
 20
19.6343798218
 10
17.8298499985
 20
19.6343798218
  0
LWPOLYLINE
  5
37C
100
AcDbEntity
  8
0
100
AcDbPolyline
 62
7
  6
CONTINUOUS
 90
10
 70
0
 43
0.3500000006
 10
0.6428572783
 20
57.5942028809
 10
0.7142858412
 20
57.4513405151
 10
0.7142858412
 20
57.379918396
 10
0.5714286801
 20
57.2370560303
 10
0.5000001172
 20
57.2370560303
 10
0.4285715189
 20
57.3084872131
 10
0.4285715189
 20
57.379918396
 10
0.5000001172
 20
57.522771698
 10
0.5714286801
 20
57.5942028809
 10
0.6428572783
 20
57.5942028809
  0
LWPOLYLINE
  5
37D
100
AcDbEntity
  8
RACCORDO
100
AcDbPolyline
 62
7
  6
CONTINUOUS
 90
15
 70
0
 10
-0.0007486998
 20
48.0537184837
 10
-1.1313037334
 20
47.9894817474
 10
-2.2091843673
 20
47.8095417187
 10
-3.2760462902
 20
47.5095967185
 10
-4.312301583
 20
47.0895048071
 10
-5.2987338428
 20
46.5536965708
 10
-6.220002054
 20
45.9090170221
 10
-7.0621776688
 20
45.1642272343
 10
-7.8122044023
 20
44.3311715696
 10
-8.4614416562
 20
43.4201036558
 10
-9.0018531992
 20
42.4413401537
 10
-9.4248806182
 20
41.408172703
 10
-9.7233644125
 20
40.331974543
 10
-9.8889210166
 20
39.2221388399
 10
-9.9123757628
 20
38.849478424
  0
LWPOLYLINE
  5
37E
100
AcDbEntity
  8
RACCORDO
100
AcDbPolyline
 62
250
  6
CONTINUOUS
 90
51
 70
0
 10
-0.0
 20
47.2119179132
 10
-0.1274448273
 20
47.2111472386
 10
-0.2586936528
 20
47.2084124263
 10
-0.3937340791
 20
47.2037134763
 10
-0.5324805135
 20
47.1972230763
 10
-0.6749922492
 20
47.1887685386
 10
-0.8214702608
 20
47.1778318005
 10
-0.9719357485
 20
47.1644375588
 10
-1.1263297451
 20
47.1485611168
 10
-1.2847472069
 20
47.1296103203
 10
-1.4471681077
 20
47.1076071219
 10
-1.6135517025
 20
47.0825295691
 10
-1.7840528836
 20
47.0537196512
 10
-1.9585086043
 20
47.0211963947
 10
-2.1366990319
 20
46.984940773
 10
-2.318646971
 20
46.9442376955
 10
-2.5042081304
 20
46.899134048
 10
-2.6934614737
 20
46.8495829447
 10
-2.8865556538
 20
46.7947286375
 10
-3.0830821943
 20
46.7346759918
 10
-3.2830252692
 20
46.6693201424
 10
-3.4870536137
 20
46.5974907447
 10
-3.6949672545
 20
46.5192829032
 10
-3.9065515902
 20
46.4346015135
 10
-4.1223948032
 20
46.3419909181
 10
-4.3424427342
 20
46.2414392997
 10
-4.5662586392
 20
46.1329584755
 10
-4.7936054098
 20
46.0151282406
 10
-5.024406032
 20
45.8878913784
 10
-5.258251398
 20
45.7513051054
 10
-5.4946009127
 20
45.6041208658
 10
-5.732697579
 20
45.4465665174
 10
-5.9721546308
 20
45.2784142023
 10
-6.2129077742
 20
45.0977317917
 10
-6.4543841706
 20
44.904785582
 10
-6.6967174692
 20
44.6993092767
 10
-6.9398273126
 20
44.478571857
 10
-7.1829164002
 20
44.2422698281
 10
-7.4251528043
 20
43.9907066848
 10
-7.6661490166
 20
43.7220618922
 10
-7.9057701016
 20
43.434135133
 10
-8.1398373344
 20
43.1291267246
 10
-8.3643496586
 20
42.8118170838
 10
-8.578430815
 20
42.4813115387
 10
-8.780964184
 20
42.1385047612
 10
-8.967949515
 20
41.7908611839
 10
-9.1383218276
 20
41.4387206144
 10
-9.2924374222
 20
41.0817432452
 10
-9.4285868607
 20
40.7263740864
 10
-9.5470346636
 20
40.3724554676
 10
-9.6477447743
 20
40.0201450591
  0
LWPOLYLINE
  5
37F
100
AcDbEntity
  8
0
100
AcDbPolyline
 62
7
  6
CONTINUOUS
 90
13
 70
0
 43
0.3500000006
 10
2.1428573112
 20
58.8084876709
 10
1.8571429181
 20
59.0227721558
 10
1.8571429181
 20
59.6656256104
 10
2.1428573112
 20
60.0942036438
 10
2.785714448
 20
60.0942036438
 10
3.0714286995
 20
59.6656256104
 10
3.0714286995
 20
59.0227721558
 10
2.785714448
 20
58.8084876709
 10
3.2142856836
 20
58.3799187012
 10
3.2142856836
 20
57.522771698
 10
2.785714448
 20
57.0942027283
 10
2.1428573112
 20
57.0942027283
 10
1.7142857924
 20
57.522771698
  0
LWPOLYLINE
  5
380
100
AcDbEntity
  8
0
100
AcDbPolyline
 62
7
  6
CONTINUOUS
 90
5
 70
0
 43
0.3500000006
 10
-34.9340245285
 20
59.2440447693
 10
-34.5768822098
 20
59.4583292542
 10
-34.5768822098
 20
60.1011917725
 10
-34.9340245285
 20
60.5297607422
 10
-35.7911692657
 20
60.5297607422
  0
LWPOLYLINE
  5
381
100
AcDbEntity
  8
0
100
AcDbPolyline
 62
7
  6
CONTINUOUS
 90
3
 70
0
 43
0.3500000006
 10
-37.5054542084
 20
59.6726228027
 10
-36.6483117371
 20
60.5297607422
 10
-36.6483117371
 20
57.5297598267
  0
LINE
  5
382
100
AcDbEntity
  8
RACCORDO
100
AcDbLine
 62
250
  6
CONTINUOUS
 10
-33.3960447891
 20
39.2489452749
 11
-32.5410547398
 21
39.8544453247
  0
LINE
  5
383
100
AcDbEntity
  8
0
100
AcDbLine
 62
250
  6
CONTINUOUS
 10
-31.898664978
 20
40.3042354862
 11
-32.01587023
 21
40.2221237292
  0
LINE
  5
384
100
AcDbEntity
  8
0
100
AcDbLine
 62
250
  6
CONTINUOUS
 10
-32.2285627775
 20
40.0732516335
 11
-32.2833693914
 21
40.0348762883
  0
LWPOLYLINE
  5
385
100
AcDbEntity
  8
RACCORDO
100
AcDbPolyline
 62
250
  6
CONTINUOUS
 90
10
 70
0
 10
-34.22683025
 20
38.7017459881
 10
-34.1177209793
 20
38.7775056183
 10
-34.0055557438
 20
38.8544091264
 10
-33.8935846231
 20
38.9302279827
 10
-33.7850520719
 20
39.0027650866
 10
-33.6831029062
 20
39.0699184305
 10
-33.5906911766
 20
39.129742008
 10
-33.5104945698
 20
39.1805022027
 10
-33.4448368187
 20
39.220728022
 10
-33.3956203673
 20
39.2492537205
  0
LWPOLYLINE
  5
386
100
AcDbEntity
  8
RACCORDO
100
AcDbPolyline
 62
250
  6
CONTINUOUS
 90
10
 70
0
 10
-33.0691891646
 20
37.2946209179
 10
-32.9725383782
 20
37.3588908744
 10
-32.8779222833
 20
37.4243130085
 10
-32.7873327463
 20
37.4895100499
 10
-32.7026768661
 20
37.5531094674
 10
-32.6257368259
 20
37.6137723627
 10
-32.5581323744
 20
37.6702216578
 10
-32.501286727
 20
37.7212689794
 10
-32.4563966037
 20
37.7658396773
 10
-32.4244070361
 20
37.8029954474
  0
LINE
  5
387
100
AcDbEntity
  8
0
100
AcDbLine
 62
250
  6
CONTINUOUS
 10
-28.6110704547
 20
34.6915601219
 11
-28.7868053193
 21
34.6069112693
  0
LWPOLYLINE
  5
388
100
AcDbEntity
  8
0
100
AcDbPolyline
 62
7
  6
CONTINUOUS
 90
6
 70
0
 10
-30.9769829333
 20
38.3588582462
 10
-30.9821119142
 20
38.3526419456
 10
-31.0018129621
 20
38.3633409229
 10
-31.0347201679
 20
38.3964274792
 10
-31.079592536
 20
38.4499548711
 10
-31.1345172268
 20
38.5212830646
  0
LWPOLYLINE
  5
389
100
AcDbEntity
  8
0
100
AcDbPolyline
 62
7
  6
CONTINUOUS
 90
3
 70
0
 43
0.3500000006
 10
-32.9340261841
 20
57.8154754944
 10
-33.005455101
 20
57.6011910095
 10
-33.1483106689
 20
57.3154753418
  0
LWPOLYLINE
  5
38A
100
AcDbEntity
  8
SUPERFICI
100
AcDbPolyline
 62
7
  6
CONTINUOUS
 90
10
 70
0
 10
-27.169905765
 20
24.0140041151
 10
-27.1815126513
 20
24.0076101898
 10
-27.1928555945
 20
23.9937462065
 10
-27.2038731818
 20
23.9724121059
 10
-27.214772518
 20
23.9425751232
 10
-27.225246398
 20
23.9052678214
 10
-27.2344352189
 20
23.8635878729
 10
-27.2419981884
 20
23.8185674919
 10
-27.2481514072
 20
23.7691736576
 10
-27.2528581628
 20
23.7154060042
  0
LWPOLYLINE
  5
38B
100
AcDbEntity
  8
RACCORDO
100
AcDbPolyline
 62
7
  6
CONTINUOUS
 90
10
 70
0
 10
-40.4051976609
 20
47.2741519214
 10
-40.3885882951
 20
47.4171440837
 10
-40.320969059
 20
47.6115518142
 10
-40.2059844123
 20
47.7822717089
 10
-40.0512461179
 20
47.9180024529
 10
-39.8669975539
 20
48.0097589456
 10
-39.6654356211
 20
48.0514670973
 10
-39.4599033323
 20
48.0403659219
 10
-39.26400653
 20
47.97719031
 10
-39.0907132061
 20
47.8661223798
  0
LWPOLYLINE
  5
38C
100
AcDbEntity
  8
SUPERFICI
100
AcDbPolyline
 62
250
  6
CONTINUOUS
 90
10
 70
0
 10
-33.0691891646
 20
-14.2894632818
 10
-32.7052762073
 20
-14.2722516667
 10
-32.3262099138
 20
-14.2359781548
 10
-31.9524037752
 20
-14.1806427459
 10
-31.6052883125
 20
-14.1036892098
 10
-31.2884178844
 20
-14.0076737768
 10
-30.9869500757
 20
-13.9002651379
 10
-30.6994399097
 20
-13.7819682236
 10
-30.4334607657
 20
-13.6522781035
 10
-30.1833166997
 20
-13.5173486774
  0
LWPOLYLINE
  5
38D
100
AcDbEntity
  8
SUPERFICI
100
AcDbPolyline
 62
250
  6
CONTINUOUS
 90
22
 70
0
 10
-33.0691882286
 20
-14.6835218131
 10
-33.4026089447
 20
-14.6733337121
 10
-33.7238482279
 20
-14.6439093971
 10
-34.0323154244
 20
-14.5975716683
 10
-34.3276707918
 20
-14.5364605774
 10
-34.6095898465
 20
-14.4624538511
 10
-34.8777136059
 20
-14.377244706
 10
-35.1318734994
 20
-14.2826740913
 10
-35.3721796034
 20
-14.1803334883
 10
-35.5987451944
 20
-14.0714247934
 10
-35.8115715627
 20
-13.9574548051
 10
-36.0108056108
 20
-13.8397064447
 10
-36.1967576432
 20
-13.7189134805
 10
-36.369967417
 20
-13.5955994037
 10
-36.5301009675
 20
-13.4715575672
 10
-36.6762432514
 20
-13.3494637617
 10
-36.8112898363
 20
-13.2268890492
 10
-36.9325978428
 20
-13.1082598933
 10
-37.0316168672
 20
-13.0072959261
 10
-37.1058929127
 20
-12.929642101
 10
-37.1583382905
 20
-12.8719593042
 10
-37.1884911159
 20
-12.8345990937
  0
LWPOLYLINE
  5
38E
100
AcDbEntity
  8
SUPERFICI
100
AcDbPolyline
 62
250
  6
CONTINUOUS
 90
10
 70
0
 10
-35.9675388362
 20
-13.4914731993
 10
-35.7146162708
 20
-13.6260021255
 10
-35.4465631673
 20
-13.7568034082
 10
-35.1576783558
 20
-13.8772635424
 10
-34.8533102739
 20
-13.9881472787
 10
-34.5322782172
 20
-14.0886898666
 10
-34.1884541636
 20
-14.1699835494
 10
-33.8231706957
 20
-14.2290590748
 10
-33.4444912448
 20
-14.2688856951
 10
-33.0691891646
 20
-14.2894634102
  0
LWPOLYLINE
  5
38F
100
AcDbEntity
  8
SUPERFICI
100
AcDbPolyline
 62
7
  6
CONTINUOUS
 90
13
 70
0
 10
-36.8209177358
 20
-13.3053356062
 10
-36.2642676354
 20
-13.8455868326
 10
-35.6287807753
 20
-14.2943790962
 10
-34.9292868675
 20
-14.6403582408
 10
-34.1865536329
 20
-14.8726545528
 10
-33.4168732617
 20
-14.987086437
 10
-32.6367306075
 20
-14.9804297925
 10
-31.8689993844
 20
-14.8529277755
 10
-31.1301110946
 20
-14.6079080874
 10
-30.4363154953
 20
-14.2498678769
 10
-29.8082825992
 20
-13.7899885816
 10
-29.260692484
 20
-13.2398016681
 10
-28.9498800721
 20
-12.8345571139
  0
LWPOLYLINE
  5
390
100
AcDbEntity
  8
SUPERFICI
100
AcDbPolyline
 62
250
  6
CONTINUOUS
 90
10
 70
0
 10
-37.2760480424
 20
-12.5772148139
 10
-37.2542085685
 20
-12.5989826104
 10
-37.1910001028
 20
-12.645037905
 10
-37.0907402701
 20
-12.7153806977
 10
-36.9580277475
 20
-12.8157888298
 10
-36.797923061
 20
-12.94048446
 10
-36.615116452
 20
-13.0721340644
 10
-36.4150884453
 20
-13.2085203411
 10
-36.2016318586
 20
-13.3518605919
 10
-35.9675388362
 20
-13.4914731993
  0
LWPOLYLINE
  5
391
100
AcDbEntity
  8
SUPERFICI
100
AcDbPolyline
 62
250
  6
CONTINUOUS
 90
3
 70
0
 10
-32.7263825248
 20
-11.2843295234
 10
-32.399067914
 20
-11.219385338
 10
-32.0915265907
 20
-11.1156763338
  0
LWPOLYLINE
  5
392
100
AcDbEntity
  8
RACCORDO
100
AcDbPolyline
 62
7
  6
CONTINUOUS
 90
17
 70
0
 10
-32.8014108024
 20
-10.9290840109
 10
-32.7562053079
 20
-10.9214094223
 10
-32.710853125
 20
-10.9124899523
 10
-32.6654485771
 20
-10.9023195174
 10
-32.6201378
 20
-10.8909114308
 10
-32.5748591454
 20
-10.8782294445
 10
-32.5294023127
 20
-10.8641769164
 10
-32.4839312509
 20
-10.848758484
 10
-32.4383895867
 20
-10.8319066222
 10
-32.3922650335
 20
-10.8133476638
 10
-32.345590502
 20
-10.7929790089
 10
-32.2984943697
 20
-10.7707478562
 10
-32.2506535598
 20
-10.746370318
 10
-32.2021058007
 20
-10.719699813
 10
-32.153045554
 20
-10.6906685141
 10
-32.1034280619
 20
-10.6590579573
 10
-32.0534261509
 20
-10.6247632634
  0
LINE
  5
393
100
AcDbEntity
  8
SUPERFICI
100
AcDbLine
 62
250
  6
CONTINUOUS
 10
-33.0726068472
 20
-11.3089658756
 11
-32.7263825248
 21
-11.2843295234
  0
LINE
  5
394
100
AcDbEntity
  8
SUPERFICI
100
AcDbLine
 62
250
  6
CONTINUOUS
 10
-30.7286648753
 20
-9.0566847231
 11
-30.626901074
 21
-9.0522308201
  0
LWPOLYLINE
  5
395
100
AcDbEntity
  8
RACCORDO
100
AcDbPolyline
 62
250
  6
CONTINUOUS
 90
4
 70
0
 10
-35.0367751867
 20
-9.2377158065
 10
-35.100360453
 20
-9.239142257
 10
-35.1648140707
 20
-9.2387608146
 10
-35.2271549411
 20
-9.2365892189
  0
LWPOLYLINE
  5
396
100
AcDbEntity
  8
RACCORDO
100
AcDbPolyline
 62
7
  6
CONTINUOUS
 90
7
 70
0
 10
-33.0691046676
 20
-10.9500493276
 10
-33.0247927693
 20
-10.9494684619
 10
-32.9803139954
 20
-10.947727543
 10
-32.9357018996
 20
-10.9448225325
 10
-32.891056355
 20
-10.9407563242
 10
-32.8463462401
 20
-10.9355216258
 10
-32.8014108024
 20
-10.9290840109
  0
LWPOLYLINE
  5
397
100
AcDbEntity
  8
RACCORDO
100
AcDbPolyline
 62
250
  6
CONTINUOUS
 90
12
 70
0
 10
-33.0691891646
 20
-11.2946745715
 10
-33.013143657
 20
-11.293989731
 10
-32.9580337501
 20
-11.2919279397
 10
-32.9033532076
 20
-11.2884891977
 10
-32.8485919243
 20
-11.2836944014
 10
-32.7933414823
 20
-11.2775226544
 10
-32.7376254652
 20
-11.2699112671
 10
-32.6818948599
 20
-11.2608551329
 10
-32.6261818144
 20
-11.2503593585
 10
-32.5704239637
 20
-11.2383765738
 10
-32.5147501672
 20
-11.2249532597
 10
-32.4591737324
 20
-11.2100429355
  0
LWPOLYLINE
  5
398
100
AcDbEntity
  8
RACCORDO
100
AcDbPolyline
 62
250
  6
CONTINUOUS
 90
4
 70
0
 10
-31.0989570553
 20
-9.2394036689
 10
-31.0348377851
 20
-9.240817659
 10
-30.969984899
 20
-9.2403203934
 10
-30.907438736
 20
-9.2379351841
  0
LINE
  5
399
100
AcDbEntity
  8
SUPERFICI
100
AcDbLine
 62
250
  6
CONTINUOUS
 10
-35.4147589017
 20
-9.0473500043
 11
-35.5192078264
 21
-9.0431993841
  0
LWPOLYLINE
  5
39A
100
AcDbEntity
  8
SUPERFICI
100
AcDbPolyline
 62
250
  6
CONTINUOUS
 90
4
 70
0
 10
-34.048974552
 20
-11.1138945359
 10
-33.7442783696
 20
-11.2134359857
 10
-33.418528023
 20
-11.2780381266
 10
-33.0726068472
 20
-11.3089658756
  0
LWPOLYLINE
  5
39B
100
AcDbEntity
  8
RACCORDO
100
AcDbPolyline
 62
7
  6
CONTINUOUS
 90
18
 70
0
 10
-34.0592636349
 20
-10.6425658536
 10
-33.9933656618
 20
-10.6855300052
 10
-33.9277462858
 20
-10.724315003
 10
-33.8626949619
 20
-10.7591158802
 10
-33.7984608671
 20
-10.7901403026
 10
-33.734985074
 20
-10.8177149886
 10
-33.6724537465
 20
-10.8420288031
 10
-33.6110813017
 20
-10.8632773431
 10
-33.5507919909
 20
-10.8817368113
 10
-33.4917015983
 20
-10.8975890694
 10
-33.4339798309
 20
-10.9109932664
 10
-33.3775917534
 20
-10.9221452384
 10
-33.3226814552
 20
-10.9311894523
 10
-33.2692917971
 20
-10.9382839412
 10
-33.2172101886
 20
-10.9435998207
 10
-33.1664030824
 20
-10.9472607627
 10
-33.1170194828
 20
-10.9493722883
 10
-33.0691046673
 20
-10.9500493273
  0
LWPOLYLINE
  5
39C
100
AcDbEntity
  8
RACCORDO
100
AcDbPolyline
 62
250
  6
CONTINUOUS
 90
21
 70
0
 10
-34.5277066098
 20
-10.7465272276
 10
-34.4467520962
 20
-10.8138791471
 10
-34.3655829562
 20
-10.875603185
 10
-34.2845172324
 20
-10.931694405
 10
-34.203436639
 20
-10.9821577434
 10
-34.1229704975
 20
-11.0279444525
 10
-34.0432929678
 20
-11.0690946119
 10
-33.9643281125
 20
-11.1055681422
 10
-33.8865254558
 20
-11.1381960576
 10
-33.8100290858
 20
-11.1670073557
 10
-33.7347855521
 20
-11.191973039
 10
-33.6609485848
 20
-11.2138371296
 10
-33.5886859313
 20
-11.2326395111
 10
-33.5181047945
 20
-11.2483403
 10
-33.4491108186
 20
-11.2615638678
 10
-33.3817022773
 20
-11.2723501088
 10
-33.3160057236
 20
-11.2806591288
 10
-33.2522552087
 20
-11.2869956162
 10
-33.1901324783
 20
-11.2915278005
 10
-33.1292335662
 20
-11.2940874522
 10
-33.0691891646
 20
-11.2946745712
  0
LWPOLYLINE
  5
39D
100
AcDbEntity
  8
RACCORDO
100
AcDbPolyline
 62
250
  6
CONTINUOUS
 90
3
 70
0
 10
-34.6851486646
 20
-10.5920083651
 10
-34.6070441532
 20
-10.6726109818
 10
-34.5277066098
 20
-10.7465272276
  0
LINE
  5
39E
100
AcDbEntity
  8
SUPERFICI
100
AcDbLine
 62
7
  6
CONTINUOUS
 10
-37.1884911159
 20
-12.8345990937
 11
-36.8209177358
 21
-13.3053356062
  0
LWPOLYLINE
  5
39F
100
AcDbEntity
  8
SUPERFICI
100
AcDbPolyline
 62
7
  6
CONTINUOUS
 90
10
 70
0
 10
-37.2760480853
 20
-12.5772139688
 10
-37.2735132499
 20
-12.6077284991
 10
-37.2691203257
 20
-12.6379979645
 10
-37.262882744
 20
-12.6679463572
 10
-37.2548238861
 20
-12.6974683477
 10
-37.2449723433
 20
-12.726445159
 10
-37.2333668175
 20
-12.7547626096
 10
-37.220056843
 20
-12.782309012
 10
-37.2050879026
 20
-12.8089864857
 10
-37.1884954999
 20
-12.8347264539
  0
LINE
  5
3A0
100
AcDbEntity
  8
0
100
AcDbLine
 62
7
  6
CONTINUOUS
 10
-40.4043660005
 20
47.2119179132
 11
-39.137161153
 21
22.9928072481
  0
LINE
  5
3A1
100
AcDbEntity
  8
0
100
AcDbLine
 62
7
  6
CONTINUOUS
 10
-37.9515125581
 20
0.3324184534
 11
-37.2760480424
 21
-12.5772148139
  0
LINE
  5
3A2
100
AcDbEntity
  8
RACCORDO
100
AcDbLine
 62
7
  6
CONTINUOUS
 10
-40.4043658566
 20
47.2119179208
 11
-40.4051976609
 21
47.2741519214
  0
LINE
  5
3A3
100
AcDbEntity
  8
0
100
AcDbLine
 62
7
  6
CONTINUOUS
 10
-36.540706432
 20
7.7544958324
 11
-36.5801344166
 21
7.2537505967
  0
LINE
  5
3A4
100
AcDbEntity
  8
0
100
AcDbLine
 62
7
  6
CONTINUOUS
 10
-36.5801344166
 20
7.2537505967
 11
-36.6259938914
 21
6.772036486
  0
LINE
  5
3A5
100
AcDbEntity
  8
0
100
AcDbLine
 62
7
  6
CONTINUOUS
 10
-36.6259938914
 20
6.772036486
 11
-36.6766562503
 21
6.3076559982
  0
LWPOLYLINE
  5
3A6
100
AcDbEntity
  8
0
100
AcDbPolyline
 62
7
  6
CONTINUOUS
 90
15
 70
0
 10
-36.6766562503
 20
6.3076559982
 10
-36.7316797064
 20
5.8606637334
 10
-36.7909566757
 20
5.4310050915
 10
-36.8534567799
 20
5.0168187705
 10
-36.9187116122
 20
4.6179565279
 10
-36.9865701984
 20
4.2345666062
 10
-37.0560851444
 20
3.865232431
 10
-37.1269521035
 20
3.5097745407
 10
-37.1991669411
 20
3.1683723969
 10
-37.2726104056
 20
2.8401478093
 10
-37.3462265015
 20
2.5244093379
 10
-37.4196797861
 20
2.2218484227
 10
-37.4932483756
 20
1.9336611932
 10
-37.5657834002
 20
1.6578554582
 10
-37.6362569429
 20
1.3964234088
  0
LINE
  5
3A7
100
AcDbEntity
  8
0
100
AcDbLine
 62
7
  6
CONTINUOUS
 10
-37.9429714225
 20
0.3746903925
 11
-37.9515125581
 21
0.3324184534
  0
LWPOLYLINE
  5
3A8
100
AcDbEntity
  8
IGES
100
AcDbPolyline
 62
7
  6
CONTINUOUS
 90
23
 70
0
 10
-29.4170256379
 20
35.7082864368
 10
-29.4114909233
 20
35.7308003186
 10
-29.40475825
 20
35.7628112743
 10
-29.3993630254
 20
35.7946639606
 10
-29.3952833704
 20
35.826219754
 10
-29.3924745364
 20
35.8574378379
 10
-29.3908908034
 20
35.8882873575
 10
-29.3904864245
 20
35.9186462116
 10
-29.3912053201
 20
35.9484659745
 10
-29.3929911969
 20
35.9777287188
 10
-29.395782622
 20
36.0063598967
 10
-29.3995070673
 20
36.0342583669
 10
-29.4041054205
 20
36.0614542006
 10
-29.4095445271
 20
36.0880629993
 10
-29.4157344267
 20
36.113905145
 10
-29.4226287283
 20
36.1390292929
 10
-29.4303079396
 20
36.1638521078
 10
-29.4389156466
 20
36.1887875781
 10
-29.44812117
 20
36.2129135863
 10
-29.4573090482
 20
36.2349544124
 10
-29.4663455919
 20
36.25502897
 10
-29.4756479637
 20
36.2743388774
 10
-29.4861140623
 20
36.2947751525
  0
LWPOLYLINE
  5
3A9
100
AcDbEntity
  8
SUPERFICI
100
AcDbPolyline
 62
7
  6
CONTINUOUS
 90
10
 70
0
 10
-36.8803119837
 20
2.3545932753
 10
-36.6825963402
 20
3.1052193046
 10
-36.4954719008
 20
3.883878315
 10
-36.3245222348
 20
4.6942147805
 10
-36.1754794611
 20
5.5454695934
 10
-36.0511453132
 20
6.4360337027
 10
-35.9512957146
 20
7.3532566522
 10
-35.8772611486
 20
8.2953338752
 10
-35.832236392
 20
9.2714765859
 10
-35.8179500637
 20
10.2853620216
  0
LWPOLYLINE
  5
3AA
100
AcDbEntity
  8
0
100
AcDbPolyline
 62
7
  6
CONTINUOUS
 90
3
 70
0
 10
-37.6362569429
 20
1.3964234088
 10
-37.7686094587
 20
0.9350940037
 10
-37.826541267
 20
0.7351966478
  0
LWPOLYLINE
  5
3AB
100
AcDbEntity
  8
0
100
AcDbPolyline
 62
7
  6
CONTINUOUS
 90
4
 70
0
 10
-37.826541267
 20
0.7351966478
 10
-37.8767521486
 20
0.5733318027
 10
-37.9168924818
 20
0.4549948423
 10
-37.9429714225
 20
0.3746903925
  0
LWPOLYLINE
  5
3AC
100
AcDbEntity
  8
SUPERFICI
100
AcDbPolyline
 62
7
  6
CONTINUOUS
 90
6
 70
0
 10
-37.2446027121
 20
1.2335254567
 10
-37.170482535
 20
1.439516567
 10
-37.0964853617
 20
1.6544407581
 10
-37.0231389068
 20
1.8784766203
 10
-36.9509309082
 20
2.1118016248
 10
-36.8803119837
 20
2.3545932753
  0
LWPOLYLINE
  5
3AD
100
AcDbEntity
  8
SUPERFICI
100
AcDbPolyline
 62
7
  6
CONTINUOUS
 90
7
 70
0
 10
-37.6900350152
 20
0.1609845727
 10
-37.5887874944
 20
0.3794268992
 10
-37.5364671039
 20
0.4953854606
 10
-37.4827885727
 20
0.618910335
 10
-37.4282353143
 20
0.750145212
 10
-37.3732577244
 20
0.8892268638
 10
-37.2446027121
 20
1.2335254567
  0
LWPOLYLINE
  5
3AE
100
AcDbEntity
  8
SUPERFICI
100
AcDbPolyline
 62
7
  6
CONTINUOUS
 90
4
 70
0
 10
-37.9106356234
 20
-0.2559034792
 10
-37.9095235098
 20
-0.2536620592
 10
-37.9061870345
 20
-0.2480555565
 10
-37.8931889188
 20
-0.2266238455
  0
LWPOLYLINE
  5
3AF
100
AcDbEntity
  8
SUPERFICI
100
AcDbPolyline
 62
7
  6
CONTINUOUS
 90
3
 70
0
 10
-37.7783351054
 20
-0.0193171252
 10
-37.7365127211
 20
0.0642531923
 10
-37.6900350152
 20
0.1609845727
  0
LWPOLYLINE
  5
3B0
100
AcDbEntity
  8
SUPERFICI
100
AcDbPolyline
 62
7
  6
CONTINUOUS
 90
4
 70
0
 10
-37.8723133258
 20
-0.191387303
 10
-37.8466095482
 20
-0.1470849697
 10
-37.8151556077
 20
-0.0897492142
 10
-37.7783351054
 20
-0.0193171252
  0
LWPOLYLINE
  5
3B1
100
AcDbEntity
  8
SUPERFICI
100
AcDbPolyline
 62
7
  6
CONTINUOUS
 90
3
 70
0
 10
-37.8931889188
 20
-0.2266238455
 10
-37.8836952624
 20
-0.2107434397
 10
-37.8723133258
 20
-0.191387303
  0
LWPOLYLINE
  5
3B2
100
AcDbEntity
  8
RACCORDO
100
AcDbPolyline
 62
250
  6
CONTINUOUS
 90
8
 70
0
 10
-33.6160990067
 20
-4.4213517128
 10
-33.6836385785
 20
-4.4387376967
 10
-33.7528214004
 20
-4.458639337
 10
-33.8232489122
 20
-4.4816281445
 10
-33.8949823448
 20
-4.5077618236
 10
-33.9678343498
 20
-4.5369826698
 10
-34.0411066147
 20
-4.5696890808
 10
-34.1146483541
 20
-4.6058320598
  0
LWPOLYLINE
  5
3B3
100
AcDbEntity
  8
SUPERFICI
100
AcDbPolyline
 62
250
  6
CONTINUOUS
 90
3
 70
0
 10
-33.4338630869
 20
-4.0370583906
 10
-33.7578721678
 20
-4.0972986497
 10
-34.0624193647
 20
-4.192482241
  0
LWPOLYLINE
  5
3B4
100
AcDbEntity
  8
RACCORDO
100
AcDbPolyline
 62
7
  6
CONTINUOUS
 90
15
 70
0
 10
-33.3027613635
 20
-4.628030853
 10
-33.351818415
 20
-4.6353822065
 10
-33.4020624117
 20
-4.644378869
 10
-33.4533793472
 20
-4.6551219283
 10
-33.506203179
 20
-4.6678517928
 10
-33.5606175528
 20
-4.6827806591
 10
-33.6163210287
 20
-4.7000295214
 10
-33.673140447
 20
-4.7197492371
 10
-33.7309612717
 20
-4.7421178041
 10
-33.7895886547
 20
-4.7672908216
 10
-33.8487302984
 20
-4.7953510255
 10
-33.9081243411
 20
-4.826359031
 10
-33.9677135283
 20
-4.8604794963
 10
-34.0274971226
 20
-4.8979413182
 10
-34.0872371719
 20
-4.9388530743
  0
LWPOLYLINE
  5
3B5
100
AcDbEntity
  8
RACCORDO
100
AcDbPolyline
 62
250
  6
CONTINUOUS
 90
6
 70
0
 10
-33.3028920562
 20
-4.3684290198
 10
-33.3627908307
 20
-4.375116474
 10
-33.4241227573
 20
-4.3837161887
 10
-33.4867228196
 20
-4.3941479709
 10
-33.5505363835
 20
-4.4064920136
 10
-33.6160990067
 20
-4.4213517128
  0
LINE
  5
3B6
100
AcDbEntity
  8
SUPERFICI
100
AcDbLine
 62
250
  6
CONTINUOUS
 10
-33.0917479326
 20
-4.0107463621
 11
-33.4338630869
 21
-4.0370583906
  0
LINE
  5
3B7
100
AcDbEntity
  8
SUPERFICI
100
AcDbLine
 62
250
  6
CONTINUOUS
 10
-30.7240363062
 20
-6.25674468
 11
-30.62187944
 21
-6.2520614277
  0
LWPOLYLINE
  5
3B8
100
AcDbEntity
  8
RACCORDO
100
AcDbPolyline
 62
250
  6
CONTINUOUS
 90
4
 70
0
 10
-35.0431577031
 20
-6.4010958755
 10
-35.1080500406
 20
-6.4023813678
 10
-35.1734749435
 20
-6.4017450909
 10
-35.2363044193
 20
-6.3992174656
  0
LWPOLYLINE
  5
3B9
100
AcDbEntity
  8
RACCORDO
100
AcDbPolyline
 62
7
  6
CONTINUOUS
 90
6
 70
0
 10
-33.0691891646
 20
-4.61218558
 10
-33.1146374321
 20
-4.6127893285
 10
-33.160802054
 20
-4.6146328927
 10
-33.2076453783
 20
-4.6177649436
 10
-33.2549064066
 20
-4.6222106877
 10
-33.3027613635
 20
-4.628030853
  0
LWPOLYLINE
  5
3BA
100
AcDbEntity
  8
RACCORDO
100
AcDbPolyline
 62
250
  6
CONTINUOUS
 90
5
 70
0
 10
-33.0691891646
 20
-4.3568108219
 10
-33.126956791
 20
-4.3574214407
 10
-33.1851098046
 20
-4.3595815032
 10
-33.2437724501
 20
-4.3632910092
 10
-33.3028920562
 20
-4.3684290198
  0
LWPOLYLINE
  5
3BB
100
AcDbEntity
  8
RACCORDO
100
AcDbPolyline
 62
250
  6
CONTINUOUS
 90
4
 70
0
 10
-31.0937086991
 20
-6.4028980017
 10
-31.028481784
 20
-6.4041956208
 10
-30.962809786
 20
-6.4034684936
 10
-30.8998593935
 20
-6.4007516226
  0
LINE
  5
3BC
100
AcDbEntity
  8
SUPERFICI
100
AcDbLine
 62
250
  6
CONTINUOUS
 10
-35.4295714084
 20
-6.248090446
 11
-35.5321275896
 21
-6.243541336
  0
LINE
  5
3BD
100
AcDbEntity
  8
SUPERFICI
100
AcDbLine
 62
250
  6
CONTINUOUS
 10
-32.7322914617
 20
-4.0505708776
 11
-33.0917479326
 21
-4.0107463621
  0
LWPOLYLINE
  5
3BE
100
AcDbEntity
  8
SUPERFICI
100
AcDbPolyline
 62
250
  6
CONTINUOUS
 90
3
 70
0
 10
-32.0910703956
 20
-4.2213434945
 10
-32.398237389
 20
-4.1214850489
 10
-32.7322914617
 20
-4.0505708776
  0
LWPOLYLINE
  5
3BF
100
AcDbEntity
  8
RACCORDO
100
AcDbPolyline
 62
250
  6
CONTINUOUS
 90
17
 70
0
 10
-32.0577252398
 20
-4.5906309934
 10
-32.1313896061
 20
-4.5558285104
 10
-32.2037377707
 20
-4.5247964612
 10
-32.2748338154
 20
-4.4974666283
 10
-32.3443704134
 20
-4.4731214393
 10
-32.4122270722
 20
-4.4517515644
 10
-32.4785760949
 20
-4.4333663336
 10
-32.5434105816
 20
-4.4172761642
 10
-32.6065152478
 20
-4.4034229424
 10
-32.6679828812
 20
-4.391864782
 10
-32.7282616111
 20
-4.3820864413
 10
-32.7872272022
 20
-4.3740254756
 10
-32.8448692613
 20
-4.3677443296
 10
-32.9016665781
 20
-4.3629150967
 10
-32.9579058585
 20
-4.3594284745
 10
-33.0136873623
 20
-4.3573937653
 10
-33.0691891646
 20
-4.3568109691
  0
LWPOLYLINE
  5
3C0
100
AcDbEntity
  8
RACCORDO
100
AcDbPolyline
 62
250
  6
CONTINUOUS
 90
7
 70
0
 10
-31.3191891758
 20
-9.2000490346
 10
-31.3121570881
 20
-9.2088363064
 10
-31.2913905023
 20
-9.2172116258
 10
-31.2578629676
 20
-9.2247823533
 10
-31.2131462733
 20
-9.2311935691
 10
-31.1593367627
 20
-9.2361447117
 10
-31.0989570553
 20
-9.2394036689
  0
LWPOLYLINE
  5
3C1
100
AcDbEntity
  8
SUPERFICI
100
AcDbPolyline
 62
250
  6
CONTINUOUS
 90
6
 70
0
 10
-35.1987038985
 20
-10.1479412861
 10
-35.0321413491
 20
-10.3818504494
 10
-34.8344607274
 20
-10.5957370899
 10
-34.6021985488
 20
-10.7944839177
 10
-34.3363881651
 20
-10.9727286985
 10
-34.048974552
 20
-11.1138945359
  0
LWPOLYLINE
  5
3C2
100
AcDbEntity
  8
RACCORDO
100
AcDbPolyline
 62
7
  6
CONTINUOUS
 90
10
 70
0
 10
-34.6143533981
 20
-10.0218438639
 10
-34.5615611688
 20
-10.1142216261
 10
-34.5052034403
 20
-10.2004371905
 10
-34.4459491924
 20
-10.2805561494
 10
-34.3844573216
 20
-10.3546259933
 10
-34.3211547
 20
-10.4229313758
 10
-34.2565950473
 20
-10.4855772687
 10
-34.1912653152
 20
-10.5428005455
 10
-34.1253593371
 20
-10.5950563854
 10
-34.0592636349
 20
-10.6425658536
  0
LWPOLYLINE
  5
3C3
100
AcDbEntity
  8
RACCORDO
100
AcDbPolyline
 62
250
  6
CONTINUOUS
 90
7
 70
0
 10
-35.0848197633
 20
-9.9606774397
 10
-35.0308032147
 20
-10.0842569689
 10
-34.9708365883
 20
-10.2002949589
 10
-34.9046131216
 20
-10.3089847191
 10
-34.8348574583
 20
-10.4105398423
 10
-34.7617971629
 20
-10.5048414222
 10
-34.6851486646
 20
-10.5920083651
  0
LWPOLYLINE
  5
3C4
100
AcDbEntity
  8
SUPERFICI
100
AcDbPolyline
 62
250
  6
CONTINUOUS
 90
3
 70
0
 10
-35.4255932851
 20
-9.6280234863
 10
-35.3299947697
 20
-9.8962492694
 10
-35.1987038985
 20
-10.1479412861
  0
LWPOLYLINE
  5
3C5
100
AcDbEntity
  8
RACCORDO
100
AcDbPolyline
 62
250
  6
CONTINUOUS
 90
3
 70
0
 10
-35.171230395
 20
-9.691840028
 10
-35.1327513943
 20
-9.8297496807
 10
-35.0848197633
 20
-9.9606774397
  0
LWPOLYLINE
  5
3C6
100
AcDbEntity
  8
SUPERFICI
100
AcDbPolyline
 62
250
  6
CONTINUOUS
 90
3
 70
0
 10
-35.5188131177
 20
-9.0432128947
 10
-35.4883521356
 20
-9.3433797855
 10
-35.4255932851
 20
-9.6280234863
  0
LWPOLYLINE
  5
3C7
100
AcDbEntity
  8
0
100
AcDbPolyline
 62
7
  6
CONTINUOUS
 90
3
 70
0
 10
-36.6130555475
 20
13.2415721714
 10
-36.5501736817
 20
12.5304751747
 10
-36.5067188579
 20
11.847060309
  0
LWPOLYLINE
  5
3C8
100
AcDbEntity
  8
RACCORDO
100
AcDbPolyline
 62
250
  6
CONTINUOUS
 90
4
 70
0
 10
-35.2271455634
 20
-9.2365860441
 10
-35.2178310005
 20
-9.3953192657
 10
-35.1991932555
 20
-9.5470705937
 10
-35.171230395
 20
-9.691840028
  0
LINE
  5
3C9
100
AcDbEntity
  8
0
100
AcDbLine
 62
7
  6
CONTINUOUS
 10
-36.5067188579
 20
11.847060309
 11
-36.4772950871
 21
11.1897269957
  0
LWPOLYLINE
  5
3CA
100
AcDbEntity
  8
RACCORDO
100
AcDbPolyline
 62
7
  6
CONTINUOUS
 90
8
 70
0
 10
-34.8191891636
 20
-9.2001072591
 10
-34.8139263219
 20
-9.3345546684
 10
-34.798923144
 20
-9.4642870179
 10
-34.7752971594
 20
-9.5885342349
 10
-34.7441730864
 20
-9.7064638748
 10
-34.7065128594
 20
-9.8178477404
 10
-34.6629739231
 20
-9.9230018333
 10
-34.6143533981
 20
-10.0218438639
  0
LINE
  5
3CB
100
AcDbEntity
  8
0
100
AcDbLine
 62
7
  6
CONTINUOUS
 10
-36.4772950871
 20
11.1897269957
 11
-36.4610393801
 21
10.5592655131
  0
LINE
  5
3CC
100
AcDbEntity
  8
SUPERFICI
100
AcDbLine
 62
7
  6
CONTINUOUS
 10
-33.0910023915
 20
-4.0877324669
 11
-33.0917479326
 21
-4.0107463621
  0
LINE
  5
3CD
100
AcDbEntity
  8
SUPERFICI
100
AcDbLine
 62
250
  6
CONTINUOUS
 10
-35.5188131177
 20
-9.0432128947
 11
-35.5319004709
 21
-6.2435679174
  0
LWPOLYLINE
  5
3CE
100
AcDbEntity
  8
0
100
AcDbPolyline
 62
7
  6
CONTINUOUS
 90
3
 70
0
 10
-36.4610393801
 20
10.5592655131
 10
-36.4583134513
 20
9.9548855829
 10
-36.4655358995
 20
9.3726157911
  0
LINE
  5
3CF
100
AcDbEntity
  8
RACCORDO
100
AcDbLine
 62
250
  6
CONTINUOUS
 10
-35.2363044236
 20
-6.399217467
 11
-35.2271455634
 21
-9.2365860441
  0
LINE
  5
3D0
100
AcDbEntity
  8
SUPERFICI
100
AcDbLine
 62
7
  6
CONTINUOUS
 10
-36.0191054149
 20
-6.1984324638
 11
-36.0191154146
 21
-8.9855227848
  0
LINE
  5
3D1
100
AcDbEntity
  8
RACCORDO
100
AcDbLine
 62
7
  6
CONTINUOUS
 10
-34.8191891646
 20
-6.3622072639
 11
-34.8191891646
 21
-9.2001072591
  0
LINE
  5
3D2
100
AcDbEntity
  8
SUPERFICI
100
AcDbLine
 62
7
  6
CONTINUOUS
 10
-34.8191454146
 20
-6.3622072639
 11
-34.8191454146
 21
-8.9854927855
  0
LINE
  5
3D3
100
AcDbEntity
  8
SUPERFICI
100
AcDbLine
 62
250
  6
CONTINUOUS
 10
-33.0691891646
 20
-12.1500479942
 11
-33.0691876216
 21
-14.6835240192
  0
LINE
  5
3D4
100
AcDbEntity
  8
RACCORDO
100
AcDbLine
 62
250
  6
CONTINUOUS
 10
-33.0691891646
 20
-4.6121857517
 11
-33.0691891646
 21
37.2946210087
  0
LINE
  5
3D5
100
AcDbEntity
  8
RACCORDO
100
AcDbLine
 62
250
  6
CONTINUOUS
 10
-33.069189165
 20
-10.9500496213
 11
-33.0691891646
 21
-12.1500479942
  0
LINE
  5
3D6
100
AcDbEntity
  8
SUPERFICI
100
AcDbLine
 62
250
  6
CONTINUOUS
 10
-33.0726068472
 20
-11.3089658756
 11
-33.0723190221
 21
-11.0261925479
  0
LINE
  5
3D7
100
AcDbEntity
  8
SUPERFICI
100
AcDbLine
 62
250
  6
CONTINUOUS
 10
-33.0723190221
 20
-11.0261925479
 11
-33.0719801973
 21
-10.9436260663
  0
LINE
  5
3D8
100
AcDbEntity
  8
0
100
AcDbLine
 62
7
  6
CONTINUOUS
 10
-33.4355852805
 20
42.035265933
 11
-33.4352483759
 21
42.0543057706
  0
LINE
  5
3D9
100
AcDbEntity
  8
0
100
AcDbLine
 62
7
  6
CONTINUOUS
 10
-36.4655358995
 20
9.3726157911
 11
-36.4820181397
 21
8.8121586709
  0
LINE
  5
3DA
100
AcDbEntity
  8
RACCORDO
100
AcDbLine
 62
7
  6
CONTINUOUS
 10
-34.8142942622
 20
-6.232487323
 11
-34.8191891645
 21
-6.3622072639
  0
LWPOLYLINE
  5
3DB
100
AcDbEntity
  8
0
100
AcDbPolyline
 62
7
  6
CONTINUOUS
 90
3
 70
0
 10
-36.4820181397
 20
8.8121586709
 10
-36.5078386483
 20
8.2738116892
 10
-36.540706432
 20
7.7544958324
  0
LWPOLYLINE
  5
3DC
100
AcDbEntity
  8
IGES
100
AcDbPolyline
 62
7
  6
CONTINUOUS
 90
18
 70
0
 10
-30.2876521489
 20
36.8268426797
 10
-30.2852009081
 20
36.8408722404
 10
-30.2779220935
 20
36.8951248918
 10
-30.2741663751
 20
36.9485812207
 10
-30.2737546618
 20
37.0003953374
 10
-30.2763276323
 20
37.05005801
 10
-30.2815412849
 20
37.097849245
 10
-30.2891557335
 20
37.1439939028
 10
-30.2988691542
 20
37.188124819
 10
-30.3102726303
 20
37.2296760259
 10
-30.3230392717
 20
37.2686410644
 10
-30.3374584411
 20
37.3065055027
 10
-30.3524902958
 20
37.3411880576
 10
-30.3662563173
 20
37.3697374179
 10
-30.379818587
 20
37.3954882507
 10
-30.3951437161
 20
37.422271706
 10
-30.4114914845
 20
37.4485977312
 10
-30.4219620396
 20
37.4644150311
  0
LWPOLYLINE
  5
3DD
100
AcDbEntity
  8
SUPERFICI
100
AcDbPolyline
 62
250
  6
CONTINUOUS
 90
4
 70
0
 10
-35.3804134343
 20
-5.4633491004
 10
-35.4701844582
 20
-5.7248669871
 10
-35.5202340838
 20
-5.985471721
 10
-35.5319004709
 20
-6.2435679174
  0
LWPOLYLINE
  5
3DE
100
AcDbEntity
  8
RACCORDO
100
AcDbPolyline
 62
7
  6
CONTINUOUS
 90
20
 70
0
 10
-32.0742326474
 20
-4.9226243484
 10
-32.1350304767
 20
-4.8824215995
 10
-32.1956510443
 20
-4.8458116663
 10
-32.2558159223
 20
-4.8126756354
 10
-32.3151973265
 20
-4.7829114994
 10
-32.3734809256
 20
-4.7563935999
 10
-32.4306054787
 20
-4.7328788144
 10
-32.4866385155
 20
-4.7120807158
 10
-32.5413965342
 20
-4.6938259746
 10
-32.5947688121
 20
-4.6779260985
 10
-32.646969324
 20
-4.664124277
 10
-32.6978796582
 20
-4.6522851439
 10
-32.7474333879
 20
-4.6422663313
 10
-32.7959560652
 20
-4.6338704094
 10
-32.8433033041
 20
-4.6270102066
 10
-32.8895041908
 20
-4.6215738909
 10
-32.9351658787
 20
-4.6174157572
 10
-32.9804669698
 20
-4.6144819834
 10
-33.0251527597
 20
-4.6127527568
 10
-33.0691891646
 20
-4.6121857273
  0
LWPOLYLINE
  5
3DF
100
AcDbEntity
  8
RACCORDO
100
AcDbPolyline
 62
250
  6
CONTINUOUS
 90
7
 70
0
 10
-31.6084609403
 20
-4.8864545658
 10
-31.682464966
 20
-4.8258187562
 10
-31.757219131
 20
-4.7698980863
 10
-31.8326760899
 20
-4.718769239
 10
-31.9079889328
 20
-4.6718555265
 10
-31.9830352538
 20
-4.6291356925
 10
-32.0577252398
 20
-4.5906309934
  0
LINE
  5
3E0
100
AcDbEntity
  8
RACCORDO
100
AcDbLine
 62
250
  6
CONTINUOUS
 10
-31.5351391397
 20
-4.9518821979
 11
-31.6084609403
 21
-4.8864545658
  0
LWPOLYLINE
  5
3E1
100
AcDbEntity
  8
SUPERFICI
100
AcDbPolyline
 62
250
  6
CONTINUOUS
 90
5
 70
0
 10
-31.1391669165
 20
-4.8773158821
 10
-31.336668679
 20
-4.6799969321
 10
-31.5597670001
 20
-4.503159488
 10
-31.8114018137
 20
-4.349243629
 10
-32.0910703956
 20
-4.2213434945
  0
LWPOLYLINE
  5
3E2
100
AcDbEntity
  8
RACCORDO
100
AcDbPolyline
 62
7
  6
CONTINUOUS
 90
6
 70
0
 10
-31.7758335355
 20
-5.183380251
 10
-31.8340002629
 20
-5.1225580706
 10
-31.8930275807
 20
-5.0664372869
 10
-31.9529118562
 20
-5.0145251931
 10
-32.013450511
 20
-4.9666000194
 10
-32.0742326474
 20
-4.9226243484
  0
LWPOLYLINE
  5
3E3
100
AcDbEntity
  8
RACCORDO
100
AcDbPolyline
 62
250
  6
CONTINUOUS
 90
4
 70
0
 10
-31.3243862744
 20
-5.1816256927
 10
-31.3930021618
 20
-5.0994677613
 10
-31.4633569404
 20
-5.0229083893
 10
-31.5351391397
 20
-4.9518821979
  0
LWPOLYLINE
  5
3E4
100
AcDbEntity
  8
RACCORDO
100
AcDbPolyline
 62
250
  6
CONTINUOUS
 90
7
 70
0
 10
-31.3192593736
 20
-6.3621857529
 10
-31.3120400191
 20
-6.3713543841
 10
-31.2907024669
 20
-6.3800822755
 10
-31.2562756082
 20
-6.3879484989
 10
-31.2104194972
 20
-6.3945736753
 10
-31.155345305
 20
-6.3996382701
 10
-31.0937086991
 20
-6.4028980017
  0
LWPOLYLINE
  5
3E5
100
AcDbEntity
  8
SUPERFICI
100
AcDbPolyline
 62
250
  6
CONTINUOUS
 90
3
 70
0
 10
-30.8328099271
 20
-5.3432090115
 10
-30.968996959
 20
-5.0970147695
 10
-31.1391669165
 20
-4.8773158821
  0
LWPOLYLINE
  5
3E6
100
AcDbEntity
  8
RACCORDO
100
AcDbPolyline
 62
250
  6
CONTINUOUS
 90
7
 70
0
 10
-30.9873813008
 20
-5.8189090777
 10
-31.0318883547
 20
-5.6943365425
 10
-31.0816552716
 20
-5.577274612
 10
-31.1361608107
 20
-5.4677705462
 10
-31.1959819029
 20
-5.3657770851
 10
-31.2588494555
 20
-5.2703850561
 10
-31.3243862744
 20
-5.1816256927
  0
LINE
  5
3E7
100
AcDbEntity
  8
0
100
AcDbLine
 62
7
  6
CONTINUOUS
 10
-37.4048086976
 20
17.8593325159
 11
-37.2294649964
 21
17.1072578186
  0
LINE
  5
3E8
100
AcDbEntity
  8
0
100
AcDbLine
 62
7
  6
CONTINUOUS
 10
-37.2294649964
 20
17.1072578186
 11
-37.0666051045
 21
16.3240298594
  0
LWPOLYLINE
  5
3E9
100
AcDbEntity
  8
0
100
AcDbPolyline
 62
7
  6
CONTINUOUS
 90
3
 70
0
 10
-37.0666051045
 20
16.3240298594
 10
-36.9219158039
 20
15.5425565263
 10
-36.7988190542
 20
14.7651646136
  0
LINE
  5
3EA
100
AcDbEntity
  8
0
100
AcDbLine
 62
7
  6
CONTINUOUS
 10
-36.7988190542
 20
14.7651646136
 11
-36.6963621849
 21
13.989527327
  0
LINE
  5
3EB
100
AcDbEntity
  8
0
100
AcDbLine
 62
7
  6
CONTINUOUS
 10
-36.6963621849
 20
13.989527327
 11
-36.6130555475
 21
13.2415721714
  0
LWPOLYLINE
  5
3EC
100
AcDbEntity
  8
0
100
AcDbPolyline
 62
7
  6
CONTINUOUS
 90
9
 70
0
 10
-33.4352482191
 20
42.0543298986
 10
-33.442183096
 20
42.1678902596
 10
-33.4696628974
 20
42.2975902972
 10
-33.5178561223
 20
42.4223887461
 10
-33.5851480642
 20
42.5385025623
 10
-33.6695400667
 20
42.6420444173
 10
-33.769316502
 20
42.7308817965
 10
-33.8812964924
 20
42.8029454123
 10
-34.0019244076
 20
42.8561670174
  0
LWPOLYLINE
  5
3ED
100
AcDbEntity
  8
RACCORDO
100
AcDbPolyline
 62
250
  6
CONTINUOUS
 90
5
 70
0
 10
-30.8998750095
 20
-6.4007465847
 10
-30.908708209
 20
-6.2428062625
 10
-30.9259614154
 20
-6.0931439377
 10
-30.9517271131
 20
-5.9517596103
 10
-30.9873813008
 20
-5.8189090777
  0
LWPOLYLINE
  5
3EE
100
AcDbEntity
  8
RACCORDO
100
AcDbPolyline
 62
7
  6
CONTINUOUS
 90
4
 70
0
 10
-31.3191891647
 20
-6.3621963152
 10
-31.3244114229
 20
-6.2282056104
 10
-31.33912963
 20
-6.1000832504
 10
-31.3619851379
 20
-5.978559916
  0
LINE
  5
3EF
100
AcDbEntity
  8
SUPERFICI
100
AcDbLine
 62
7
  6
CONTINUOUS
 10
-28.949876197
 20
-12.8346845805
 11
-28.9498798739
 21
-12.8345568262
  0
LINE
  5
3F0
100
AcDbEntity
  8
SUPERFICI
100
AcDbLine
 62
7
  6
CONTINUOUS
 10
-31.3192329146
 20
-8.9854927855
 11
-31.3208416919
 21
-6.3197964024
  0
LINE
  5
3F1
100
AcDbEntity
  8
SUPERFICI
100
AcDbLine
 62
7
  6
CONTINUOUS
 10
-30.1209628715
 20
-6.1981235651
 11
-30.1192629146
 21
-8.985162929
  0
LWPOLYLINE
  5
3F2
100
AcDbEntity
  8
0
100
AcDbPolyline
 62
7
  6
CONTINUOUS
 90
4
 70
0
 43
0.3500000006
 10
-31.9340258789
 20
59.8869072876
 10
-31.9340258789
 20
60.5297607422
 10
-30.4340254211
 20
60.5297607422
 10
-31.2911678925
 20
57.5297598267
  0
LINE
  5
3F3
100
AcDbEntity
  8
RACCORDO
100
AcDbLine
 62
7
  6
CONTINUOUS
 10
-31.3191891646
 20
-9.2001128576
 11
-31.3191891646
 21
-6.3621963152
  0
LINE
  5
3F4
100
AcDbEntity
  8
SUPERFICI
100
AcDbLine
 62
7
  6
CONTINUOUS
 10
-30.6241097932
 20
-6.8742044837
 11
-30.624102851
 21
-8.1185268279
  0
LINE
  5
3F5
100
AcDbEntity
  8
RACCORDO
100
AcDbLine
 62
250
  6
CONTINUOUS
 10
-30.9074387326
 20
-9.2379351852
 11
-30.8998750095
 21
-6.4007465847
  0
LINE
  5
3F6
100
AcDbEntity
  8
SUPERFICI
100
AcDbLine
 62
7
  6
CONTINUOUS
 10
-30.62187944
 20
-6.2520614277
 11
-30.6241097932
 21
-6.8742044837
  0
LINE
  5
3F7
100
AcDbEntity
  8
SUPERFICI
100
AcDbLine
 62
7
  6
CONTINUOUS
 10
-30.624102851
 20
-8.1185268279
 11
-30.626901074
 21
-9.0522308201
  0
LWPOLYLINE
  5
3F8
100
AcDbEntity
  8
SUPERFICI
100
AcDbPolyline
 62
250
  6
CONTINUOUS
 90
4
 70
0
 10
-33.0719801973
 20
-10.9436260663
 10
-33.0710245027
 20
-10.8129233254
 10
-33.0704542156
 20
-10.7703989703
 10
-33.0698383292
 20
-10.7442508261
  0
LINE
  5
3F9
100
AcDbEntity
  8
SUPERFICI
100
AcDbLine
 62
250
  6
CONTINUOUS
 10
-33.0698383292
 20
-10.7442508261
 11
-33.0691891649
 21
-10.7354501621
  0
LINE
  5
3FA
100
AcDbEntity
  8
SUPERFICI
100
AcDbLine
 62
7
  6
CONTINUOUS
 10
-27.0560231259
 20
22.2479631801
 11
-27.0798907523
 21
22.0212771048
  0
LWPOLYLINE
  5
3FB
100
AcDbEntity
  8
SUPERFICI
100
AcDbPolyline
 62
7
  6
CONTINUOUS
 90
7
 70
0
 10
-27.0798907523
 20
22.0212771048
 10
-27.1085153676
 20
21.7966787445
 10
-27.1419226472
 20
21.5742268949
 10
-27.1801896171
 20
21.3540979433
 10
-27.2233419528
 20
21.1363506853
 10
-27.2713539789
 20
20.9209263252
 10
-27.3242256953
 20
20.707824863
  0
LWPOLYLINE
  5
3FC
100
AcDbEntity
  8
SUPERFICI
100
AcDbPolyline
 62
7
  6
CONTINUOUS
 90
4
 70
0
 10
-27.1079898117
 20
22.2550134886
 10
-27.0755583802
 20
22.470439602
 10
-27.0475244309
 20
22.6878557144
 10
-27.0238609825
 20
22.9072100637
  0
LWPOLYLINE
  5
3FD
100
AcDbEntity
  8
SUPERFICI
100
AcDbPolyline
 62
7
  6
CONTINUOUS
 90
5
 70
0
 10
-27.2825807407
 20
21.4149171852
 10
-27.2322086242
 20
21.6217103911
 10
-27.1863149337
 20
21.8306488832
 10
-27.1448996691
 20
22.0417326616
 10
-27.1079898117
 20
22.2550134886
  0
LWPOLYLINE
  5
3FE
100
AcDbEntity
  8
RACCORDO
100
AcDbPolyline
 62
250
  6
CONTINUOUS
 90
11
 70
0
 10
-34.830796069
 20
-5.2023223662
 10
-34.8942320146
 20
-5.2908914896
 10
-34.9548738792
 20
-5.3858347003
 10
-35.0124319994
 20
-5.4871025803
 10
-35.0646228069
 20
-5.5954120657
 10
-35.1119077979
 20
-5.7108302503
 10
-35.1540289554
 20
-5.8332900403
 10
-35.1877288852
 20
-5.9633070914
 10
-35.2120335142
 20
-6.1010532888
 10
-35.2281913188
 20
-6.2463567473
 10
-35.2363044236
 20
-6.399217467
  0
LWPOLYLINE
  5
3FF
100
AcDbEntity
  8
RACCORDO
100
AcDbPolyline
 62
250
  6
CONTINUOUS
 90
7
 70
0
 10
-34.8191891576
 20
-6.3621857545
 10
-34.8263607258
 20
-6.3709281103
 10
-34.8475325466
 20
-6.3792524902
 10
-34.8816923865
 20
-6.386760902
 10
-34.9272070497
 20
-6.3930943651
 10
-34.9819004609
 20
-6.3979500739
 10
-35.0431577031
 20
-6.4010958755
  0
LWPOLYLINE
  5
400
100
AcDbEntity
  8
SUPERFICI
100
AcDbPolyline
 62
250
  6
CONTINUOUS
 90
4
 70
0
 10
-34.8516255994
 20
-4.6939840142
 10
-35.0616544425
 20
-4.9295893949
 10
-35.2431966799
 20
-5.1946702664
 10
-35.3804134343
 20
-5.4633491004
  0
LWPOLYLINE
  5
401
100
AcDbEntity
  8
RACCORDO
100
AcDbPolyline
 62
7
  6
CONTINUOUS
 90
13
 70
0
 10
-34.322384206
 20
-5.1407610432
 10
-34.3792080138
 20
-5.2019332168
 10
-34.4346711329
 20
-5.267769928
 10
-34.4883860552
 20
-5.3383864777
 10
-34.5401938476
 20
-5.4142930395
 10
-34.5895095435
 20
-5.4955180029
 10
-34.6357710821
 20
-5.5821622374
 10
-34.6786146512
 20
-5.6749020898
 10
-34.7171797339
 20
-5.7735936285
 10
-34.7507674719
 20
-5.8782317746
 10
-34.7788574537
 20
-5.989716207
 10
-34.8004481361
 20
-6.1080985376
 10
-34.8142942622
 20
-6.232487323
  0
LWPOLYLINE
  5
402
100
AcDbEntity
  8
RACCORDO
100
AcDbPolyline
 62
250
  6
CONTINUOUS
 90
5
 70
0
 10
-34.5546262764
 20
-4.9059973439
 10
-34.6261348223
 20
-4.9719154009
 10
-34.6959589562
 20
-5.0432929367
 10
-34.7642454074
 20
-5.120077912
 10
-34.830796069
 20
-5.2023223662
  0
LINE
  5
403
100
AcDbEntity
  8
RACCORDO
100
AcDbLine
 62
250
  6
CONTINUOUS
 10
-34.482360826
 20
-4.8448296926
 11
-34.5546262764
 21
-4.9059973439
  0
LWPOLYLINE
  5
404
100
AcDbEntity
  8
RACCORDO
100
AcDbPolyline
 62
7
  6
CONTINUOUS
 90
5
 70
0
 10
-34.0872371719
 20
-4.9388530743
 10
-34.1467301954
 20
-4.9833518144
 10
-34.2059630565
 20
-5.0317537201
 10
-34.2646133665
 20
-5.0841736251
 10
-34.322384206
 20
-5.1407610432
  0
LWPOLYLINE
  5
405
100
AcDbEntity
  8
RACCORDO
100
AcDbPolyline
 62
250
  6
CONTINUOUS
 90
6
 70
0
 10
-34.1146483541
 20
-4.6058320598
 10
-34.1885072031
 20
-4.6454606035
 10
-34.2622883286
 20
-4.6891200998
 10
-34.3360032635
 20
-4.7367525271
 10
-34.4095341976
 20
-4.788415907
 10
-34.482360826
 20
-4.8448296926
  0
LWPOLYLINE
  5
406
100
AcDbEntity
  8
SUPERFICI
100
AcDbPolyline
 62
250
  6
CONTINUOUS
 90
4
 70
0
 10
-34.0624193647
 20
-4.192482241
 10
-34.3495483645
 20
-4.3252057562
 10
-34.6155571307
 20
-4.4942813535
 10
-34.8516255994
 20
-4.6939840142
  0
LWPOLYLINE
  5
407
100
AcDbEntity
  8
0
100
AcDbPolyline
 62
7
  6
CONTINUOUS
 90
4
 70
0
 10
-39.1188711591
 20
22.9483317174
 10
-39.065307274
 20
22.8241549065
 10
-38.9786312505
 20
22.6202768153
 10
-38.8596367673
 20
22.3303104895
  0
LINE
  5
408
100
AcDbEntity
  8
0
100
AcDbLine
 62
7
  6
CONTINUOUS
 10
-39.137161153
 20
22.9928072481
 11
-39.1188711591
 21
22.9483317174
  0
LWPOLYLINE
  5
409
100
AcDbEntity
  8
0
100
AcDbPolyline
 62
7
  6
CONTINUOUS
 90
9
 70
0
 10
-38.8596367673
 20
22.3303104895
 10
-38.712271359
 20
21.9606428834
 10
-38.5452922366
 20
21.53043486
 10
-38.3647400733
 20
21.0407706757
 10
-38.1736214181
 20
20.4905660741
 10
-37.9786132884
 20
19.895729148
 10
-37.7833662053
 20
19.2570695742
 10
-37.5901823672
 20
18.573777676
 10
-37.4048086976
 20
17.8593325159
  0
LWPOLYLINE
  5
40A
100
AcDbEntity
  8
RACCORDO
100
AcDbPolyline
 62
7
  6
CONTINUOUS
 90
10
 70
0
 10
-31.3619851379
 20
-5.978559916
 10
-31.3915752774
 20
-5.8646077612
 10
-31.4267840116
 20
-5.7581248339
 10
-31.4670562566
 20
-5.6580488079
 10
-31.5116023759
 20
-5.5643583388
 10
-31.5594872754
 20
-5.4771628342
 10
-31.6103947745
 20
-5.3956141242
 10
-31.6637592643
 20
-5.3195667279
 10
-31.7189503222
 20
-5.2490108692
 10
-31.7758335355
 20
-5.183380251
  0
LWPOLYLINE
  5
40B
100
AcDbEntity
  8
SUPERFICI
100
AcDbPolyline
 62
250
  6
CONTINUOUS
 90
4
 70
0
 10
-30.6220410917
 20
-6.2519616384
 10
-30.6618142271
 20
-5.9204163767
 10
-30.7317011929
 20
-5.6178377454
 10
-30.8328099271
 20
-5.3432090115
  0
LWPOLYLINE
  5
40C
100
AcDbEntity
  8
0
100
AcDbPolyline
 62
7
  6
CONTINUOUS
 90
4
 70
0
 10
-34.9183029011
 20
43.8055471875
 10
-34.9334004458
 20
43.9380055769
 10
-34.9690861877
 20
44.0670362353
 10
-35.0251999344
 20
44.189801327
  0
LINE
  5
40D
100
AcDbEntity
  8
RACCORDO
100
AcDbLine
 62
7
  6
CONTINUOUS
 10
-26.6779708666
 20
29.1707651073
 11
-26.9809350925
 21
23.3804431011
  0
LINE
  5
40E
100
AcDbEntity
  8
RACCORDO
100
AcDbLine
 62
7
  6
CONTINUOUS
 10
-27.0161485483
 20
22.7074354302
 11
-28.862328461
 21
-12.5771799184
  0
LINE
  5
40F
100
AcDbEntity
  8
SUPERFICI
100
AcDbLine
 62
7
  6
CONTINUOUS
 10
-27.160742315
 20
23.512554743
 11
-27.2825793878
 21
21.4149171852
  0
LINE
  5
410
100
AcDbEntity
  8
SUPERFICI
100
AcDbLine
 62
7
  6
CONTINUOUS
 10
-27.3242282417
 20
20.707824863
 11
-27.4193744387
 21
19.112664743
  0
LWPOLYLINE
  5
411
100
AcDbEntity
  8
SUPERFICI
100
AcDbPolyline
 62
7
  6
CONTINUOUS
 90
3
 70
0
 10
-27.0258377364
 20
22.6560653319
 10
-27.0369381639
 20
22.4767957662
 10
-27.0560231259
 20
22.2479631801
  0
LINE
  5
412
100
AcDbEntity
  8
SUPERFICI
100
AcDbLine
 62
7
  6
CONTINUOUS
 10
-27.5504660855
 20
18.9640783649
 11
-27.2527736459
 21
23.7144196108
  0
LINE
  5
413
100
AcDbEntity
  8
SUPERFICI
100
AcDbLine
 62
7
  6
CONTINUOUS
 10
-27.0045950162
 20
23.1285544121
 11
-26.9897265321
 21
23.3518887597
  0
LINE
  5
414
100
AcDbEntity
  8
SUPERFICI
100
AcDbLine
 62
7
  6
CONTINUOUS
 10
-27.0238609825
 20
22.9072100637
 11
-27.0045950162
 21
23.1285544121
  0
LWPOLYLINE
  5
415
100
AcDbEntity
  8
SUPERFICI
100
AcDbPolyline
 62
250
  6
CONTINUOUS
 90
3
 70
0
 10
-30.6956359733
 20
-9.5791530202
 10
-30.6429716838
 20
-9.3187941216
 10
-30.62706911
 20
-9.0521556524
  0
LWPOLYLINE
  5
416
100
AcDbEntity
  8
RACCORDO
100
AcDbPolyline
 62
250
  6
CONTINUOUS
 90
8
 70
0
 10
-31.0619439799
 20
-9.9938377101
 10
-31.0214136939
 20
-9.8893947099
 10
-30.9869489221
 20
-9.7815194994
 10
-30.9580684744
 20
-9.6706822214
 10
-30.935595298
 20
-9.5605394896
 10
-30.919801763
 20
-9.4523101753
 10
-30.9104115875
 20
-9.3447754072
 10
-30.9074387326
 20
-9.2379351852
  0
LWPOLYLINE
  5
417
100
AcDbEntity
  8
RACCORDO
100
AcDbPolyline
 62
7
  6
CONTINUOUS
 90
10
 70
0
 10
-31.5194438104
 20
-10.0131116025
 10
-31.4792252344
 20
-9.9313423194
 10
-31.4423832248
 20
-9.8451097373
 10
-31.4099115342
 20
-9.7559621619
 10
-31.3819586604
 20
-9.6638924768
 10
-31.358845149
 20
-9.5694402617
 10
-31.3411680487
 20
-9.475247097
 10
-31.3288541931
 20
-9.3824629507
 10
-31.3215806002
 20
-9.2906493882
 10
-31.3191891658
 20
-9.2001128576
  0
LWPOLYLINE
  5
418
100
AcDbEntity
  8
SUPERFICI
100
AcDbPolyline
 62
250
  6
CONTINUOUS
 90
3
 70
0
 10
-30.9166904982
 20
-10.0938992625
 10
-30.7854976186
 20
-9.8345569598
 10
-30.6956359733
 20
-9.5791530202
  0
LWPOLYLINE
  5
419
100
AcDbEntity
  8
RACCORDO
100
AcDbPolyline
 62
250
  6
CONTINUOUS
 90
7
 70
0
 10
-34.8191323495
 20
-9.2000490368
 10
-34.8260587067
 20
-9.2084249313
 10
-34.8465403788
 20
-9.2164129989
 10
-34.8796300512
 20
-9.2236438929
 10
-34.9237972659
 20
-9.2297832868
 10
-34.9769992076
 20
-9.2345473363
 10
-35.0367751867
 20
-9.2377158065
  0
LWPOLYLINE
  5
41A
100
AcDbEntity
  8
SUPERFICI
100
AcDbPolyline
 62
7
  6
CONTINUOUS
 90
6
 70
0
 10
-39.0219327836
 20
23.7117225832
 10
-38.96949188
 20
23.6111850685
 10
-38.9103410533
 20
23.4946202228
 10
-38.8447631276
 20
23.3623610421
 10
-38.773037376
 20
23.2147429949
 10
-38.6954394412
 20
23.0521034548
  0
LINE
  5
41B
100
AcDbEntity
  8
SUPERFICI
100
AcDbLine
 62
7
  6
CONTINUOUS
 10
-39.1118626985
 20
23.8872808769
 11
-39.0219327836
 21
23.7117225832
  0
LINE
  5
41C
100
AcDbEntity
  8
SUPERFICI
100
AcDbLine
 62
7
  6
CONTINUOUS
 10
-38.6954394412
 20
23.0521034548
 11
-38.6122412595
 21
22.8747811533
  0
LWPOLYLINE
  5
41D
100
AcDbEntity
  8
SUPERFICI
100
AcDbPolyline
 62
7
  6
CONTINUOUS
 90
16
 70
0
 10
-38.6122412595
 20
22.8747811533
 10
-38.4548053957
 20
22.5336699361
 10
-38.2866867763
 20
22.1527275704
 10
-38.1102484543
 20
21.7346948947
 10
-37.9272869351
 20
21.2828570378
 10
-37.7401023528
 20
20.798756219
 10
-37.5517567186
 20
20.2824505054
 10
-37.364101737
 20
19.7360971011
 10
-37.1787341532
 20
19.161563514
 10
-36.9984222509
 20
18.5585062431
 10
-36.8242154686
 20
17.928012924
 10
-36.6576419716
 20
17.2718262544
 10
-36.502202038
 20
16.5904222215
 10
-36.3596751116
 20
15.8844004198
 10
-36.229973067
 20
15.1544164152
 10
-36.1136419684
 20
14.400661238
  0
LWPOLYLINE
  5
41E
100
AcDbEntity
  8
SUPERFICI
100
AcDbPolyline
 62
7
  6
CONTINUOUS
 90
10
 70
0
 10
-28.949876197
 20
-12.8346845805
 10
-28.9332869439
 20
-12.8089488373
 10
-28.9183201205
 20
-12.7822749984
 10
-28.905011382
 20
-12.7547315167
 10
-28.893406384
 20
-12.7264162
 10
-28.8835548024
 20
-12.6974405906
 10
-28.8754954844
 20
-12.6679186376
 10
-28.8692572266
 20
-12.6379690095
 10
-28.8648636483
 20
-12.6076970658
 10
-28.862328404
 20
-12.5771788039
  0
LWPOLYLINE
  5
41F
100
AcDbEntity
  8
SUPERFICI
100
AcDbPolyline
 62
250
  6
CONTINUOUS
 90
5
 70
0
 10
-28.9498798739
 20
-12.8345568262
 10
-28.98248117
 20
-12.8755870757
 10
-29.0368561152
 20
-12.9364939989
 10
-29.1124967658
 20
-13.0169724108
 10
-29.2122961953
 20
-13.1205400805
  0
LWPOLYLINE
  5
420
100
AcDbEntity
  8
RACCORDO
100
AcDbPolyline
 62
250
  6
CONTINUOUS
 90
9
 70
0
 10
-31.5072094922
 20
-10.6544468935
 10
-31.4457801367
 20
-10.5901293543
 10
-31.3848452102
 20
-10.5211764616
 10
-31.3254020828
 20
-10.446913667
 10
-31.2671468276
 20
-10.3670822378
 10
-31.2105475202
 20
-10.2819409067
 10
-31.1576374112
 20
-10.1915913233
 10
-31.1080928264
 20
-10.0953186428
 10
-31.0619439799
 20
-9.9938377101
  0
LWPOLYLINE
  5
421
100
AcDbEntity
  8
SUPERFICI
100
AcDbPolyline
 62
250
  6
CONTINUOUS
 90
18
 70
0
 10
-29.2122961953
 20
-13.1205400805
 10
-29.3337791041
 20
-13.2415355426
 10
-29.4684017108
 20
-13.3659499583
 10
-29.6134804921
 20
-13.4892938402
 10
-29.7720024967
 20
-13.6141412677
 10
-29.9432941983
 20
-13.7377093815
 10
-30.1268971199
 20
-13.857943333
 10
-30.323469513
 20
-13.9745407579
 10
-30.5339693378
 20
-14.0872175665
 10
-30.7585924455
 20
-14.194547386
 10
-30.9972223249
 20
-14.2949492803
 10
-31.2504310951
 20
-14.3876322263
 10
-31.5184185017
 20
-14.4707731562
 10
-31.8007994862
 20
-14.5424625098
 10
-32.0973535682
 20
-14.6016420961
 10
-32.4078790884
 20
-14.6465663699
 10
-32.7320101412
 20
-14.6746938865
 10
-33.0691882286
 20
-14.6835218189
  0
LINE
  5
422
100
AcDbEntity
  8
SUPERFICI
100
AcDbLine
 62
250
  6
CONTINUOUS
 10
-28.8849382324
 20
-12.5991542939
 11
-28.862328461
 21
-12.5771799184
  0
LWPOLYLINE
  5
423
100
AcDbEntity
  8
RACCORDO
100
AcDbPolyline
 62
250
  6
CONTINUOUS
 90
3
 70
0
 10
-31.6313726542
 20
-10.7690806815
 10
-31.5689810276
 20
-10.7140814642
 10
-31.5072094922
 20
-10.6544468935
  0
LWPOLYLINE
  5
424
100
AcDbEntity
  8
RACCORDO
100
AcDbPolyline
 62
7
  6
CONTINUOUS
 90
12
 70
0
 10
-32.0534261509
 20
-10.6247632634
 10
-32.0031865566
 20
-10.5876556506
 10
-31.9526741906
 20
-10.5474426836
 10
-31.9021448938
 20
-10.5040242282
 10
-31.8517939722
 20
-10.4572381895
 10
-31.8015769902
 20
-10.4066440247
 10
-31.7517800739
 20
-10.3520815669
 10
-31.7027369234
 20
-10.2934543869
 10
-31.6545759419
 20
-10.2303746693
 10
-31.6075789383
 20
-10.1625439574
 10
-31.5623271077
 20
-10.0900500806
 10
-31.5194438104
 20
-10.0131116025
  0
LWPOLYLINE
  5
425
100
AcDbEntity
  8
SUPERFICI
100
AcDbPolyline
 62
250
  6
CONTINUOUS
 90
6
 70
0
 10
-32.0915265907
 20
-11.1156763338
 10
-31.7993543478
 20
-10.9704737514
 10
-31.5276306041
 20
-10.7891012282
 10
-31.290278786
 20
-10.5840001089
 10
-31.0875928755
 20
-10.3510620888
 10
-30.9166904982
 20
-10.0938992625
  0
LWPOLYLINE
  5
426
100
AcDbEntity
  8
RACCORDO
100
AcDbPolyline
 62
250
  6
CONTINUOUS
 90
15
 70
0
 10
-32.4591737324
 20
-11.2100429355
 10
-32.4033113226
 20
-11.1934587884
 10
-32.347344786
 20
-11.17528391
 10
-32.2912655065
 20
-11.1554352088
 10
-32.2345788499
 20
-11.1334765983
 10
-32.177230392
 20
-11.1094415797
 10
-32.1192481003
 20
-11.0832966517
 10
-32.0604058442
 20
-11.0545052244
 10
-32.0006729557
 20
-11.0230678807
 10
-31.9402454277
 20
-10.9889840377
 10
-31.8793501406
 20
-10.9517153561
 10
-31.8179334938
 20
-10.9112934294
 10
-31.7559335009
 20
-10.8676866641
 10
-31.6937474305
 20
-10.8202619399
 10
-31.6313726542
 20
-10.7690806815
  0
LWPOLYLINE
  5
427
100
AcDbEntity
  8
SUPERFICI
100
AcDbPolyline
 62
250
  6
CONTINUOUS
 90
6
 70
0
 10
-29.5373813244
 20
-13.0872784636
 10
-29.3522483047
 20
-12.951472296
 10
-29.1892072802
 20
-12.8225044899
 10
-29.0533949628
 20
-12.7187535033
 10
-28.9502813802
 20
-12.6463454888
 10
-28.8849382324
 20
-12.5991542939
  0
LWPOLYLINE
  5
428
100
AcDbEntity
  8
SUPERFICI
100
AcDbPolyline
 62
250
  6
CONTINUOUS
 90
3
 70
0
 10
-30.1833166997
 20
-13.5173486774
 10
-29.950894136
 20
-13.3752053563
 10
-29.5373813244
 20
-13.0872784636
  0
LWPOLYLINE
  5
429
100
AcDbEntity
  8
SUPERFICI
100
AcDbPolyline
 62
7
  6
CONTINUOUS
 90
5
 70
0
 10
-39.1825490719
 20
24.0136401453
 10
-39.1783918086
 20
24.0100630211
 10
-39.1652688328
 20
23.9878480243
 10
-39.1431112327
 20
23.9469335648
 10
-39.1118626985
 20
23.8872808769
  0
LWPOLYLINE
  5
42A
100
AcDbEntity
  8
0
100
AcDbPolyline
 62
7
  6
CONTINUOUS
 90
3
 70
0
 10
-31.5106614557
 20
39.5228064333
 10
-31.5503978954
 20
39.6381605841
 10
-31.59518498
 20
39.7523843333
  0
LWPOLYLINE
  5
42B
100
AcDbEntity
  8
0
100
AcDbPolyline
 62
7
  6
CONTINUOUS
 90
22
 70
0
 10
-30.3857646378
 20
37.3935236598
 10
-30.3777142077
 20
37.3687441778
 10
-30.3714690602
 20
37.344053699
 10
-30.3668344145
 20
37.319724162
 10
-30.3636222067
 20
37.2961989838
 10
-30.3616288025
 20
37.2734695357
 10
-30.3608148869
 20
37.2511101558
 10
-30.3613242553
 20
37.2293296854
 10
-30.3630434349
 20
37.2083415733
 10
-30.3656387142
 20
37.187586729
 10
-30.368917399
 20
37.1668259822
 10
-30.3728950813
 20
37.1462858742
 10
-30.377490104
 20
37.1259478597
 10
-30.3825874346
 20
37.1057143017
 10
-30.3881706368
 20
37.0856363942
 10
-30.3943294965
 20
37.0659527627
 10
-30.4011150533
 20
37.0467241533
 10
-30.4084158797
 20
37.0279231442
 10
-30.4160766894
 20
37.0096845323
 10
-30.4239994844
 20
36.9920555279
 10
-30.4321683545
 20
36.9750019132
 10
-30.4405318674
 20
36.9585303441
  0
LINE
  5
42C
100
AcDbEntity
  8
SUPERFICI
100
AcDbLine
 62
7
  6
CONTINUOUS
 10
-27.23879333
 20
18.6140849532
 11
-27.483357177
 21
18.6140838458
  0
LINE
  5
42D
100
AcDbEntity
  8
SUPERFICI
100
AcDbLine
 62
7
  6
CONTINUOUS
 10
-27.4193712185
 20
19.112664743
 11
-27.2118251635
 21
19.1126441713
  0
LWPOLYLINE
  5
42E
100
AcDbEntity
  8
SUPERFICI
100
AcDbPolyline
 62
7
  6
CONTINUOUS
 90
10
 70
0
 10
-27.4851080588
 20
18.6143850514
 10
-27.499027003
 20
18.6212535008
 10
-27.5117306704
 20
18.6370241911
 10
-27.5231278141
 20
18.6616967446
 10
-27.5334620099
 20
18.6965381656
 10
-27.5423441773
 20
18.7402807612
 10
-27.5486839241
 20
18.7891216997
 10
-27.5520349106
 20
18.8417927997
 10
-27.552663735
 20
18.8995609898
 10
-27.5505328882
 20
18.9624259131
  0
LWPOLYLINE
  5
42F
100
AcDbEntity
  8
RACCORDO
100
AcDbPolyline
 62
250
  6
CONTINUOUS
 90
3
 70
0
 10
-40.2708790716
 20
47.0074741175
 10
-40.3148060134
 20
47.0740767611
 10
-40.332674484
 20
47.1010522884
  0
LINE
  5
430
100
AcDbEntity
  8
RACCORDO
100
AcDbLine
 62
250
  6
CONTINUOUS
 10
-40.332674484
 20
47.1010522884
 11
-40.3724139192
 21
47.1617591777
  0
LWPOLYLINE
  5
431
100
AcDbEntity
  8
RACCORDO
100
AcDbPolyline
 62
250
  6
CONTINUOUS
 90
7
 70
0
 10
-40.3724139192
 20
47.1617591777
 10
-40.3890356531
 20
47.1875360079
 10
-40.3948287499
 20
47.196447157
 10
-40.3991511958
 20
47.2032819718
 10
-40.4021217367
 20
47.2082369534
 10
-40.4038271059
 20
47.2111156005
 10
-40.4043660005
 20
47.2119179132
  0
LWPOLYLINE
  5
432
100
AcDbEntity
  8
0
100
AcDbPolyline
 62
7
  6
CONTINUOUS
 90
10
 70
0
 10
-29.7704000262
 20
36.2595779766
 10
-29.7187133522
 20
36.161580939
 10
-29.6628509499
 20
36.0600743003
 10
-29.609090928
 20
35.9665838652
 10
-29.5582747338
 20
35.8830460065
 10
-29.5105957902
 20
35.8092793649
 10
-29.4714933244
 20
35.7538395712
 10
-29.4423485471
 20
35.7193549367
 10
-29.4231816473
 20
35.7050406209
 10
-29.4170519637
 20
35.7083361423
  0
LINE
  5
433
100
AcDbEntity
  8
0
100
AcDbLine
 62
7
  6
CONTINUOUS
 10
-29.3967182653
 20
35.8151209609
 11
-29.275247563
 21
35.5825240721
  0
LINE
  5
434
100
AcDbEntity
  8
0
100
AcDbLine
 62
7
  6
CONTINUOUS
 10
-30.3674700712
 20
37.5106191154
 11
-30.271500253
 21
37.3242539342
  0
LWPOLYLINE
  5
435
100
AcDbEntity
  8
0
100
AcDbPolyline
 62
7
  6
CONTINUOUS
 90
3
 70
0
 10
-34.129968962
 20
42.8902353914
 10
-34.1150133782
 20
42.8611691596
 10
-34.0355243272
 20
42.7373612482
  0
LINE
  5
436
100
AcDbEntity
  8
0
100
AcDbLine
 62
7
  6
CONTINUOUS
 10
-29.275247563
 20
35.5825240721
 11
-29.1330555296
 21
35.3052719186
  0
LWPOLYLINE
  5
437
100
AcDbEntity
  8
IGES
100
AcDbPolyline
 62
7
  6
CONTINUOUS
 90
4
 70
0
 10
-29.6508040444
 20
36.6415826035
 10
-29.7841822696
 20
36.9071820178
 10
-29.9236263553
 20
37.1732615263
 10
-30.0692439104
 20
37.4394557375
  0
LINE
  5
438
100
AcDbEntity
  8
0
100
AcDbLine
 62
7
  6
CONTINUOUS
 10
-29.1330555296
 20
35.3052719186
 11
-28.9930451771
 21
35.0269696671
  0
LWPOLYLINE
  5
439
100
AcDbEntity
  8
0
100
AcDbPolyline
 62
7
  6
CONTINUOUS
 90
3
 70
0
 10
-28.9613394552
 20
35.4008152484
 10
-28.7844646552
 20
35.0470579009
 10
-28.6110704547
 20
34.6915601219
  0
LINE
  5
43A
100
AcDbEntity
  8
0
100
AcDbLine
 62
7
  6
CONTINUOUS
 10
-28.638836357
 20
34.3046365283
 11
-28.554598389
 21
34.1356496935
  0
LWPOLYLINE
  5
43B
100
AcDbEntity
  8
0
100
AcDbPolyline
 62
7
  6
CONTINUOUS
 90
3
 70
0
 10
-30.271500253
 20
37.3242539342
 10
-30.1768239795
 20
37.133294798
 10
-30.0843865886
 20
36.9388477279
  0
LWPOLYLINE
  5
43C
100
AcDbEntity
  8
0
100
AcDbPolyline
 62
7
  6
CONTINUOUS
 90
3
 70
0
 10
-31.6430604577
 20
39.8610319542
 10
-31.7003391483
 20
39.9773394473
 10
-31.7237823056
 20
40.0214633682
  0
LINE
  5
43D
100
AcDbEntity
  8
0
100
AcDbLine
 62
7
  6
CONTINUOUS
 10
-28.7071092782
 20
34.4432573319
 11
-28.638836357
 21
34.3046365283
  0
LINE
  5
43E
100
AcDbEntity
  8
0
100
AcDbLine
 62
7
  6
CONTINUOUS
 10
-28.9930451771
 20
35.0269696671
 11
-28.8550332761
 21
34.7472559794
  0
LINE
  5
43F
100
AcDbEntity
  8
0
100
AcDbLine
 62
7
  6
CONTINUOUS
 10
-28.8550332761
 20
34.7472559794
 11
-28.7071092782
 21
34.4432573319
  0
LINE
  5
440
100
AcDbEntity
  8
IGES
100
AcDbLine
 62
7
  6
CONTINUOUS
 10
-29.5235594871
 20
36.377186303
 11
-29.6508040444
 21
36.6415826035
  0
LINE
  5
441
100
AcDbEntity
  8
IGES
100
AcDbLine
 62
7
  6
CONTINUOUS
 10
-29.4637807992
 20
36.2489448248
 11
-29.5235594871
 21
36.377186303
  0
LWPOLYLINE
  5
442
100
AcDbEntity
  8
0
100
AcDbPolyline
 62
7
  6
CONTINUOUS
 90
3
 70
0
 10
-35.6661503126
 20
44.6246009083
 10
-35.649614379
 20
44.5889201561
 10
-35.5724523531
 20
44.4604635378
  0
LINE
  5
443
100
AcDbEntity
  8
RACCORDO
100
AcDbLine
 62
7
  6
CONTINUOUS
 10
-28.554598389
 20
34.1356496935
 11
-28.3205657962
 21
33.6260384586
  0
LINE
  5
444
100
AcDbEntity
  8
0
100
AcDbLine
 62
7
  6
CONTINUOUS
 10
-30.0843865886
 20
36.9388477279
 11
-29.9914683077
 21
36.736343809
  0
LWPOLYLINE
  5
445
100
AcDbEntity
  8
0
100
AcDbPolyline
 62
7
  6
CONTINUOUS
 90
4
 70
0
 10
-29.8968450248
 20
36.523552587
 10
-29.8579665105
 20
36.438216355
 10
-29.8160142886
 20
36.3504386621
 10
-29.7704000262
 20
36.2595779766
  0
LINE
  5
446
100
AcDbEntity
  8
0
100
AcDbLine
 62
7
  6
CONTINUOUS
 10
-29.9914683077
 20
36.736343809
 11
-29.8968450248
 21
36.523552587
  0
LWPOLYLINE
  5
447
100
AcDbEntity
  8
RACCORDO
100
AcDbPolyline
 62
7
  6
CONTINUOUS
 90
9
 70
0
 10
-28.3205657962
 20
33.6260384586
 10
-28.0938781085
 20
33.1136420256
 10
-27.8745670962
 20
32.5985661275
 10
-27.6626640393
 20
32.0809153681
 10
-27.4582004945
 20
31.5607950847
 10
-27.2612082085
 20
31.038311383
 10
-27.0717181363
 20
30.5135686391
 10
-26.8897605285
 20
29.9866694657
 10
-26.7153656378
 20
29.4577165989
  0
LINE
  5
448
100
AcDbEntity
  8
0
100
AcDbLine
 62
7
  6
CONTINUOUS
 10
-31.59518498
 20
39.7523843333
 11
-31.6430604577
 21
39.8610319541
  0
LWPOLYLINE
  5
449
100
AcDbEntity
  8
ASSI
100
AcDbPolyline
 62
7
  6
CONTINUOUS
 90
10
 70
0
 10
-28.611024686
 20
34.6914651189
 10
-28.5853174893
 20
34.6322414829
 10
-28.5644268359
 20
34.5714318829
 10
-28.5484231423
 20
34.5094238656
 10
-28.5373310561
 20
34.4465099752
 10
-28.5311752251
 20
34.3829827554
 10
-28.5299802969
 20
34.3191347505
 10
-28.5337709193
 20
34.2552585042
 10
-28.54257174
 20
34.1916465605
 10
-28.554598389
 20
34.1356496934
  0
LWPOLYLINE
  5
44A
100
AcDbEntity
  8
0
100
AcDbPolyline
 62
7
  6
CONTINUOUS
 90
28
 70
0
 10
-31.090862133
 20
38.9151032629
 10
-31.0827000968
 20
38.8962841233
 10
-31.0760650051
 20
38.8776020455
 10
-31.0708303459
 20
38.8594147476
 10
-31.0669447451
 20
38.8423929558
 10
-31.0641766952
 20
38.8264755479
 10
-31.0622491896
 20
38.8107519579
 10
-31.0611461496
 20
38.7949901216
 10
-31.0608987773
 20
38.7796323434
 10
-31.0613865457
 20
38.7646136512
 10
-31.0625618142
 20
38.7500081375
 10
-31.064383842
 20
38.7358379401
 10
-31.0666961973
 20
38.7218649763
 10
-31.0694027069
 20
38.7080558158
 10
-31.0724824498
 20
38.6944363943
 10
-31.0758891178
 20
38.6808035477
 10
-31.0795776433
 20
38.6670427405
 10
-31.0835147483
 20
38.6532422221
 10
-31.0876847122
 20
38.6395012997
 10
-31.092042801
 20
38.6257903622
 10
-31.096561565
 20
38.6121353328
 10
-31.1012550549
 20
38.5987409933
 10
-31.1060181096
 20
38.5858234214
 10
-31.1108860812
 20
38.5731912534
 10
-31.1161261953
 20
38.5604507574
 10
-31.1218518123
 20
38.5474780826
 10
-31.1279788416
 20
38.5344184993
 10
-31.1345172268
 20
38.5212830646
  0
LINE
  5
44B
100
AcDbEntity
  8
SUPERFICI
100
AcDbLine
 62
7
  6
CONTINUOUS
 10
-27.1700165128
 20
24.0139567659
 11
-26.9558120326
 21
24.0139520542
  0
LINE
  5
44C
100
AcDbEntity
  8
RACCORDO
100
AcDbLine
 62
250
  6
CONTINUOUS
 10
-33.0691891646
 20
37.2946210087
 11
-33.3305884144
 21
37.6092729486
  0
LINE
  5
44D
100
AcDbEntity
  8
RACCORDO
100
AcDbLine
 62
250
  6
CONTINUOUS
 10
-27.8172908679
 20
30.3560743146
 11
-28.157131685
 21
30.7668804603
  0
LINE
  5
44E
100
AcDbEntity
  8
RACCORDO
100
AcDbLine
 62
250
  6
CONTINUOUS
 10
-33.3305884144
 20
37.6092729486
 11
-33.9526207478
 21
38.3659937539
  0
LINE
  5
44F
100
AcDbEntity
  8
RACCORDO
100
AcDbLine
 62
250
  6
CONTINUOUS
 10
-33.9526207478
 20
38.3659937539
 11
-34.2279075709
 21
38.7030734168
  0
LINE
  5
450
100
AcDbEntity
  8
RACCORDO
100
AcDbLine
 62
250
  6
CONTINUOUS
 10
-28.157131685
 20
30.7668804603
 11
-28.327443258
 21
30.9775734064
  0
LINE
  5
451
100
AcDbEntity
  8
RACCORDO
100
AcDbLine
 62
250
  6
CONTINUOUS
 10
-34.2279075709
 20
38.7030734168
 11
-34.4877082583
 21
39.0244973537
  0
LINE
  5
452
100
AcDbEntity
  8
RACCORDO
100
AcDbLine
 62
250
  6
CONTINUOUS
 10
-34.4877082583
 20
39.0244973537
 11
-34.7532781329
 21
39.3559815701
  0
LINE
  5
453
100
AcDbEntity
  8
RACCORDO
100
AcDbLine
 62
250
  6
CONTINUOUS
 10
-34.7532781329
 20
39.3559815701
 11
-35.0239491044
 21
39.6975260661
  0
LWPOLYLINE
  5
454
100
AcDbEntity
  8
RACCORDO
100
AcDbPolyline
 62
250
  6
CONTINUOUS
 90
3
 70
0
 10
-28.327443258
 20
30.9775734064
 10
-28.6658400166
 20
31.4065045274
 10
-28.8301620865
 20
31.6166157494
  0
LINE
  5
455
100
AcDbEntity
  8
RACCORDO
100
AcDbLine
 62
250
  6
CONTINUOUS
 10
-35.0239491044
 20
39.6975260661
 11
-35.2997032882
 21
40.0512874633
  0
LWPOLYLINE
  5
456
100
AcDbEntity
  8
RACCORDO
100
AcDbPolyline
 62
250
  6
CONTINUOUS
 90
3
 70
0
 10
-35.2997032882
 20
40.0512874633
 10
-35.5791292447
 20
40.41510914
 10
-35.8589571905
 20
40.782521231
  0
LINE
  5
457
100
AcDbEntity
  8
RACCORDO
100
AcDbLine
 62
250
  6
CONTINUOUS
 10
-28.8301620865
 20
31.6166157494
 11
-29.3037687574
 21
32.2350762382
  0
LINE
  5
458
100
AcDbEntity
  8
RACCORDO
100
AcDbLine
 62
250
  6
CONTINUOUS
 10
-29.3037687574
 20
32.2350762382
 11
-29.7524925905
 21
32.8295297406
  0
LINE
  5
459
100
AcDbEntity
  8
RACCORDO
100
AcDbLine
 62
250
  6
CONTINUOUS
 10
-35.8589571905
 20
40.782521231
 11
-36.1385423015
 21
41.1536884403
  0
LINE
  5
45A
100
AcDbEntity
  8
RACCORDO
100
AcDbLine
 62
250
  6
CONTINUOUS
 10
-32.8352797541
 20
36.9838709812
 11
-33.0691891646
 21
37.2946210087
  0
LINE
  5
45B
100
AcDbEntity
  8
RACCORDO
100
AcDbLine
 62
250
  6
CONTINUOUS
 10
-29.7524925905
 20
32.8295297406
 11
-30.9210367464
 21
34.3994457277
  0
LWPOLYLINE
  5
45C
100
AcDbEntity
  8
RACCORDO
100
AcDbPolyline
 62
250
  6
CONTINUOUS
 90
3
 70
0
 10
-36.1385423015
 20
41.1536884403
 10
-36.6914856408
 20
41.8998301242
 10
-36.9623448472
 20
42.2690707998
  0
LINE
  5
45D
100
AcDbEntity
  8
RACCORDO
100
AcDbLine
 62
250
  6
CONTINUOUS
 10
-30.9210367464
 20
34.3994457277
 11
-32.8352797541
 21
36.9838709812
  0
LINE
  5
45E
100
AcDbEntity
  8
0
100
AcDbLine
 62
7
  6
CONTINUOUS
 10
-30.9366506624
 20
37.5796050077
 11
-31.1065715701
 21
37.814042349
  0
LINE
  5
45F
100
AcDbEntity
  8
RACCORDO
100
AcDbLine
 62
250
  6
CONTINUOUS
 10
-36.9623448472
 20
42.2690707998
 11
-37.4809152526
 21
42.9867769495
  0
LINE
  5
460
100
AcDbEntity
  8
RACCORDO
100
AcDbLine
 62
250
  6
CONTINUOUS
 10
-37.4809152526
 20
42.9867769495
 11
-37.9516347376
 21
43.645752033
  0
LINE
  5
461
100
AcDbEntity
  8
0
100
AcDbLine
 62
7
  6
CONTINUOUS
 10
-31.1065715701
 20
37.814042349
 11
-31.4588704485
 21
38.307075994
  0
LINE
  5
462
100
AcDbEntity
  8
IGES
100
AcDbLine
 62
7
  6
CONTINUOUS
 10
-31.7046422149
 20
39.217243028
 11
-31.9990265784
 21
39.6311296798
  0
LINE
  5
463
100
AcDbEntity
  8
0
100
AcDbLine
 62
7
  6
CONTINUOUS
 10
-31.5987951364
 20
39.1733097253
 11
-31.3600911138
 21
38.836179338
  0
LINE
  5
464
100
AcDbEntity
  8
RACCORDO
100
AcDbLine
 62
250
  6
CONTINUOUS
 10
-37.9516347376
 20
43.645752033
 11
-38.3608893496
 21
44.2249479761
  0
LINE
  5
465
100
AcDbEntity
  8
0
100
AcDbLine
 62
7
  6
CONTINUOUS
 10
-31.4588704485
 20
38.307075994
 11
-31.8176672118
 21
38.8156644542
  0
LINE
  5
466
100
AcDbEntity
  8
IGES
100
AcDbLine
 62
7
  6
CONTINUOUS
 10
-31.9990265784
 20
39.6311296798
 11
-32.287568073
 21
40.0408607153
  0
LINE
  5
467
100
AcDbEntity
  8
RACCORDO
100
AcDbLine
 62
250
  6
CONTINUOUS
 10
-38.3608893496
 20
44.2249479761
 11
-38.7085706477
 21
44.7213752804
  0
LINE
  5
468
100
AcDbEntity
  8
0
100
AcDbLine
 62
7
  6
CONTINUOUS
 10
-32.2285627775
 20
40.0732516335
 11
-31.5987951364
 21
39.1733097253
  0
LINE
  5
469
100
AcDbEntity
  8
0
100
AcDbLine
 62
7
  6
CONTINUOUS
 10
-32.9570137498
 20
40.4433850089
 11
-32.5451793505
 21
39.8515563547
  0
LINE
  5
46A
100
AcDbEntity
  8
0
100
AcDbLine
 62
7
  6
CONTINUOUS
 10
-32.554854861
 20
40.5333532199
 11
-32.2328403283
 21
40.0702549609
  0
LINE
  5
46B
100
AcDbEntity
  8
IGES
100
AcDbLine
 62
7
  6
CONTINUOUS
 10
-32.287568073
 20
40.0408607153
 11
-32.5677353982
 21
40.4426623842
  0
LINE
  5
46C
100
AcDbEntity
  8
IGES
100
AcDbLine
 62
7
  6
CONTINUOUS
 10
-32.0747760144
 20
40.3062370121
 11
-32.3436778635
 21
40.6924785935
  0
LINE
  5
46D
100
AcDbEntity
  8
0
100
AcDbLine
 62
7
  6
CONTINUOUS
 10
-31.8176672118
 20
38.8156644542
 11
-32.5410547398
 21
39.8544453247
  0
LINE
  5
46E
100
AcDbEntity
  8
RACCORDO
100
AcDbLine
 62
250
  6
CONTINUOUS
 10
-38.7085706477
 20
44.7213752804
 11
-39.2631357265
 21
45.521258856
  0
LINE
  5
46F
100
AcDbEntity
  8
0
100
AcDbLine
 62
7
  6
CONTINUOUS
 10
-32.8801184225
 20
41.005373109
 11
-32.554854861
 21
40.5333532199
  0
LINE
  5
470
100
AcDbEntity
  8
IGES
100
AcDbLine
 62
7
  6
CONTINUOUS
 10
-32.5677353982
 20
40.4426623842
 11
-32.8373515709
 21
40.8332598598
  0
LINE
  5
471
100
AcDbEntity
  8
0
100
AcDbLine
 62
7
  6
CONTINUOUS
 10
-33.3676498137
 20
41.0420068282
 11
-32.9570137498
 21
40.4433850089
  0
LINE
  5
472
100
AcDbEntity
  8
IGES
100
AcDbLine
 62
7
  6
CONTINUOUS
 10
-32.3436778635
 20
40.6924785935
 11
-32.6227471922
 21
41.0974442073
  0
LINE
  5
473
100
AcDbEntity
  8
0
100
AcDbLine
 62
7
  6
CONTINUOUS
 10
-33.1940293818
 20
41.465323244
 11
-32.8801184225
 21
41.005373109
  0
LWPOLYLINE
  5
474
100
AcDbEntity
  8
0
100
AcDbPolyline
 62
7
  6
CONTINUOUS
 90
7
 70
0
 10
-30.4023817392
 20
38.00385878
 10
-30.3929359013
 20
37.9900064883
 10
-30.383612485
 20
37.9760315695
 10
-30.3744137922
 20
37.9619353038
 10
-30.3653421541
 20
37.9477189764
 10
-30.356399932
 20
37.933383877
 10
-30.3475895172
 20
37.9189312999
  0
LINE
  5
475
100
AcDbEntity
  8
SUPERFICI
100
AcDbLine
 62
7
  6
CONTINUOUS
 10
-32.5234196019
 20
40.9527891353
 11
-32.7637209263
 21
41.3038798286
  0
LINE
  5
476
100
AcDbEntity
  8
IGES
100
AcDbLine
 62
7
  6
CONTINUOUS
 10
-32.8373515709
 20
40.8332598598
 11
-33.0946512708
 21
41.2098679039
  0
LINE
  5
477
100
AcDbEntity
  8
RACCORDO
100
AcDbLine
 62
250
  6
CONTINUOUS
 10
-39.2631357265
 20
45.521258856
 11
-39.749475433
 21
46.2321137364
  0
LINE
  5
478
100
AcDbEntity
  8
IGES
100
AcDbLine
 62
7
  6
CONTINUOUS
 10
-32.6227471922
 20
41.0974442073
 11
-32.8479745662
 21
41.4279429825
  0
LINE
  5
479
100
AcDbEntity
  8
0
100
AcDbLine
 62
7
  6
CONTINUOUS
 10
-33.7666043992
 20
41.6323028352
 11
-33.3676498137
 21
41.0420068282
  0
LINE
  5
47A
100
AcDbEntity
  8
RACCORDO
100
AcDbLine
 62
250
  6
CONTINUOUS
 10
-33.0882555838
 20
38.7948662318
 11
-33.8459674885
 21
39.9117333418
  0
LINE
  5
47B
100
AcDbEntity
  8
SUPERFICI
100
AcDbLine
 62
7
  6
CONTINUOUS
 10
-32.7637209263
 20
41.3038798286
 11
-32.9611797109
 21
41.5954629618
  0
LINE
  5
47C
100
AcDbEntity
  8
RACCORDO
100
AcDbLine
 62
250
  6
CONTINUOUS
 10
-33.8459674885
 20
39.9117333418
 11
-34.3230649396
 21
40.6184369933
  0
LINE
  5
47D
100
AcDbEntity
  8
IGES
100
AcDbLine
 62
7
  6
CONTINUOUS
 10
-33.0946512708
 20
41.2098679039
 11
-33.3382941309
 21
41.5701515452
  0
LINE
  5
47E
100
AcDbEntity
  8
RACCORDO
100
AcDbLine
 62
250
  6
CONTINUOUS
 10
-39.749475433
 20
46.2321137364
 11
-40.0577756714
 21
46.6883055231
  0
LINE
  5
47F
100
AcDbEntity
  8
IGES
100
AcDbLine
 62
7
  6
CONTINUOUS
 10
-32.8479745662
 20
41.4279429825
 11
-33.0601170999
 21
41.7426555999
  0
LINE
  5
480
100
AcDbEntity
  8
0
100
AcDbLine
 62
7
  6
CONTINUOUS
 10
-33.4776831658
 20
41.8882590604
 11
-33.1940293818
 21
41.465323244
  0
LINE
  5
481
100
AcDbEntity
  8
RACCORDO
100
AcDbLine
 62
250
  6
CONTINUOUS
 10
-34.3230649396
 20
40.6184369933
 11
-35.0711995385
 21
41.7347920492
  0
LINE
  5
482
100
AcDbEntity
  8
SUPERFICI
100
AcDbLine
 62
7
  6
CONTINUOUS
 10
-32.9611797109
 20
41.5954629618
 11
-33.1463831706
 21
41.8716160708
  0
LINE
  5
483
100
AcDbEntity
  8
0
100
AcDbLine
 62
7
  6
CONTINUOUS
 10
-31.8271033521
 20
40.1970709256
 11
-31.8986691646
 21
40.3042414654
  0
LINE
  5
484
100
AcDbEntity
  8
IGES
100
AcDbLine
 62
7
  6
CONTINUOUS
 10
-33.3382941309
 20
41.5701515452
 11
-33.5670101739
 21
41.9118935266
  0
LINE
  5
485
100
AcDbEntity
  8
RACCORDO
100
AcDbLine
 62
250
  6
CONTINUOUS
 10
-35.0711995385
 20
41.7347920492
 11
-35.8230762118
 21
42.8642034185
  0
LINE
  5
486
100
AcDbEntity
  8
IGES
100
AcDbLine
 62
7
  6
CONTINUOUS
 10
-33.0601170999
 20
41.7426555999
 11
-33.244030533
 21
42.0183281623
  0
LWPOLYLINE
  5
487
100
AcDbEntity
  8
0
100
AcDbPolyline
 62
7
  6
CONTINUOUS
 90
6
 70
0
 10
-35.0254184419
 20
44.1902793756
 10
-35.1007782732
 20
44.3039160807
 10
-35.1926929399
 20
44.4036991132
 10
-35.2986492913
 20
44.4871245246
 10
-35.4148415653
 20
44.5524455668
 10
-35.5376354834
 20
44.5982315106
  0
LINE
  5
488
100
AcDbEntity
  8
RACCORDO
100
AcDbLine
 62
250
  6
CONTINUOUS
 10
-40.0577756714
 20
46.6883055231
 11
-40.2708790716
 21
47.0074741175
  0
LINE
  5
489
100
AcDbEntity
  8
RACCORDO
100
AcDbLine
 62
250
  6
CONTINUOUS
 10
-35.8230762118
 20
42.8642034185
 11
-36.5293435255
 21
43.9307177443
  0
LINE
  5
48A
100
AcDbEntity
  8
RACCORDO
100
AcDbLine
 62
250
  6
CONTINUOUS
 10
-32.2684983136
 20
37.568032913
 11
-33.0882555838
 21
38.7948662318
  0
LINE
  5
48B
100
AcDbEntity
  8
SUPERFICI
100
AcDbLine
 62
7
  6
CONTINUOUS
 10
-33.1463831706
 20
41.8716160708
 11
-33.3244148055
 21
42.1397320145
  0
LINE
  5
48C
100
AcDbEntity
  8
IGES
100
AcDbLine
 62
7
  6
CONTINUOUS
 10
-33.5670101739
 20
41.9118935266
 11
-33.7797100519
 21
42.2330248504
  0
LWPOLYLINE
  5
48D
100
AcDbEntity
  8
RACCORDO
100
AcDbPolyline
 62
250
  6
CONTINUOUS
 90
3
 70
0
 10
-28.7069685904
 20
31.9864406868
 10
-28.9882100247
 20
32.4117058959
 10
-29.1251820497
 20
32.6214994879
  0
LINE
  5
48E
100
AcDbEntity
  8
IGES
100
AcDbLine
 62
7
  6
CONTINUOUS
 10
-33.244030533
 20
42.0183281623
 11
-33.40423737
 21
42.2608812263
  0
LWPOLYLINE
  5
48F
100
AcDbEntity
  8
0
100
AcDbPolyline
 62
7
  6
CONTINUOUS
 90
5
 70
0
 10
-31.1072724826
 20
38.9442792581
 10
-31.1067214219
 20
38.9434410592
 10
-31.1015297671
 20
38.9351262269
 10
-31.0962182082
 20
38.9257204772
 10
-31.090862133
 20
38.9151032629
  0
LINE
  5
490
100
AcDbEntity
  8
RACCORDO
100
AcDbLine
 62
250
  6
CONTINUOUS
 10
-36.5293435255
 20
43.9307177443
 11
-37.300966115
 21
45.1026632706
  0
LINE
  5
491
100
AcDbEntity
  8
0
100
AcDbLine
 62
7
  6
CONTINUOUS
 10
-34.0355243272
 20
42.7373612482
 11
-33.4776831658
 21
41.8882590604
  0
LINE
  5
492
100
AcDbEntity
  8
RACCORDO
100
AcDbLine
 62
250
  6
CONTINUOUS
 10
-32.0976869428
 20
37.3081529103
 11
-32.2684983136
 21
37.568032913
  0
LINE
  5
493
100
AcDbEntity
  8
SUPERFICI
100
AcDbLine
 62
7
  6
CONTINUOUS
 10
-33.3244148055
 20
42.1397320145
 11
-33.4647487617
 21
42.3531698456
  0
LINE
  5
494
100
AcDbEntity
  8
IGES
100
AcDbLine
 62
7
  6
CONTINUOUS
 10
-33.7797100519
 20
42.2330248504
 11
-33.9756862602
 21
42.5318703648
  0
LINE
  5
495
100
AcDbEntity
  8
RACCORDO
100
AcDbLine
 62
250
  6
CONTINUOUS
 10
-37.300966115
 20
45.1026632706
 11
-37.9891473652
 21
46.154468455
  0
LINE
  5
496
100
AcDbEntity
  8
IGES
100
AcDbLine
 62
7
  6
CONTINUOUS
 10
-33.40423737
 20
42.2608812263
 11
-33.5162597174
 21
42.4321211149
  0
LWPOLYLINE
  5
497
100
AcDbEntity
  8
0
100
AcDbPolyline
 62
7
  6
CONTINUOUS
 90
3
 70
0
 10
-34.474329571
 20
42.7124102963
 10
-34.1378910114
 20
42.1934082105
 10
-33.7666043992
 20
41.6323028352
  0
LINE
  5
498
100
AcDbEntity
  8
SUPERFICI
100
AcDbLine
 62
7
  6
CONTINUOUS
 10
-33.4647487617
 20
42.3531698456
 11
-33.5394597238
 21
42.4678538756
  0
LINE
  5
499
100
AcDbEntity
  8
RACCORDO
100
AcDbLine
 62
250
  6
CONTINUOUS
 10
-31.8456295041
 20
36.9203434754
 11
-32.0976869428
 21
37.3081529103
  0
LINE
  5
49A
100
AcDbEntity
  8
IGES
100
AcDbLine
 62
7
  6
CONTINUOUS
 10
-33.9756862602
 20
42.5318703648
 11
-34.1543865879
 21
42.8070226298
  0
LINE
  5
49B
100
AcDbEntity
  8
RACCORDO
100
AcDbLine
 62
250
  6
CONTINUOUS
 10
-37.9891473652
 20
46.154468455
 11
-38.527815029
 21
46.9843830282
  0
LINE
  5
49C
100
AcDbEntity
  8
IGES
100
AcDbLine
 62
7
  6
CONTINUOUS
 10
-33.5162597174
 20
42.4321211149
 11
-33.5515346087
 21
42.4865389842
  0
LINE
  5
49D
100
AcDbEntity
  8
RACCORDO
100
AcDbLine
 62
250
  6
CONTINUOUS
 10
-29.1251820497
 20
32.6214994879
 11
-29.3895106519
 21
33.0316088477
  0
LINE
  5
49E
100
AcDbEntity
  8
0
100
AcDbLine
 62
7
  6
CONTINUOUS
 10
-34.7807402651
 20
43.1893311641
 11
-34.474329571
 21
42.7124102963
  0
LINE
  5
49F
100
AcDbEntity
  8
SUPERFICI
100
AcDbLine
 62
7
  6
CONTINUOUS
 10
-33.5394597238
 20
42.4678538756
 11
-33.5571533219
 21
42.4952764678
  0
LINE
  5
4A0
100
AcDbEntity
  8
IGES
100
AcDbLine
 62
7
  6
CONTINUOUS
 10
-34.1543865879
 20
42.8070226298
 11
-34.3531018692
 21
43.116192414
  0
LINE
  5
4A1
100
AcDbEntity
  8
RACCORDO
100
AcDbLine
 62
250
  6
CONTINUOUS
 10
-38.527815029
 20
46.9843830282
 11
-38.8739128548
 21
47.5228404784
  0
LINE
  5
4A2
100
AcDbEntity
  8
RACCORDO
100
AcDbLine
 62
250
  6
CONTINUOUS
 10
-31.5644313366
 20
36.4825159574
 11
-31.8456295041
 21
36.9203434754
  0
LINE
  5
4A3
100
AcDbEntity
  8
SUPERFICI
100
AcDbLine
 62
7
  6
CONTINUOUS
 10
-33.5571533219
 20
42.4952764678
 11
-33.5605625506
 21
42.5006078912
  0
LINE
  5
4A4
100
AcDbEntity
  8
IGES
100
AcDbLine
 62
7
  6
CONTINUOUS
 10
-33.5515346087
 20
42.4865389842
 11
-33.5605625512
 21
42.5006078923
  0
LWPOLYLINE
  5
4A5
100
AcDbEntity
  8
0
100
AcDbPolyline
 62
7
  6
CONTINUOUS
 90
4
 70
0
 10
-30.4220114217
 20
37.4644878138
 10
-30.411728679
 20
37.4482985644
 10
-30.3975731844
 20
37.4217400546
 10
-30.3857646378
 20
37.3935236598
  0
LINE
  5
4A6
100
AcDbEntity
  8
RACCORDO
100
AcDbLine
 62
250
  6
CONTINUOUS
 10
-29.3895106519
 20
33.0316088477
 11
-29.6417142243
 21
33.4275504762
  0
LINE
  5
4A7
100
AcDbEntity
  8
IGES
100
AcDbLine
 62
7
  6
CONTINUOUS
 10
-34.3531018692
 20
43.116192414
 11
-34.5246204153
 21
43.3858553777
  0
LINE
  5
4A8
100
AcDbEntity
  8
0
100
AcDbLine
 62
7
  6
CONTINUOUS
 10
-35.0495460693
 20
43.6138415099
 11
-34.7807402651
 21
43.1893311641
  0
LINE
  5
4A9
100
AcDbEntity
  8
RACCORDO
100
AcDbLine
 62
250
  6
CONTINUOUS
 10
-38.8739128548
 20
47.5228404784
 11
-39.020683248
 21
47.7537042196
  0
LINE
  5
4AA
100
AcDbEntity
  8
RACCORDO
100
AcDbLine
 62
250
  6
CONTINUOUS
 10
-31.1694830132
 20
35.8602060961
 11
-31.5644313366
 21
36.4825159574
  0
LINE
  5
4AB
100
AcDbEntity
  8
0
100
AcDbLine
 62
7
  6
CONTINUOUS
 10
-30.9190760667
 20
38.4728544404
 11
-30.9719907181
 21
38.5566508027
  0
LINE
  5
4AC
100
AcDbEntity
  8
SUPERFICI
100
AcDbLine
 62
7
  6
CONTINUOUS
 10
-34.4504100561
 20
43.2688658845
 11
-34.6146415873
 21
43.5284624491
  0
LINE
  5
4AD
100
AcDbEntity
  8
RACCORDO
100
AcDbLine
 62
250
  6
CONTINUOUS
 10
-29.6417142243
 20
33.4275504762
 11
-30.1087366965
 21
34.1687003705
  0
LINE
  5
4AE
100
AcDbEntity
  8
IGES
100
AcDbLine
 62
7
  6
CONTINUOUS
 10
-34.5246204153
 20
43.3858553777
 11
-34.6950691281
 21
43.6565195181
  0
LINE
  5
4AF
100
AcDbEntity
  8
RACCORDO
100
AcDbLine
 62
250
  6
CONTINUOUS
 10
-30.1087366965
 20
34.1687003705
 11
-30.5286897153
 21
34.8393628089
  0
LINE
  5
4B0
100
AcDbEntity
  8
RACCORDO
100
AcDbLine
 62
250
  6
CONTINUOUS
 10
-30.5286897153
 20
34.8393628089
 11
-31.1694830132
 21
35.8602060961
  0
LINE
  5
4B1
100
AcDbEntity
  8
RACCORDO
100
AcDbLine
 62
250
  6
CONTINUOUS
 10
-39.020683248
 20
47.7537042196
 11
-39.0683488943
 21
47.8295485151
  0
LINE
  5
4B2
100
AcDbEntity
  8
0
100
AcDbLine
 62
7
  6
CONTINUOUS
 10
-30.8159812781
 20
38.3078182114
 11
-30.9190760667
 21
38.4728544404
  0
LINE
  5
4B3
100
AcDbEntity
  8
SUPERFICI
100
AcDbLine
 62
7
  6
CONTINUOUS
 10
-34.6146415873
 20
43.5284624491
 11
-34.7876476987
 21
43.8047227318
  0
LINE
  5
4B4
100
AcDbEntity
  8
IGES
100
AcDbLine
 62
7
  6
CONTINUOUS
 10
-34.6950691281
 20
43.6565195181
 11
-34.8464186176
 21
43.8992752066
  0
LWPOLYLINE
  5
4B5
100
AcDbEntity
  8
RACCORDO
100
AcDbPolyline
 62
250
  6
CONTINUOUS
 90
6
 70
0
 10
-39.0683488943
 20
47.8295485151
 10
-39.0812853437
 20
47.8503841996
 10
-39.0855208465
 20
47.8572917363
 10
-39.088412378
 20
47.86209338
 10
-39.0901016035
 20
47.864977603
 10
-39.0907131554
 20
47.8661224359
  0
LINE
  5
4B6
100
AcDbEntity
  8
SUPERFICI
100
AcDbLine
 62
7
  6
CONTINUOUS
 10
-34.7876476987
 20
43.8047227318
 11
-34.9380805803
 21
44.0475081232
  0
LINE
  5
4B7
100
AcDbEntity
  8
0
100
AcDbLine
 62
7
  6
CONTINUOUS
 10
-35.5724523531
 20
44.4604635378
 11
-35.0495460693
 21
43.6138415099
  0
LINE
  5
4B8
100
AcDbEntity
  8
IGES
100
AcDbLine
 62
7
  6
CONTINUOUS
 10
-34.8464186176
 20
43.8992752066
 11
-34.9810647567
 21
44.1173840996
  0
LINE
  5
4B9
100
AcDbEntity
  8
SUPERFICI
100
AcDbLine
 62
7
  6
CONTINUOUS
 10
-34.9380805803
 20
44.0475081232
 11
-35.0043204463
 21
44.1553815497
  0
LINE
  5
4BA
100
AcDbEntity
  8
IGES
100
AcDbLine
 62
7
  6
CONTINUOUS
 10
-34.9810647567
 20
44.1173840996
 11
-35.0157256468
 21
44.1741195538
  0
LINE
  5
4BB
100
AcDbEntity
  8
SUPERFICI
100
AcDbLine
 62
7
  6
CONTINUOUS
 10
-35.0043204463
 20
44.1553815497
 11
-35.0202300788
 21
44.1815546469
  0
LINE
  5
4BC
100
AcDbEntity
  8
SUPERFICI
100
AcDbLine
 62
7
  6
CONTINUOUS
 10
-35.0202300788
 20
44.1815546469
 11
-35.0251999344
 21
44.189801327
  0
LINE
  5
4BD
100
AcDbEntity
  8
IGES
100
AcDbLine
 62
7
  6
CONTINUOUS
 10
-35.0157256468
 20
44.1741195538
 11
-35.0251999344
 21
44.189801327
  0
LINE
  5
4BE
100
AcDbEntity
  8
IGES
100
AcDbLine
 62
7
  6
CONTINUOUS
 10
-35.0251999344
 20
44.189801327
 11
-35.0276980574
 21
44.1939699444
  0
LINE
  5
4BF
100
AcDbEntity
  8
SUPERFICI
100
AcDbLine
 62
7
  6
CONTINUOUS
 10
-30.2212578022
 20
37.7057763411
 11
-30.3475948071
 21
37.9189400788
  0
LINE
  5
4C0
100
AcDbEntity
  8
IGES
100
AcDbLine
 62
7
  6
CONTINUOUS
 10
-30.2212578022
 20
37.7057763411
 11
-30.3475948071
 21
37.9189400788
  0
LWPOLYLINE
  5
4C1
100
AcDbEntity
  8
0
100
AcDbPolyline
 62
7
  6
CONTINUOUS
 90
3
 70
0
 10
-30.8159812781
 20
38.3078182114
 10
-30.647015668
 20
38.020753988
 10
-30.5535867102
 20
37.8559390119
  0
LINE
  5
4C2
100
AcDbEntity
  8
0
100
AcDbLine
 62
7
  6
CONTINUOUS
 10
-30.0947541668
 20
37.4850631784
 11
-29.8973867559
 21
37.1424752995
  0
LINE
  5
4C3
100
AcDbEntity
  8
SUPERFICI
100
AcDbLine
 62
7
  6
CONTINUOUS
 10
-30.111396269
 20
37.5133045249
 11
-30.2212578022
 21
37.7057763411
  0
LINE
  5
4C4
100
AcDbEntity
  8
IGES
100
AcDbLine
 62
7
  6
CONTINUOUS
 10
-30.0692439104
 20
37.4394557375
 11
-30.2212578022
 21
37.7057763411
  0
LINE
  5
4C5
100
AcDbEntity
  8
0
100
AcDbLine
 62
7
  6
CONTINUOUS
 10
-29.8973867559
 20
37.1424752995
 11
-29.70338066
 21
36.7979312916
  0
LWPOLYLINE
  5
4C6
100
AcDbEntity
  8
0
100
AcDbPolyline
 62
7
  6
CONTINUOUS
 90
3
 70
0
 10
-31.7237823055
 20
40.021463368
 10
-31.7610099507
 20
40.0880195481
 10
-31.8271033521
 20
40.1970709256
  0
LWPOLYLINE
  5
4C7
100
AcDbEntity
  8
0
100
AcDbPolyline
 62
7
  6
CONTINUOUS
 90
5
 70
0
 10
-29.70338066
 20
36.7979312916
 10
-29.5127391724
 20
36.4514337933
 10
-29.3254897076
 20
36.1030287778
 10
-29.1416816633
 20
35.752806727
 10
-28.9613394552
 20
35.4008152484
  0
LINE
  5
4C8
100
AcDbEntity
  8
0
100
AcDbLine
 62
7
  6
CONTINUOUS
 10
-30.5535867102
 20
37.8559390119
 11
-30.4613647853
 21
37.6875171482
  0
LINE
  5
4C9
100
AcDbEntity
  8
0
100
AcDbLine
 62
7
  6
CONTINUOUS
 10
-30.4613647853
 20
37.6875171482
 11
-30.3674700712
 21
37.5106191154
  0
LWPOLYLINE
  5
4CA
100
AcDbEntity
  8
RACCORDO
100
AcDbPolyline
 62
250
  6
CONTINUOUS
 90
4
 70
0
 10
-26.6779708666
 20
29.1707651073
 10
-26.680515038
 20
29.1702561354
 10
-26.6883465225
 20
29.1756290344
 10
-26.702355444
 20
29.1868838044
  0
LWPOLYLINE
  5
4CB
100
AcDbEntity
  8
RACCORDO
100
AcDbPolyline
 62
250
  6
CONTINUOUS
 90
13
 70
0
 10
-26.702355444
 20
29.1868838044
 10
-26.7525519336
 20
29.2241654612
 10
-26.790365811
 20
29.2559393403
 10
-26.8381764506
 20
29.2977621422
 10
-26.8967767727
 20
29.3497770593
 10
-26.9667400737
 20
29.4167239129
 10
-27.0493979973
 20
29.4991741491
 10
-27.1454674763
 20
29.5965563218
 10
-27.254040877
 20
29.7118959149
 10
-27.3763314692
 20
29.8469499345
 10
-27.5126864472
 20
29.9999613744
 10
-27.6595354482
 20
30.1686847004
 10
-27.8172908679
 20
30.3560743146
  0
LWPOLYLINE
  5
4CC
100
AcDbEntity
  8
RACCORDO
100
AcDbPolyline
 62
250
  6
CONTINUOUS
 90
14
 70
0
 10
-26.9919747058
 20
29.7148862052
 10
-27.0704716976
 20
29.8001650607
 10
-27.1609479604
 20
29.9015716284
 10
-27.2636249077
 20
30.0215487293
 10
-27.3789844347
 20
30.1608997389
 10
-27.5064588103
 20
30.3188686998
 10
-27.6435814315
 20
30.4941021921
 10
-27.7903562705
 20
30.6873103761
 10
-27.9451333437
 20
30.895737955
 10
-28.1015423175
 20
31.1108754796
 10
-28.2563101955
 20
31.3288460773
 10
-28.4097897101
 20
31.5495829124
 10
-28.560619495
 20
31.769649766
 10
-28.7069685904
 20
31.9864406868
  0
LWPOLYLINE
  5
4CD
100
AcDbEntity
  8
0
100
AcDbPolyline
 62
7
  6
CONTINUOUS
 90
6
 70
0
 10
-30.4202735999
 20
36.8889679077
 10
-30.3808610392
 20
36.8461283047
 10
-30.3491975511
 20
36.8193133852
 10
-30.3247912364
 20
36.8087758426
 10
-30.3087487
 20
36.8147390354
 10
-30.3043171424
 20
36.8247252349
  0
LWPOLYLINE
  5
4CE
100
AcDbEntity
  8
0
100
AcDbPolyline
 62
7
  6
CONTINUOUS
 90
4
 70
0
 10
-34.129968962
 20
42.8902353914
 10
-34.2593377441
 20
43.044324039
 10
-34.3895171357
 20
43.1978028288
 10
-34.4504100561
 20
43.2688658845
  0
LWPOLYLINE
  5
4CF
100
AcDbEntity
  8
SUPERFICI
100
AcDbPolyline
 62
7
  6
CONTINUOUS
 90
3
 70
0
 10
-31.9733687889
 20
40.4062661568
 10
-32.0523747959
 20
40.5049179061
 10
-32.135560926
 20
40.600031914
  0
LWPOLYLINE
  5
4D0
100
AcDbEntity
  8
IGES
100
AcDbPolyline
 62
7
  6
CONTINUOUS
 90
3
 70
0
 10
-31.9733687889
 20
40.4062661568
 10
-32.052374796
 20
40.5049179061
 10
-32.135560926
 20
40.600031914
  0
LINE
  5
4D1
100
AcDbEntity
  8
0
100
AcDbLine
 62
7
  6
CONTINUOUS
 10
-30.4671336109
 20
36.9475268287
 11
-30.4202735999
 21
36.8889679077
  0
LWPOLYLINE
  5
4D2
100
AcDbEntity
  8
0
100
AcDbPolyline
 62
7
  6
CONTINUOUS
 90
4
 70
0
 10
-30.4671336109
 20
36.9475268287
 10
-30.6162954883
 20
37.1457221158
 10
-30.7730737294
 20
37.3567584052
 10
-30.9366506624
 20
37.5796050077
  0
LINE
  5
4D3
100
AcDbEntity
  8
IGES
100
AcDbLine
 62
7
  6
CONTINUOUS
 10
-30.431929906
 20
37.4783612816
 11
-30.6039329063
 21
37.7078095116
  0
LINE
  5
4D4
100
AcDbEntity
  8
IGES
100
AcDbLine
 62
7
  6
CONTINUOUS
 10
-30.6039329063
 20
37.7078095116
 11
-30.8173294707
 21
37.9952738508
  0
LWPOLYLINE
  5
4D5
100
AcDbEntity
  8
0
100
AcDbPolyline
 62
7
  6
CONTINUOUS
 90
3
 70
0
 10
-30.4318974779
 20
37.4783134878
 10
-30.4282092944
 20
37.4733276199
 10
-30.4220114217
 20
37.4644878138
  0
LINE
  5
4D6
100
AcDbEntity
  8
0
100
AcDbLine
 62
7
  6
CONTINUOUS
 10
-31.9764255429
 20
40.4102499241
 11
-31.8986707911
 21
40.3042437882
  0
LINE
  5
4D7
100
AcDbEntity
  8
SUPERFICI
100
AcDbLine
 62
7
  6
CONTINUOUS
 10
-31.8994863897
 20
40.3054092097
 11
-31.9733687889
 21
40.4062661568
  0
LINE
  5
4D8
100
AcDbEntity
  8
IGES
100
AcDbLine
 62
7
  6
CONTINUOUS
 10
-31.8994863897
 20
40.3054092097
 11
-31.9733687889
 21
40.4062661568
  0
LINE
  5
4D9
100
AcDbEntity
  8
IGES
100
AcDbLine
 62
7
  6
CONTINUOUS
 10
-30.8173294707
 20
37.9952738508
 11
-31.1100127537
 21
38.393900606
  0
LINE
  5
4DA
100
AcDbEntity
  8
IGES
100
AcDbLine
 62
7
  6
CONTINUOUS
 10
-31.1100127537
 20
38.393900606
 11
-31.4072954907
 21
38.8033781728
  0
LWPOLYLINE
  5
4DB
100
AcDbEntity
  8
0
100
AcDbPolyline
 62
7
  6
CONTINUOUS
 90
3
 70
0
 10
-31.1127631853
 20
38.9521916361
 10
-31.1115165808
 20
38.9504639919
 10
-31.1072724826
 20
38.9442792581
  0
LINE
  5
4DC
100
AcDbEntity
  8
SUPERFICI
100
AcDbLine
 62
7
  6
CONTINUOUS
 10
-31.1130168122
 20
38.9525782878
 11
-31.3033887796
 21
39.2165373116
  0
LINE
  5
4DD
100
AcDbEntity
  8
IGES
100
AcDbLine
 62
7
  6
CONTINUOUS
 10
-31.1130168122
 20
38.9525782878
 11
-31.3033888627
 21
39.2165374273
  0
LINE
  5
4DE
100
AcDbEntity
  8
IGES
100
AcDbLine
 62
7
  6
CONTINUOUS
 10
-31.4072954907
 20
38.8033781728
 11
-31.7046422149
 21
39.217243028
  0
LINE
  5
4DF
100
AcDbEntity
  8
0
100
AcDbLine
 62
7
  6
CONTINUOUS
 10
-31.3600911138
 20
38.836179338
 11
-31.1344528699
 21
38.5211917074
  0
LINE
  5
4E0
100
AcDbEntity
  8
SUPERFICI
100
AcDbLine
 62
7
  6
CONTINUOUS
 10
-31.3033887796
 20
39.2165373116
 11
-31.5024064467
 21
39.4951552292
  0
LINE
  5
4E1
100
AcDbEntity
  8
IGES
100
AcDbLine
 62
7
  6
CONTINUOUS
 10
-31.3033888627
 20
39.2165374273
 11
-31.5858773071
 21
39.6125631181
  0
LINE
  5
4E2
100
AcDbEntity
  8
IGES
100
AcDbLine
 62
7
  6
CONTINUOUS
 10
-31.5858773071
 20
39.6125631181
 11
-31.9236262074
 21
40.0906711599
  0
LINE
  5
4E3
100
AcDbEntity
  8
IGES
100
AcDbLine
 62
7
  6
CONTINUOUS
 10
-31.9236262074
 20
40.0906711599
 11
-32.0747760144
 21
40.3062370121
  0
LWPOLYLINE
  5
4E4
100
AcDbEntity
  8
0
100
AcDbPolyline
 62
7
  6
CONTINUOUS
 90
10
 70
0
 43
0.3500000006
 10
-33.005455101
 20
58.0297599792
 10
-32.9340261841
 20
57.8869066772
 10
-32.9340261841
 20
57.8154754944
 10
-33.076881752
 20
57.6726221924
 10
-33.1483106689
 20
57.6726221924
 10
-33.2197395859
 20
57.7440443115
 10
-33.2197395859
 20
57.8154754944
 10
-33.1483106689
 20
57.9583378601
 10
-33.076881752
 20
58.0297599792
 10
-33.005455101
 20
58.0297599792
  0
LWPOLYLINE
  5
4E5
100
AcDbEntity
  8
RACCORDO
100
AcDbPolyline
 62
250
  6
CONTINUOUS
 90
10
 70
0
 10
-26.7153656359
 20
29.4577165928
 10
-26.7175806981
 20
29.4587245198
 10
-26.7252482478
 20
29.4641196018
 10
-26.7390218025
 20
29.4747689003
 10
-26.7593905815
 20
29.4909498066
 10
-26.7872363492
 20
29.5141979002
 10
-26.8237505587
 20
29.5472078744
 10
-26.8694849691
 20
29.5904804457
 10
-26.9251622818
 20
29.6452232189
 10
-26.9919747058
 20
29.7148862052
  0
LWPOLYLINE
  5
4E6
100
AcDbEntity
  8
0
100
AcDbPolyline
 62
7
  6
CONTINUOUS
 90
10
 70
0
 10
-30.537314252
 20
38.1499607831
 10
-30.5205869099
 20
38.1352984682
 10
-30.5042716023
 20
38.1202206776
 10
-30.4883784426
 20
38.1047384016
 10
-30.472916002
 20
38.0888611793
 10
-30.4578923444
 20
38.0725985909
 10
-30.4433165073
 20
38.0559618222
 10
-30.4291955081
 20
38.0389602372
 10
-30.4155345982
 20
38.0216011413
 10
-30.4023398574
 20
38.0038927687
  0
LINE
  5
4E7
100
AcDbEntity
  8
0
100
AcDbLine
 62
7
  6
CONTINUOUS
 10
-34.9185379053
 20
43.8057641464
 11
-34.9183029011
 21
43.8055471875
  0
LWPOLYLINE
  5
4E8
100
AcDbEntity
  8
SUPERFICI
100
AcDbPolyline
 62
7
  6
CONTINUOUS
 90
4
 70
0
 10
-32.135560926
 20
40.600031914
 10
-32.2227992927
 20
40.6914410582
 10
-32.3139589196
 20
40.7789703762
 10
-32.4088623338
 20
40.8623269309
  0
LWPOLYLINE
  5
4E9
100
AcDbEntity
  8
IGES
100
AcDbPolyline
 62
7
  6
CONTINUOUS
 90
4
 70
0
 10
-32.135560926
 20
40.600031914
 10
-32.2227992927
 20
40.6914410582
 10
-32.3139589196
 20
40.7789703762
 10
-32.4088623338
 20
40.8623269309
  0
LWPOLYLINE
  5
4EA
100
AcDbEntity
  8
0
100
AcDbPolyline
 62
250
  6
CONTINUOUS
 90
6
 70
0
 10
-29.6645550869
 20
36.4587578704
 10
-29.6176914288
 20
36.4313446687
 10
-29.5759512511
 20
36.3993763499
 10
-29.539232932
 20
36.3632026474
 10
-29.5073347104
 20
36.3234862374
 10
-29.4802023579
 20
36.2807411337
  0
LWPOLYLINE
  5
4EB
100
AcDbEntity
  8
0
100
AcDbPolyline
 62
7
  6
CONTINUOUS
 90
8
 70
0
 10
-32.5234072121
 20
40.9527711123
 10
-32.5054219489
 20
40.9396915593
 10
-32.4111701554
 20
40.8642612343
 10
-32.3190339161
 20
40.7836217905
 10
-32.2292797131
 20
40.6979212195
 10
-32.1420730967
 20
40.6071359085
 10
-32.0576677451
 20
40.5112232767
 10
-31.9764255429
 20
40.4102499241
  0
LWPOLYLINE
  5
4EC
100
AcDbEntity
  8
SUPERFICI
100
AcDbPolyline
 62
7
  6
CONTINUOUS
 90
3
 70
0
 10
-32.4088623338
 20
40.8623269309
 10
-32.5073000976
 20
40.9411251414
 10
-32.523419602
 20
40.9527891354
  0
LWPOLYLINE
  5
4ED
100
AcDbEntity
  8
IGES
100
AcDbPolyline
 62
7
  6
CONTINUOUS
 90
3
 70
0
 10
-32.4088623338
 20
40.8623269309
 10
-32.5073000976
 20
40.9411251414
 10
-32.523419602
 20
40.9527891354
  0
LWPOLYLINE
  5
4EE
100
AcDbEntity
  8
RACCORDO
100
AcDbPolyline
 62
7
  6
CONTINUOUS
 90
10
 70
0
 10
-39.0907131554
 20
47.8661224359
 10
-38.6915759681
 20
47.5261458209
 10
-38.2969602237
 20
47.1809969537
 10
-37.9069216005
 20
46.8307255584
 10
-37.5215031758
 20
46.4753699393
 10
-37.1407715346
 20
46.1149901233
 10
-36.7648154831
 20
45.749669595
 10
-36.3936984757
 20
45.3794702813
 10
-36.0274599059
 20
45.0044308184
 10
-35.6661503126
 20
44.6246009083
  0
LWPOLYLINE
  5
4EF
100
AcDbEntity
  8
0
100
AcDbPolyline
 62
250
  6
CONTINUOUS
 90
5
 70
0
 10
-29.8966199677
 20
36.5229421559
 10
-29.8322533178
 20
36.5142102457
 10
-29.7720251804
 20
36.5004025512
 10
-29.716123665
 20
36.4817764916
 10
-29.6645550869
 20
36.4587578704
  0
LWPOLYLINE
  5
4F0
100
AcDbEntity
  8
0
100
AcDbPolyline
 62
250
  6
CONTINUOUS
 90
10
 70
0
 10
-30.7426955709
 20
38.1839931556
 10
-30.6961373992
 20
38.1755643525
 10
-30.6512731683
 20
38.1641620116
 10
-30.6082941631
 20
38.1498071495
 10
-30.567344314
 20
38.132517894
 10
-30.5286946756
 20
38.1123213742
 10
-30.4926936406
 20
38.0892915033
 10
-30.4595495736
 20
38.0634989731
 10
-30.429382628
 20
38.0349814493
 10
-30.4023817392
 20
38.00385878
  0
LWPOLYLINE
  5
4F1
100
AcDbEntity
  8
0
100
AcDbPolyline
 62
7
  6
CONTINUOUS
 90
7
 70
0
 10
-30.8159814788
 20
38.3078182463
 10
-30.7661657618
 20
38.289374739
 10
-30.7174635987
 20
38.2677066733
 10
-30.6700538388
 20
38.2428702808
 10
-30.6240772264
 20
38.2149004712
 10
-30.5797389876
 20
38.1838826481
 10
-30.537314252
 20
38.1499607831
  0
LINE
  5
4F2
100
AcDbEntity
  8
0
100
AcDbLine
 62
7
  6
CONTINUOUS
 10
-35.5376354834
 20
44.5982315106
 11
-35.6661503126
 21
44.6246009083
  0
LINE
  5
4F3
100
AcDbEntity
  8
0
100
AcDbLine
 62
7
  6
CONTINUOUS
 10
-34.0019244076
 20
42.8561670174
 11
-34.129968962
 21
42.8902353914
  0
LWPOLYLINE
  5
4F4
100
AcDbEntity
  8
0
100
AcDbPolyline
 62
7
  6
CONTINUOUS
 90
6
 70
0
 43
0.3500000006
 10
-35.7911692657
 20
57.5297598267
 10
-34.7197400436
 20
57.5297598267
 10
-34.5054532928
 20
57.7440443115
 10
-34.5054532928
 20
58.8154757996
 10
-34.9340245285
 20
59.2440447693
 10
-35.3625980301
 20
59.2440447693
  0
ARC
  5
4F5
100
AcDbEntity
  8
0
100
AcDbCircle
 62
7
  6
CONTINUOUS
 10
-0.557873615
 20
17.1061298604
 40
0.8849429377
100
AcDbArc
 50
22.842868527
 51
180.0
  0
ARC
  5
4F6
100
AcDbEntity
  8
0
100
AcDbCircle
 62
7
  6
CONTINUOUS
 10
-0.557873615
 20
17.0260263904
 40
0.351100675
100
AcDbArc
 50
0.0
 51
180.0
  0
ARC
  5
4F7
100
AcDbEntity
  8
RACCORDO
100
AcDbCircle
 62
7
  6
CONTINUOUS
 10
-3.265570109
 20
-4.3121848852
 40
0.3000002182
100
AcDbArc
 50
188.5546531159
 51
209.7823160448
  0
ARC
  5
4F8
100
AcDbEntity
  8
RACCORDO
100
AcDbCircle
 62
7
  6
CONTINUOUS
 10
3.2655717359
 20
-4.3121857701
 40
0.2999999816
100
AcDbArc
 50
330.2134929285
 51
351.4454962379
  0
ARC
  5
4F9
100
AcDbEntity
  8
SUPERFICI
100
AcDbCircle
 62
7
  6
CONTINUOUS
 10
-68.9571419434
 20
10.2851154372
 40
32.4991855118
100
AcDbArc
 50
342.5569129573
 51
23.385318339
  0
ARC
  5
4FA
100
AcDbEntity
  8
0
100
AcDbCircle
 62
7
  6
CONTINUOUS
 10
-33.0691892922
 20
-8.9854162563
 40
2.9499263885
100
AcDbArc
 50
180.002102957
 51
0.0049203177
  0
ARC
  5
4FB
100
AcDbEntity
  8
0
100
AcDbCircle
 62
7
  6
CONTINUOUS
 10
-33.0700351777
 20
-6.1472098302
 40
2.9495104932
100
AcDbArc
 50
359.010883805
 51
180.9950748558
  0
ARC
  5
4FC
100
AcDbEntity
  8
SUPERFICI
100
AcDbCircle
 62
7
  6
CONTINUOUS
 10
-33.0691892914
 20
-8.9854950465
 40
1.74995625
100
AcDbArc
 50
180.0000651864
 51
359.9999354868
  0
ARC
  5
4FD
100
AcDbEntity
  8
IGES
100
AcDbCircle
 62
7
  6
CONTINUOUS
 10
-31.8152685083
 20
38.4795027007
 40
0.8469225489
100
AcDbArc
 50
351.8284347548
 51
33.2839173958
  0
ARC
  5
4FE
100
AcDbEntity
  8
RACCORDO
100
AcDbCircle
 62
7
  6
CONTINUOUS
 10
-27.4768744294
 20
29.2125513459
 40
0.7999999493
100
AcDbArc
 50
357.0059023141
 51
17.8458166893
  0
ENDSEC
  0
SECTION
  2
OBJECTS
  0
DICTIONARY
  5
C
100
AcDbDictionary
280
0
281
1
  3
ACAD_GROUP
350
D
  3
ACAD_MLINESTYLE
350
17
  3
ACAD_LAYOUT
350
1A
  3
ACAD_PLOTSETTINGS
350
19
  3
ACAD_PLOTSTYLENAME
350
E
  0
DICTIONARY
  5
D
102
{ACAD_REACTORS
330
C
102
}
100
AcDbDictionary
280
0
281
1
  0
ACDBDICTIONARYWDFLT
  5
E
102
{ACAD_REACTORS
330
C
102
}
100
AcDbDictionary
281
1
  3
Normal
350
F
100
AcDbDictionaryWithDefault
340
F
  0
DICTIONARY
  5
17
102
{ACAD_REACTORS
330
C
102
}
100
AcDbDictionary
280
0
281
1
  3
Standard
350
18
  0
DICTIONARY
  5
19
102
{ACAD_REACTORS
330
C
102
}
100
AcDbDictionary
281
1
  0
DICTIONARY
  5
1A
102
{ACAD_REACTORS
330
C
102
}
100
AcDbDictionary
281
1
  3
Model
350
4FF
  3
Layout1
350
500
  0
ACDBPLACEHOLDER
  5
F
102
{ACAD_REACTORS
330
E
102
}
  0
MLINESTYLE
  5
18
102
{ACAD_REACTORS
330
17
102
}
100
AcDbMlineStyle
  2
STANDARD
 70
0
  3

 62
256
 51
90.0
 52
90.0
 71
2
 49
0.5
 62
256
  6
BYLAYER
 49
-0.5
 62
256
  6
BYLAYER
  0
LAYOUT
  5
4FF
102
{ACAD_REACTORS
330
1A
102
}
100
AcDbPlotSettings
  1

  2
none_device
  4
ISO_A4_(297.00_x_210.00_MM)
  6

 40
0.0
 41
0.0
 42
0.0
 43
0.0
 44
297.0
 45
210.0
 46
0.0
 47
0.0
 48
0.0
 49
0.0
140
0.0
141
0.0
142
1.0
143
1.0
 70
1024
 72
1
 73
0
 74
0
  7

 75
0
147
1.0
148
0.0
149
0.0
100
AcDbLayout
  1
Model
 70
0
 71
0
 10
0.0
 20
0.0
 11
297.0
 21
210.0
 12
0.0
 22
0.0
 32
0.0
 14
0.0
 24
0.0
 34
0.0
 15
0.0
 25
0.0
 35
0.0
146
0.0
 13
0.0
 23
0.0
 33
0.0
 16
1.0
 26
0.0
 36
0.0
 17
0.0
 27
1.0
 37
0.0
 76
0
330
21C
345
0
346
0
  0
LAYOUT
  5
500
102
{ACAD_REACTORS
330
1A
102
}
100
AcDbPlotSettings
  1

  2
none_device
  4
ISO_A4_(297.00_x_210.00_MM)
  6

 40
0.0
 41
0.0
 42
0.0
 43
0.0
 44
297.0
 45
210.0
 46
0.0
 47
0.0
 48
0.0
 49
0.0
140
0.0
141
0.0
142
1.0
143
1.0
 70
0
 72
1
 73
0
 74
0
  7

 75
0
147
1.0
148
0.0
149
0.0
100
AcDbLayout
  1
Layout1
 70
0
 71
1
 10
0.0
 20
0.0
 11
297.0
 21
210.0
 12
0.0
 22
0.0
 32
0.0
 14
0.0
 24
0.0
 34
0.0
 15
0.0
 25
0.0
 35
0.0
146
0.0
 13
0.0
 23
0.0
 33
0.0
 16
1.0
 26
0.0
 36
0.0
 17
0.0
 27
1.0
 37
0.0
 76
0
330
21D
345
0
346
0
  0
ENDSEC
  0
EOF
