0
SECTION
2
HEADER
9
$ACADVER
1
AC1014
9
$HANDSEED
5
       28D
9
$EXTMAX
10
297.0000000000
20
210.0000000000
9
$EXTMIN
10
0.0000000000
20
0.0000000000
9
$LIMMIN
10
0.0000000000
20
0.0000000000
9
$LIMMAX
10
297.0000000000
20
210.0000000000
9
$VIEWCTR
10
148.5000000000
20
105.0000000000
9
$VIEWSIZE
40
210.0000000000
9
$CLAYER
8
0
9
$LTSCALE
40
16.3350000000
9
$CELTYPE
6
BYLAYER
9
$DIMSCALE
40
1
9
$DIMASZ
40
3.0000000000
9
$DIMEXO
40
1.8562500000
9
$DIMDLI
40
11.2860000000
9
$DIMEXE
40
5.3460000000
9
$DIMCEN
40
2.6730000000
9
$DIMLFAC
40
1.0000000000
9
$DIMTXT
40
3.0000000000
9
$DIMTOL
70
1
9
$DIMLIM
70
0
9
$DIMTFAC
40
1.0000000000
9
$DIMTP
40
0.0100000000
9
$DIMTM
40
0.0100000000
9
$MEASUREMENT
70
1
0
ENDSEC
0
SECTION
2
CLASSES
0
ENDSEC
0
SECTION
2
TABLES
0
TABLE
2
VPORT
5
8
100
AcDbSymbolTable
70
2
0
VPORT
5
1F4
100
AcDbSymbolTableRecord
100
AcDbViewportTableRecord
2
*ACTIVE
70
0
10
0.0
20
0.0
11
1.0
21
1.0
12
148.5000000000
22
105.0000000000
13
0.0
23
0.0
14
1.0
24
1.0
15
0.0
25
0.0
16
0.0
26
0.0
36
1.0
17
0.0
27
0.0
37
0.0
40
210.0000000000
41
1.4142857143
42
50.0
43
0.0
44
0.0
50
0.0
51
0.0
71
0
72
100
73
1
74
1
75
0
76
0
77
0
78
0
0
ENDTAB
0
TABLE
2
LTYPE
5
5
100
AcDbSymbolTable
70
6
0
LTYPE
5
14
100
AcDbSymbolTableRecord
100
AcDbLinetypeTableRecord
2
BYBLOCK
70
0
3

72
65
73
0
40
0.0
0
LTYPE
5
15
100
AcDbSymbolTableRecord
100
AcDbLinetypeTableRecord
2
BYLAYER
70
0
3

72
65
73
0
40
0.0
0
LTYPE
5
16
100
AcDbSymbolTableRecord
100
AcDbLinetypeTableRecord
2
CONTINUOUS
70
64
3
Solid line
72
65
73
0
40
0
0
LTYPE
5
1F5
100
AcDbSymbolTableRecord
100
AcDbLinetypeTableRecord
2
CENTER
70
64
3
____ _ ____ _ ____ _ ____ _ ____ _ ____ _ ____
72
65
73
4
40
0.6
49
0.375
74
0
49
-0.075
74
0
49
0.075
74
0
49
-0.075
74
0
0
LTYPE
5
1F6
100
AcDbSymbolTableRecord
100
AcDbLinetypeTableRecord
2
HIDDEN
70
64
3
- - - - - - - - - - - - - - - - - - - -
72
65
73
2
40
0.2
49
0.1
74
0
49
-0.1
74
0
0
LTYPE
5
1F7
100
AcDbSymbolTableRecord
100
AcDbLinetypeTableRecord
2
PHANTOM
70
64
3
_____ _ _ _____ _ _ _____ _ _ _____
72
65
73
6
40
0.8
49
0.45
74
0
49
-0.05
74
0
49
0.1
74
0
49
-0.05
74
0
49
0.1
74
0
49
-0.05
74
0
0
LTYPE
5
1F8
100
AcDbSymbolTableRecord
100
AcDbLinetypeTableRecord
2
DOT
70
64
3
. . . . . . . . . . . . . . . . . . . .
72
65
73
2
40
0.2
49
0.1
74
0
49
-0.1
74
0
0
LTYPE
5
1F9
100
AcDbSymbolTableRecord
100
AcDbLinetypeTableRecord
2
DASHED
70
64
3
- - - - - - - - - - - - - - - - - - - -
72
65
73
2
40
0.2
49
0.1
74
0
49
-0.1
74
0
0
ENDTAB
0
TABLE
2
LAYER
5
2
100
AcDbSymbolTable
70
36
0
LAYER
5
10
100
AcDbSymbolTableRecord
100
AcDbLayerTableRecord
2
0
70
0
62
7
6
CONTINUOUS
0
LAYER
5
1FA
100
AcDbSymbolTableRecord
100
AcDbLayerTableRecord
2
DEFAULT_1
70
0
62
7
6
CENTER
0
LAYER
5
1FB
100
AcDbSymbolTableRecord
100
AcDbLayerTableRecord
2
DEFAULT_2
70
0
62
8
6
HIDDEN
0
LAYER
5
1FC
100
AcDbSymbolTableRecord
100
AcDbLayerTableRecord
2
DEFAULT_3
70
0
62
7
6
PHANTOM
0
LAYER
5
1FD
100
AcDbSymbolTableRecord
100
AcDbLayerTableRecord
2
ASSI
70
0
62
7
6
CONTINUOUS
0
LAYER
5
1FE
100
AcDbSymbolTableRecord
100
AcDbLayerTableRecord
2
COORDINATE
70
0
62
7
6
CONTINUOUS
0
LAYER
5
1FF
100
AcDbSymbolTableRecord
100
AcDbLayerTableRecord
2
COORD_ORIGINE
70
0
62
7
6
CONTINUOUS
0
LAYER
5
200
100
AcDbSymbolTableRecord
100
AcDbLayerTableRecord
2
PIANI
70
0
62
7
6
CONTINUOUS
0
LAYER
5
201
100
AcDbSymbolTableRecord
100
AcDbLayerTableRecord
2
PIANI_ORIGINE
70
0
62
7
6
CONTINUOUS
0
LAYER
5
202
100
AcDbSymbolTableRecord
100
AcDbLayerTableRecord
2
RACCORDO
70
0
62
7
6
CONTINUOUS
0
LAYER
5
203
100
AcDbSymbolTableRecord
100
AcDbLayerTableRecord
2
SNAPLINE
70
0
62
7
6
CONTINUOUS
0
LAYER
5
204
100
AcDbSymbolTableRecord
100
AcDbLayerTableRecord
2
TRASH
70
0
62
7
6
CONTINUOUS
0
ENDTAB
0
TABLE
2
STYLE
5
3
100
AcDbSymbolTable
70
1
0
STYLE
5
11
100
AcDbSymbolTableRecord
100
AcDbTextStyleTableRecord
2
STANDARD
70
0
40
0.0
41
0.8000000000
50
0.0
71
0
42
0.2
3
txt
4

0
ENDTAB
0
TABLE
2
VIEW
5
6
100
AcDbSymbolTable
70
0
0
ENDTAB
0
TABLE
2
UCS
5
7
100
AcDbSymbolTable
70
0
0
ENDTAB
0
TABLE
2
APPID
5
9
100
AcDbSymbolTable
70
1
0
APPID
5
205
100
AcDbSymbolTableRecord
100
AcDbRegAppTableRecord
2
ACAD
70
0
0
ENDTAB
0
TABLE
2
DIMSTYLE
5
A
100
AcDbSymbolTable
70
1
0
DIMSTYLE
105
206
100
AcDbSymbolTableRecord
100
AcDbDimStyleTableRecord
2
STANDARD
70
0
3

4

5

6

7

40
1.0
41
3.0000000000
42
0.0625
43
0.38
44
0.18
45
0.0
46
0.0
47
0.0100000000
48
0.0100000000
140
3.0000000000
141
0.09
142
0.0
143
25.4
144
1.0000000000
145
0.0
146
1.0000000000
147
0.09
71
1
72
0
73
0
74
0
75
0
76
0
77
1
78
8
170
0
171
2
172
0
173
0
174
0
175
0
176
0
177
0
178
0
270
2
271
2
272
2
273
2
274
2
340
11
275
0
280
0
281
0
282
0
283
1
284
8
285
0
286
0
287
3
288
0
0
DIMSTYLE
105
207
100
AcDbSymbolTableRecord
100
AcDbDimStyleTableRecord
2
DIMSTYLE_1
70
0
3

4

5

6

7

40
1.0
41
3.0000000000
42
0.0625
43
0.38
44
0.18
45
0.0
46
0.0
47
0.0000000000
48
0.0000000000
140
3.0000000000
141
0.09
142
0.0
143
25.4
144
1.0000000000
145
0.0
146
1.0000000000
147
0.09
71
0
72
0
73
0
74
0
75
0
76
0
77
1
78
8
170
0
171
2
172
0
173
0
174
0
175
0
176
0
177
0
178
0
270
2
271
2
272
2
273
2
274
2
340
11
275
0
280
0
281
0
282
0
283
1
284
8
285
0
286
0
287
3
288
0
0
ENDTAB
0
TABLE
2
BLOCK_RECORD
5
1
100
AcDbSymbolTable
70
0
0
BLOCK_RECORD
5
1B
100
AcDbSymbolTableRecord
100
AcDbBlockTableRecord
2
*MODEL_SPACE
0
BLOCK_RECORD
5
1C
100
AcDbSymbolTableRecord
100
AcDbBlockTableRecord
2
*PAPER_SPACE
0
BLOCK_RECORD
5
208
100
AcDbSymbolTableRecord
100
AcDbBlockTableRecord
2
*D0
0
BLOCK_RECORD
5
209
100
AcDbSymbolTableRecord
100
AcDbBlockTableRecord
2
*D1
0
BLOCK_RECORD
5
20A
100
AcDbSymbolTableRecord
100
AcDbBlockTableRecord
2
*D2
0
ENDTAB
0
ENDSEC
0
SECTION
2
BLOCKS
0
BLOCK
5
1E
100
AcDbEntity
8
0
100
AcDbBlockBegin
2
*MODEL_SPACE
70
0
10
0.0
20
0.0
30
0.0
3
*MODEL_SPACE
1

0
ENDBLK
5
1F
100
AcDbEntity
8
0
100
AcDbBlockEnd
0
BLOCK
5
20
100
AcDbEntity
8
0
100
AcDbBlockBegin
2
*PAPER_SPACE
70
0
10
0.0
20
0.0
30
0.0
3
*PAPER_SPACE
1

0
ENDBLK
5
21
100
AcDbEntity
8
0
100
AcDbBlockEnd
0
BLOCK
5
20B
100
AcDbEntity
8
0
100
AcDbBlockBegin
62
7
6
CONTINUOUS
2
*D0
70
65
10
0.0000000000
20
0.0000000000
3
*D0
1

0
TEXT
5
20C
100
AcDbEntity
8
0
100
AcDbText
62
7
6
CONTINUOUS
10
144.7382090213
20
-3.6960494472
7
STANDARD
40
3.0000000000
1
36,75
50
90.0000000000
41
0.7142857143
72
0
100
AcDbText
0
LINE
5
20D
100
AcDbEntity
8
0
100
AcDbLine
62
7
6
CONTINUOUS
10
100.7382090213
20
-17.1053932462
11
146.9882090213
21
-17.1053932462
0
LINE
5
20E
100
AcDbEntity
8
0
100
AcDbLine
62
7
6
CONTINUOUS
10
121.9882090213
20
19.6446067538
11
146.9882090213
21
19.6446067538
0
LINE
5
20F
100
AcDbEntity
8
0
100
AcDbLine
62
7
6
CONTINUOUS
10
145.4882090213
20
-17.1053932462
11
145.4882090213
21
1.2696067538
0
LINE
5
210
100
AcDbEntity
8
0
100
AcDbLine
62
7
6
CONTINUOUS
10
145.4882090213
20
19.6446067538
11
145.4882090213
21
1.2696067538
0
SOLID
5
211
100
AcDbEntity
8
0
100
AcDbTrace
62
7
6
CONTINUOUS
10
144.5382090213
20
-14.1053932462
11
145.4882090213
21
-17.1053932462
12
146.4382090213
22
-14.1053932462
13
146.4382090213
23
-14.1053932462
0
SOLID
5
212
100
AcDbEntity
8
0
100
AcDbTrace
62
7
6
CONTINUOUS
10
146.4382090213
20
16.6446067538
11
145.4882090213
21
19.6446067538
12
144.5382090213
22
16.6446067538
13
144.5382090213
23
16.6446067538
0
ENDBLK
5
213
100
AcDbEntity
8
0
100
AcDbBlockEnd
0
BLOCK
5
214
100
AcDbEntity
8
0
100
AcDbBlockBegin
62
7
6
CONTINUOUS
2
*D1
70
65
10
0.0000000000
20
0.0000000000
3
*D1
1

0
TEXT
5
215
100
AcDbEntity
8
0
100
AcDbText
62
7
6
CONTINUOUS
10
-1.4090462334
20
30.3946067538
7
STANDARD
40
3.0000000000
1
254
41
0.7619047619
72
0
100
AcDbText
0
LINE
5
216
100
AcDbEntity
8
0
100
AcDbLine
62
7
6
CONTINUOUS
10
125.4882090213
20
16.1446067538
11
125.4882090213
21
31.1446067538
0
LINE
5
217
100
AcDbEntity
8
0
100
AcDbLine
62
7
6
CONTINUOUS
10
-128.5117909787
20
16.1446067538
11
-128.5117909787
21
31.1446067538
0
LINE
5
218
100
AcDbEntity
8
0
100
AcDbLine
62
7
6
CONTINUOUS
10
125.4882090213
20
29.6446067538
11
-1.5117909787
21
29.6446067538
0
LINE
5
219
100
AcDbEntity
8
0
100
AcDbLine
62
7
6
CONTINUOUS
10
-128.5117909787
20
29.6446067538
11
-1.5117909787
21
29.6446067538
0
SOLID
5
21A
100
AcDbEntity
8
0
100
AcDbTrace
62
7
6
CONTINUOUS
10
122.4882090213
20
28.6946067538
11
125.4882090213
21
29.6446067538
12
122.4882090213
22
30.5946067538
13
122.4882090213
23
30.5946067538
0
SOLID
5
21B
100
AcDbEntity
8
0
100
AcDbTrace
62
7
6
CONTINUOUS
10
-125.5117909787
20
30.5946067538
11
-128.5117909787
21
29.6446067538
12
-125.5117909787
22
28.6946067538
13
-125.5117909787
23
28.6946067538
0
ENDBLK
5
21C
100
AcDbEntity
8
0
100
AcDbBlockEnd
0
BLOCK
5
21D
100
AcDbEntity
8
0
100
AcDbBlockBegin
62
7
6
CONTINUOUS
2
*D2
70
65
10
0.0000000000
20
0.0000000000
3
*D2
1

0
TEXT
5
21E
100
AcDbEntity
8
0
100
AcDbText
62
7
6
CONTINUOUS
10
-275.0784165849
20
30.3946067538
7
STANDARD
40
3.0000000000
1
180
41
0.7142857143
72
0
100
AcDbText
0
LINE
5
21F
100
AcDbEntity
8
0
100
AcDbLine
62
7
6
CONTINUOUS
10
-346.7640759484
20
16.1446067538
11
-346.7640759484
21
31.1446067538
0
LINE
5
220
100
AcDbEntity
8
0
100
AcDbLine
62
7
6
CONTINUOUS
10
-166.7640759484
20
-15.1053932462
11
-166.7640759484
21
31.1446067538
0
LINE
5
221
100
AcDbEntity
8
0
100
AcDbLine
62
7
6
CONTINUOUS
10
-346.7640759484
20
29.6446067538
11
-256.7640759484
21
29.6446067538
0
LINE
5
222
100
AcDbEntity
8
0
100
AcDbLine
62
7
6
CONTINUOUS
10
-166.7640759484
20
29.6446067538
11
-256.7640759484
21
29.6446067538
0
SOLID
5
223
100
AcDbEntity
8
0
100
AcDbTrace
62
7
6
CONTINUOUS
10
-343.7640759484
20
30.5946067538
11
-346.7640759484
21
29.6446067538
12
-343.7640759484
22
28.6946067538
13
-343.7640759484
23
28.6946067538
0
SOLID
5
224
100
AcDbEntity
8
0
100
AcDbTrace
62
7
6
CONTINUOUS
10
-169.7640759484
20
28.6946067538
11
-166.7640759484
21
29.6446067538
12
-169.7640759484
22
30.5946067538
13
-169.7640759484
23
30.5946067538
0
ENDBLK
5
225
100
AcDbEntity
8
0
100
AcDbBlockEnd
0
ENDSEC
0
SECTION
2
ENTITIES
0
DIMENSION
5
226
100
AcDbEntity
8
0
100
AcDbDimension
62
7
6
CONTINUOUS
2
*D0
10
145.4882090213
20
19.6446067538
11
143.2382090213
21
1.6610934099
70
160
3
DIMSTYLE_1
100
AcDbAlignedDimension
13
100.7382090213
23
-17.1053932462
14
121.9882090213
24
19.6446067538
50
90.000000
100
AcDbRotatedDimension
0
DIMENSION
5
227
100
AcDbEntity
8
0
100
AcDbDimension
62
7
6
CONTINUOUS
2
*D1
10
-128.5117909787
20
29.6446067538
11
2.0195251951
21
31.8946067538
70
160
3
DIMSTYLE_1
100
AcDbAlignedDimension
13
125.4882090213
23
16.1446067538
14
-128.5117909787
24
16.1446067538
50
180.000000
100
AcDbRotatedDimension
0
DIMENSION
5
228
100
AcDbEntity
8
0
100
AcDbDimension
62
7
6
CONTINUOUS
2
*D2
10
-166.7640759484
20
29.6446067538
11
-271.8641308706
21
31.8946067538
70
160
3
DIMSTYLE_1
100
AcDbAlignedDimension
13
-346.7640759484
23
16.1446067538
14
-166.7640759484
24
-15.1053932462
100
AcDbRotatedDimension
0
LINE
5
229
100
AcDbEntity
8
0
100
AcDbLine
62
7
6
CONTINUOUS
10
-128.5117909787
20
-10.1053932462
11
-128.5117909787
21
15.6446067538
0
LINE
5
22A
100
AcDbEntity
8
0
100
AcDbLine
62
9
6
CONTINUOUS
10
-113.2617909787
20
-14.1053932462
11
-113.2617909787
21
19.6446067538
0
LINE
5
22B
100
AcDbEntity
8
0
100
AcDbLine
62
7
6
CONTINUOUS
10
-111.5117909787
20
-14.3553932462
11
-111.5117909787
21
-14.1053932462
0
LINE
5
22C
100
AcDbEntity
8
0
100
AcDbLine
62
7
6
CONTINUOUS
10
-110.0117909787
20
-14.3553932462
11
-110.0117909787
21
19.6446067538
0
LINE
5
22D
100
AcDbEntity
8
0
100
AcDbLine
62
9
6
CONTINUOUS
10
-108.7617909787
20
-17.1053932462
11
-108.7617909787
21
-15.6053932462
0
LINE
5
22E
100
AcDbEntity
8
0
100
AcDbLine
62
9
6
CONTINUOUS
10
-107.7617909787
20
-17.1053932462
11
-107.7617909787
21
-15.6053932462
0
LINE
5
22F
100
AcDbEntity
8
0
100
AcDbLine
62
7
6
CONTINUOUS
10
-106.2617909787
20
-15.6053932462
11
-106.2617909787
21
-17.1053932462
0
LINE
5
230
100
AcDbEntity
8
0
100
AcDbLine
62
9
6
CONTINUOUS
10
-103.2617909787
20
-15.6053932462
11
-103.2617909787
21
-17.1053932462
0
LINE
5
231
100
AcDbEntity
8
0
100
AcDbLine
62
7
6
CONTINUOUS
10
105.7382090213
20
-17.1053932462
11
-108.7617909787
21
-17.1053932462
0
LINE
5
232
100
AcDbEntity
8
0
100
AcDbLine
62
7
6
CONTINUOUS
10
-108.7617909787
20
-15.6053932462
11
105.7382090213
21
-15.6053932462
0
LINE
5
233
100
AcDbEntity
8
0
100
AcDbLine
62
9
6
CONTINUOUS
10
-111.5117909787
20
-14.3553932462
11
-110.0117909787
21
-14.3553932462
0
LINE
5
234
100
AcDbEntity
8
0
100
AcDbLine
62
9
6
CONTINUOUS
10
108.4882090213
20
-14.3553932462
11
106.9882090213
21
-14.3553932462
0
LINE
5
235
100
AcDbEntity
8
0
100
AcDbLine
62
9
6
CONTINUOUS
10
-111.5117909787
20
-14.3053932462
11
-110.0117909787
21
-14.3053932462
0
LINE
5
236
100
AcDbEntity
8
0
100
AcDbLine
62
9
6
CONTINUOUS
10
108.4882090213
20
-14.3053932462
11
106.9882090213
21
-14.3053932462
0
LINE
5
237
100
AcDbEntity
8
0
100
AcDbLine
62
7
6
CONTINUOUS
10
121.4882090213
20
-14.1053932462
11
106.9882090213
21
-14.1053932462
0
LINE
5
238
100
AcDbEntity
8
0
100
AcDbLine
62
7
6
CONTINUOUS
10
-110.0117909787
20
-14.1053932462
11
-124.5117909787
21
-14.1053932462
0
LINE
5
239
100
AcDbEntity
8
0
100
AcDbLine
62
7
6
CONTINUOUS
10
117.7382090213
20
-0.6553932462
11
114.2382090213
21
-0.6553932462
0
LINE
5
23A
100
AcDbEntity
8
0
100
AcDbLine
62
7
6
CONTINUOUS
10
-117.2617909787
20
-0.6553932462
11
-120.7617909787
21
-0.6553932462
0
LINE
5
23B
100
AcDbEntity
8
0
100
AcDbLine
62
7
6
CONTINUOUS
10
-120.7617909787
20
6.3446067538
11
-117.2617909787
21
6.3446067538
0
LINE
5
23C
100
AcDbEntity
8
0
100
AcDbLine
62
7
6
CONTINUOUS
10
114.2382090213
20
6.3446067538
11
117.7382090213
21
6.3446067538
0
LINE
5
23D
100
AcDbEntity
8
0
100
AcDbLine
62
7
6
CONTINUOUS
10
121.4882090213
20
19.6446067538
11
106.9882090213
21
19.6446067538
0
LINE
5
23E
100
AcDbEntity
8
0
100
AcDbLine
62
7
6
CONTINUOUS
10
-110.0117909787
20
19.6446067538
11
-124.5117909787
21
19.6446067538
0
LINE
5
23F
100
AcDbEntity
8
0
100
AcDbLine
62
9
6
CONTINUOUS
10
100.2382090213
20
-15.6053932462
11
100.2382090213
21
-17.1053932462
0
LINE
5
240
100
AcDbEntity
8
0
100
AcDbLine
62
7
6
CONTINUOUS
10
103.2382090213
20
-15.6053932462
11
103.2382090213
21
-17.1053932462
0
LINE
5
241
100
AcDbEntity
8
0
100
AcDbLine
62
9
6
CONTINUOUS
10
104.7382090213
20
-17.1053932462
11
104.7382090213
21
-15.6053932462
0
LINE
5
242
100
AcDbEntity
8
0
100
AcDbLine
62
9
6
CONTINUOUS
10
105.7382090213
20
-17.1053932462
11
105.7382090213
21
-15.6053932462
0
LINE
5
243
100
AcDbEntity
8
0
100
AcDbLine
62
7
6
CONTINUOUS
10
106.9882090213
20
-14.3553932462
11
106.9882090213
21
19.6446067538
0
LINE
5
244
100
AcDbEntity
8
0
100
AcDbLine
62
7
6
CONTINUOUS
10
108.4882090213
20
-14.3553932462
11
108.4882090213
21
-14.1053932462
0
LINE
5
245
100
AcDbEntity
8
0
100
AcDbLine
62
9
6
CONTINUOUS
10
110.2382090213
20
-14.1053932462
11
110.2382090213
21
19.6446067538
0
LINE
5
246
100
AcDbEntity
8
0
100
AcDbLine
62
7
6
CONTINUOUS
10
125.4882090213
20
-10.1053932462
11
125.4882090213
21
15.6446067538
0
LINE
5
247
100
AcDbEntity
8
0
100
AcDbLine
62
7
6
CONTINUOUS
10
-346.7640759484
20
19.6446067538
11
-346.7640759484
21
-14.1053932462
0
LINE
5
248
100
AcDbEntity
8
0
100
AcDbLine
62
7
6
CONTINUOUS
10
-346.7640759484
20
-15.6053932462
11
-346.7640759484
21
-17.1053932462
0
LINE
5
249
100
AcDbEntity
8
0
100
AcDbLine
62
7
6
CONTINUOUS
10
-345.2640759484
20
19.6446067538
11
-345.2640759484
21
-14.1053932462
0
LINE
5
24A
100
AcDbEntity
8
0
100
AcDbLine
62
7
6
CONTINUOUS
10
-345.0140759484
20
-15.6053932462
11
-345.0140759484
21
-17.1053932462
0
LINE
5
24B
100
AcDbEntity
8
0
100
AcDbLine
62
9
6
CONTINUOUS
10
-343.7640759484
20
-15.6053932462
11
-343.7640759484
21
-17.1053932462
0
LINE
5
24C
100
AcDbEntity
8
0
100
AcDbLine
62
9
6
CONTINUOUS
10
-343.5140759484
20
-14.1053932462
11
-343.5140759484
21
19.6446067538
0
LINE
5
24D
100
AcDbEntity
8
0
100
AcDbLine
62
9
6
CONTINUOUS
10
-343.2640759484
20
-17.1053932462
11
-343.2640759484
21
-15.6053932462
0
LINE
5
24E
100
AcDbEntity
8
0
100
AcDbLine
62
7
6
CONTINUOUS
10
-341.5140759484
20
-15.6053932462
11
-341.5140759484
21
-17.1053932462
0
LINE
5
24F
100
AcDbEntity
8
0
100
AcDbLine
62
9
6
CONTINUOUS
10
-341.2640759484
20
-17.1053932462
11
-341.2640759484
21
-15.6053932462
0
LINE
5
250
100
AcDbEntity
8
0
100
AcDbLine
62
7
6
CONTINUOUS
10
-339.7640759484
20
-17.1053932462
11
-339.7640759484
21
-14.3053932462
0
LINE
5
251
100
AcDbEntity
8
0
100
AcDbLine
62
7
6
CONTINUOUS
10
-298.2502195198
20
-15.6053932462
11
-298.2502195198
21
-17.1053932462
0
LINE
5
252
100
AcDbEntity
8
0
100
AcDbLine
62
9
6
CONTINUOUS
10
-297.6937224040
20
-15.6053932462
11
-297.6937224040
21
-17.1053932462
0
LINE
5
253
100
AcDbEntity
8
0
100
AcDbLine
62
9
6
CONTINUOUS
10
-295.0067166355
20
-15.6053932462
11
-295.0067166355
21
-17.1053932462
0
LINE
5
254
100
AcDbEntity
8
0
100
AcDbLine
62
9
6
CONTINUOUS
10
-286.5214352613
20
-17.1053932462
11
-286.5214352613
21
-15.6053932462
0
LINE
5
255
100
AcDbEntity
8
0
100
AcDbLine
62
9
6
CONTINUOUS
10
-283.8344294928
20
-17.1053932462
11
-283.8344294928
21
-15.6053932462
0
LINE
5
256
100
AcDbEntity
8
0
100
AcDbLine
62
7
6
CONTINUOUS
10
-283.2779323770
20
-17.1053932462
11
-283.2779323770
21
-15.6053932462
0
LINE
5
257
100
AcDbEntity
8
0
100
AcDbLine
62
7
6
CONTINUOUS
10
-278.2502195198
20
-15.6053932462
11
-278.2502195198
21
-17.1053932462
0
LINE
5
258
100
AcDbEntity
8
0
100
AcDbLine
62
9
6
CONTINUOUS
10
-277.6937224040
20
-15.6053932462
11
-277.6937224040
21
-17.1053932462
0
LINE
5
259
100
AcDbEntity
8
0
100
AcDbLine
62
9
6
CONTINUOUS
10
-275.0067166355
20
-15.6053932462
11
-275.0067166355
21
-17.1053932462
0
LINE
5
25A
100
AcDbEntity
8
0
100
AcDbLine
62
7
6
CONTINUOUS
10
-166.7640759484
20
-17.1053932462
11
-346.7640759484
21
-17.1053932462
0
LINE
5
25B
100
AcDbEntity
8
0
100
AcDbLine
62
7
6
CONTINUOUS
10
-166.7640759484
20
-15.6053932462
11
-346.7640759484
21
-15.6053932462
0
LINE
5
25C
100
AcDbEntity
8
0
100
AcDbLine
62
9
6
CONTINUOUS
10
-339.7640759484
20
-14.3553932462
11
-173.7640759484
21
-14.3553932462
0
LINE
5
25D
100
AcDbEntity
8
0
100
AcDbLine
62
7
6
CONTINUOUS
10
-339.9640759484
20
-14.1053932462
11
-345.2640759484
21
-14.1053932462
0
LINE
5
25E
100
AcDbEntity
8
0
100
AcDbLine
62
7
6
CONTINUOUS
10
-345.2640759484
20
-14.1053932462
11
-346.7640759484
21
-14.1053932462
0
LINE
5
25F
100
AcDbEntity
8
0
100
AcDbLine
62
9
6
CONTINUOUS
10
-266.5214352613
20
-15.6053932462
11
-266.5214352613
21
-17.1053932462
0
LINE
5
260
100
AcDbEntity
8
0
100
AcDbLine
62
9
6
CONTINUOUS
10
-263.8344294928
20
-15.6053932462
11
-263.8344294928
21
-17.1053932462
0
LINE
5
261
100
AcDbEntity
8
0
100
AcDbLine
62
7
6
CONTINUOUS
10
-263.2779323770
20
-15.6053932462
11
-263.2779323770
21
-17.1053932462
0
LINE
5
262
100
AcDbEntity
8
0
100
AcDbLine
62
9
6
CONTINUOUS
10
-345.2640759484
20
-10.1053932462
11
-346.7640759484
21
-10.1053932462
0
LINE
5
263
100
AcDbEntity
8
0
100
AcDbLine
62
7
6
CONTINUOUS
10
-345.2640759484
20
-0.6553932462
11
-346.7640759484
21
-0.6553932462
0
LINE
5
264
100
AcDbEntity
8
0
100
AcDbLine
62
7
6
CONTINUOUS
10
-250.2502195198
20
-15.6053932462
11
-250.2502195198
21
-17.1053932462
0
LINE
5
265
100
AcDbEntity
8
0
100
AcDbLine
62
7
6
CONTINUOUS
10
-345.2640759484
20
6.3446067538
11
-346.7640759484
21
6.3446067538
0
LINE
5
266
100
AcDbEntity
8
0
100
AcDbLine
62
7
6
CONTINUOUS
10
-316.7640759484
20
19.6446067538
11
-174.9487318743
21
-10.8506508006
0
LINE
5
267
100
AcDbEntity
8
0
100
AcDbLine
62
9
6
CONTINUOUS
10
-249.6937224040
20
-15.6053932462
11
-249.6937224040
21
-17.1053932462
0
LINE
5
268
100
AcDbEntity
8
0
100
AcDbLine
62
9
6
CONTINUOUS
10
-247.0067166355
20
-15.6053932462
11
-247.0067166355
21
-17.1053932462
0
LINE
5
269
100
AcDbEntity
8
0
100
AcDbLine
62
9
6
CONTINUOUS
10
-238.5214352613
20
-15.6053932462
11
-238.5214352613
21
-17.1053932462
0
LINE
5
26A
100
AcDbEntity
8
0
100
AcDbLine
62
9
6
CONTINUOUS
10
-345.2640759484
20
15.6446067538
11
-346.7640759484
21
15.6446067538
0
LINE
5
26B
100
AcDbEntity
8
0
100
AcDbLine
62
7
6
CONTINUOUS
10
-316.7640759484
20
19.6446067538
11
-345.2640759484
21
19.6446067538
0
LINE
5
26C
100
AcDbEntity
8
0
100
AcDbLine
62
7
6
CONTINUOUS
10
-345.2640759484
20
19.6446067538
11
-346.7640759484
21
19.6446067538
0
LINE
5
26D
100
AcDbEntity
8
0
100
AcDbLine
62
9
6
CONTINUOUS
10
-235.8344294928
20
-15.6053932462
11
-235.8344294928
21
-17.1053932462
0
LINE
5
26E
100
AcDbEntity
8
0
100
AcDbLine
62
7
6
CONTINUOUS
10
-235.2779323770
20
-15.6053932462
11
-235.2779323770
21
-17.1053932462
0
LINE
5
26F
100
AcDbEntity
8
0
100
AcDbLine
62
7
6
CONTINUOUS
10
-230.2502195198
20
-15.6053932462
11
-230.2502195198
21
-17.1053932462
0
LINE
5
270
100
AcDbEntity
8
0
100
AcDbLine
62
9
6
CONTINUOUS
10
-229.6937224040
20
-15.6053932462
11
-229.6937224040
21
-17.1053932462
0
LINE
5
271
100
AcDbEntity
8
0
100
AcDbLine
62
9
6
CONTINUOUS
10
-227.0067166355
20
-15.6053932462
11
-227.0067166355
21
-17.1053932462
0
LINE
5
272
100
AcDbEntity
8
0
100
AcDbLine
62
9
6
CONTINUOUS
10
-218.5214352613
20
-17.1053932462
11
-218.5214352613
21
-15.6053932462
0
LINE
5
273
100
AcDbEntity
8
0
100
AcDbLine
62
9
6
CONTINUOUS
10
-215.8344294928
20
-17.1053932462
11
-215.8344294928
21
-15.6053932462
0
LINE
5
274
100
AcDbEntity
8
0
100
AcDbLine
62
7
6
CONTINUOUS
10
-215.2779323770
20
-17.1053932462
11
-215.2779323770
21
-15.6053932462
0
LINE
5
275
100
AcDbEntity
8
0
100
AcDbLine
62
7
6
CONTINUOUS
10
-173.7640759484
20
-12.3171289337
11
-173.7640759484
21
-17.1053932462
0
LINE
5
276
100
AcDbEntity
8
0
100
AcDbLine
62
7
6
CONTINUOUS
10
-172.0140759484
20
-15.6053932462
11
-172.0140759484
21
-17.1053932462
0
LINE
5
277
100
AcDbEntity
8
0
100
AcDbLine
62
9
6
CONTINUOUS
10
-170.2640759484
20
-17.1053932462
11
-170.2640759484
21
-15.6053932462
0
LINE
5
278
100
AcDbEntity
8
0
100
AcDbLine
62
9
6
CONTINUOUS
10
-169.7640759484
20
-15.6053932462
11
-169.7640759484
21
-17.1053932462
0
LINE
5
279
100
AcDbEntity
8
0
100
AcDbLine
62
7
6
CONTINUOUS
10
-168.5140759484
20
-15.6053932462
11
-168.5140759484
21
-17.1053932462
0
LINE
5
27A
100
AcDbEntity
8
0
100
AcDbLine
62
7
6
CONTINUOUS
10
-166.7640759484
20
-15.6053932462
11
-166.7640759484
21
-17.1053932462
0
ARC
5
27B
100
AcDbEntity
8
0
100
AcDbCircle
62
7
6
CONTINUOUS
10
105.7382090213
20
-14.3553932462
40
1.2500000000
100
AcDbArc
50
270.0000000000
51
360.0000000000
0
ARC
5
27C
100
AcDbEntity
8
0
100
AcDbCircle
62
7
6
CONTINUOUS
10
-108.7617909787
20
-14.3553932462
40
1.2500000000
100
AcDbArc
50
180.0000000000
51
270.0000000000
0
ARC
5
27D
100
AcDbEntity
8
0
100
AcDbCircle
62
7
6
CONTINUOUS
10
-117.2617909787
20
2.8446067538
40
3.5000000000
100
AcDbArc
50
270.0000000000
51
90.0000000000
0
ARC
5
27E
100
AcDbEntity
8
0
100
AcDbCircle
62
7
6
CONTINUOUS
10
-120.7617909787
20
2.8446067538
40
3.5000000000
100
AcDbArc
50
90.0000000000
51
270.0000000000
0
ARC
5
27F
100
AcDbEntity
8
0
100
AcDbCircle
62
7
6
CONTINUOUS
10
-124.5117909787
20
-10.1053932462
40
4.0000000000
100
AcDbArc
50
180.0000000000
51
270.0000000000
0
ARC
5
280
100
AcDbEntity
8
0
100
AcDbCircle
62
7
6
CONTINUOUS
10
-124.5117909787
20
15.6446067538
40
4.0000000000
100
AcDbArc
50
90.0000000000
51
180.0000000000
0
ARC
5
281
100
AcDbEntity
8
0
100
AcDbCircle
62
7
6
CONTINUOUS
10
114.2382090213
20
2.8446067538
40
3.5000000000
100
AcDbArc
50
90.0000000000
51
270.0000000000
0
ARC
5
282
100
AcDbEntity
8
0
100
AcDbCircle
62
7
6
CONTINUOUS
10
117.7382090213
20
2.8446067538
40
3.5000000000
100
AcDbArc
50
270.0000000000
51
90.0000000000
0
ARC
5
283
100
AcDbEntity
8
0
100
AcDbCircle
62
7
6
CONTINUOUS
10
121.4882090213
20
-10.1053932462
40
4.0000000000
100
AcDbArc
50
270.0000000000
51
360.0000000000
0
ARC
5
284
100
AcDbEntity
8
0
100
AcDbCircle
62
7
6
CONTINUOUS
10
121.4882090213
20
15.6446067538
40
4.0000000000
100
AcDbArc
50
0.0000000000
51
90.0000000000
0
ARC
5
285
100
AcDbEntity
8
0
100
AcDbCircle
62
7
6
CONTINUOUS
10
105.7382090213
20
-14.3553932462
40
2.7500000000
100
AcDbArc
50
270.0000000000
51
360.0000000000
0
ARC
5
286
100
AcDbEntity
8
0
100
AcDbCircle
62
7
6
CONTINUOUS
10
-108.7617909787
20
-14.3553932462
40
2.7500000000
100
AcDbArc
50
180.0000000000
51
270.0000000000
0
ARC
5
287
100
AcDbEntity
8
0
100
AcDbCircle
62
7
6
CONTINUOUS
10
-175.2640759484
20
-12.3171289337
40
1.5000000000
100
AcDbArc
50
0.0000000000
51
77.8642050075
0
ARC
5
288
100
AcDbEntity
8
0
100
AcDbCircle
62
7
6
CONTINUOUS
10
-339.9640759484
20
-14.3053932462
40
0.2000000000
100
AcDbArc
50
0.0000000000
51
90.0000000000
0
ENDSEC
0
SECTION
2
OBJECTS
0
DICTIONARY
5
289
100
AcDbDictionary
3
ACAD_GROUP
350
28A
3
ACAD_MLINESTYLE
350
28B
0
DICTIONARY
5
28A
102
{ACAD_REACTORS
330
289
102
}
100
AcDbDictionary
0
DICTIONARY
5
28B
102
{ACAD_REACTORS
330
289
102
}
100
AcDbDictionary
3
STANDARD
350
28C
0
MLINESTYLE
5
28C
102
{ACAD_REACTORS
330
28B
102
}
100
AcDbMlineStyle
2
STANDARD
70
0
3

62
256
51
90.0
52
90.0
71
2
49
0.5
62
256
6
BYLAYER
49
-0.5
62
256
6
BYLAYER
0
ENDSEC
0
EOF
