0
SECTION
2
HEADER
9
$ACADVER
1
AC1014
9
$HANDSEED
5
       28E
9
$EXTMAX
10
297.0000000000
20
210.0000000000
9
$EXTMIN
10
0.0000000000
20
0.0000000000
9
$LIMMIN
10
0.0000000000
20
0.0000000000
9
$LIMMAX
10
297.0000000000
20
210.0000000000
9
$VIEWCTR
10
148.5000000000
20
105.0000000000
9
$VIEWSIZE
40
210.0000000000
9
$CLAYER
8
0
9
$LTSCALE
40
16.3350000000
9
$CELTYPE
6
BYLAYER
9
$DIMSCALE
40
1
9
$DIMASZ
40
3.0000000000
9
$DIMEXO
40
1.8562500000
9
$DIMDLI
40
11.2860000000
9
$DIMEXE
40
5.3460000000
9
$DIMCEN
40
2.6730000000
9
$DIMLFAC
40
1.0000000000
9
$DIMTXT
40
3.0000000000
9
$DIMTOL
70
1
9
$DIMLIM
70
0
9
$DIMTFAC
40
1.0000000000
9
$DIMTP
40
0.0100000000
9
$DIMTM
40
0.0100000000
9
$MEASUREMENT
70
1
0
ENDSEC
0
SECTION
2
CLASSES
0
ENDSEC
0
SECTION
2
TABLES
0
TABLE
2
VPORT
5
8
100
AcDbSymbolTable
70
2
0
VPORT
5
1F4
100
AcDbSymbolTableRecord
100
AcDbViewportTableRecord
2
*ACTIVE
70
0
10
0.0
20
0.0
11
1.0
21
1.0
12
148.5000000000
22
105.0000000000
13
0.0
23
0.0
14
1.0
24
1.0
15
0.0
25
0.0
16
0.0
26
0.0
36
1.0
17
0.0
27
0.0
37
0.0
40
210.0000000000
41
1.4142857143
42
50.0
43
0.0
44
0.0
50
0.0
51
0.0
71
0
72
100
73
1
74
1
75
0
76
0
77
0
78
0
0
ENDTAB
0
TABLE
2
LTYPE
5
5
100
AcDbSymbolTable
70
6
0
LTYPE
5
14
100
AcDbSymbolTableRecord
100
AcDbLinetypeTableRecord
2
BYBLOCK
70
0
3

72
65
73
0
40
0.0
0
LTYPE
5
15
100
AcDbSymbolTableRecord
100
AcDbLinetypeTableRecord
2
BYLAYER
70
0
3

72
65
73
0
40
0.0
0
LTYPE
5
16
100
AcDbSymbolTableRecord
100
AcDbLinetypeTableRecord
2
CONTINUOUS
70
64
3
Solid line
72
65
73
0
40
0
0
LTYPE
5
1F5
100
AcDbSymbolTableRecord
100
AcDbLinetypeTableRecord
2
CENTER
70
64
3
____ _ ____ _ ____ _ ____ _ ____ _ ____ _ ____
72
65
73
4
40
0.6
49
0.375
74
0
49
-0.075
74
0
49
0.075
74
0
49
-0.075
74
0
0
LTYPE
5
1F6
100
AcDbSymbolTableRecord
100
AcDbLinetypeTableRecord
2
HIDDEN
70
64
3
- - - - - - - - - - - - - - - - - - - -
72
65
73
2
40
0.2
49
0.1
74
0
49
-0.1
74
0
0
LTYPE
5
1F7
100
AcDbSymbolTableRecord
100
AcDbLinetypeTableRecord
2
PHANTOM
70
64
3
_____ _ _ _____ _ _ _____ _ _ _____
72
65
73
6
40
0.8
49
0.45
74
0
49
-0.05
74
0
49
0.1
74
0
49
-0.05
74
0
49
0.1
74
0
49
-0.05
74
0
0
LTYPE
5
1F8
100
AcDbSymbolTableRecord
100
AcDbLinetypeTableRecord
2
DOT
70
64
3
. . . . . . . . . . . . . . . . . . . .
72
65
73
2
40
0.2
49
0.1
74
0
49
-0.1
74
0
0
LTYPE
5
1F9
100
AcDbSymbolTableRecord
100
AcDbLinetypeTableRecord
2
DASHED
70
64
3
- - - - - - - - - - - - - - - - - - - -
72
65
73
2
40
0.2
49
0.1
74
0
49
-0.1
74
0
0
ENDTAB
0
TABLE
2
LAYER
5
2
100
AcDbSymbolTable
70
36
0
LAYER
5
10
100
AcDbSymbolTableRecord
100
AcDbLayerTableRecord
2
0
70
0
62
7
6
CONTINUOUS
0
LAYER
5
1FA
100
AcDbSymbolTableRecord
100
AcDbLayerTableRecord
2
DEFAULT_1
70
0
62
7
6
CENTER
0
LAYER
5
1FB
100
AcDbSymbolTableRecord
100
AcDbLayerTableRecord
2
DEFAULT_2
70
0
62
8
6
HIDDEN
0
LAYER
5
1FC
100
AcDbSymbolTableRecord
100
AcDbLayerTableRecord
2
DEFAULT_3
70
0
62
7
6
PHANTOM
0
LAYER
5
1FD
100
AcDbSymbolTableRecord
100
AcDbLayerTableRecord
2
ASSI
70
0
62
7
6
CONTINUOUS
0
LAYER
5
1FE
100
AcDbSymbolTableRecord
100
AcDbLayerTableRecord
2
COORDINATE
70
0
62
7
6
CONTINUOUS
0
LAYER
5
1FF
100
AcDbSymbolTableRecord
100
AcDbLayerTableRecord
2
COORD_ORIGINE
70
0
62
7
6
CONTINUOUS
0
LAYER
5
200
100
AcDbSymbolTableRecord
100
AcDbLayerTableRecord
2
PIANI
70
0
62
7
6
CONTINUOUS
0
LAYER
5
201
100
AcDbSymbolTableRecord
100
AcDbLayerTableRecord
2
PIANI_ORIGINE
70
0
62
7
6
CONTINUOUS
0
LAYER
5
202
100
AcDbSymbolTableRecord
100
AcDbLayerTableRecord
2
RACCORDO
70
0
62
7
6
CONTINUOUS
0
LAYER
5
203
100
AcDbSymbolTableRecord
100
AcDbLayerTableRecord
2
SNAPLINE
70
0
62
7
6
CONTINUOUS
0
LAYER
5
204
100
AcDbSymbolTableRecord
100
AcDbLayerTableRecord
2
TRASH
70
0
62
7
6
CONTINUOUS
0
ENDTAB
0
TABLE
2
STYLE
5
3
100
AcDbSymbolTable
70
1
0
STYLE
5
11
100
AcDbSymbolTableRecord
100
AcDbTextStyleTableRecord
2
STANDARD
70
0
40
0.0
41
0.8000000000
50
0.0
71
0
42
0.2
3
txt
4

0
ENDTAB
0
TABLE
2
VIEW
5
6
100
AcDbSymbolTable
70
0
0
ENDTAB
0
TABLE
2
UCS
5
7
100
AcDbSymbolTable
70
0
0
ENDTAB
0
TABLE
2
APPID
5
9
100
AcDbSymbolTable
70
1
0
APPID
5
205
100
AcDbSymbolTableRecord
100
AcDbRegAppTableRecord
2
ACAD
70
0
0
ENDTAB
0
TABLE
2
DIMSTYLE
5
A
100
AcDbSymbolTable
70
1
0
DIMSTYLE
105
206
100
AcDbSymbolTableRecord
100
AcDbDimStyleTableRecord
2
STANDARD
70
0
3

4

5

6

7

40
1.0
41
3.0000000000
42
0.0625
43
0.38
44
0.18
45
0.0
46
0.0
47
0.0100000000
48
0.0100000000
140
3.0000000000
141
0.09
142
0.0
143
25.4
144
1.0000000000
145
0.0
146
1.0000000000
147
0.09
71
1
72
0
73
0
74
0
75
0
76
0
77
1
78
8
170
0
171
2
172
0
173
0
174
0
175
0
176
0
177
0
178
0
270
2
271
2
272
2
273
2
274
2
340
11
275
0
280
0
281
0
282
0
283
1
284
8
285
0
286
0
287
3
288
0
0
DIMSTYLE
105
207
100
AcDbSymbolTableRecord
100
AcDbDimStyleTableRecord
2
DIMSTYLE_1
70
0
3

4

5

6

7

40
1.0
41
3.0000000000
42
0.0625
43
0.38
44
0.18
45
0.0
46
0.0
47
0.0000000000
48
0.0000000000
140
3.0000000000
141
0.09
142
0.0
143
25.4
144
1.0000000000
145
0.0
146
1.0000000000
147
0.09
71
0
72
0
73
0
74
0
75
0
76
0
77
1
78
8
170
0
171
2
172
0
173
0
174
0
175
0
176
0
177
0
178
0
270
2
271
2
272
2
273
2
274
2
340
11
275
0
280
0
281
0
282
0
283
1
284
8
285
0
286
0
287
3
288
0
0
ENDTAB
0
TABLE
2
BLOCK_RECORD
5
1
100
AcDbSymbolTable
70
0
0
BLOCK_RECORD
5
1B
100
AcDbSymbolTableRecord
100
AcDbBlockTableRecord
2
*MODEL_SPACE
0
BLOCK_RECORD
5
1C
100
AcDbSymbolTableRecord
100
AcDbBlockTableRecord
2
*PAPER_SPACE
0
BLOCK_RECORD
5
208
100
AcDbSymbolTableRecord
100
AcDbBlockTableRecord
2
*D0
0
BLOCK_RECORD
5
209
100
AcDbSymbolTableRecord
100
AcDbBlockTableRecord
2
*D1
0
BLOCK_RECORD
5
20A
100
AcDbSymbolTableRecord
100
AcDbBlockTableRecord
2
*D2
0
BLOCK_RECORD
5
20B
100
AcDbSymbolTableRecord
100
AcDbBlockTableRecord
2
*D3
0
ENDTAB
0
ENDSEC
0
SECTION
2
BLOCKS
0
BLOCK
5
1E
100
AcDbEntity
8
0
100
AcDbBlockBegin
2
*MODEL_SPACE
70
0
10
0.0
20
0.0
30
0.0
3
*MODEL_SPACE
1

0
ENDBLK
5
1F
100
AcDbEntity
8
0
100
AcDbBlockEnd
0
BLOCK
5
20
100
AcDbEntity
8
0
100
AcDbBlockBegin
2
*PAPER_SPACE
70
0
10
0.0
20
0.0
30
0.0
3
*PAPER_SPACE
1

0
ENDBLK
5
21
100
AcDbEntity
8
0
100
AcDbBlockEnd
0
BLOCK
5
20C
100
AcDbEntity
8
0
100
AcDbBlockBegin
62
7
6
CONTINUOUS
2
*D0
70
65
10
0.0000000000
20
0.0000000000
3
*D0
1

0
TEXT
5
20D
100
AcDbEntity
8
0
100
AcDbText
62
7
6
CONTINUOUS
10
-23.6841441794
20
55.2540187570
7
STANDARD
40
3.0000000000
1
482
41
0.7857142857
72
0
100
AcDbText
0
LINE
5
20E
100
AcDbEntity
8
0
100
AcDbLine
62
7
6
CONTINUOUS
10
239.4767240246
20
41.0040187570
11
239.4767240246
21
56.0040187570
0
LINE
5
20F
100
AcDbEntity
8
0
100
AcDbLine
62
7
6
CONTINUOUS
10
-242.5232759754
20
41.0040187570
11
-242.5232759754
21
56.0040187570
0
LINE
5
210
100
AcDbEntity
8
0
100
AcDbLine
62
7
6
CONTINUOUS
10
239.4767240246
20
54.5040187570
11
-1.5232759754
21
54.5040187570
0
LINE
5
211
100
AcDbEntity
8
0
100
AcDbLine
62
7
6
CONTINUOUS
10
-242.5232759754
20
54.5040187570
11
-1.5232759754
21
54.5040187570
0
SOLID
5
212
100
AcDbEntity
8
0
100
AcDbTrace
62
7
6
CONTINUOUS
10
236.4767240246
20
53.5540187570
11
239.4767240246
21
54.5040187570
12
236.4767240246
22
55.4540187570
13
236.4767240246
23
55.4540187570
0
SOLID
5
213
100
AcDbEntity
8
0
100
AcDbTrace
62
7
6
CONTINUOUS
10
-239.5232759754
20
55.4540187570
11
-242.5232759754
21
54.5040187570
12
-239.5232759754
22
53.5540187570
13
-239.5232759754
23
53.5540187570
0
ENDBLK
5
214
100
AcDbEntity
8
0
100
AcDbBlockEnd
0
BLOCK
5
215
100
AcDbEntity
8
0
100
AcDbBlockBegin
62
7
6
CONTINUOUS
2
*D1
70
65
10
0.0000000000
20
0.0000000000
3
*D1
1

0
TEXT
5
216
100
AcDbEntity
8
0
100
AcDbText
62
7
6
CONTINUOUS
10
-307.6977821771
20
55.2540187570
7
STANDARD
40
3.0000000000
1
12,5
41
0.6607142857
72
0
100
AcDbText
0
LINE
5
217
100
AcDbEntity
8
0
100
AcDbLine
62
7
6
CONTINUOUS
10
-298.3568997550
20
45.0040187570
11
-298.3568997550
21
56.0040187570
0
LINE
5
218
100
AcDbEntity
8
0
100
AcDbLine
62
7
6
CONTINUOUS
10
-310.8568997550
20
41.0040187570
11
-310.8568997550
21
56.0040187570
0
LINE
5
219
100
AcDbEntity
8
0
100
AcDbLine
62
7
6
CONTINUOUS
10
-298.3568997550
20
54.5040187570
11
-304.6068997550
21
54.5040187570
0
LINE
5
21A
100
AcDbEntity
8
0
100
AcDbLine
62
7
6
CONTINUOUS
10
-310.8568997550
20
54.5040187570
11
-304.6068997550
21
54.5040187570
0
SOLID
5
21B
100
AcDbEntity
8
0
100
AcDbTrace
62
7
6
CONTINUOUS
10
-301.3568997550
20
53.5540187570
11
-298.3568997550
21
54.5040187570
12
-301.3568997550
22
55.4540187570
13
-301.3568997550
23
55.4540187570
0
SOLID
5
21C
100
AcDbEntity
8
0
100
AcDbTrace
62
7
6
CONTINUOUS
10
-307.8568997550
20
55.4540187570
11
-310.8568997550
21
54.5040187570
12
-307.8568997550
22
53.5540187570
13
-307.8568997550
23
53.5540187570
0
ENDBLK
5
21D
100
AcDbEntity
8
0
100
AcDbBlockEnd
0
BLOCK
5
21E
100
AcDbEntity
8
0
100
AcDbBlockBegin
62
7
6
CONTINUOUS
2
*D2
70
65
10
0.0000000000
20
0.0000000000
3
*D2
1

0
TEXT
5
21F
100
AcDbEntity
8
0
100
AcDbText
62
7
6
CONTINUOUS
10
258.7267240246
20
-2.1891220434
7
STANDARD
40
3.0000000000
1
88
50
90.0000000000
41
0.7857142857
72
0
100
AcDbText
0
LINE
5
220
100
AcDbEntity
8
0
100
AcDbLine
62
7
6
CONTINUOUS
10
235.9767240246
20
44.5040187570
11
260.9767240246
21
44.5040187570
0
LINE
5
221
100
AcDbEntity
8
0
100
AcDbLine
62
7
6
CONTINUOUS
10
235.9767240246
20
-43.4959812430
11
260.9767240246
21
-43.4959812430
0
LINE
5
222
100
AcDbEntity
8
0
100
AcDbLine
62
7
6
CONTINUOUS
10
259.4767240246
20
44.5040187570
11
259.4767240246
21
0.5040187570
0
LINE
5
223
100
AcDbEntity
8
0
100
AcDbLine
62
7
6
CONTINUOUS
10
259.4767240246
20
-43.4959812430
11
259.4767240246
21
0.5040187570
0
SOLID
5
224
100
AcDbEntity
8
0
100
AcDbTrace
62
7
6
CONTINUOUS
10
260.4267240246
20
41.5040187570
11
259.4767240246
21
44.5040187570
12
258.5267240246
22
41.5040187570
13
258.5267240246
23
41.5040187570
0
SOLID
5
225
100
AcDbEntity
8
0
100
AcDbTrace
62
7
6
CONTINUOUS
10
258.5267240246
20
-40.4959812430
11
259.4767240246
21
-43.4959812430
12
260.4267240246
22
-40.4959812430
13
260.4267240246
23
-40.4959812430
0
ENDBLK
5
226
100
AcDbEntity
8
0
100
AcDbBlockEnd
0
BLOCK
5
227
100
AcDbEntity
8
0
100
AcDbBlockBegin
62
7
6
CONTINUOUS
2
*D3
70
65
10
0.0000000000
20
0.0000000000
3
*D3
1

0
TEXT
5
228
100
AcDbEntity
8
0
100
AcDbText
62
7
6
CONTINUOUS
10
248.7267240246
20
-3.7974966940
7
STANDARD
40
3.0000000000
1
76,2
50
90.0000000000
41
0.7321428571
72
0
100
AcDbText
0
LINE
5
229
100
AcDbEntity
8
0
100
AcDbLine
62
7
6
CONTINUOUS
10
233.2267240246
20
38.6040187570
11
250.9767240246
21
38.6040187570
0
LINE
5
22A
100
AcDbEntity
8
0
100
AcDbLine
62
7
6
CONTINUOUS
10
233.2267240246
20
-37.5959812430
11
250.9767240246
21
-37.5959812430
0
LINE
5
22B
100
AcDbEntity
8
0
100
AcDbLine
62
7
6
CONTINUOUS
10
249.4767240246
20
38.6040187570
11
249.4767240246
21
0.5040187570
0
LINE
5
22C
100
AcDbEntity
8
0
100
AcDbLine
62
7
6
CONTINUOUS
10
249.4767240246
20
-37.5959812430
11
249.4767240246
21
0.5040187570
0
SOLID
5
22D
100
AcDbEntity
8
0
100
AcDbTrace
62
7
6
CONTINUOUS
10
250.4267240246
20
35.6040187570
11
249.4767240246
21
38.6040187570
12
248.5267240246
22
35.6040187570
13
248.5267240246
23
35.6040187570
0
SOLID
5
22E
100
AcDbEntity
8
0
100
AcDbTrace
62
7
6
CONTINUOUS
10
248.5267240246
20
-34.5959812430
11
249.4767240246
21
-37.5959812430
12
250.4267240246
22
-34.5959812430
13
250.4267240246
23
-34.5959812430
0
ENDBLK
5
22F
100
AcDbEntity
8
0
100
AcDbBlockEnd
0
ENDSEC
0
SECTION
2
ENTITIES
0
DIMENSION
5
230
100
AcDbEntity
8
0
100
AcDbDimension
62
7
6
CONTINUOUS
2
*D0
10
-242.5232759754
20
54.5040187570
11
-20.1484298937
21
56.7540187570
70
160
3
DIMSTYLE_1
100
AcDbAlignedDimension
13
239.4767240246
23
41.0040187570
14
-242.5232759754
24
41.0040187570
50
180.000000
100
AcDbRotatedDimension
0
DIMENSION
5
231
100
AcDbEntity
8
0
100
AcDbDimension
62
7
6
CONTINUOUS
2
*D1
10
-310.8568997550
20
54.5040187570
11
-303.7334964628
21
56.7540187570
70
160
3
DIMSTYLE_1
100
AcDbAlignedDimension
13
-298.3568997550
23
45.0040187570
14
-310.8568997550
24
41.0040187570
50
180.000000
100
AcDbRotatedDimension
0
DIMENSION
5
232
100
AcDbEntity
8
0
100
AcDbDimension
62
7
6
CONTINUOUS
2
*D2
10
259.4767240246
20
-43.4959812430
11
257.2267240246
21
0.1680208137
70
160
3
DIMSTYLE_1
100
AcDbAlignedDimension
13
235.9767240246
23
44.5040187570
14
235.9767240246
24
-43.4959812430
50
270.000000
100
AcDbRotatedDimension
0
DIMENSION
5
233
100
AcDbEntity
8
0
100
AcDbDimension
62
7
6
CONTINUOUS
2
*D3
10
249.4767240246
20
-37.5959812430
11
247.2267240246
21
0.5953604489
70
160
3
DIMSTYLE_1
100
AcDbAlignedDimension
13
233.2267240246
23
38.6040187570
14
233.2267240246
24
-37.5959812430
50
270.000000
100
AcDbRotatedDimension
0
LINE
5
234
100
AcDbEntity
8
0
100
AcDbLine
62
7
6
CONTINUOUS
10
-242.5232759754
20
-39.4959812430
11
-242.5232759754
21
40.5040187570
0
LINE
5
235
100
AcDbEntity
8
0
100
AcDbLine
62
7
6
CONTINUOUS
10
-223.5232759754
20
44.0040187570
11
-223.5232759754
21
43.3040187570
0
LINE
5
236
100
AcDbEntity
8
0
100
AcDbLine
62
7
6
CONTINUOUS
10
-223.5232759754
20
-42.9959812430
11
-223.5232759754
21
-42.2959812430
0
LINE
5
237
100
AcDbEntity
8
0
100
AcDbLine
62
7
6
CONTINUOUS
10
-221.5232759754
20
44.5040187570
11
-221.5232759754
21
42.9040187570
0
LINE
5
238
100
AcDbEntity
8
0
100
AcDbLine
62
7
6
CONTINUOUS
10
-221.5232759754
20
-43.4959812430
11
-221.5232759754
21
-41.8959812430
0
LINE
5
239
100
AcDbEntity
8
0
100
AcDbLine
62
7
6
CONTINUOUS
10
-221.5232759754
20
-43.4959812430
11
218.4767240246
21
-43.4959812430
0
LINE
5
23A
100
AcDbEntity
8
0
100
AcDbLine
62
7
6
CONTINUOUS
10
235.4767240246
20
-43.4959812430
11
220.9767240246
21
-43.4959812430
0
LINE
5
23B
100
AcDbEntity
8
0
100
AcDbLine
62
7
6
CONTINUOUS
10
-224.0232759754
20
-43.4959812430
11
-238.5232759754
21
-43.4959812430
0
LINE
5
23C
100
AcDbEntity
8
0
100
AcDbLine
62
7
6
CONTINUOUS
10
219.6767240246
20
-41.4959812430
11
218.8767175827
21
-41.4959812430
0
LINE
5
23D
100
AcDbEntity
8
0
100
AcDbLine
62
9
6
CONTINUOUS
10
-221.9232695336
20
-41.4959812430
11
218.8767175827
21
-41.4959812430
0
LINE
5
23E
100
AcDbEntity
8
0
100
AcDbLine
62
7
6
CONTINUOUS
10
-221.9232695336
20
-41.4959812430
11
-222.7232759754
21
-41.4959812430
0
LINE
5
23F
100
AcDbEntity
8
0
100
AcDbLine
62
7
6
CONTINUOUS
10
-235.7732759754
20
-41.0959812430
11
-232.2732759754
21
-41.0959812430
0
LINE
5
240
100
AcDbEntity
8
0
100
AcDbLine
62
7
6
CONTINUOUS
10
229.2267240246
20
-41.0959812430
11
232.7267240246
21
-41.0959812430
0
LINE
5
241
100
AcDbEntity
8
0
100
AcDbLine
62
7
6
CONTINUOUS
10
232.7267240246
20
-34.0959812430
11
229.2267240246
21
-34.0959812430
0
LINE
5
242
100
AcDbEntity
8
0
100
AcDbLine
62
7
6
CONTINUOUS
10
-232.2732759754
20
-34.0959812430
11
-235.7732759754
21
-34.0959812430
0
LINE
5
243
100
AcDbEntity
8
0
100
AcDbLine
62
7
6
CONTINUOUS
10
-235.7732759754
20
35.1040187570
11
-232.2732759754
21
35.1040187570
0
LINE
5
244
100
AcDbEntity
8
0
100
AcDbLine
62
7
6
CONTINUOUS
10
229.2267240246
20
35.1040187570
11
232.7267240246
21
35.1040187570
0
LINE
5
245
100
AcDbEntity
8
0
100
AcDbLine
62
7
6
CONTINUOUS
10
232.7267240246
20
42.1040187570
11
229.2267240246
21
42.1040187570
0
LINE
5
246
100
AcDbEntity
8
0
100
AcDbLine
62
7
6
CONTINUOUS
10
-232.2732759754
20
42.1040187570
11
-235.7732759754
21
42.1040187570
0
LINE
5
247
100
AcDbEntity
8
0
100
AcDbLine
62
7
6
CONTINUOUS
10
-222.7232759754
20
42.5040187570
11
-221.9232695335
21
42.5040187570
0
LINE
5
248
100
AcDbEntity
8
0
100
AcDbLine
62
7
6
CONTINUOUS
10
218.8767175828
20
42.5040187570
11
219.6767240246
21
42.5040187570
0
LINE
5
249
100
AcDbEntity
8
0
100
AcDbLine
62
9
6
CONTINUOUS
10
218.8767175828
20
42.5040187570
11
-221.9232695335
21
42.5040187570
0
LINE
5
24A
100
AcDbEntity
8
0
100
AcDbLine
62
7
6
CONTINUOUS
10
-238.5232759754
20
44.5040187570
11
-224.0232759754
21
44.5040187570
0
LINE
5
24B
100
AcDbEntity
8
0
100
AcDbLine
62
7
6
CONTINUOUS
10
220.9767240246
20
44.5040187570
11
235.4767240246
21
44.5040187570
0
LINE
5
24C
100
AcDbEntity
8
0
100
AcDbLine
62
7
6
CONTINUOUS
10
218.4767240246
20
44.5040187570
11
-221.5232759754
21
44.5040187570
0
LINE
5
24D
100
AcDbEntity
8
0
100
AcDbLine
62
7
6
CONTINUOUS
10
218.4767240246
20
44.5040187570
11
218.4767240246
21
42.9040187570
0
LINE
5
24E
100
AcDbEntity
8
0
100
AcDbLine
62
7
6
CONTINUOUS
10
218.4767240246
20
-43.4959812430
11
218.4767240246
21
-41.8959812430
0
LINE
5
24F
100
AcDbEntity
8
0
100
AcDbLine
62
7
6
CONTINUOUS
10
220.4767240246
20
44.0040187570
11
220.4767240246
21
43.3040187570
0
LINE
5
250
100
AcDbEntity
8
0
100
AcDbLine
62
7
6
CONTINUOUS
10
220.4767240246
20
-42.9959812430
11
220.4767240246
21
-42.2959812430
0
LINE
5
251
100
AcDbEntity
8
0
100
AcDbLine
62
7
6
CONTINUOUS
10
239.4767240246
20
40.5040187570
11
239.4767240246
21
-39.4959812430
0
LINE
5
252
100
AcDbEntity
8
0
100
AcDbLine
62
7
6
CONTINUOUS
10
-310.8568997550
20
-43.4959812430
11
-309.3568997550
21
-43.4959812430
0
LINE
5
253
100
AcDbEntity
8
0
100
AcDbLine
62
7
6
CONTINUOUS
10
-298.3568997550
20
-43.4959812430
11
-308.8568997550
21
-43.4959812430
0
LINE
5
254
100
AcDbEntity
8
0
100
AcDbLine
62
9
6
CONTINUOUS
10
-310.8568997550
20
-42.9959812430
11
-309.3568997550
21
-42.9959812430
0
LINE
5
255
100
AcDbEntity
8
0
100
AcDbLine
62
9
6
CONTINUOUS
10
-309.3568997550
20
-42.2959812430
11
-310.8568997550
21
-42.2959812430
0
LINE
5
256
100
AcDbEntity
8
0
100
AcDbLine
62
7
6
CONTINUOUS
10
-298.3568997550
20
-41.9959812430
11
-308.8568997550
21
-41.9959812430
0
LINE
5
257
100
AcDbEntity
8
0
100
AcDbLine
62
9
6
CONTINUOUS
10
-309.1568997550
20
-41.8959812430
11
-310.8164915494
21
-41.8959812414
0
LINE
5
258
100
AcDbEntity
8
0
100
AcDbLine
62
7
6
CONTINUOUS
10
-309.3568997550
20
-41.4959812430
11
-310.8568997550
21
-41.4959812430
0
LINE
5
259
100
AcDbEntity
8
0
100
AcDbLine
62
7
6
CONTINUOUS
10
-310.8568997550
20
-41.0959812430
11
-309.3568997550
21
-41.0959812430
0
LINE
5
25A
100
AcDbEntity
8
0
100
AcDbLine
62
9
6
CONTINUOUS
10
-310.8568997550
20
-39.4959812430
11
-309.3568997550
21
-39.4959812430
0
LINE
5
25B
100
AcDbEntity
8
0
100
AcDbLine
62
7
6
CONTINUOUS
10
-310.8568997550
20
-34.0959812430
11
-309.3568997550
21
-34.0959812430
0
LINE
5
25C
100
AcDbEntity
8
0
100
AcDbLine
62
7
6
CONTINUOUS
10
-310.8568997550
20
-43.4959812430
11
-310.8568997550
21
44.5040187570
0
LINE
5
25D
100
AcDbEntity
8
0
100
AcDbLine
62
7
6
CONTINUOUS
10
-309.3568997550
20
-43.4959812430
11
-309.3568997550
21
44.5040187570
0
LINE
5
25E
100
AcDbEntity
8
0
100
AcDbLine
62
9
6
CONTINUOUS
10
-308.8568997550
20
-41.9959812430
11
-308.8568997550
21
-43.4959812430
0
LINE
5
25F
100
AcDbEntity
8
0
100
AcDbLine
62
9
6
CONTINUOUS
10
-308.8568997550
20
43.0040187570
11
-308.8568997550
21
44.5040187570
0
LINE
5
260
100
AcDbEntity
8
0
100
AcDbLine
62
9
6
CONTINUOUS
10
-301.3568997550
20
44.5040187570
11
-301.3568997550
21
43.0040187570
0
LINE
5
261
100
AcDbEntity
8
0
100
AcDbLine
62
9
6
CONTINUOUS
10
-301.3568997550
20
-43.4959812430
11
-301.3568997550
21
-41.9959812430
0
LINE
5
262
100
AcDbEntity
8
0
100
AcDbLine
62
7
6
CONTINUOUS
10
-298.3568997550
20
44.5040187570
11
-298.3568997550
21
43.0040187570
0
LINE
5
263
100
AcDbEntity
8
0
100
AcDbLine
62
7
6
CONTINUOUS
10
-298.3568997550
20
-43.4959812430
11
-298.3568997550
21
-41.9959812430
0
LINE
5
264
100
AcDbEntity
8
0
100
AcDbLine
62
7
6
CONTINUOUS
10
-310.8568997550
20
35.1040187570
11
-309.3568997550
21
35.1040187570
0
LINE
5
265
100
AcDbEntity
8
0
100
AcDbLine
62
9
6
CONTINUOUS
10
-310.8568997550
20
40.5040187570
11
-309.3568997550
21
40.5040187570
0
LINE
5
266
100
AcDbEntity
8
0
100
AcDbLine
62
7
6
CONTINUOUS
10
-310.8568997550
20
42.1040187570
11
-309.3568997550
21
42.1040187570
0
LINE
5
267
100
AcDbEntity
8
0
100
AcDbLine
62
7
6
CONTINUOUS
10
-309.3568997550
20
42.5040187570
11
-310.8568997550
21
42.5040187570
0
LINE
5
268
100
AcDbEntity
8
0
100
AcDbLine
62
9
6
CONTINUOUS
10
-309.1568997550
20
42.9040187570
11
-310.8164915494
21
42.9040187554
0
LINE
5
269
100
AcDbEntity
8
0
100
AcDbLine
62
7
6
CONTINUOUS
10
-298.3568997550
20
43.0040187570
11
-308.8568997550
21
43.0040187570
0
LINE
5
26A
100
AcDbEntity
8
0
100
AcDbLine
62
9
6
CONTINUOUS
10
-309.3568997550
20
43.3040187570
11
-310.8568997550
21
43.3040187570
0
LINE
5
26B
100
AcDbEntity
8
0
100
AcDbLine
62
9
6
CONTINUOUS
10
-310.8568997550
20
44.0040187570
11
-309.3568997550
21
44.0040187570
0
LINE
5
26C
100
AcDbEntity
8
0
100
AcDbLine
62
7
6
CONTINUOUS
10
-310.8568997550
20
44.5040187570
11
-309.3568997550
21
44.5040187570
0
LINE
5
26D
100
AcDbEntity
8
0
100
AcDbLine
62
7
6
CONTINUOUS
10
-298.3568997550
20
44.5040187570
11
-308.8568997550
21
44.5040187570
0
ARC
5
26E
100
AcDbEntity
8
0
100
AcDbCircle
62
7
6
CONTINUOUS
10
-221.9232759754
20
42.9040187570
40
0.4000000000
100
AcDbArc
50
270.0000000000
51
360.0000000000
0
ARC
5
26F
100
AcDbEntity
8
0
100
AcDbCircle
62
7
6
CONTINUOUS
10
-221.9232759754
20
-41.8959812430
40
0.4000000000
100
AcDbArc
50
0.0000002258
51
90.0000002313
0
ARC
5
270
100
AcDbEntity
8
0
100
AcDbCircle
62
7
6
CONTINUOUS
10
218.8767240246
20
-41.8959812430
40
0.4000000000
100
AcDbArc
50
90.0000000000
51
180.0000000000
0
ARC
5
271
100
AcDbEntity
8
0
100
AcDbCircle
62
7
6
CONTINUOUS
10
218.8767240246
20
42.9040187570
40
0.4000000000
100
AcDbArc
50
180.0000002258
51
270.0000002313
0
ARC
5
272
100
AcDbEntity
8
0
100
AcDbCircle
62
7
6
CONTINUOUS
10
219.6767240246
20
-42.2959812430
40
0.8000000000
100
AcDbArc
50
0.0000000000
51
90.0000000000
0
ARC
5
273
100
AcDbEntity
8
0
100
AcDbCircle
62
7
6
CONTINUOUS
10
-222.7232759754
20
-42.2959812430
40
0.8000000000
100
AcDbArc
50
90.0000000000
51
180.0000000000
0
ARC
5
274
100
AcDbEntity
8
0
100
AcDbCircle
62
7
6
CONTINUOUS
10
-222.7232759754
20
43.3040187570
40
0.8000000000
100
AcDbArc
50
180.0000000000
51
270.0000000000
0
ARC
5
275
100
AcDbEntity
8
0
100
AcDbCircle
62
7
6
CONTINUOUS
10
219.6767240246
20
43.3040187570
40
0.8000000000
100
AcDbArc
50
270.0000000000
51
360.0000000000
0
ARC
5
276
100
AcDbEntity
8
0
100
AcDbCircle
62
7
6
CONTINUOUS
10
-224.0232759754
20
-42.9959812430
40
0.5000000000
100
AcDbArc
50
270.0000000000
51
360.0000000000
0
ARC
5
277
100
AcDbEntity
8
0
100
AcDbCircle
62
7
6
CONTINUOUS
10
220.9767240246
20
-42.9959812430
40
0.5000000000
100
AcDbArc
50
180.0000000000
51
270.0000000000
0
ARC
5
278
100
AcDbEntity
8
0
100
AcDbCircle
62
7
6
CONTINUOUS
10
235.4767240246
20
-39.4959812430
40
4.0000000000
100
AcDbArc
50
270.0000000000
51
360.0000000000
0
ARC
5
279
100
AcDbEntity
8
0
100
AcDbCircle
62
7
6
CONTINUOUS
10
235.4767240246
20
40.5040187570
40
4.0000000000
100
AcDbArc
50
0.0000000000
51
90.0000000000
0
ARC
5
27A
100
AcDbEntity
8
0
100
AcDbCircle
62
7
6
CONTINUOUS
10
220.9767240246
20
44.0040187570
40
0.5000000000
100
AcDbArc
50
90.0000000000
51
180.0000000000
0
ARC
5
27B
100
AcDbEntity
8
0
100
AcDbCircle
62
7
6
CONTINUOUS
10
-224.0232759754
20
44.0040187570
40
0.5000000000
100
AcDbArc
50
0.0000000000
51
90.0000000000
0
ARC
5
27C
100
AcDbEntity
8
0
100
AcDbCircle
62
7
6
CONTINUOUS
10
-238.5232759754
20
40.5040187570
40
4.0000000000
100
AcDbArc
50
90.0000000000
51
180.0000000000
0
ARC
5
27D
100
AcDbEntity
8
0
100
AcDbCircle
62
7
6
CONTINUOUS
10
-238.5232759754
20
-39.4959812430
40
4.0000000000
100
AcDbArc
50
180.0000000000
51
270.0000000000
0
ARC
5
27E
100
AcDbEntity
8
0
100
AcDbCircle
62
7
6
CONTINUOUS
10
229.2267240246
20
-37.5959812430
40
3.5000000000
100
AcDbArc
50
90.0000000000
51
270.0000000000
0
ARC
5
27F
100
AcDbEntity
8
0
100
AcDbCircle
62
7
6
CONTINUOUS
10
232.7267240246
20
-37.5959812430
40
3.5000000000
100
AcDbArc
50
270.0000000000
51
90.0000000000
0
ARC
5
280
100
AcDbEntity
8
0
100
AcDbCircle
62
7
6
CONTINUOUS
10
229.2267240246
20
38.6040187570
40
3.5000000000
100
AcDbArc
50
90.0000000000
51
270.0000000000
0
ARC
5
281
100
AcDbEntity
8
0
100
AcDbCircle
62
7
6
CONTINUOUS
10
232.7267240246
20
38.6040187570
40
3.5000000000
100
AcDbArc
50
270.0000000000
51
90.0000000000
0
ARC
5
282
100
AcDbEntity
8
0
100
AcDbCircle
62
7
6
CONTINUOUS
10
-232.2732759754
20
-37.5959812430
40
3.5000000000
100
AcDbArc
50
270.0000000000
51
90.0000000000
0
ARC
5
283
100
AcDbEntity
8
0
100
AcDbCircle
62
7
6
CONTINUOUS
10
-235.7732759754
20
-37.5959812430
40
3.5000000000
100
AcDbArc
50
90.0000000000
51
270.0000000000
0
ARC
5
284
100
AcDbEntity
8
0
100
AcDbCircle
62
7
6
CONTINUOUS
10
-232.2732759754
20
38.6040187570
40
3.5000000000
100
AcDbArc
50
270.0000000000
51
90.0000000000
0
ARC
5
285
100
AcDbEntity
8
0
100
AcDbCircle
62
7
6
CONTINUOUS
10
-235.7732759754
20
38.6040187570
40
3.5000000000
100
AcDbArc
50
90.0000000000
51
270.0000000000
0
ARC
5
286
100
AcDbEntity
8
0
100
AcDbCircle
62
7
6
CONTINUOUS
10
-308.8568997550
20
-41.4959812430
40
0.5000000000
100
AcDbArc
50
180.0000000000
51
270.0000000000
0
ARC
5
287
100
AcDbEntity
8
0
100
AcDbCircle
62
7
6
CONTINUOUS
10
-308.8568997550
20
-41.4959812430
40
2.0000000000
100
AcDbArc
50
180.0000000000
51
270.0000000000
0
ARC
5
288
100
AcDbEntity
8
0
100
AcDbCircle
62
7
6
CONTINUOUS
10
-308.8568997550
20
42.5040187570
40
0.5000000000
100
AcDbArc
50
90.0000000000
51
180.0000000000
0
ARC
5
289
100
AcDbEntity
8
0
100
AcDbCircle
62
7
6
CONTINUOUS
10
-308.8568997550
20
42.5040187570
40
2.0000000000
100
AcDbArc
50
90.0000000000
51
180.0000000000
0
ENDSEC
0
SECTION
2
OBJECTS
0
DICTIONARY
5
28A
100
AcDbDictionary
3
ACAD_GROUP
350
28B
3
ACAD_MLINESTYLE
350
28C
0
DICTIONARY
5
28B
102
{ACAD_REACTORS
330
28A
102
}
100
AcDbDictionary
0
DICTIONARY
5
28C
102
{ACAD_REACTORS
330
28A
102
}
100
AcDbDictionary
3
STANDARD
350
28D
0
MLINESTYLE
5
28D
102
{ACAD_REACTORS
330
28C
102
}
100
AcDbMlineStyle
2
STANDARD
70
0
3

62
256
51
90.0
52
90.0
71
2
49
0.5
62
256
6
BYLAYER
49
-0.5
62
256
6
BYLAYER
0
ENDSEC
0
EOF
