  0
SECTION
  2
HEADER
  9
$ACADVER
  1
AC1024
  9
$DWGCODEPAGE
  3
ANSI_1252
  9
$EXTMAX
 10
558.8
 20
431.8
 30
0.0
  9
$EXTMIN
 10
0.0
 20
0.0
 30
0.0
  9
$LIMMIN
 10
0.0
 20
0.0
  9
$LIMMAX
 10
558.8
 20
431.8
  9
$VIEWCTR
 10
279.4
 20
215.9
  9
$VIEWSIZE
 40
431.8
  9
$CLAYER
  8
0
  9
$LTSCALE
 40
30.734
  9
$CELTYPE
  6
BYLAYER
  9
$DIMSCALE
 40
1.0
  9
$DIMASZ
 40
3.0
  9
$DIMEXO
 40
0.5
  9
$DIMDLI
 40
21.2344
  9
$DIMEXE
 40
1.5
  9
$DIMCEN
 40
5.0292
  9
$DIMLFAC
 40
1.0
  9
$DIMBLK
  1
_FILLED
  9
$DIMALT
 70
0
  9
$DIMALTF
 40
0.0393700787
  9
$DIMTXT
 40
3.0
  9
$DIMTOL
 70
1
  9
$DIMLIM
 70
0
  9
$DIMTFAC
 40
1.0
  9
$DIMTP
 40
0.01
  9
$DIMTM
 40
0.01
  9
$DIMGAP
 40
0.625
  9
$DIMDSEP
 70
44
  9
$AUNITS
 70
0
  9
$PDMODE
 70
3
  9
$PDSIZE
 40
3.0
  9
$HANDSEED
  5
2B5
  9
$TILEMODE
 70
1
  9
$MEASUREMENT
 70
1
  9
$INSUNITS
 70
4
  0
ENDSEC
  0
SECTION
  2
CLASSES
  0
CLASS
  1
ACDBDICTIONARYWDFLT
  2
AcDbDictionaryWithDefault
  3
AutoCAD 2000
 90
0
 91
1
280
0
281
0
  0
CLASS
  1
ACDBPLACEHOLDER
  2
AcDbPlaceHolder
  3
AutoCAD 2000
 90
0
 91
1
280
0
281
0
  0
CLASS
  1
LAYOUT
  2
AcDbLayout
  3
AutoCAD 2000
 90
0
 91
0
280
0
281
0
  0
ENDSEC
  0
SECTION
  2
TABLES
  0
TABLE
  2
VPORT
  5
8
100
AcDbSymbolTable
 70
2
  0
VPORT
  5
1F4
100
AcDbSymbolTableRecord
100
AcDbViewportTableRecord
  2
*ACTIVE
 70
0
 10
0.0
 20
0.0
 11
1.0
 21
1.0
 12
279.4
 22
215.9
 13
0.0
 23
0.0
 14
1.0
 24
1.0
 15
0.0
 25
0.0
 16
0.0
 26
0.0
 36
1.0
 17
0.0
 27
0.0
 37
0.0
 40
431.8
 41
1.2941176471
 42
50.0
 43
0.0
 44
0.0
 50
0.0
 51
0.0
 71
0
 72
100
 73
1
 74
1
 75
0
 76
0
 77
0
 78
0
  0
ENDTAB
  0
TABLE
  2
LTYPE
  5
5
100
AcDbSymbolTable
 70
6
  0
LTYPE
  5
14
100
AcDbSymbolTableRecord
100
AcDbLinetypeTableRecord
  2
BYBLOCK
 70
0
  3

 72
65
 73
0
 40
0.0
  0
LTYPE
  5
15
100
AcDbSymbolTableRecord
100
AcDbLinetypeTableRecord
  2
BYLAYER
 70
0
  3

 72
65
 73
0
 40
0.0
  0
LTYPE
  5
16
100
AcDbSymbolTableRecord
100
AcDbLinetypeTableRecord
  2
CONTINUOUS
 70
64
  3
Solid line
 72
65
 73
0
 40
0.0
  0
LTYPE
  5
1F5
100
AcDbSymbolTableRecord
100
AcDbLinetypeTableRecord
  2
CENTER
 70
64
  3
____ _ ____ _ ____ _ ____ _ ____ _ ____ _ ____
 72
65
 73
4
 40
0.6
 49
0.375
 74
0
 49
-0.075
 74
0
 49
0.075
 74
0
 49
-0.075
 74
0
  0
LTYPE
  5
1F6
100
AcDbSymbolTableRecord
100
AcDbLinetypeTableRecord
  2
HIDDEN
 70
64
  3
- - - - - - - - - - - - - - - - - - - -
 72
65
 73
2
 40
0.2
 49
0.1
 74
0
 49
-0.1
 74
0
  0
LTYPE
  5
1F7
100
AcDbSymbolTableRecord
100
AcDbLinetypeTableRecord
  2
PHANTOM
 70
64
  3
_____ _ _ _____ _ _ _____ _ _ _____
 72
65
 73
6
 40
0.8
 49
0.45
 74
0
 49
-0.05
 74
0
 49
0.1
 74
0
 49
-0.05
 74
0
 49
0.1
 74
0
 49
-0.05
 74
0
  0
LTYPE
  5
1F8
100
AcDbSymbolTableRecord
100
AcDbLinetypeTableRecord
  2
DOT
 70
64
  3
. . . . . . . . . . . . . . . . . . . .
 72
65
 73
2
 40
0.2
 49
0.1
 74
0
 49
-0.1
 74
0
  0
LTYPE
  5
1F9
100
AcDbSymbolTableRecord
100
AcDbLinetypeTableRecord
  2
DASHED
 70
64
  3
- - - - - - - - - - - - - - - - - - - -
 72
65
 73
2
 40
0.2
 49
0.1
 74
0
 49
-0.1
 74
0
  0
ENDTAB
  0
TABLE
  2
LAYER
  5
2
100
AcDbSymbolTable
 70
36
  0
LAYER
  5
10
100
AcDbSymbolTableRecord
100
AcDbLayerTableRecord
  2
0
 70
0
 62
7
  6
CONTINUOUS
370
-3
390
F
  0
LAYER
  5
1FA
100
AcDbSymbolTableRecord
100
AcDbLayerTableRecord
  2
DEFAULT_1
 70
0
 62
7
  6
CENTER
370
-3
390
F
  0
LAYER
  5
1FB
100
AcDbSymbolTableRecord
100
AcDbLayerTableRecord
  2
DEFAULT_2
 70
0
 62
7
  6
HIDDEN
370
-3
390
F
  0
LAYER
  5
1FC
100
AcDbSymbolTableRecord
100
AcDbLayerTableRecord
  2
DEFAULT_3
 70
0
 62
7
  6
PHANTOM
370
-3
390
F
  0
LAYER
  5
1FD
100
AcDbSymbolTableRecord
100
AcDbLayerTableRecord
  2
ASSI
 70
0
 62
7
  6
CONTINUOUS
370
-3
390
F
  0
LAYER
  5
1FE
100
AcDbSymbolTableRecord
100
AcDbLayerTableRecord
  2
COORDINATE
 70
0
 62
7
  6
CONTINUOUS
370
-3
390
F
  0
LAYER
  5
1FF
100
AcDbSymbolTableRecord
100
AcDbLayerTableRecord
  2
COPY_PUBLISH
 70
0
 62
7
  6
CONTINUOUS
370
-3
390
F
  0
LAYER
  5
200
100
AcDbSymbolTableRecord
100
AcDbLayerTableRecord
  2
COSMETICI
 70
0
 62
7
  6
CONTINUOUS
370
-3
390
F
  0
LAYER
  5
201
100
AcDbSymbolTableRecord
100
AcDbLayerTableRecord
  2
CURVE
 70
0
 62
7
  6
CONTINUOUS
370
-3
390
F
  0
LAYER
  5
202
100
AcDbSymbolTableRecord
100
AcDbLayerTableRecord
  2
DRAFT
 70
0
 62
7
  6
CONTINUOUS
370
-3
390
F
  0
LAYER
  5
203
100
AcDbSymbolTableRecord
100
AcDbLayerTableRecord
  2
IMPORT_IGES
 70
0
 62
7
  6
CONTINUOUS
370
-3
390
F
  0
LAYER
  5
204
100
AcDbSymbolTableRecord
100
AcDbLayerTableRecord
  2
NOTE
 70
0
 62
7
  6
CONTINUOUS
370
-3
390
F
  0
LAYER
  5
205
100
AcDbSymbolTableRecord
100
AcDbLayerTableRecord
  2
PIANI
 70
0
 62
7
  6
CONTINUOUS
370
-3
390
F
  0
LAYER
  5
206
100
AcDbSymbolTableRecord
100
AcDbLayerTableRecord
  2
PUNTI
 70
0
 62
7
  6
CONTINUOUS
370
-3
390
F
  0
LAYER
  5
207
100
AcDbSymbolTableRecord
100
AcDbLayerTableRecord
  2
RACCORDO
 70
0
 62
7
  6
CONTINUOUS
370
-3
390
F
  0
LAYER
  5
208
100
AcDbSymbolTableRecord
100
AcDbLayerTableRecord
  2
SIMBOLI
 70
0
 62
7
  6
CONTINUOUS
370
-3
390
F
  0
LAYER
  5
209
100
AcDbSymbolTableRecord
100
AcDbLayerTableRecord
  2
SMUSSO
 70
0
 62
7
  6
CONTINUOUS
370
-3
390
F
  0
LAYER
  5
20A
100
AcDbSymbolTableRecord
100
AcDbLayerTableRecord
  2
SUPERFICI
 70
0
 62
7
  6
CONTINUOUS
370
-3
390
F
  0
LAYER
  5
20B
100
AcDbSymbolTableRecord
100
AcDbLayerTableRecord
  2
TRASH
 70
0
 62
7
  6
CONTINUOUS
370
-3
390
F
  0
ENDTAB
  0
TABLE
  2
STYLE
  5
3
100
AcDbSymbolTable
 70
1
  0
STYLE
  5
11
100
AcDbSymbolTableRecord
100
AcDbTextStyleTableRecord
  2
STANDARD
 70
0
 40
0.0
 41
0.8
 50
0.0
 71
0
 42
0.2
  3
txt
  4

  0
STYLE
  5
20C
100
AcDbSymbolTableRecord
100
AcDbTextStyleTableRecord
  2
TEXTSTYLE_1
 70
0
 40
0.0
 41
0.8
 50
0.0
 71
0
 42
0.2
  3
gdt
  4

  0
STYLE
  5
20D
100
AcDbSymbolTableRecord
100
AcDbTextStyleTableRecord
  2
TEXTSTYLE_2
 70
0
 40
0.0
 41
1.0
 50
0.0
 71
0
 42
0.2
  3
txt
  4

  0
ENDTAB
  0
TABLE
  2
VIEW
  5
6
100
AcDbSymbolTable
 70
0
  0
ENDTAB
  0
TABLE
  2
UCS
  5
7
100
AcDbSymbolTable
 70
0
  0
ENDTAB
  0
TABLE
  2
APPID
  5
9
100
AcDbSymbolTable
 70
1
  0
APPID
  5
20E
100
AcDbSymbolTableRecord
100
AcDbRegAppTableRecord
  2
ACAD
 70
0
  0
ENDTAB
  0
TABLE
  2
BLOCK_RECORD
  5
1
100
AcDbSymbolTable
 70
0
  0
BLOCK_RECORD
  5
20F
100
AcDbSymbolTableRecord
100
AcDbBlockTableRecord
  2
*Model_Space
  0
BLOCK_RECORD
  5
210
100
AcDbSymbolTableRecord
100
AcDbBlockTableRecord
  2
*Paper_Space
  0
BLOCK_RECORD
  5
211
100
AcDbSymbolTableRecord
100
AcDbBlockTableRecord
  2
_FILLED
  0
BLOCK_RECORD
  5
212
100
AcDbSymbolTableRecord
100
AcDbBlockTableRecord
  2
*D0
  0
BLOCK_RECORD
  5
213
100
AcDbSymbolTableRecord
100
AcDbBlockTableRecord
  2
*D1
  0
BLOCK_RECORD
  5
214
100
AcDbSymbolTableRecord
100
AcDbBlockTableRecord
  2
*D2
  0
BLOCK_RECORD
  5
215
100
AcDbSymbolTableRecord
100
AcDbBlockTableRecord
  2
*D3
  0
BLOCK_RECORD
  5
216
100
AcDbSymbolTableRecord
100
AcDbBlockTableRecord
  2
*D4
  0
BLOCK_RECORD
  5
217
100
AcDbSymbolTableRecord
100
AcDbBlockTableRecord
  2
*D5
  0
ENDTAB
  0
TABLE
  2
DIMSTYLE
  5
A
100
AcDbSymbolTable
 70
1
100
AcDbDimStyleTable
 71
0
  0
DIMSTYLE
105
218
100
AcDbSymbolTableRecord
100
AcDbDimStyleTableRecord
  2
STANDARD
 70
0
  3

  4

 40
1.0
 41
3.0
 42
0.5
 43
0.38
 44
1.5
 45
0.0
 46
0.0
 47
0.01
 48
0.01
140
3.0
141
0.09
142
0.0
143
25.4
144
1.0
145
0.0
146
1.0
147
0.625
 71
1
 72
0
 73
0
 74
0
 75
0
 76
0
 77
1
 78
8
 79
2
170
0
171
1
172
0
173
0
174
0
175
0
176
0
177
0
178
0
270
2
179
2
271
2
272
2
273
2
274
2
275
0
280
0
281
0
282
0
283
1
284
8
285
0
286
0
287
3
288
0
340
11
278
44
341
211
342
211
343
211
344
211
  0
DIMSTYLE
105
219
100
AcDbSymbolTableRecord
100
AcDbDimStyleTableRecord
  2
DIMSTYLE_1
 70
0
  3

  4

 40
1.0
 41
3.0
 42
0.5
 43
0.38
 44
1.5
 45
0.0
 46
0.0
 47
0.0
 48
0.0
140
3.0
141
0.09
142
0.0
143
25.4
144
1.0
145
0.0
146
1.0
147
0.75
 71
0
 72
0
 73
0
 74
0
 75
0
 76
0
 77
1
 78
8
 79
2
170
0
171
1
172
0
173
0
174
0
175
0
176
0
177
0
178
0
270
2
179
2
271
2
272
2
273
2
274
2
275
0
280
0
281
0
282
0
283
1
284
8
285
0
286
0
287
3
288
0
340
11
278
44
341
211
342
211
343
211
344
211
  0
DIMSTYLE
105
21A
100
AcDbSymbolTableRecord
100
AcDbDimStyleTableRecord
  2
DIMSTYLE_2
 70
0
  3
<>
  4

 40
1.0
 41
3.0
 42
0.5
 43
0.38
 44
1.5
 45
0.0
 46
0.0
 47
0.0
 48
0.0
140
3.0
141
0.09
142
0.0
143
25.4
144
1.0
145
0.0
146
1.0
147
0.625
 71
0
 72
0
 73
0
 74
0
 75
0
 76
0
 77
1
 78
8
 79
2
170
0
171
1
172
0
173
0
174
0
175
0
176
0
177
0
178
0
270
2
179
2
271
2
272
2
273
2
274
2
275
0
280
0
281
0
282
0
283
1
284
8
285
0
286
0
287
3
288
1
340
11
278
44
289
1
341
211
342
211
343
211
344
211
  0
ENDTAB
  0
ENDSEC
  0
SECTION
  2
BLOCKS
  0
BLOCK
  5
20
100
AcDbEntity
  8
0
100
AcDbBlockBegin
  2
*Model_Space
 70
0
 10
0.0
 20
0.0
 30
0.0
  3
*Model_Space
  1

  0
ENDBLK
  5
21
100
AcDbEntity
  8
0
100
AcDbBlockEnd
  0
BLOCK
  5
1C
100
AcDbEntity
  8
0
100
AcDbBlockBegin
  2
*Paper_Space
 70
0
 10
0.0
 20
0.0
 30
0.0
  3
*Paper_Space
  1

  0
ENDBLK
  5
1D
100
AcDbEntity
  8
0
100
AcDbBlockEnd
  0
BLOCK
  5
21B
100
AcDbEntity
  8
0
100
AcDbBlockBegin
  2
_FILLED
 70
64
 10
0.0
 20
0.0
  3
_FILLED
  1

  0
SOLID
  5
21C
100
AcDbEntity
  8
0
  6
BYBLOCK
 62
0
100
AcDbTrace
 10
0.0
 20
0.0
 11
-1.0
 21
0.1333333333
 12
-1.0
 22
-0.1333333333
 13
-1.0
 23
-0.1333333333
  0
ENDBLK
  5
21D
100
AcDbEntity
  8
0
  6
BYBLOCK
 62
0
100
AcDbBlockEnd
  0
BLOCK
  5
21E
100
AcDbEntity
  8
0
100
AcDbBlockBegin
 62
7
  6
CONTINUOUS
  2
*D0
 70
65
 10
0.0
 20
0.0
  3
*D0
  1

  0
MTEXT
  5
21F
100
AcDbEntity
  8
0
100
AcDbMText
 62
7
  6
CONTINUOUS
  7
STANDARD
 71
2
 72
1
 10
-53.082655823
 20
46.1638430361
 30
0.0
 11
1.0
 21
0.0
 31
0.0
 73
2
 44
0.9
  1
{\ftxt;\W0.0001;\H0.0001;\~}{\ftxt;\W1.2857142857;\H3.0; }{\ftxt;\W0.0001;\H0.0001;\~}
 40
3.0
 41
5.7857142857
  0
LINE
  5
220
100
AcDbEntity
  8
0
100
AcDbLine
 62
7
  6
CONTINUOUS
 10
-46.582655823
 20
34.4358642591
 11
-46.582655823
 21
43.9138430361
  0
LINE
  5
221
100
AcDbEntity
  8
0
100
AcDbLine
 62
7
  6
CONTINUOUS
 10
-59.582655823
 20
34.4358642591
 11
-59.582655823
 21
43.9138430361
  0
LINE
  5
222
100
AcDbEntity
  8
0
100
AcDbLine
 62
7
  6
CONTINUOUS
 10
-46.582655823
 20
42.4138430361
 11
-53.082655823
 21
42.4138430361
  0
LINE
  5
223
100
AcDbEntity
  8
0
100
AcDbLine
 62
7
  6
CONTINUOUS
 10
-59.582655823
 20
42.4138430361
 11
-53.082655823
 21
42.4138430361
  0
INSERT
  5
224
100
AcDbEntity
  8
0
100
AcDbBlockReference
 62
7
  6
CONTINUOUS
  2
_FILLED
 10
-46.582655823
 20
42.4138430361
 41
3.0
 42
3.0
 43
3.0
  0
INSERT
  5
225
100
AcDbEntity
  8
0
100
AcDbBlockReference
 62
7
  6
CONTINUOUS
  2
_FILLED
 10
-59.582655823
 20
42.4138430361
 41
3.0
 42
3.0
 43
3.0
 50
180.0
  0
ENDBLK
  5
226
100
AcDbEntity
  8
0
  6
BYBLOCK
 62
0
100
AcDbBlockEnd
  0
BLOCK
  5
227
100
AcDbEntity
  8
0
100
AcDbBlockBegin
 62
7
  6
CONTINUOUS
  2
*D1
 70
65
 10
0.0
 20
0.0
  3
*D1
  1

  0
MTEXT
  5
228
100
AcDbEntity
  8
0
100
AcDbMText
 62
7
  6
CONTINUOUS
  7
STANDARD
 71
2
 72
1
 10
-13.5
 20
50.5452276948
 30
0.0
 11
1.0
 21
0.0
 31
0.0
 73
2
 44
0.9
  1
{\ftxt;\W0.0001;\H0.0001;\~}{\ftxt;\W1.3571428571;\H3.0; }{\ftxt;\W0.0001;\H0.0001;\~}
 40
3.0
 41
6.1071428571
  0
LINE
  5
229
100
AcDbEntity
  8
0
100
AcDbLine
 62
7
  6
CONTINUOUS
 10
-4.0
 20
35.4358642591
 11
-4.0
 21
48.2952276948
  0
LINE
  5
22A
100
AcDbEntity
  8
0
100
AcDbLine
 62
7
  6
CONTINUOUS
 10
-23.0
 20
35.4358642591
 11
-23.0
 21
48.2952276948
  0
LINE
  5
22B
100
AcDbEntity
  8
0
100
AcDbLine
 62
7
  6
CONTINUOUS
 10
-4.0
 20
46.7952276948
 11
-13.5
 21
46.7952276948
  0
LINE
  5
22C
100
AcDbEntity
  8
0
100
AcDbLine
 62
7
  6
CONTINUOUS
 10
-23.0
 20
46.7952276948
 11
-13.5
 21
46.7952276948
  0
INSERT
  5
22D
100
AcDbEntity
  8
0
100
AcDbBlockReference
 62
7
  6
CONTINUOUS
  2
_FILLED
 10
-4.0
 20
46.7952276948
 41
3.0
 42
3.0
 43
3.0
  0
INSERT
  5
22E
100
AcDbEntity
  8
0
100
AcDbBlockReference
 62
7
  6
CONTINUOUS
  2
_FILLED
 10
-23.0
 20
46.7952276948
 41
3.0
 42
3.0
 43
3.0
 50
180.0
  0
ENDBLK
  5
22F
100
AcDbEntity
  8
0
  6
BYBLOCK
 62
0
100
AcDbBlockEnd
  0
BLOCK
  5
230
100
AcDbEntity
  8
0
100
AcDbBlockBegin
 62
7
  6
CONTINUOUS
  2
*D2
 70
65
 10
0.0
 20
0.0
  3
*D2
  1

  0
MTEXT
  5
231
100
AcDbEntity
  8
0
100
AcDbMText
 62
7
  6
CONTINUOUS
  7
STANDARD
 71
2
 72
1
 10
38.6071765088
 20
2.41793562
 30
0.0
 11
0.0
 21
1.0
 31
0.0
 73
2
 44
0.9
  1
{\ftxt;\W0.0001;\H0.0001;\~}{\ftxt;\W1.5;\H3.0; }{\ftxt;\W0.0001;\H0.0001;\~}
 40
3.0
 41
6.75
  0
LINE
  5
232
100
AcDbEntity
  8
0
100
AcDbLine
 62
7
  6
CONTINUOUS
 10
19.8394455328
 20
34.9358642591
 11
43.8571765088
 21
34.9358642591
  0
LINE
  5
233
100
AcDbEntity
  8
0
100
AcDbLine
 62
7
  6
CONTINUOUS
 10
20.6139475851
 20
-21.0641357409
 11
43.8571765088
 21
-21.0641357409
  0
LINE
  5
234
100
AcDbEntity
  8
0
100
AcDbLine
 62
7
  6
CONTINUOUS
 10
42.3571765088
 20
34.9358642591
 11
42.3571765088
 21
6.9358642591
  0
LINE
  5
235
100
AcDbEntity
  8
0
100
AcDbLine
 62
7
  6
CONTINUOUS
 10
42.3571765088
 20
-21.0641357409
 11
42.3571765088
 21
6.9358642591
  0
INSERT
  5
236
100
AcDbEntity
  8
0
100
AcDbBlockReference
 62
7
  6
CONTINUOUS
  2
_FILLED
 10
42.3571765088
 20
34.9358642591
 41
3.0
 42
3.0
 43
3.0
 50
90.0
  0
INSERT
  5
237
100
AcDbEntity
  8
0
100
AcDbBlockReference
 62
7
  6
CONTINUOUS
  2
_FILLED
 10
42.3571765088
 20
-21.0641357409
 41
3.0
 42
3.0
 43
3.0
 50
270.0
  0
ENDBLK
  5
238
100
AcDbEntity
  8
0
  6
BYBLOCK
 62
0
100
AcDbBlockEnd
  0
BLOCK
  5
239
100
AcDbEntity
  8
0
100
AcDbBlockBegin
 62
7
  6
CONTINUOUS
  2
*D3
 70
65
 10
0.0
 20
0.0
  3
*D3
  1

  0
MTEXT
  5
23A
100
AcDbEntity
  8
0
100
AcDbMText
 62
7
  6
CONTINUOUS
  7
STANDARD
 71
2
 72
1
 10
30.0754029059
 20
6.9358642591
 30
0.0
 11
0.0
 21
1.0
 31
0.0
 73
2
 44
0.9
  1
{\ftxt;\W0.0001;\H0.0001;\~}{\ftxt;\W1.5714285714;\H3.0; }{\ftxt;\W0.0001;\H0.0001;\~}
 40
3.0
 41
7.0714285714
  0
LINE
  5
23B
100
AcDbEntity
  8
0
100
AcDbLine
 62
7
  6
CONTINUOUS
 10
18.7725127887
 20
26.9358642591
 11
35.3254029059
 21
26.9358642591
  0
LINE
  5
23C
100
AcDbEntity
  8
0
100
AcDbLine
 62
7
  6
CONTINUOUS
 10
19.6760985166
 20
-13.0641357409
 11
35.3254029059
 21
-13.0641357409
  0
LINE
  5
23D
100
AcDbEntity
  8
0
100
AcDbLine
 62
7
  6
CONTINUOUS
 10
33.8254029059
 20
26.9358642591
 11
33.8254029059
 21
6.9358642591
  0
LINE
  5
23E
100
AcDbEntity
  8
0
100
AcDbLine
 62
7
  6
CONTINUOUS
 10
33.8254029059
 20
-13.0641357409
 11
33.8254029059
 21
6.9358642591
  0
INSERT
  5
23F
100
AcDbEntity
  8
0
100
AcDbBlockReference
 62
7
  6
CONTINUOUS
  2
_FILLED
 10
33.8254029059
 20
26.9358642591
 41
3.0
 42
3.0
 43
3.0
 50
90.0
  0
INSERT
  5
240
100
AcDbEntity
  8
0
100
AcDbBlockReference
 62
7
  6
CONTINUOUS
  2
_FILLED
 10
33.8254029059
 20
-13.0641357409
 41
3.0
 42
3.0
 43
3.0
 50
270.0
  0
ENDBLK
  5
241
100
AcDbEntity
  8
0
  6
BYBLOCK
 62
0
100
AcDbBlockEnd
  0
BLOCK
  5
242
100
AcDbEntity
  8
0
100
AcDbBlockBegin
 62
7
  6
CONTINUOUS
  2
*D4
 70
65
 10
0.0
 20
0.0
  3
*D4
  1

  0
MTEXT
  5
243
100
AcDbEntity
  8
0
100
AcDbMText
 62
7
  6
CONTINUOUS
  7
TEXTSTYLE_2
 71
3
 72
1
 10
-27.1311770476
 20
-23.96903442
 30
0.0
 11
1.0
 21
0.0
 31
0.0
 73
2
 44
0.9
  1
{\ftxt;\W0.0001;\H0.0001;\~}{\ftxt;\W1.3333333333;\H3.0; }{\ftxt;\W0.0001;\H0.0001;\~}{\ftxt;\W0.0001;\H0.0001;\~}{\ftxt;\W0.7142857143;\H3.0; }{\ftxt;\W0.0001;\H0.0001;\~}
 40
3.0
 41
9.2142857143
  0
LINE
  5
244
100
AcDbEntity
  8
0
100
AcDbLine
 62
7
  6
CONTINUOUS
 10
-19.2129178793
 20
-15.2501893125
 11
-26.1311770476
 21
-27.71903442
  0
LINE
  5
245
100
AcDbEntity
  8
0
100
AcDbLine
 62
7
  6
CONTINUOUS
 10
-26.1311770476
 20
-27.71903442
 11
-34.7740341905
 21
-27.71903442
  0
LINE
  5
246
100
AcDbEntity
  8
0
100
AcDbLine
 62
7
  6
CONTINUOUS
 10
-34.7740341905
 20
-27.71903442
 11
-26.1311770476
 21
-27.71903442
  0
INSERT
  5
247
100
AcDbEntity
  8
0
100
AcDbBlockReference
 62
7
  6
CONTINUOUS
  2
_FILLED
 10
-19.2129178793
 20
-15.2501893125
 41
3.0
 42
3.0
 43
3.0
 50
60.9765756871
  0
ENDBLK
  5
248
100
AcDbEntity
  8
0
  6
BYBLOCK
 62
0
100
AcDbBlockEnd
  0
BLOCK
  5
249
100
AcDbEntity
  8
0
100
AcDbBlockBegin
 62
7
  6
CONTINUOUS
  2
*D5
 70
65
 10
0.0
 20
0.0
  3
*D5
  1

  0
MTEXT
  5
24A
100
AcDbEntity
  8
0
100
AcDbMText
 62
7
  6
CONTINUOUS
  7
STANDARD
 71
3
 72
1
 10
-26.9541837702
 20
45.0265920099
 30
0.0
 11
1.0
 21
0.0
 31
0.0
 73
2
 44
0.9
  1
{\ftxt;\W0.0001;\H0.0001;\~}{\ftxt;\W0.7142857143;\H3.0; }{\ftxt;\W0.0001;\H0.0001;\~}
 40
3.0
 41
3.2142857143
  0
LINE
  5
24B
100
AcDbEntity
  8
0
100
AcDbLine
 62
7
  6
CONTINUOUS
 10
-23.0
 20
-12.5641357409
 11
-23.0
 21
42.7765920099
  0
LINE
  5
24C
100
AcDbEntity
  8
0
100
AcDbLine
 62
7
  6
CONTINUOUS
 10
-18.0
 20
28.226305687
 11
-18.0
 21
42.7765920099
  0
LINE
  5
24D
100
AcDbEntity
  8
0
100
AcDbLine
 62
7
  6
CONTINUOUS
 10
-23.0
 20
41.2765920099
 11
-29.0970409131
 21
41.2765920099
  0
LINE
  5
24E
100
AcDbEntity
  8
0
100
AcDbLine
 62
7
  6
CONTINUOUS
 10
-29.0970409131
 20
41.2765920099
 11
-20.5
 21
41.2765920099
  0
LINE
  5
24F
100
AcDbEntity
  8
0
100
AcDbLine
 62
7
  6
CONTINUOUS
 10
-18.0
 20
41.2765920099
 11
-14.0
 21
41.2765920099
  0
LINE
  5
250
100
AcDbEntity
  8
0
100
AcDbLine
 62
7
  6
CONTINUOUS
 10
-14.0
 20
41.2765920099
 11
-20.5
 21
41.2765920099
  0
INSERT
  5
251
100
AcDbEntity
  8
0
100
AcDbBlockReference
 62
7
  6
CONTINUOUS
  2
_FILLED
 10
-23.0
 20
41.2765920099
 41
3.0
 42
3.0
 43
3.0
  0
INSERT
  5
252
100
AcDbEntity
  8
0
100
AcDbBlockReference
 62
7
  6
CONTINUOUS
  2
_FILLED
 10
-18.0
 20
41.2765920099
 41
3.0
 42
3.0
 43
3.0
 50
180.0
  0
ENDBLK
  5
253
100
AcDbEntity
  8
0
  6
BYBLOCK
 62
0
100
AcDbBlockEnd
  0
ENDSEC
  0
SECTION
  2
ENTITIES
  0
DIMENSION
  5
254
100
AcDbEntity
  8
0
100
AcDbDimension
 62
7
  6
CONTINUOUS
  2
*D0
 10
-59.582655823
 20
42.4138430361
 11
-53.5112285019
 21
42.4138430361
 70
160
 71
2
 72
2
 41
0.9
 42
13.0
  1
{\ftxt;\W0.0001;\H0.0001;\~}{\ftxt;\W1.2857142857;\H3.0; }{\ftxt;\W0.0001;\H0.0001;\~}
  3
DIMSTYLE_1
100
AcDbAlignedDimension
 13
-46.582655823
 23
33.9358642591
 14
-59.582655823
 24
33.9358642591
 50
180.0
100
AcDbRotatedDimension
  0
DIMENSION
  5
255
100
AcDbEntity
  8
0
100
AcDbDimension
 62
7
  6
CONTINUOUS
  2
*D1
 10
-23.0
 20
46.7952276948
 11
-13.9285713272
 21
46.7952276948
 70
160
 71
2
 72
2
 41
0.9
 42
19.0
  1
{\ftxt;\W0.0001;\H0.0001;\~}{\ftxt;\W1.3571428571;\H3.0; }{\ftxt;\W0.0001;\H0.0001;\~}
  3
DIMSTYLE_1
100
AcDbAlignedDimension
 13
-4.0
 23
34.9358642591
 14
-23.0
 24
34.9358642591
 50
180.0
100
AcDbRotatedDimension
  0
DIMENSION
  5
256
100
AcDbEntity
  8
0
100
AcDbDimension
 62
7
  6
CONTINUOUS
  2
*D2
 10
42.3571765088
 20
-21.0641357409
 11
42.3571765088
 21
1.9893656419
 70
160
 71
2
 72
2
 41
0.9
 42
56.0
  1
{\ftxt;\W0.0001;\H0.0001;\~}{\ftxt;\W1.5;\H3.0; }{\ftxt;\W0.0001;\H0.0001;\~}
  3
DIMSTYLE_1
100
AcDbAlignedDimension
 13
19.3394455328
 23
34.9358642591
 14
20.1139475851
 24
-21.0641357409
 50
270.0
100
AcDbRotatedDimension
  0
DIMENSION
  5
257
100
AcDbEntity
  8
0
100
AcDbDimension
 62
7
  6
CONTINUOUS
  2
*D3
 10
33.8254029059
 20
-13.0641357409
 11
33.8254029059
 21
6.5072919702
 70
160
 71
2
 72
2
 41
0.9
 42
40.0
  1
{\ftxt;\W0.0001;\H0.0001;\~}{\ftxt;\W1.5714285714;\H3.0; }{\ftxt;\W0.0001;\H0.0001;\~}
  3
DIMSTYLE_1
100
AcDbAlignedDimension
 13
18.2725127887
 23
26.9358642591
 14
19.1760985166
 24
-13.0641357409
 50
270.0
100
AcDbRotatedDimension
  0
DIMENSION
  5
258
100
AcDbEntity
  8
0
100
AcDbDimension
 62
7
  6
CONTINUOUS
  2
*D4
 10
-19.2129178793
 20
-15.2501893125
 11
-29.2740341905
 21
-26.96903442
 70
163
 71
3
 72
2
 41
0.9
 42
5.0
  1
{\ftxt;\W0.0001;\H0.0001;\~}{\ftxt;\W1.3333333333;\H3.0; }{\ftxt;\W0.0001;\H0.0001;\~}{\ftxt;\W0.0001;\H0.0001;\~}{\ftxt;\W0.7142857143;\H3.0; }{\ftxt;\W0.0001;\H0.0001;\~}
  3
DIMSTYLE_2
100
AcDbDiametricDimension
 15
-16.7870821207
 25
-10.8780821692
1001
ACAD
1000
DSTYLE
1002
{
1070
73
1070
1
1070
74
1070
1
1002
}
  0
DIMENSION
  5
259
100
AcDbEntity
  8
0
100
AcDbDimension
 62
7
  6
CONTINUOUS
  2
*D5
 10
-18.0
 20
41.2765920099
 11
-28.4541845062
 21
41.2765920099
 70
160
 71
3
 72
2
 41
0.9
 42
5.0
  1
{\ftxt;\W0.0001;\H0.0001;\~}{\ftxt;\W0.7142857143;\H3.0; }{\ftxt;\W0.0001;\H0.0001;\~}
  3
DIMSTYLE_1
100
AcDbAlignedDimension
 13
-23.0
 23
-13.0641357409
 14
-18.0
 24
27.726305687
100
AcDbRotatedDimension
  0
LEADER
  5
25A
100
AcDbEntity
  8
0
100
AcDbLeader
 62
7
  6
CONTINUOUS
  3
STANDARD
 71
1
 72
0
 73
3
 75
0
 40
3.0
 41
33.2142857143
 76
3
 10
-50.582655823
 20
-27.7917900208
 30
0.0
 10
-66.8540852231
 20
-41.1529413871
 30
0.0
 10
-67.8540852231
 20
-41.1529413871
 30
0.0
1001
ACAD
1000
DSTYLE
1002
{
1070
77
1070
0
1002
}
  0
LWPOLYLINE
  5
25B
100
AcDbEntity
  8
0
100
AcDbPolyline
 62
7
  6
CONTINUOUS
 90
3
 70
0
 43
0.3500000087
 10
-15.5357139267
 20
49.6880837616
 10
-14.6785709938
 20
50.5452256287
 10
-14.6785709938
 20
47.5452269623
  0
LWPOLYLINE
  5
25C
100
AcDbEntity
  8
0
100
AcDbPolyline
 62
7
  6
CONTINUOUS
 90
10
 70
0
 43
0.3500000087
 10
-13.3928571274
 20
47.5452269623
 10
-12.5357141945
 20
48.4023688293
 10
-12.3214287277
 20
49.2595149597
 10
-12.3214287277
 20
50.1166568268
 10
-12.7499996613
 20
50.5452256287
 10
-13.3928571274
 20
50.5452256287
 10
-13.8214280609
 20
50.1166568268
 10
-13.8214280609
 20
49.2595149597
 10
-13.3928571274
 20
48.8309418945
 10
-12.4642857056
 20
48.8309418945
  0
LINE
  5
25D
100
AcDbEntity
  8
0
100
AcDbLine
 62
7
  6
CONTINUOUS
 10
-15.0
 20
-34.9358642591
 11
-17.0
 21
-34.9358642591
  0
LWPOLYLINE
  5
25E
100
AcDbEntity
  8
0
100
AcDbPolyline
 62
7
  6
CONTINUOUS
 90
8
 70
0
 43
0.3500000087
 10
-29.2740352386
 20
-26.9690346058
 10
-28.4168912399
 20
-26.9690346058
 10
-27.9883203064
 20
-26.5404631393
 10
-27.9883203064
 20
-25.6833202065
 10
-28.4168912399
 20
-25.25474874
 10
-29.2740352386
 20
-25.25474874
 10
-29.2740352386
 20
-23.9690343407
 10
-27.9883203064
 20
-23.9690343407
  0
LINE
  5
25F
100
AcDbEntity
  8
RACCORDO
100
AcDbLine
 62
7
  6
CONTINUOUS
 10
-23.0
 20
33.9358642591
 11
-23.0
 21
-20.0641357409
  0
LINE
  5
260
100
AcDbEntity
  8
RACCORDO
100
AcDbLine
 62
250
  6
CONTINUOUS
 10
-22.0
 20
-21.0641357409
 11
-22.0
 21
34.9358642591
  0
LWPOLYLINE
  5
261
100
AcDbEntity
  8
0
100
AcDbPolyline
 62
7
  6
CONTINUOUS
 90
13
 70
0
 43
0.3500000087
 10
-33.2740348816
 20
-25.4690342068
 10
-33.0240346375
 20
-24.7190345402
 10
-32.5240341492
 20
-24.2190343184
 10
-31.7740334167
 20
-23.9690343407
 10
-31.024034816
 20
-24.2190343184
 10
-30.5240343277
 20
-24.7190345402
 10
-30.2740340836
 20
-25.4690342068
 10
-30.5240343277
 20
-26.2190344063
 10
-31.024034816
 20
-26.7190343616
 10
-31.7740334167
 20
-26.9690346058
 10
-32.5240341492
 20
-26.7190343616
 10
-33.0240346375
 20
-26.2190344063
 10
-33.2740348816
 20
-25.4690342068
  0
LINE
  5
262
100
AcDbEntity
  8
RACCORDO
100
AcDbLine
 62
7
  6
CONTINUOUS
 10
-22.0
 20
-21.0641357409
 11
-5.0
 21
-21.0641357409
  0
LINE
  5
263
100
AcDbEntity
  8
RACCORDO
100
AcDbLine
 62
7
  6
CONTINUOUS
 10
5.0
 20
-21.0641357409
 11
22.0
 21
-21.0641357409
  0
LINE
  5
264
100
AcDbEntity
  8
RACCORDO
100
AcDbLine
 62
250
  6
CONTINUOUS
 10
4.0
 20
-20.0641357409
 11
23.0
 21
-20.0641357409
  0
LINE
  5
265
100
AcDbEntity
  8
RACCORDO
100
AcDbLine
 62
250
  6
CONTINUOUS
 10
-4.0
 20
-20.0641357409
 11
-23.0
 21
-20.0641357409
  0
LINE
  5
266
100
AcDbEntity
  8
0
100
AcDbLine
 62
7
  6
CONTINUOUS
 10
-17.0
 20
-21.0641357409
 11
-17.0
 21
-34.9358642591
  0
LINE
  5
267
100
AcDbEntity
  8
0
100
AcDbLine
 62
7
  6
CONTINUOUS
 10
-15.0
 20
-21.0641357409
 11
-15.0
 21
-34.9358642591
  0
LWPOLYLINE
  5
268
100
AcDbEntity
  8
0
100
AcDbPolyline
 62
7
  6
CONTINUOUS
 90
2
 70
0
 43
0.3500000087
 10
-33.0240346375
 20
-27.7190342724
 10
-30.5240343277
 20
-23.2190344076
  0
LINE
  5
269
100
AcDbEntity
  8
RACCORDO
100
AcDbLine
 62
250
  6
CONTINUOUS
 10
-5.0
 20
-21.0641357409
 11
-5.0
 21
34.9358642591
  0
LINE
  5
26A
100
AcDbEntity
  8
RACCORDO
100
AcDbLine
 62
7
  6
CONTINUOUS
 10
-4.0
 20
-20.0641357409
 11
-4.0
 21
33.9358642591
  0
LINE
  5
26B
100
AcDbEntity
  8
RACCORDO
100
AcDbLine
 62
7
  6
CONTINUOUS
 10
4.0
 20
33.9358642591
 11
4.0
 21
-20.0641357409
  0
LINE
  5
26C
100
AcDbEntity
  8
RACCORDO
100
AcDbLine
 62
250
  6
CONTINUOUS
 10
5.0
 20
-21.0641357409
 11
5.0
 21
34.9358642591
  0
LWPOLYLINE
  5
26D
100
AcDbEntity
  8
0
100
AcDbPolyline
 62
7
  6
CONTINUOUS
 90
2
 70
0
 43
0.3500000087
 10
33.0754032074
 20
5.578721109
 10
31.5754038742
 20
5.578721109
  0
LWPOLYLINE
  5
26E
100
AcDbEntity
  8
0
100
AcDbPolyline
 62
7
  6
CONTINUOUS
 90
13
 70
0
 43
0.3500000087
 10
32.2182592087
 20
6.9358634644
 10
30.9325464081
 20
6.9358634644
 10
30.5039733429
 20
7.1501499969
 10
30.0754024094
 20
7.5787209305
 10
30.0754024094
 20
7.7930074631
 10
30.5039733429
 20
8.2215783966
 10
30.9325464081
 20
8.4358649292
 10
32.2182592087
 20
8.4358649292
 10
32.6468322739
 20
8.2215783966
 10
33.0754032074
 20
7.7930074631
 10
33.0754032074
 20
7.5787209305
 10
32.6468322739
 20
7.1501499969
 10
32.2182592087
 20
6.9358634644
  0
LINE
  5
26F
100
AcDbEntity
  8
RACCORDO
100
AcDbLine
 62
250
  6
CONTINUOUS
 10
22.0
 20
-21.0641357409
 11
22.0
 21
34.9358642591
  0
LINE
  5
270
100
AcDbEntity
  8
RACCORDO
100
AcDbLine
 62
7
  6
CONTINUOUS
 10
23.0
 20
-20.0641357409
 11
23.0
 21
33.9358642591
  0
LWPOLYLINE
  5
271
100
AcDbEntity
  8
0
100
AcDbPolyline
 62
7
  6
CONTINUOUS
 90
10
 70
0
 43
0.3500000087
 10
38.607174469
 20
3.3822212662
 10
39.2500340668
 20
2.7393638
 10
40.1071759338
 20
2.3107928665
 10
41.1786043335
 20
2.3107928665
 10
41.6071773987
 20
2.7393638
 10
41.6071773987
 20
3.3822212662
 10
41.1786043335
 20
3.8107921997
 10
40.3214624664
 20
3.8107921997
 10
39.8928894012
 20
3.3822212662
 10
39.8928894012
 20
2.4536498444
  0
LWPOLYLINE
  5
272
100
AcDbEntity
  8
0
100
AcDbPolyline
 62
7
  6
CONTINUOUS
 90
3
 70
0
 43
0.3500000087
 10
32.4325457413
 20
6.0787215973
 10
32.4325457413
 20
4.5787222641
 10
30.0754024094
 20
5.2215775986
  0
LINE
  5
273
100
AcDbEntity
  8
RACCORDO
100
AcDbLine
 62
250
  6
CONTINUOUS
 10
4.0
 20
33.9358642591
 11
23.0
 21
33.9358642591
  0
LINE
  5
274
100
AcDbEntity
  8
RACCORDO
100
AcDbLine
 62
250
  6
CONTINUOUS
 10
-4.0
 20
33.9358642591
 11
-23.0
 21
33.9358642591
  0
LINE
  5
275
100
AcDbEntity
  8
RACCORDO
100
AcDbLine
 62
7
  6
CONTINUOUS
 10
22.0
 20
34.9358642591
 11
5.0
 21
34.9358642591
  0
LINE
  5
276
100
AcDbEntity
  8
RACCORDO
100
AcDbLine
 62
7
  6
CONTINUOUS
 10
-5.0
 20
34.9358642591
 11
-22.0
 21
34.9358642591
  0
LWPOLYLINE
  5
277
100
AcDbEntity
  8
0
100
AcDbPolyline
 62
7
  6
CONTINUOUS
 90
8
 70
0
 43
0.3500000087
 10
41.6071773987
 20
0.1679360672
 10
41.6071773987
 20
1.0250779343
 10
41.1786043335
 20
1.4536488678
 10
40.3214624664
 20
1.4536488678
 10
39.8928894012
 20
1.0250779343
 10
39.8928894012
 20
0.1679360672
 10
38.607174469
 20
0.1679360672
 10
38.607174469
 20
1.4536488678
  0
LWPOLYLINE
  5
278
100
AcDbEntity
  8
0
100
AcDbPolyline
 62
7
  6
CONTINUOUS
 90
8
 70
0
 43
0.3500000087
 10
-29.0970419724
 20
42.0265909454
 10
-28.2398979736
 20
42.0265909454
 10
-27.8113270401
 20
42.4551640106
 10
-27.8113270401
 20
43.3123058777
 10
-28.2398979736
 20
43.7408789429
 10
-29.0970419724
 20
43.7408789429
 10
-29.0970419724
 20
45.0265938751
 10
-27.8113270401
 20
45.0265938751
  0
LWPOLYLINE
  5
279
100
AcDbEntity
  8
0
100
AcDbPolyline
 62
7
  6
CONTINUOUS
 90
3
 70
0
 43
0.3500000087
 10
-100.4969432983
 20
-39.6529418381
 10
-100.4969432983
 20
-42.6529405045
 10
-99.4255148987
 20
-42.6529405045
  0
LWPOLYLINE
  5
27A
100
AcDbEntity
  8
0
100
AcDbPolyline
 62
7
  6
CONTINUOUS
 90
6
 70
0
 43
0.3500000087
 10
-98.5683687683
 20
-39.6529418381
 10
-98.5683687683
 20
-42.2243695709
 10
-98.1397957031
 20
-42.6529405045
 10
-97.4969403687
 20
-42.6529405045
 10
-97.0683673035
 20
-42.2243695709
 10
-97.0683673035
 20
-39.6529418381
  0
LWPOLYLINE
  5
27B
100
AcDbEntity
  8
0
100
AcDbPolyline
 62
7
  6
CONTINUOUS
 90
4
 70
0
 43
0.3500000087
 10
-96.2112296997
 20
-42.6529405045
 10
-96.2112296997
 20
-39.6529418381
 10
-94.7112282349
 20
-42.6529405045
 10
-94.7112282349
 20
-39.6529418381
  0
LWPOLYLINE
  5
27C
100
AcDbEntity
  8
0
100
AcDbPolyline
 62
7
  6
CONTINUOUS
 90
2
 70
0
 43
0.3500000087
 10
-91.4969430359
 20
-42.6529405045
 10
-91.4969430359
 20
-39.6529418381
  0
LWPOLYLINE
  5
27D
100
AcDbEntity
  8
0
100
AcDbPolyline
 62
7
  6
CONTINUOUS
 90
2
 70
0
 43
0.3500000087
 10
-89.996941571
 20
-39.6529418381
 10
-89.996941571
 20
-42.6529405045
  0
LWPOLYLINE
  5
27E
100
AcDbEntity
  8
0
100
AcDbPolyline
 62
7
  6
CONTINUOUS
 90
3
 70
0
 43
0.3500000087
 10
-89.1397954407
 20
-42.6529405045
 10
-89.1397954407
 20
-39.6529418381
 10
-87.8540847717
 20
-39.6529418381
  0
LWPOLYLINE
  5
27F
100
AcDbEntity
  8
0
100
AcDbPolyline
 62
7
  6
CONTINUOUS
 90
5
 70
0
 43
0.3500000087
 10
-52.4397979706
 20
44.8781285187
 10
-52.0826565918
 20
45.0924150513
 10
-52.0826565918
 20
45.7352703857
 10
-52.4397979706
 20
46.1638434509
 10
-53.2969398376
 20
46.1638434509
  0
LWPOLYLINE
  5
280
100
AcDbEntity
  8
0
100
AcDbPolyline
 62
7
  6
CONTINUOUS
 90
8
 70
0
 43
0.3500000087
 10
-82.6397976196
 20
-47.1529406357
 10
-81.7826600159
 20
-47.1529406357
 10
-81.3540869507
 20
-46.7243697021
 10
-81.3540869507
 20
-45.8672278351
 10
-81.7826600159
 20
-45.4386547699
 10
-82.6397976196
 20
-45.4386547699
 10
-82.6397976196
 20
-44.1529419693
 10
-81.3540869507
 20
-44.1529419693
  0
LWPOLYLINE
  5
281
100
AcDbEntity
  8
0
100
AcDbPolyline
 62
7
  6
CONTINUOUS
 90
2
 70
0
 43
0.3500000087
 10
-89.1397954407
 20
-42.6529405045
 10
-87.8540847717
 20
-42.6529405045
  0
LWPOLYLINE
  5
282
100
AcDbEntity
  8
0
100
AcDbPolyline
 62
7
  6
CONTINUOUS
 90
6
 70
0
 43
0.3500000087
 10
-76.0683723755
 20
-42.6529405045
 10
-76.9255099792
 20
-42.6529405045
 10
-77.3540830444
 20
-42.2243695709
 10
-77.3540830444
 20
-40.0815127716
 10
-76.9255099792
 20
-39.6529418381
 10
-76.0683723755
 20
-39.6529418381
  0
LWPOLYLINE
  5
283
100
AcDbEntity
  8
0
100
AcDbPolyline
 62
7
  6
CONTINUOUS
 90
2
 70
0
 43
0.3500000087
 10
-81.9969422852
 20
-41.7957986374
 10
-80.8540864624
 20
-41.7957986374
  0
LWPOLYLINE
  5
284
100
AcDbEntity
  8
0
100
AcDbPolyline
 62
7
  6
CONTINUOUS
 90
2
 70
0
 43
0.3500000087
 10
-74.5683709106
 20
-41.7957986374
 10
-73.4255150879
 20
-41.7957986374
  0
LWPOLYLINE
  5
285
100
AcDbEntity
  8
0
100
AcDbPolyline
 62
7
  6
CONTINUOUS
 90
8
 70
0
 43
0.3500000087
 10
-92.9969445007
 20
-40.9386546387
 10
-92.3540891663
 20
-40.9386546387
 10
-92.3540891663
 20
-42.6529405045
 10
-93.4255175659
 20
-42.6529405045
 10
-93.8540821045
 20
-42.2243695709
 10
-93.8540821045
 20
-40.0815127716
 10
-93.4255175659
 20
-39.6529418381
 10
-92.3540891663
 20
-39.6529418381
  0
LWPOLYLINE
  5
286
100
AcDbEntity
  8
0
100
AcDbPolyline
 62
7
  6
CONTINUOUS
 90
2
 70
0
 43
0.3500000087
 10
-91.4969430359
 20
-40.9386546387
 10
-89.996941571
 20
-40.9386546387
  0
LWPOLYLINE
  5
287
100
AcDbEntity
  8
0
100
AcDbPolyline
 62
7
  6
CONTINUOUS
 90
2
 70
0
 43
0.3500000087
 10
-88.2826578369
 20
-40.9386546387
 10
-89.1397954407
 20
-40.9386546387
  0
LWPOLYLINE
  5
288
100
AcDbEntity
  8
0
100
AcDbPolyline
 62
7
  6
CONTINUOUS
 90
4
 70
0
 43
0.3500000087
 10
-86.9969386414
 20
-39.6529418381
 10
-85.4969457031
 20
-39.6529418381
 10
-86.9969386414
 20
-42.6529405045
 10
-85.4969457031
 20
-42.6529405045
  0
LWPOLYLINE
  5
289
100
AcDbEntity
  8
0
100
AcDbPolyline
 62
7
  6
CONTINUOUS
 90
4
 70
0
 43
0.3500000087
 10
-84.6397995728
 20
-39.6529418381
 10
-83.1397981079
 20
-39.6529418381
 10
-84.6397995728
 20
-42.6529405045
 10
-83.1397981079
 20
-42.6529405045
  0
LWPOLYLINE
  5
28A
100
AcDbEntity
  8
0
100
AcDbPolyline
 62
7
  6
CONTINUOUS
 90
3
 70
0
 43
0.3500000087
 10
-55.0112278351
 20
45.3067015839
 10
-54.154085968
 20
46.1638434509
 10
-54.154085968
 20
43.1638447845
  0
LINE
  5
28B
100
AcDbEntity
  8
0
100
AcDbLine
 62
7
  6
CONTINUOUS
 10
-48.582655823
 20
-34.9358642591
 11
-50.582655823
 21
-34.9358642591
  0
LWPOLYLINE
  5
28C
100
AcDbEntity
  8
0
100
AcDbPolyline
 62
7
  6
CONTINUOUS
 90
3
 70
0
 43
0.3500000087
 10
-72.2826592651
 20
-39.6529418381
 10
-71.4255131348
 20
-42.6529405045
 10
-70.5683712677
 20
-39.6529418381
  0
LWPOLYLINE
  5
28D
100
AcDbEntity
  8
0
100
AcDbPolyline
 62
7
  6
CONTINUOUS
 90
13
 70
0
 43
0.3500000087
 10
-80.4969408203
 20
-46.2957987686
 10
-80.4969408203
 20
-45.0100838364
 10
-80.282658551
 20
-44.5815129028
 10
-79.8540854858
 20
-44.1529419693
 10
-79.6398032166
 20
-44.1529419693
 10
-79.2112301514
 20
-44.5815129028
 10
-78.9969393555
 20
-45.0100838364
 10
-78.9969393555
 20
-46.2957987686
 10
-79.2112301514
 20
-46.7243697021
 10
-79.6398032166
 20
-47.1529406357
 10
-79.8540854858
 20
-47.1529406357
 10
-80.282658551
 20
-46.7243697021
 10
-80.4969408203
 20
-46.2957987686
  0
LWPOLYLINE
  5
28E
100
AcDbEntity
  8
0
100
AcDbPolyline
 62
7
  6
CONTINUOUS
 90
13
 70
0
 43
0.3500000087
 10
-78.1398017517
 20
-46.2957987686
 10
-78.1398017517
 20
-45.0100838364
 10
-77.9255109558
 20
-44.5815129028
 10
-77.4969464172
 20
-44.1529419693
 10
-77.2826556213
 20
-44.1529419693
 10
-76.8540825562
 20
-44.5815129028
 10
-76.6398002869
 20
-45.0100838364
 10
-76.6398002869
 20
-46.2957987686
 10
-76.8540825562
 20
-46.7243697021
 10
-77.2826556213
 20
-47.1529406357
 10
-77.4969464172
 20
-47.1529406357
 10
-77.9255109558
 20
-46.7243697021
 10
-78.1398017517
 20
-46.2957987686
  0
LINE
  5
28F
100
AcDbEntity
  8
RACCORDO
100
AcDbLine
 62
7
  6
CONTINUOUS
 10
-58.582655823
 20
-21.0641357409
 11
-46.582655823
 21
-21.0641357409
  0
LWPOLYLINE
  5
290
100
AcDbEntity
  8
0
100
AcDbPolyline
 62
7
  6
CONTINUOUS
 90
5
 70
0
 43
0.3500000087
 10
-73.4255150879
 20
-47.1529406357
 10
-73.4255150879
 20
-45.0100838364
 10
-71.7112313538
 20
-45.0100838364
 10
-71.4969405579
 20
-45.224370369
 10
-71.4969405579
 20
-47.1529406357
  0
LWPOLYLINE
  5
291
100
AcDbEntity
  8
0
100
AcDbPolyline
 62
7
  6
CONTINUOUS
 90
2
 70
0
 43
0.3500000087
 10
-72.4969415344
 20
-45.0100838364
 10
-72.4969415344
 20
-47.1529406357
  0
LINE
  5
292
100
AcDbEntity
  8
RACCORDO
100
AcDbLine
 62
250
  6
CONTINUOUS
 10
-59.582655823
 20
-20.0641357409
 11
-46.582655823
 21
-20.0641357409
  0
LWPOLYLINE
  5
293
100
AcDbEntity
  8
0
100
AcDbPolyline
 62
7
  6
CONTINUOUS
 90
5
 70
0
 43
0.3500000087
 10
-70.6397986908
 20
-47.1529406357
 10
-70.6397986908
 20
-45.0100838364
 10
-68.9255149567
 20
-45.0100838364
 10
-68.7112284241
 20
-45.224370369
 10
-68.7112284241
 20
-47.1529406357
  0
LWPOLYLINE
  5
294
100
AcDbEntity
  8
0
100
AcDbPolyline
 62
7
  6
CONTINUOUS
 90
2
 70
0
 43
0.3500000087
 10
-69.7112294006
 20
-45.0100838364
 10
-69.7112294006
 20
-47.1529406357
  0
LWPOLYLINE
  5
295
100
AcDbEntity
  8
0
100
AcDbPolyline
 62
7
  6
CONTINUOUS
 90
3
 70
0
 43
0.3500000087
 10
-82.2826605042
 20
-42.6529405045
 10
-81.4255143738
 20
-39.6529418381
 10
-80.5683682434
 20
-42.6529405045
  0
LWPOLYLINE
  5
296
100
AcDbEntity
  8
0
100
AcDbPolyline
 62
7
  6
CONTINUOUS
 90
2
 70
0
 43
0.3500000087
 10
-69.2112289124
 20
-42.6529405045
 10
-69.2112289124
 20
-39.6529418381
  0
LWPOLYLINE
  5
297
100
AcDbEntity
  8
0
100
AcDbPolyline
 62
7
  6
CONTINUOUS
 90
3
 70
0
 43
0.3500000087
 10
-74.8540891296
 20
-42.6529405045
 10
-73.9969429993
 20
-39.6529418381
 10
-73.1397968689
 20
-42.6529405045
  0
LINE
  5
298
100
AcDbEntity
  8
RACCORDO
100
AcDbLine
 62
7
  6
CONTINUOUS
 10
-59.582655823
 20
-20.0641357409
 11
-59.582655823
 21
33.9358642591
  0
LINE
  5
299
100
AcDbEntity
  8
RACCORDO
100
AcDbLine
 62
250
  6
CONTINUOUS
 10
-58.582655823
 20
-21.0641357409
 11
-58.582655823
 21
34.9358642591
  0
LINE
  5
29A
100
AcDbEntity
  8
0
100
AcDbLine
 62
7
  6
CONTINUOUS
 10
-50.582655823
 20
-21.0641357409
 11
-50.582655823
 21
-34.9358642591
  0
LINE
  5
29B
100
AcDbEntity
  8
0
100
AcDbLine
 62
7
  6
CONTINUOUS
 10
-48.582655823
 20
-21.0641357409
 11
-48.582655823
 21
-34.9358642591
  0
LINE
  5
29C
100
AcDbEntity
  8
RACCORDO
100
AcDbLine
 62
7
  6
CONTINUOUS
 10
-46.582655823
 20
-21.0641357409
 11
-46.582655823
 21
34.9358642591
  0
LWPOLYLINE
  5
29D
100
AcDbEntity
  8
0
100
AcDbPolyline
 62
7
  6
CONTINUOUS
 90
3
 70
0
 43
0.3500000087
 10
-84.3540813538
 20
-45.0100838364
 10
-83.49694375
 20
-44.1529419693
 10
-83.49694375
 20
-47.1529406357
  0
LINE
  5
29E
100
AcDbEntity
  8
RACCORDO
100
AcDbLine
 62
250
  6
CONTINUOUS
 10
-59.582655823
 20
33.9358642591
 11
-46.582655823
 21
33.9358642591
  0
LINE
  5
29F
100
AcDbEntity
  8
RACCORDO
100
AcDbLine
 62
7
  6
CONTINUOUS
 10
-58.582655823
 20
34.9358642591
 11
-46.582655823
 21
34.9358642591
  0
LWPOLYLINE
  5
2A0
100
AcDbEntity
  8
0
100
AcDbPolyline
 62
7
  6
CONTINUOUS
 90
6
 70
0
 43
0.3500000087
 10
-53.2969398376
 20
43.1638447845
 10
-52.225511438
 20
43.1638447845
 10
-52.0112291687
 20
43.3781270538
 10
-52.0112291687
 20
44.4495554535
 10
-52.4397979706
 20
44.8781285187
 10
-52.8683710358
 20
44.8781285187
  0
CIRCLE
  5
2A1
100
AcDbEntity
  8
SMUSSO
100
AcDbCircle
 62
7
  6
CONTINUOUS
 10
18.0
 20
26.9358642591
 40
3.5
  0
CIRCLE
  5
2A2
100
AcDbEntity
  8
SMUSSO
100
AcDbCircle
 62
7
  6
CONTINUOUS
 10
18.0
 20
-13.0641357409
 40
3.5
  0
CIRCLE
  5
2A3
100
AcDbEntity
  8
SMUSSO
100
AcDbCircle
 62
7
  6
CONTINUOUS
 10
-18.0
 20
26.9358642591
 40
3.5
  0
CIRCLE
  5
2A4
100
AcDbEntity
  8
SMUSSO
100
AcDbCircle
 62
7
  6
CONTINUOUS
 10
-18.0
 20
-13.0641357409
 40
3.5
  0
CIRCLE
  5
2A5
100
AcDbEntity
  8
SMUSSO
100
AcDbCircle
 62
7
  6
CONTINUOUS
 10
-18.0
 20
-13.0641357409
 40
2.5
  0
CIRCLE
  5
2A6
100
AcDbEntity
  8
SMUSSO
100
AcDbCircle
 62
7
  6
CONTINUOUS
 10
-18.0
 20
26.9358642591
 40
2.5
  0
CIRCLE
  5
2A7
100
AcDbEntity
  8
SMUSSO
100
AcDbCircle
 62
7
  6
CONTINUOUS
 10
18.0
 20
26.9358642591
 40
2.5
  0
CIRCLE
  5
2A8
100
AcDbEntity
  8
SMUSSO
100
AcDbCircle
 62
7
  6
CONTINUOUS
 10
18.0
 20
-13.0641357409
 40
2.5
  0
ARC
  5
2A9
100
AcDbEntity
  8
RACCORDO
100
AcDbCircle
 62
7
  6
CONTINUOUS
 10
22.0
 20
33.9358642591
 40
1.0
100
AcDbArc
 50
0.0
 51
90.0
  0
ARC
  5
2AA
100
AcDbEntity
  8
RACCORDO
100
AcDbCircle
 62
7
  6
CONTINUOUS
 10
22.0
 20
-20.0641357409
 40
1.0
100
AcDbArc
 50
270.0
 51
360.0
  0
ARC
  5
2AB
100
AcDbEntity
  8
RACCORDO
100
AcDbCircle
 62
7
  6
CONTINUOUS
 10
5.0
 20
-20.0641357409
 40
1.0
100
AcDbArc
 50
180.0
 51
270.0
  0
ARC
  5
2AC
100
AcDbEntity
  8
RACCORDO
100
AcDbCircle
 62
7
  6
CONTINUOUS
 10
5.0
 20
33.9358642591
 40
1.0
100
AcDbArc
 50
90.0
 51
180.0
  0
ARC
  5
2AD
100
AcDbEntity
  8
RACCORDO
100
AcDbCircle
 62
7
  6
CONTINUOUS
 10
-5.0
 20
33.9358642591
 40
1.0
100
AcDbArc
 50
0.0
 51
90.0
  0
ARC
  5
2AE
100
AcDbEntity
  8
RACCORDO
100
AcDbCircle
 62
7
  6
CONTINUOUS
 10
-22.0
 20
33.9358642591
 40
1.0
100
AcDbArc
 50
90.0
 51
180.0
  0
ARC
  5
2AF
100
AcDbEntity
  8
RACCORDO
100
AcDbCircle
 62
7
  6
CONTINUOUS
 10
-22.0
 20
-20.0641357409
 40
1.0
100
AcDbArc
 50
180.0
 51
270.0
  0
ARC
  5
2B0
100
AcDbEntity
  8
RACCORDO
100
AcDbCircle
 62
7
  6
CONTINUOUS
 10
-5.0
 20
-20.0641357409
 40
1.0
100
AcDbArc
 50
270.0
 51
360.0
  0
ARC
  5
2B1
100
AcDbEntity
  8
RACCORDO
100
AcDbCircle
 62
7
  6
CONTINUOUS
 10
-58.582655823
 20
-20.0641357409
 40
1.0
100
AcDbArc
 50
180.0
 51
270.0
  0
ARC
  5
2B2
100
AcDbEntity
  8
RACCORDO
100
AcDbCircle
 62
7
  6
CONTINUOUS
 10
-58.582655823
 20
33.9358642591
 40
1.0
100
AcDbArc
 50
90.0
 51
180.0
  0
ENDSEC
  0
SECTION
  2
OBJECTS
  0
DICTIONARY
  5
C
100
AcDbDictionary
280
0
281
1
  3
ACAD_GROUP
350
D
  3
ACAD_MLINESTYLE
350
17
  3
ACAD_LAYOUT
350
1A
  3
ACAD_PLOTSETTINGS
350
19
  3
ACAD_PLOTSTYLENAME
350
E
  0
DICTIONARY
  5
D
102
{ACAD_REACTORS
330
C
102
}
100
AcDbDictionary
280
0
281
1
  0
ACDBDICTIONARYWDFLT
  5
E
102
{ACAD_REACTORS
330
C
102
}
100
AcDbDictionary
281
1
  3
Normal
350
F
100
AcDbDictionaryWithDefault
340
F
  0
DICTIONARY
  5
17
102
{ACAD_REACTORS
330
C
102
}
100
AcDbDictionary
280
0
281
1
  3
Standard
350
18
  0
DICTIONARY
  5
19
102
{ACAD_REACTORS
330
C
102
}
100
AcDbDictionary
281
1
  0
DICTIONARY
  5
1A
102
{ACAD_REACTORS
330
C
102
}
100
AcDbDictionary
281
1
  3
Model
350
2B3
  3
Layout1
350
2B4
  0
ACDBPLACEHOLDER
  5
F
102
{ACAD_REACTORS
330
E
102
}
  0
MLINESTYLE
  5
18
102
{ACAD_REACTORS
330
17
102
}
100
AcDbMlineStyle
  2
STANDARD
 70
0
  3

 62
256
 51
90.0
 52
90.0
 71
2
 49
0.5
 62
256
  6
BYLAYER
 49
-0.5
 62
256
  6
BYLAYER
  0
LAYOUT
  5
2B3
102
{ACAD_REACTORS
330
1A
102
}
100
AcDbPlotSettings
  1

  2
none_device
  4
ANSI_C_(22.00_x_17.00_Inches)
  6

 40
0.0
 41
0.0
 42
0.0
 43
0.0
 44
558.8
 45
431.8
 46
0.0
 47
0.0
 48
0.0
 49
0.0
140
0.0
141
0.0
142
1.0
143
1.0
 70
1024
 72
1
 73
0
 74
0
  7

 75
0
147
1.0
148
0.0
149
0.0
100
AcDbLayout
  1
Model
 70
0
 71
0
 10
0.0
 20
0.0
 11
558.8
 21
431.8
 12
0.0
 22
0.0
 32
0.0
 14
0.0
 24
0.0
 34
0.0
 15
0.0
 25
0.0
 35
0.0
146
0.0
 13
0.0
 23
0.0
 33
0.0
 16
1.0
 26
0.0
 36
0.0
 17
0.0
 27
1.0
 37
0.0
 76
0
330
20F
345
0
346
0
  0
LAYOUT
  5
2B4
102
{ACAD_REACTORS
330
1A
102
}
100
AcDbPlotSettings
  1

  2
none_device
  4
ANSI_C_(22.00_x_17.00_Inches)
  6

 40
0.0
 41
0.0
 42
0.0
 43
0.0
 44
558.8
 45
431.8
 46
0.0
 47
0.0
 48
0.0
 49
0.0
140
0.0
141
0.0
142
1.0
143
1.0
 70
0
 72
1
 73
0
 74
0
  7

 75
0
147
1.0
148
0.0
149
0.0
100
AcDbLayout
  1
Layout1
 70
0
 71
1
 10
0.0
 20
0.0
 11
558.8
 21
431.8
 12
0.0
 22
0.0
 32
0.0
 14
0.0
 24
0.0
 34
0.0
 15
0.0
 25
0.0
 35
0.0
146
0.0
 13
0.0
 23
0.0
 33
0.0
 16
1.0
 26
0.0
 36
0.0
 17
0.0
 27
1.0
 37
0.0
 76
0
330
210
345
0
346
0
  0
ENDSEC
  0
EOF
