  0
SECTION
  2
HEADER
  9
$ACADVER
  1
AC1024
  9
$DWGCODEPAGE
  3
ANSI_1252
  9
$EXTMAX
 10
297.0
 20
210.0
 30
0.0
  9
$EXTMIN
 10
0.0
 20
0.0
 30
0.0
  9
$LIMMIN
 10
0.0
 20
0.0
  9
$LIMMAX
 10
297.0
 20
210.0
  9
$VIEWCTR
 10
148.5
 20
105.0
  9
$VIEWSIZE
 40
210.0
  9
$CLAYER
  8
0
  9
$LTSCALE
 40
16.335
  9
$CELTYPE
  6
BYLAYER
  9
$DIMSCALE
 40
1.0
  9
$DIMASZ
 40
3.0
  9
$DIMEXO
 40
0.5
  9
$DIMDLI
 40
11.286
  9
$DIMEXE
 40
1.5
  9
$DIMCEN
 40
2.673
  9
$DIMLFAC
 40
1.0
  9
$DIMBLK
  1
_FILLED
  9
$DIMALT
 70
0
  9
$DIMALTF
 40
0.0393700787
  9
$DIMTXT
 40
3.0
  9
$DIMTOL
 70
1
  9
$DIMLIM
 70
0
  9
$DIMTFAC
 40
1.0
  9
$DIMTP
 40
0.01
  9
$DIMTM
 40
0.01
  9
$DIMGAP
 40
0.625
  9
$DIMDSEP
 70
44
  9
$AUNITS
 70
0
  9
$PDMODE
 70
3
  9
$PDSIZE
 40
3.0
  9
$HANDSEED
  5
2C6
  9
$TILEMODE
 70
1
  9
$MEASUREMENT
 70
1
  9
$INSUNITS
 70
4
  0
ENDSEC
  0
SECTION
  2
CLASSES
  0
CLASS
  1
ACDBDICTIONARYWDFLT
  2
AcDbDictionaryWithDefault
  3
AutoCAD 2000
 90
0
 91
1
280
0
281
0
  0
CLASS
  1
ACDBPLACEHOLDER
  2
AcDbPlaceHolder
  3
AutoCAD 2000
 90
0
 91
1
280
0
281
0
  0
CLASS
  1
LAYOUT
  2
AcDbLayout
  3
AutoCAD 2000
 90
0
 91
0
280
0
281
0
  0
ENDSEC
  0
SECTION
  2
TABLES
  0
TABLE
  2
VPORT
  5
8
100
AcDbSymbolTable
 70
2
  0
VPORT
  5
1F4
100
AcDbSymbolTableRecord
100
AcDbViewportTableRecord
  2
*ACTIVE
 70
0
 10
0.0
 20
0.0
 11
1.0
 21
1.0
 12
148.5
 22
105.0
 13
0.0
 23
0.0
 14
1.0
 24
1.0
 15
0.0
 25
0.0
 16
0.0
 26
0.0
 36
1.0
 17
0.0
 27
0.0
 37
0.0
 40
210.0
 41
1.4142857143
 42
50.0
 43
0.0
 44
0.0
 50
0.0
 51
0.0
 71
0
 72
100
 73
1
 74
1
 75
0
 76
0
 77
0
 78
0
  0
ENDTAB
  0
TABLE
  2
LTYPE
  5
5
100
AcDbSymbolTable
 70
6
  0
LTYPE
  5
14
100
AcDbSymbolTableRecord
100
AcDbLinetypeTableRecord
  2
BYBLOCK
 70
0
  3

 72
65
 73
0
 40
0.0
  0
LTYPE
  5
15
100
AcDbSymbolTableRecord
100
AcDbLinetypeTableRecord
  2
BYLAYER
 70
0
  3

 72
65
 73
0
 40
0.0
  0
LTYPE
  5
16
100
AcDbSymbolTableRecord
100
AcDbLinetypeTableRecord
  2
CONTINUOUS
 70
64
  3
Solid line
 72
65
 73
0
 40
0.0
  0
LTYPE
  5
1F5
100
AcDbSymbolTableRecord
100
AcDbLinetypeTableRecord
  2
CENTER
 70
64
  3
____ _ ____ _ ____ _ ____ _ ____ _ ____ _ ____
 72
65
 73
4
 40
0.6
 49
0.375
 74
0
 49
-0.075
 74
0
 49
0.075
 74
0
 49
-0.075
 74
0
  0
LTYPE
  5
1F6
100
AcDbSymbolTableRecord
100
AcDbLinetypeTableRecord
  2
HIDDEN
 70
64
  3
- - - - - - - - - - - - - - - - - - - -
 72
65
 73
2
 40
0.2
 49
0.1
 74
0
 49
-0.1
 74
0
  0
LTYPE
  5
1F7
100
AcDbSymbolTableRecord
100
AcDbLinetypeTableRecord
  2
PHANTOM
 70
64
  3
_____ _ _ _____ _ _ _____ _ _ _____
 72
65
 73
6
 40
0.8
 49
0.45
 74
0
 49
-0.05
 74
0
 49
0.1
 74
0
 49
-0.05
 74
0
 49
0.1
 74
0
 49
-0.05
 74
0
  0
LTYPE
  5
1F8
100
AcDbSymbolTableRecord
100
AcDbLinetypeTableRecord
  2
DOT
 70
64
  3
. . . . . . . . . . . . . . . . . . . .
 72
65
 73
2
 40
0.2
 49
0.1
 74
0
 49
-0.1
 74
0
  0
LTYPE
  5
1F9
100
AcDbSymbolTableRecord
100
AcDbLinetypeTableRecord
  2
DASHED
 70
64
  3
- - - - - - - - - - - - - - - - - - - -
 72
65
 73
2
 40
0.2
 49
0.1
 74
0
 49
-0.1
 74
0
  0
ENDTAB
  0
TABLE
  2
LAYER
  5
2
100
AcDbSymbolTable
 70
36
  0
LAYER
  5
10
100
AcDbSymbolTableRecord
100
AcDbLayerTableRecord
  2
0
 70
0
 62
7
  6
CONTINUOUS
370
-3
390
F
  0
LAYER
  5
1FA
100
AcDbSymbolTableRecord
100
AcDbLayerTableRecord
  2
DEFAULT_1
 70
0
 62
7
  6
CENTER
370
-3
390
F
  0
LAYER
  5
1FB
100
AcDbSymbolTableRecord
100
AcDbLayerTableRecord
  2
DEFAULT_2
 70
0
 62
7
  6
HIDDEN
370
-3
390
F
  0
LAYER
  5
1FC
100
AcDbSymbolTableRecord
100
AcDbLayerTableRecord
  2
DEFAULT_3
 70
0
 62
7
  6
PHANTOM
370
-3
390
F
  0
LAYER
  5
1FD
100
AcDbSymbolTableRecord
100
AcDbLayerTableRecord
  2
ASSI
 70
0
 62
7
  6
CONTINUOUS
370
-3
390
F
  0
LAYER
  5
1FE
100
AcDbSymbolTableRecord
100
AcDbLayerTableRecord
  2
COORDINATE
 70
0
 62
7
  6
CONTINUOUS
370
-3
390
F
  0
LAYER
  5
1FF
100
AcDbSymbolTableRecord
100
AcDbLayerTableRecord
  2
COPY_PUBLISH
 70
0
 62
7
  6
CONTINUOUS
370
-3
390
F
  0
LAYER
  5
200
100
AcDbSymbolTableRecord
100
AcDbLayerTableRecord
  2
COSMETICI
 70
0
 62
7
  6
CONTINUOUS
370
-3
390
F
  0
LAYER
  5
201
100
AcDbSymbolTableRecord
100
AcDbLayerTableRecord
  2
CURVE
 70
0
 62
7
  6
CONTINUOUS
370
-3
390
F
  0
LAYER
  5
202
100
AcDbSymbolTableRecord
100
AcDbLayerTableRecord
  2
DRAFT
 70
0
 62
7
  6
CONTINUOUS
370
-3
390
F
  0
LAYER
  5
203
100
AcDbSymbolTableRecord
100
AcDbLayerTableRecord
  2
IMPORT_IGES
 70
0
 62
7
  6
CONTINUOUS
370
-3
390
F
  0
LAYER
  5
204
100
AcDbSymbolTableRecord
100
AcDbLayerTableRecord
  2
NOTE
 70
0
 62
7
  6
CONTINUOUS
370
-3
390
F
  0
LAYER
  5
205
100
AcDbSymbolTableRecord
100
AcDbLayerTableRecord
  2
PIANI
 70
0
 62
7
  6
CONTINUOUS
370
-3
390
F
  0
LAYER
  5
206
100
AcDbSymbolTableRecord
100
AcDbLayerTableRecord
  2
PUNTI
 70
0
 62
7
  6
CONTINUOUS
370
-3
390
F
  0
LAYER
  5
207
100
AcDbSymbolTableRecord
100
AcDbLayerTableRecord
  2
RACCORDO
 70
0
 62
7
  6
CONTINUOUS
370
-3
390
F
  0
LAYER
  5
208
100
AcDbSymbolTableRecord
100
AcDbLayerTableRecord
  2
SIMBOLI
 70
0
 62
7
  6
CONTINUOUS
370
-3
390
F
  0
LAYER
  5
209
100
AcDbSymbolTableRecord
100
AcDbLayerTableRecord
  2
SMUSSO
 70
0
 62
7
  6
CONTINUOUS
370
-3
390
F
  0
LAYER
  5
20A
100
AcDbSymbolTableRecord
100
AcDbLayerTableRecord
  2
SUPERFICI
 70
0
 62
7
  6
CONTINUOUS
370
-3
390
F
  0
LAYER
  5
20B
100
AcDbSymbolTableRecord
100
AcDbLayerTableRecord
  2
TRASH
 70
0
 62
7
  6
CONTINUOUS
370
-3
390
F
  0
ENDTAB
  0
TABLE
  2
STYLE
  5
3
100
AcDbSymbolTable
 70
1
  0
STYLE
  5
11
100
AcDbSymbolTableRecord
100
AcDbTextStyleTableRecord
  2
STANDARD
 70
0
 40
0.0
 41
0.8
 50
0.0
 71
0
 42
0.2
  3
txt
  4

  0
STYLE
  5
20C
100
AcDbSymbolTableRecord
100
AcDbTextStyleTableRecord
  2
TEXTSTYLE_1
 70
0
 40
0.0
 41
0.8
 50
0.0
 71
0
 42
0.2
  3
gdt
  4

  0
STYLE
  5
20D
100
AcDbSymbolTableRecord
100
AcDbTextStyleTableRecord
  2
TEXTSTYLE_2
 70
0
 40
0.0
 41
1.0
 50
0.0
 71
0
 42
0.2
  3
txt
  4

  0
ENDTAB
  0
TABLE
  2
VIEW
  5
6
100
AcDbSymbolTable
 70
0
  0
ENDTAB
  0
TABLE
  2
UCS
  5
7
100
AcDbSymbolTable
 70
0
  0
ENDTAB
  0
TABLE
  2
APPID
  5
9
100
AcDbSymbolTable
 70
1
  0
APPID
  5
20E
100
AcDbSymbolTableRecord
100
AcDbRegAppTableRecord
  2
ACAD
 70
0
  0
ENDTAB
  0
TABLE
  2
BLOCK_RECORD
  5
1
100
AcDbSymbolTable
 70
0
  0
BLOCK_RECORD
  5
20F
100
AcDbSymbolTableRecord
100
AcDbBlockTableRecord
  2
*Model_Space
  0
BLOCK_RECORD
  5
210
100
AcDbSymbolTableRecord
100
AcDbBlockTableRecord
  2
*Paper_Space
  0
BLOCK_RECORD
  5
211
100
AcDbSymbolTableRecord
100
AcDbBlockTableRecord
  2
_FILLED
  0
BLOCK_RECORD
  5
212
100
AcDbSymbolTableRecord
100
AcDbBlockTableRecord
  2
*D0
  0
BLOCK_RECORD
  5
213
100
AcDbSymbolTableRecord
100
AcDbBlockTableRecord
  2
*D1
  0
BLOCK_RECORD
  5
214
100
AcDbSymbolTableRecord
100
AcDbBlockTableRecord
  2
*D2
  0
BLOCK_RECORD
  5
215
100
AcDbSymbolTableRecord
100
AcDbBlockTableRecord
  2
*D3
  0
BLOCK_RECORD
  5
216
100
AcDbSymbolTableRecord
100
AcDbBlockTableRecord
  2
*D4
  0
BLOCK_RECORD
  5
217
100
AcDbSymbolTableRecord
100
AcDbBlockTableRecord
  2
*D5
  0
ENDTAB
  0
TABLE
  2
DIMSTYLE
  5
A
100
AcDbSymbolTable
 70
1
100
AcDbDimStyleTable
 71
0
  0
DIMSTYLE
105
218
100
AcDbSymbolTableRecord
100
AcDbDimStyleTableRecord
  2
STANDARD
 70
0
  3

  4

 40
1.0
 41
3.0
 42
0.5
 43
0.38
 44
1.5
 45
0.0
 46
0.0
 47
0.01
 48
0.01
140
3.0
141
0.09
142
0.0
143
25.4
144
1.0
145
0.0
146
1.0
147
0.625
 71
1
 72
0
 73
0
 74
0
 75
0
 76
0
 77
1
 78
8
 79
2
170
0
171
1
172
0
173
0
174
0
175
0
176
0
177
0
178
0
270
2
179
2
271
2
272
2
273
2
274
2
275
0
280
0
281
0
282
0
283
1
284
8
285
0
286
0
287
3
288
0
340
11
278
44
341
211
342
211
343
211
344
211
  0
DIMSTYLE
105
219
100
AcDbSymbolTableRecord
100
AcDbDimStyleTableRecord
  2
DIMSTYLE_1
 70
0
  3

  4

 40
1.0
 41
3.0
 42
0.5
 43
0.38
 44
1.5
 45
0.0
 46
0.0
 47
0.0
 48
0.0
140
3.0
141
0.09
142
0.0
143
25.4
144
1.0
145
0.0
146
1.0
147
0.75
 71
0
 72
0
 73
0
 74
0
 75
0
 76
0
 77
1
 78
8
 79
2
170
0
171
1
172
0
173
0
174
0
175
0
176
0
177
0
178
0
270
2
179
2
271
2
272
2
273
2
274
2
275
0
280
0
281
0
282
0
283
1
284
8
285
0
286
0
287
3
288
0
340
11
278
44
341
211
342
211
343
211
344
211
  0
ENDTAB
  0
ENDSEC
  0
SECTION
  2
BLOCKS
  0
BLOCK
  5
20
100
AcDbEntity
  8
0
100
AcDbBlockBegin
  2
*Model_Space
 70
0
 10
0.0
 20
0.0
 30
0.0
  3
*Model_Space
  1

  0
ENDBLK
  5
21
100
AcDbEntity
  8
0
100
AcDbBlockEnd
  0
BLOCK
  5
1C
100
AcDbEntity
  8
0
100
AcDbBlockBegin
  2
*Paper_Space
 70
0
 10
0.0
 20
0.0
 30
0.0
  3
*Paper_Space
  1

  0
ENDBLK
  5
1D
100
AcDbEntity
  8
0
100
AcDbBlockEnd
  0
BLOCK
  5
21A
100
AcDbEntity
  8
0
100
AcDbBlockBegin
  2
_FILLED
 70
64
 10
0.0
 20
0.0
  3
_FILLED
  1

  0
SOLID
  5
21B
100
AcDbEntity
  8
0
  6
BYBLOCK
 62
0
100
AcDbTrace
 10
0.0
 20
0.0
 11
-1.0
 21
0.3166666667
 12
-1.0
 22
-0.3166666667
 13
-1.0
 23
-0.3166666667
  0
ENDBLK
  5
21C
100
AcDbEntity
  8
0
  6
BYBLOCK
 62
0
100
AcDbBlockEnd
  0
BLOCK
  5
21D
100
AcDbEntity
  8
0
100
AcDbBlockBegin
 62
7
  6
CONTINUOUS
  2
*D0
 70
65
 10
0.0
 20
0.0
  3
*D0
  1

  0
MTEXT
  5
21E
100
AcDbEntity
  8
0
100
AcDbMText
 62
7
  6
CONTINUOUS
  7
STANDARD
 71
2
 72
1
 10
20.1349408891
 20
21.3455754776
 30
0.0
 11
1.0
 21
0.0
 31
0.0
 73
2
 44
0.9
  1
{\ftxt;\W0.0001;\H0.0001;\~}{\ftxt;\W1.2857142857;\H3.0; }{\ftxt;\W0.0001;\H0.0001;\~}
 40
3.0
 41
5.7857142857
  0
LINE
  5
21F
100
AcDbEntity
  8
0
100
AcDbLine
 62
7
  6
CONTINUOUS
 10
12.6349408891
 20
12.5
 11
12.6349408891
 21
19.0955754776
  0
LINE
  5
220
100
AcDbEntity
  8
0
100
AcDbLine
 62
7
  6
CONTINUOUS
 10
27.6349408891
 20
5.5
 11
27.6349408891
 21
19.0955754776
  0
LINE
  5
221
100
AcDbEntity
  8
0
100
AcDbLine
 62
7
  6
CONTINUOUS
 10
12.6349408891
 20
17.5955754776
 11
20.1349408891
 21
17.5955754776
  0
LINE
  5
222
100
AcDbEntity
  8
0
100
AcDbLine
 62
7
  6
CONTINUOUS
 10
27.6349408891
 20
17.5955754776
 11
20.1349408891
 21
17.5955754776
  0
INSERT
  5
223
100
AcDbEntity
  8
0
100
AcDbBlockReference
 62
7
  6
CONTINUOUS
  2
_FILLED
 10
12.6349408891
 20
17.5955754776
 41
3.0
 42
3.0
 43
3.0
 50
180.0
  0
INSERT
  5
224
100
AcDbEntity
  8
0
100
AcDbBlockReference
 62
7
  6
CONTINUOUS
  2
_FILLED
 10
27.6349408891
 20
17.5955754776
 41
3.0
 42
3.0
 43
3.0
  0
ENDBLK
  5
225
100
AcDbEntity
  8
0
  6
BYBLOCK
 62
0
100
AcDbBlockEnd
  0
BLOCK
  5
226
100
AcDbEntity
  8
0
100
AcDbBlockBegin
 62
7
  6
CONTINUOUS
  2
*D1
 70
65
 10
0.0
 20
0.0
  3
*D1
  1

  0
MTEXT
  5
227
100
AcDbEntity
  8
0
100
AcDbMText
 62
7
  6
CONTINUOUS
  7
TEXTSTYLE_2
 71
2
 72
1
 10
46.9663310365
 20
-0.0
 30
0.0
 11
0.0
 21
1.0
 31
0.0
 73
2
 44
0.9
  1
{\ftxt;\W0.0001;\H0.0001;\~}{\ftxt;\W1.3333333333;\H3.0; }{\ftxt;\W0.0001;\H0.0001;\~}{\ftxt;\W0.0001;\H0.0001;\~}{\ftxt;\W1.5714285714;\H3.0; }{\ftxt;\W0.0001;\H0.0001;\~}
 40
3.0
 41
13.0714285714
  0
LINE
  5
228
100
AcDbEntity
  8
0
100
AcDbLine
 62
7
  6
CONTINUOUS
 10
12.1349408891
 20
12.0
 11
52.2163310365
 21
12.0
  0
LINE
  5
229
100
AcDbEntity
  8
0
100
AcDbLine
 62
7
  6
CONTINUOUS
 10
12.1349408891
 20
-12.0
 11
52.2163310365
 21
-12.0
  0
LINE
  5
22A
100
AcDbEntity
  8
0
100
AcDbLine
 62
7
  6
CONTINUOUS
 10
50.7163310365
 20
12.0
 11
50.7163310365
 21
-0.0
  0
LINE
  5
22B
100
AcDbEntity
  8
0
100
AcDbLine
 62
7
  6
CONTINUOUS
 10
50.7163310365
 20
-12.0
 11
50.7163310365
 21
-0.0
  0
INSERT
  5
22C
100
AcDbEntity
  8
0
100
AcDbBlockReference
 62
7
  6
CONTINUOUS
  2
_FILLED
 10
50.7163310365
 20
12.0
 41
3.0
 42
3.0
 43
3.0
 50
90.0
  0
INSERT
  5
22D
100
AcDbEntity
  8
0
100
AcDbBlockReference
 62
7
  6
CONTINUOUS
  2
_FILLED
 10
50.7163310365
 20
-12.0
 41
3.0
 42
3.0
 43
3.0
 50
270.0
  0
ENDBLK
  5
22E
100
AcDbEntity
  8
0
  6
BYBLOCK
 62
0
100
AcDbBlockEnd
  0
BLOCK
  5
22F
100
AcDbEntity
  8
0
100
AcDbBlockBegin
 62
7
  6
CONTINUOUS
  2
*D2
 70
65
 10
0.0
 20
0.0
  3
*D2
  1

  0
MTEXT
  5
230
100
AcDbEntity
  8
0
100
AcDbMText
 62
7
  6
CONTINUOUS
  7
STANDARD
 71
2
 72
1
 10
24.1349408891
 20
-14.5134104417
 30
0.0
 11
1.0
 21
0.0
 31
0.0
 73
2
 44
0.9
  1
{\ftxt;\W0.0001;\H0.0001;\~}{\ftxt;\W0.7857142857;\H3.0; }{\ftxt;\W0.0001;\H0.0001;\~}
 40
3.0
 41
3.5357142857
  0
LINE
  5
231
100
AcDbEntity
  8
0
100
AcDbLine
 62
7
  6
CONTINUOUS
 10
27.6349408891
 20
-5.5
 11
27.6349408891
 21
-19.7634104417
  0
LINE
  5
232
100
AcDbEntity
  8
0
100
AcDbLine
 62
7
  6
CONTINUOUS
 10
20.6349408891
 20
-5.5
 11
20.6349408891
 21
-19.7634104417
  0
LINE
  5
233
100
AcDbEntity
  8
0
100
AcDbLine
 62
7
  6
CONTINUOUS
 10
27.6349408891
 20
-18.2634104417
 11
24.1349408891
 21
-18.2634104417
  0
LINE
  5
234
100
AcDbEntity
  8
0
100
AcDbLine
 62
7
  6
CONTINUOUS
 10
20.6349408891
 20
-18.2634104417
 11
24.1349408891
 21
-18.2634104417
  0
INSERT
  5
235
100
AcDbEntity
  8
0
100
AcDbBlockReference
 62
7
  6
CONTINUOUS
  2
_FILLED
 10
27.6349408891
 20
-18.2634104417
 41
3.0
 42
3.0
 43
3.0
 50
360.0
  0
INSERT
  5
236
100
AcDbEntity
  8
0
100
AcDbBlockReference
 62
7
  6
CONTINUOUS
  2
_FILLED
 10
20.6349408891
 20
-18.2634104417
 41
3.0
 42
3.0
 43
3.0
 50
180.0
  0
ENDBLK
  5
237
100
AcDbEntity
  8
0
  6
BYBLOCK
 62
0
100
AcDbBlockEnd
  0
BLOCK
  5
238
100
AcDbEntity
  8
0
100
AcDbBlockBegin
 62
7
  6
CONTINUOUS
  2
*D3
 70
65
 10
0.0
 20
0.0
  3
*D3
  1

  0
MTEXT
  5
239
100
AcDbEntity
  8
0
100
AcDbMText
 62
7
  6
CONTINUOUS
  7
STANDARD
 71
2
 72
1
 10
16.6349408891
 20
-14.5644115537
 30
0.0
 11
1.0
 21
0.0
 31
0.0
 73
2
 44
0.9
  1
{\ftxt;\W0.0001;\H0.0001;\~}{\ftxt;\W0.7857142857;\H3.0; }{\ftxt;\W0.0001;\H0.0001;\~}
 40
3.0
 41
3.5357142857
  0
LINE
  5
23A
100
AcDbEntity
  8
0
100
AcDbLine
 62
7
  6
CONTINUOUS
 10
20.6349408891
 20
-10.5
 11
20.6349408891
 21
-19.8144115537
  0
LINE
  5
23B
100
AcDbEntity
  8
0
100
AcDbLine
 62
7
  6
CONTINUOUS
 10
12.6349408891
 20
-10.5
 11
12.6349408891
 21
-19.8144115537
  0
LINE
  5
23C
100
AcDbEntity
  8
0
100
AcDbLine
 62
7
  6
CONTINUOUS
 10
20.6349408891
 20
-18.3144115537
 11
16.6349408891
 21
-18.3144115537
  0
LINE
  5
23D
100
AcDbEntity
  8
0
100
AcDbLine
 62
7
  6
CONTINUOUS
 10
12.6349408891
 20
-18.3144115537
 11
16.6349408891
 21
-18.3144115537
  0
INSERT
  5
23E
100
AcDbEntity
  8
0
100
AcDbBlockReference
 62
7
  6
CONTINUOUS
  2
_FILLED
 10
20.6349408891
 20
-18.3144115537
 41
3.0
 42
3.0
 43
3.0
  0
INSERT
  5
23F
100
AcDbEntity
  8
0
100
AcDbBlockReference
 62
7
  6
CONTINUOUS
  2
_FILLED
 10
12.6349408891
 20
-18.3144115537
 41
3.0
 42
3.0
 43
3.0
 50
180.0
  0
ENDBLK
  5
240
100
AcDbEntity
  8
0
  6
BYBLOCK
 62
0
100
AcDbBlockEnd
  0
BLOCK
  5
241
100
AcDbEntity
  8
0
100
AcDbBlockBegin
 62
7
  6
CONTINUOUS
  2
*D4
 70
65
 10
0.0
 20
0.0
  3
*D4
  1

  0
MTEXT
  5
242
100
AcDbEntity
  8
0
100
AcDbMText
 62
7
  6
CONTINUOUS
  7
TEXTSTYLE_2
 71
2
 72
1
 10
33.4980410117
 20
-0.0
 30
0.0
 11
0.0
 21
1.0
 31
0.0
 73
2
 44
0.9
  1
{\ftxt;\W0.0001;\H0.0001;\~}{\ftxt;\W1.3333333333;\H3.0; }{\ftxt;\W0.0001;\H0.0001;\~}{\ftxt;\W0.0001;\H0.0001;\~}{\ftxt;\W1.3571428571;\H3.0; }{\ftxt;\W0.0001;\H0.0001;\~}
 40
3.0
 41
12.1071428571
  0
LINE
  5
243
100
AcDbEntity
  8
0
100
AcDbLine
 62
7
  6
CONTINUOUS
 10
28.1349408891
 20
5.0
 11
38.7480410117
 21
5.0
  0
LINE
  5
244
100
AcDbEntity
  8
0
100
AcDbLine
 62
7
  6
CONTINUOUS
 10
28.1349408891
 20
-5.0
 11
38.7480410117
 21
-5.0
  0
LINE
  5
245
100
AcDbEntity
  8
0
100
AcDbLine
 62
7
  6
CONTINUOUS
 10
37.2480410117
 20
5.0
 11
37.2480410117
 21
-0.0
  0
LINE
  5
246
100
AcDbEntity
  8
0
100
AcDbLine
 62
7
  6
CONTINUOUS
 10
37.2480410117
 20
-5.0
 11
37.2480410117
 21
-0.0
  0
INSERT
  5
247
100
AcDbEntity
  8
0
100
AcDbBlockReference
 62
7
  6
CONTINUOUS
  2
_FILLED
 10
37.2480410117
 20
5.0
 41
3.0
 42
3.0
 43
3.0
 50
90.0
  0
INSERT
  5
248
100
AcDbEntity
  8
0
100
AcDbBlockReference
 62
7
  6
CONTINUOUS
  2
_FILLED
 10
37.2480410117
 20
-5.0
 41
3.0
 42
3.0
 43
3.0
 50
270.0
  0
ENDBLK
  5
249
100
AcDbEntity
  8
0
  6
BYBLOCK
 62
0
100
AcDbBlockEnd
  0
BLOCK
  5
24A
100
AcDbEntity
  8
0
100
AcDbBlockBegin
 62
7
  6
CONTINUOUS
  2
*D5
 70
65
 10
0.0
 20
0.0
  3
*D5
  1

  0
MTEXT
  5
24B
100
AcDbEntity
  8
0
100
AcDbMText
 62
7
  6
CONTINUOUS
  7
TEXTSTYLE_2
 71
2
 72
1
 10
40.2036739241
 20
-0.0
 30
0.0
 11
0.0
 21
1.0
 31
0.0
 73
2
 44
0.9
  1
{\ftxt;\W0.0001;\H0.0001;\~}{\ftxt;\W1.3333333333;\H3.0; }{\ftxt;\W0.0001;\H0.0001;\~}{\ftxt;\W0.0001;\H0.0001;\~}{\ftxt;\W1.5714285714;\H3.0; }{\ftxt;\W0.0001;\H0.0001;\~}
 40
3.0
 41
13.0714285714
  0
LINE
  5
24C
100
AcDbEntity
  8
0
100
AcDbLine
 62
7
  6
CONTINUOUS
 10
21.1349408891
 20
10.0
 11
45.4536739241
 21
10.0
  0
LINE
  5
24D
100
AcDbEntity
  8
0
100
AcDbLine
 62
7
  6
CONTINUOUS
 10
21.1349408891
 20
-10.0
 11
45.4536739241
 21
-10.0
  0
LINE
  5
24E
100
AcDbEntity
  8
0
100
AcDbLine
 62
7
  6
CONTINUOUS
 10
43.9536739241
 20
10.0
 11
43.9536739241
 21
-0.0
  0
LINE
  5
24F
100
AcDbEntity
  8
0
100
AcDbLine
 62
7
  6
CONTINUOUS
 10
43.9536739241
 20
-10.0
 11
43.9536739241
 21
-0.0
  0
INSERT
  5
250
100
AcDbEntity
  8
0
100
AcDbBlockReference
 62
7
  6
CONTINUOUS
  2
_FILLED
 10
43.9536739241
 20
10.0
 41
3.0
 42
3.0
 43
3.0
 50
90.0
  0
INSERT
  5
251
100
AcDbEntity
  8
0
100
AcDbBlockReference
 62
7
  6
CONTINUOUS
  2
_FILLED
 10
43.9536739241
 20
-10.0
 41
3.0
 42
3.0
 43
3.0
 50
270.0
  0
ENDBLK
  5
252
100
AcDbEntity
  8
0
  6
BYBLOCK
 62
0
100
AcDbBlockEnd
  0
ENDSEC
  0
SECTION
  2
ENTITIES
  0
DIMENSION
  5
253
100
AcDbEntity
  8
0
100
AcDbDimension
 62
7
  6
CONTINUOUS
  2
*D0
 10
27.6349408891
 20
17.5955754776
 11
19.7063693104
 21
17.5955754776
 70
160
 71
2
 72
2
 41
0.9
 42
15.0
  1
{\ftxt;\W0.0001;\H0.0001;\~}{\ftxt;\W1.2857142857;\H3.0; }{\ftxt;\W0.0001;\H0.0001;\~}
  3
DIMSTYLE_1
100
AcDbAlignedDimension
 13
12.6349408891
 23
12.0
 14
27.6349408891
 24
5.0
 50
360.0
100
AcDbRotatedDimension
  0
DIMENSION
  5
254
100
AcDbEntity
  8
0
100
AcDbDimension
 62
7
  6
CONTINUOUS
  2
*D1
 10
50.7163310365
 20
-12.0
 11
50.7163310365
 21
-0.3571428571
 70
160
 71
2
 72
2
 41
0.9
 42
24.0
  1
{\ftxt;\W0.0001;\H0.0001;\~}{\ftxt;\W1.3333333333;\H3.0; }{\ftxt;\W0.0001;\H0.0001;\~}{\ftxt;\W0.0001;\H0.0001;\~}{\ftxt;\W1.5714285714;\H3.0; }{\ftxt;\W0.0001;\H0.0001;\~}
  3
DIMSTYLE_1
100
AcDbAlignedDimension
 13
11.6349408891
 23
12.0
 14
11.6349408891
 24
-12.0
 50
270.0
100
AcDbRotatedDimension
  0
DIMENSION
  5
255
100
AcDbEntity
  8
0
100
AcDbDimension
 62
7
  6
CONTINUOUS
  2
*D2
 10
20.6349408891
 20
-18.2634104417
 11
23.7063699646
 21
-18.2634104417
 70
160
 71
2
 72
2
 41
0.9
 42
7.0
  1
{\ftxt;\W0.0001;\H0.0001;\~}{\ftxt;\W0.7857142857;\H3.0; }{\ftxt;\W0.0001;\H0.0001;\~}
  3
DIMSTYLE_1
100
AcDbAlignedDimension
 13
27.6349408891
 23
-5.0
 14
20.6349408891
 24
-5.0
 50
180.0
100
AcDbRotatedDimension
  0
DIMENSION
  5
256
100
AcDbEntity
  8
0
100
AcDbDimension
 62
7
  6
CONTINUOUS
  2
*D3
 10
12.6349408891
 20
-18.3144115537
 11
16.2063693752
 21
-18.3144115537
 70
160
 71
2
 72
2
 41
0.9
 42
8.0
  1
{\ftxt;\W0.0001;\H0.0001;\~}{\ftxt;\W0.7857142857;\H3.0; }{\ftxt;\W0.0001;\H0.0001;\~}
  3
DIMSTYLE_1
100
AcDbAlignedDimension
 13
20.6349408891
 23
-10.0
 14
12.6349408891
 24
-10.0
 50
180.0
100
AcDbRotatedDimension
  0
DIMENSION
  5
257
100
AcDbEntity
  8
0
100
AcDbDimension
 62
7
  6
CONTINUOUS
  2
*D4
 10
37.2480410117
 20
-5.0
 11
37.2480410117
 21
-0.0357142857
 70
160
 71
2
 72
2
 41
0.9
 42
10.0
  1
{\ftxt;\W0.0001;\H0.0001;\~}{\ftxt;\W1.3333333333;\H3.0; }{\ftxt;\W0.0001;\H0.0001;\~}{\ftxt;\W0.0001;\H0.0001;\~}{\ftxt;\W1.3571428571;\H3.0; }{\ftxt;\W0.0001;\H0.0001;\~}
  3
DIMSTYLE_1
100
AcDbAlignedDimension
 13
27.6349408891
 23
5.0
 14
27.6349408891
 24
-5.0
 50
270.0
100
AcDbRotatedDimension
  0
DIMENSION
  5
258
100
AcDbEntity
  8
0
100
AcDbDimension
 62
7
  6
CONTINUOUS
  2
*D5
 10
43.9536739241
 20
-10.0
 11
43.9536739241
 21
-0.3571428571
 70
160
 71
2
 72
2
 41
0.9
 42
20.0
  1
{\ftxt;\W0.0001;\H0.0001;\~}{\ftxt;\W1.3333333333;\H3.0; }{\ftxt;\W0.0001;\H0.0001;\~}{\ftxt;\W0.0001;\H0.0001;\~}{\ftxt;\W1.5714285714;\H3.0; }{\ftxt;\W0.0001;\H0.0001;\~}
  3
DIMSTYLE_1
100
AcDbAlignedDimension
 13
20.6349408891
 23
10.0
 14
20.6349408891
 24
-10.0
 50
270.0
100
AcDbRotatedDimension
  0
LEADER
  5
259
100
AcDbEntity
  8
0
100
AcDbLeader
 62
7
  6
CONTINUOUS
  3
STANDARD
 71
1
 72
0
 73
3
 75
0
 40
3.0
 41
33.2142857143
 76
3
 10
-13.6622949882
 20
3.5000045102
 30
0.0
 10
-24.5423933527
 20
22.9310656345
 30
0.0
 10
-25.5423933527
 20
22.9310656345
 30
0.0
1001
ACAD
1000
DSTYLE
1002
{
1070
77
1070
0
1002
}
  0
LWPOLYLINE
  5
25A
100
AcDbEntity
  8
0
100
AcDbPolyline
 62
7
  6
CONTINUOUS
 90
3
 70
0
 43
0.3500000006
 10
-58.1852484283
 20
24.4310639648
 10
-58.1852484283
 20
21.4310675812
 10
-57.1138214722
 20
21.4310675812
  0
LWPOLYLINE
  5
25B
100
AcDbEntity
  8
0
100
AcDbPolyline
 62
7
  6
CONTINUOUS
 90
6
 70
0
 43
0.3500000006
 10
-56.2566790009
 20
24.4310639648
 10
-56.2566790009
 20
21.8596365509
 10
-55.8281054993
 20
21.4310675812
 10
-55.1852520447
 20
21.4310675812
 10
-54.7566785431
 20
21.8596365509
 10
-54.7566785431
 20
24.4310639648
  0
LWPOLYLINE
  5
25C
100
AcDbEntity
  8
0
100
AcDbPolyline
 62
7
  6
CONTINUOUS
 90
4
 70
0
 43
0.3500000006
 10
-53.8995360718
 20
21.4310675812
 10
-53.8995360718
 20
24.4310639648
 10
-52.399535614
 20
21.4310675812
 10
-52.399535614
 20
24.4310639648
  0
LWPOLYLINE
  5
25D
100
AcDbEntity
  8
0
100
AcDbPolyline
 62
7
  6
CONTINUOUS
 90
2
 70
0
 43
0.3500000006
 10
-49.1852502136
 20
21.4310675812
 10
-49.1852502136
 20
24.4310639648
  0
LWPOLYLINE
  5
25E
100
AcDbEntity
  8
0
100
AcDbPolyline
 62
7
  6
CONTINUOUS
 90
2
 70
0
 43
0.3500000006
 10
-47.6852497559
 20
24.4310639648
 10
-47.6852497559
 20
21.4310675812
  0
LWPOLYLINE
  5
25F
100
AcDbEntity
  8
0
100
AcDbPolyline
 62
7
  6
CONTINUOUS
 90
3
 70
0
 43
0.3500000006
 10
-46.8281072845
 20
21.4310675812
 10
-46.8281072845
 20
24.4310639648
 10
-45.5423913116
 20
24.4310639648
  0
LWPOLYLINE
  5
260
100
AcDbEntity
  8
0
100
AcDbPolyline
 62
7
  6
CONTINUOUS
 90
13
 70
0
 43
0.3500000006
 10
-35.8281084595
 20
17.7882086792
 10
-35.8281084595
 20
19.0739246521
 10
-35.6138217087
 20
19.5024936218
 10
-35.185250473
 20
19.9310671234
 10
-34.9709637222
 20
19.9310671234
 10
-34.5423924866
 20
19.5024936218
 10
-34.3281080017
 20
19.0739246521
 10
-34.3281080017
 20
17.7882086792
 10
-34.5423924866
 20
17.3596374435
 10
-34.9709637222
 20
16.9310662079
 10
-35.185250473
 20
16.9310662079
 10
-35.6138217087
 20
17.3596374435
 10
-35.8281084595
 20
17.7882086792
  0
LWPOLYLINE
  5
261
100
AcDbEntity
  8
0
100
AcDbPolyline
 62
7
  6
CONTINUOUS
 90
5
 70
0
 43
0.3500000006
 10
-31.1138226013
 20
16.9310662079
 10
-31.1138226013
 20
19.0739246521
 10
-29.3995353928
 20
19.0739246521
 10
-29.1852509079
 20
18.8596356354
 10
-29.1852509079
 20
16.9310662079
  0
LWPOLYLINE
  5
262
100
AcDbEntity
  8
0
100
AcDbPolyline
 62
7
  6
CONTINUOUS
 90
2
 70
0
 43
0.3500000006
 10
-30.1852512131
 20
19.0739246521
 10
-30.1852512131
 20
16.9310662079
  0
LWPOLYLINE
  5
263
100
AcDbEntity
  8
0
100
AcDbPolyline
 62
7
  6
CONTINUOUS
 90
3
 70
0
 43
0.3500000006
 10
-39.9709629822
 20
21.4310675812
 10
-39.1138205109
 20
24.4310639648
 10
-38.2566780396
 20
21.4310675812
  0
LWPOLYLINE
  5
264
100
AcDbEntity
  8
0
100
AcDbPolyline
 62
7
  6
CONTINUOUS
 90
3
 70
0
 43
0.3500000006
 10
-32.5423941422
 20
21.4310675812
 10
-31.6852494049
 20
24.4310639648
 10
-30.8281069336
 20
21.4310675812
  0
LWPOLYLINE
  5
265
100
AcDbEntity
  8
0
100
AcDbPolyline
 62
7
  6
CONTINUOUS
 90
5
 70
0
 43
0.3500000006
 10
-28.3281084366
 20
16.9310662079
 10
-28.3281084366
 20
19.0739246521
 10
-26.613821228
 20
19.0739246521
 10
-26.3995367432
 20
18.8596356354
 10
-26.3995367432
 20
16.9310662079
  0
LWPOLYLINE
  5
266
100
AcDbEntity
  8
0
100
AcDbPolyline
 62
7
  6
CONTINUOUS
 90
2
 70
0
 43
0.3500000006
 10
-27.3995370483
 20
19.0739246521
 10
-27.3995370483
 20
16.9310662079
  0
LWPOLYLINE
  5
267
100
AcDbEntity
  8
0
100
AcDbPolyline
 62
7
  6
CONTINUOUS
 90
2
 70
0
 43
0.3500000006
 10
-26.8995368958
 20
21.4310675812
 10
-26.8995368958
 20
24.4310639648
  0
LWPOLYLINE
  5
268
100
AcDbEntity
  8
0
100
AcDbPolyline
 62
7
  6
CONTINUOUS
 90
3
 70
0
 43
0.3500000006
 10
-29.9709644623
 20
24.4310639648
 10
-29.113821991
 20
21.4310675812
 10
-28.2566795197
 20
24.4310639648
  0
LINE
  5
269
100
AcDbEntity
  8
0
100
AcDbLine
 62
7
  6
CONTINUOUS
 10
4.6349408891
 20
-12.0
 11
5.6349408891
 21
-12.0
  0
LINE
  5
26A
100
AcDbEntity
  8
0
100
AcDbLine
 62
7
  6
CONTINUOUS
 10
11.6349408891
 20
-12.0
 11
12.6349408891
 21
-12.0
  0
LINE
  5
26B
100
AcDbEntity
  8
0
100
AcDbLine
 62
7
  6
CONTINUOUS
 10
-10.3650591109
 20
4.9998637147
 11
-10.3650591109
 21
-4.9998637147
  0
LINE
  5
26C
100
AcDbEntity
  8
0
100
AcDbLine
 62
7
  6
CONTINUOUS
 10
-3.3650591109
 20
-10.0
 11
4.6349408891
 21
-10.0
  0
LINE
  5
26D
100
AcDbEntity
  8
0
100
AcDbLine
 62
7
  6
CONTINUOUS
 10
12.6349408891
 20
-10.0
 11
20.6349408891
 21
-10.0
  0
LINE
  5
26E
100
AcDbEntity
  8
0
100
AcDbLine
 62
7
  6
CONTINUOUS
 10
-10.3650591109
 20
-5.0
 11
-3.3650591109
 21
-5.0
  0
LINE
  5
26F
100
AcDbEntity
  8
0
100
AcDbLine
 62
7
  6
CONTINUOUS
 10
20.6349408891
 20
-5.0
 11
27.6349408891
 21
-5.0
  0
LINE
  5
270
100
AcDbEntity
  8
0
100
AcDbLine
 62
7
  6
CONTINUOUS
 10
-3.3650591109
 20
-9.9998252139
 11
-3.3650591109
 21
9.9998252139
  0
LINE
  5
271
100
AcDbEntity
  8
0
100
AcDbLine
 62
7
  6
CONTINUOUS
 10
-23.2887288816
 20
-2.4999653149
 11
-26.3381037372
 21
-2.5008419837
  0
LWPOLYLINE
  5
272
100
AcDbEntity
  8
0
100
AcDbPolyline
 62
7
  6
CONTINUOUS
 90
3
 70
0
 10
-10.3650591109
 20
-2.5002060953
 10
-11.6552815227
 20
-2.5009225124
 10
-19.1863000009
 20
-2.499781323
  0
LWPOLYLINE
  5
273
100
AcDbEntity
  8
0
100
AcDbPolyline
 62
7
  6
CONTINUOUS
 90
3
 70
0
 10
-27.365090072
 20
-3.4999999967
 10
-25.5310163078
 20
-3.4993058406
 10
-22.319109536
 20
-3.5001290856
  0
LINE
  5
274
100
AcDbEntity
  8
0
100
AcDbLine
 62
7
  6
CONTINUOUS
 10
-22.319109536
 20
-3.5001290856
 11
-11.296014836
 21
-3.4989231443
  0
LINE
  5
275
100
AcDbEntity
  8
0
100
AcDbLine
 62
7
  6
CONTINUOUS
 10
-19.1863000009
 20
-2.499781323
 11
-23.2887288816
 21
-2.4999653149
  0
LINE
  5
276
100
AcDbEntity
  8
0
100
AcDbLine
 62
7
  6
CONTINUOUS
 10
-26.3381037372
 20
-2.5008419837
 11
-27.365090072
 21
-2.5000000033
  0
LINE
  5
277
100
AcDbEntity
  8
0
100
AcDbLine
 62
7
  6
CONTINUOUS
 10
-11.296014836
 20
-3.4989231443
 11
-10.3650591109
 21
-3.4997939047
  0
LWPOLYLINE
  5
278
100
AcDbEntity
  8
0
100
AcDbPolyline
 62
7
  6
CONTINUOUS
 90
13
 70
0
 43
0.3500000006
 10
15.8849409485
 20
-15.8501258183
 10
15.5992264137
 20
-15.6358402004
 10
15.5992264137
 20
-14.9929827805
 10
15.8849409485
 20
-14.5644115448
 10
16.527797802
 20
-14.5644115448
 10
16.8135123367
 20
-14.9929827805
 10
16.8135123367
 20
-15.6358402004
 10
16.527797802
 20
-15.8501258183
 10
16.9563690376
 20
-16.2786973372
 10
16.9563690376
 20
-17.1358400917
 10
16.527797802
 20
-17.5644116106
 10
15.8849409485
 20
-17.5644116106
 10
15.4563697128
 20
-17.1358400917
  0
LWPOLYLINE
  5
279
100
AcDbEntity
  8
0
100
AcDbPolyline
 62
7
  6
CONTINUOUS
 90
3
 70
0
 43
0.3500000006
 10
18.2063694191
 20
20.4884315643
 10
19.0635130234
 20
21.3455740356
 10
19.0635130234
 20
18.345577652
  0
LINE
  5
27A
100
AcDbEntity
  8
0
100
AcDbLine
 62
7
  6
CONTINUOUS
 10
-23.7615169343
 20
-0.4999256136
 11
-26.3446908872
 21
-0.5006911128
  0
LINE
  5
27B
100
AcDbEntity
  8
0
100
AcDbLine
 62
7
  6
CONTINUOUS
 10
-10.3650591109
 20
-0.5000333723
 11
-19.1852053945
 21
-0.4998539677
  0
LWPOLYLINE
  5
27C
100
AcDbEntity
  8
0
100
AcDbPolyline
 62
7
  6
CONTINUOUS
 90
3
 70
0
 10
-27.3650931774
 20
-1.499999996
 10
-25.5368444299
 20
-1.4995710579
 10
-21.8196282285
 20
-1.5006143376
  0
LINE
  5
27D
100
AcDbEntity
  8
0
100
AcDbLine
 62
7
  6
CONTINUOUS
 10
-21.8196282285
 20
-1.5006143376
 11
-10.3650591109
 21
-1.4999666277
  0
LINE
  5
27E
100
AcDbEntity
  8
0
100
AcDbLine
 62
7
  6
CONTINUOUS
 10
-26.3446908872
 20
-0.5006911128
 11
-27.3650931774
 21
-0.500000004
  0
LINE
  5
27F
100
AcDbEntity
  8
0
100
AcDbLine
 62
7
  6
CONTINUOUS
 10
-19.1852053945
 20
-0.4998539677
 11
-23.7615169343
 21
-0.4999256136
  0
LWPOLYLINE
  5
280
100
AcDbEntity
  8
0
100
AcDbPolyline
 62
7
  6
CONTINUOUS
 90
13
 70
0
 43
0.3500000006
 10
35.6408973083
 20
1.6785712967
 10
34.3551836014
 20
1.6785712967
 10
33.9266123657
 20
1.8928580475
 10
33.4980411301
 20
2.3214292831
 10
33.4980411301
 20
2.535713768
 10
33.9266123657
 20
2.9642850037
 10
34.3551836014
 20
3.1785717545
 10
35.6408973083
 20
3.1785717545
 10
36.069468544
 20
2.9642850037
 10
36.4980420456
 20
2.535713768
 10
36.4980420456
 20
2.3214292831
 10
36.069468544
 20
1.8928580475
 10
35.6408973083
 20
1.6785712967
  0
LWPOLYLINE
  5
281
100
AcDbEntity
  8
0
100
AcDbPolyline
 62
7
  6
CONTINUOUS
 90
13
 70
0
 43
0.3500000006
 10
42.3465324554
 20
2.0000002899
 10
41.0608164825
 20
2.0000002899
 10
40.6322475128
 20
2.2142847748
 10
40.2036740112
 20
2.6428560104
 10
40.2036740112
 20
2.8571427612
 10
40.6322475128
 20
3.2857139969
 10
41.0608164825
 20
3.5000007477
 10
42.3465324554
 20
3.5000007477
 10
42.7751014252
 20
3.2857139969
 10
43.2036749268
 20
2.8571427612
 10
43.2036749268
 20
2.6428560104
 10
42.7751014252
 20
2.2142847748
 10
42.3465324554
 20
2.0000002899
  0
LINE
  5
282
100
AcDbEntity
  8
0
100
AcDbLine
 62
7
  6
CONTINUOUS
 10
-23.7615169343
 20
1.5000743864
 11
-26.3446908872
 21
1.4993088872
  0
LINE
  5
283
100
AcDbEntity
  8
0
100
AcDbLine
 62
7
  6
CONTINUOUS
 10
-10.3650591109
 20
1.4999666277
 11
-19.1852053945
 21
1.5001460323
  0
LWPOLYLINE
  5
284
100
AcDbEntity
  8
0
100
AcDbPolyline
 62
7
  6
CONTINUOUS
 90
3
 70
0
 10
-27.3650931774
 20
0.500000004
 10
-25.5368444299
 20
0.5004289421
 10
-21.8196282285
 20
0.4993856624
  0
LINE
  5
285
100
AcDbEntity
  8
0
100
AcDbLine
 62
7
  6
CONTINUOUS
 10
-21.8196282285
 20
0.4993856624
 11
-10.3650591109
 21
0.5000333723
  0
LINE
  5
286
100
AcDbEntity
  8
0
100
AcDbLine
 62
7
  6
CONTINUOUS
 10
-26.3446908872
 20
1.4993088872
 11
-27.3650931774
 21
1.499999996
  0
LINE
  5
287
100
AcDbEntity
  8
0
100
AcDbLine
 62
7
  6
CONTINUOUS
 10
-19.1852053945
 20
1.5001460323
 11
-23.7615169343
 21
1.5000743864
  0
LWPOLYLINE
  5
288
100
AcDbEntity
  8
0
100
AcDbPolyline
 62
7
  6
CONTINUOUS
 90
2
 70
0
 43
0.3500000006
 10
49.9663299408
 20
3.0000005951
 10
48.466329483
 20
3.0000005951
  0
LINE
  5
289
100
AcDbEntity
  8
0
100
AcDbLine
 62
7
  6
CONTINUOUS
 10
-23.2887288816
 20
3.5000346851
 11
-26.3381037372
 21
3.4991580163
  0
LWPOLYLINE
  5
28A
100
AcDbEntity
  8
0
100
AcDbPolyline
 62
7
  6
CONTINUOUS
 90
3
 70
0
 10
-10.3650591109
 20
3.4997939047
 10
-11.6552815227
 20
3.4990774876
 10
-19.1863000009
 20
3.500218677
  0
LWPOLYLINE
  5
28B
100
AcDbEntity
  8
0
100
AcDbPolyline
 62
7
  6
CONTINUOUS
 90
3
 70
0
 10
-27.365090072
 20
2.5000000033
 10
-25.5310163078
 20
2.5006941594
 10
-22.319109536
 20
2.4998709144
  0
LINE
  5
28C
100
AcDbEntity
  8
0
100
AcDbLine
 62
7
  6
CONTINUOUS
 10
-22.319109536
 20
2.4998709144
 11
-11.296014836
 21
2.5010768557
  0
LINE
  5
28D
100
AcDbEntity
  8
0
100
AcDbLine
 62
7
  6
CONTINUOUS
 10
-19.1863000009
 20
3.500218677
 11
-23.2887288816
 21
3.5000346851
  0
LINE
  5
28E
100
AcDbEntity
  8
0
100
AcDbLine
 62
7
  6
CONTINUOUS
 10
-26.3381037372
 20
3.4991580163
 11
-27.365090072
 21
3.4999999967
  0
LINE
  5
28F
100
AcDbEntity
  8
0
100
AcDbLine
 62
7
  6
CONTINUOUS
 10
-11.296014836
 20
2.5010768557
 11
-10.3650591109
 21
2.5002060953
  0
LINE
  5
290
100
AcDbEntity
  8
0
100
AcDbLine
 62
7
  6
CONTINUOUS
 10
4.6349408891
 20
11.9998593937
 11
4.6349408891
 21
-11.9998593937
  0
LINE
  5
291
100
AcDbEntity
  8
0
100
AcDbLine
 62
7
  6
CONTINUOUS
 10
5.6349408891
 20
11.9997902567
 11
5.6349408891
 21
-11.9997902567
  0
LINE
  5
292
100
AcDbEntity
  8
0
100
AcDbLine
 62
7
  6
CONTINUOUS
 10
-10.3650591109
 20
5.0
 11
-3.3650591109
 21
5.0
  0
LINE
  5
293
100
AcDbEntity
  8
0
100
AcDbLine
 62
7
  6
CONTINUOUS
 10
20.6349408891
 20
5.0
 11
27.6349408891
 21
5.0
  0
LWPOLYLINE
  5
294
100
AcDbEntity
  8
0
100
AcDbPolyline
 62
7
  6
CONTINUOUS
 90
13
 70
0
 43
0.3500000006
 10
34.9980415878
 20
-4.0357137337
 10
34.2480413589
 20
-3.7857147903
 10
33.7480412064
 20
-3.2857146378
 10
33.4980411301
 20
-2.5357144089
 10
33.7480412064
 20
-1.78571418
 10
34.2480413589
 20
-1.2857140274
 10
34.9980415878
 20
-1.0357139511
 10
35.7480418167
 20
-1.2857140274
 10
36.2480419693
 20
-1.78571418
 10
36.4980420456
 20
-2.5357144089
 10
36.2480419693
 20
-3.2857146378
 10
35.7480418167
 20
-3.7857147903
 10
34.9980415878
 20
-4.0357137337
  0
LINE
  5
295
100
AcDbEntity
  8
0
100
AcDbLine
 62
7
  6
CONTINUOUS
 10
-3.3650591109
 20
10.0
 11
4.6349408891
 21
10.0
  0
LINE
  5
296
100
AcDbEntity
  8
0
100
AcDbLine
 62
7
  6
CONTINUOUS
 10
12.6349408891
 20
10.0
 11
20.6349408891
 21
10.0
  0
LWPOLYLINE
  5
297
100
AcDbEntity
  8
0
100
AcDbPolyline
 62
7
  6
CONTINUOUS
 90
13
 70
0
 43
0.3500000006
 10
41.703674469
 20
-4.3571427269
 10
40.9536742401
 20
-4.1071426506
 10
40.4536740875
 20
-3.607142498
 10
40.2036740112
 20
-2.8571434021
 10
40.4536740875
 20
-2.1071431732
 10
40.9536742401
 20
-1.6071430206
 10
41.703674469
 20
-1.3571429443
 10
42.4536746979
 20
-1.6071430206
 10
42.9536748505
 20
-2.1071431732
 10
43.2036749268
 20
-2.8571434021
 10
42.9536748505
 20
-3.607142498
 10
42.4536746979
 20
-4.1071426506
 10
41.703674469
 20
-4.3571427269
  0
LINE
  5
298
100
AcDbEntity
  8
0
100
AcDbLine
 62
7
  6
CONTINUOUS
 10
11.6349408891
 20
12.0
 11
11.6349408891
 21
-12.0
  0
LINE
  5
299
100
AcDbEntity
  8
0
100
AcDbLine
 62
7
  6
CONTINUOUS
 10
4.6349408891
 20
12.0
 11
5.6349408891
 21
12.0
  0
LINE
  5
29A
100
AcDbEntity
  8
0
100
AcDbLine
 62
7
  6
CONTINUOUS
 10
11.6349408891
 20
12.0
 11
12.6349408891
 21
12.0
  0
LWPOLYLINE
  5
29B
100
AcDbEntity
  8
0
100
AcDbPolyline
 62
7
  6
CONTINUOUS
 90
13
 70
0
 43
0.3500000006
 10
48.466329483
 20
-4.3571427269
 10
47.7163292542
 20
-4.1071426506
 10
47.2163291016
 20
-3.607142498
 10
46.9663290253
 20
-2.8571434021
 10
47.2163291016
 20
-2.1071431732
 10
47.7163292542
 20
-1.6071430206
 10
48.466329483
 20
-1.3571429443
 10
49.2163297119
 20
-1.6071430206
 10
49.7163298645
 20
-2.1071431732
 10
49.9663299408
 20
-2.8571434021
 10
49.7163298645
 20
-3.607142498
 10
49.2163297119
 20
-4.1071426506
 10
48.466329483
 20
-4.3571427269
  0
LINE
  5
29C
100
AcDbEntity
  8
0
100
AcDbLine
 62
7
  6
CONTINUOUS
 10
12.6349408891
 20
11.9998593937
 11
12.6349408891
 21
-11.9998593937
  0
LWPOLYLINE
  5
29D
100
AcDbEntity
  8
0
100
AcDbPolyline
 62
7
  6
CONTINUOUS
 90
4
 70
0
 43
0.3500000006
 10
15.4563697128
 20
-17.1358400917
 10
15.4563697128
 20
-16.2786973372
 10
15.8849409485
 20
-15.8501258183
 10
16.527797802
 20
-15.8501258183
  0
LWPOLYLINE
  5
29E
100
AcDbEntity
  8
0
100
AcDbPolyline
 62
7
  6
CONTINUOUS
 90
2
 70
0
 43
0.3500000006
 10
37.2480400085
 20
-3.7857147903
 10
32.7480409012
 20
-1.2857140274
  0
LWPOLYLINE
  5
29F
100
AcDbEntity
  8
0
100
AcDbPolyline
 62
7
  6
CONTINUOUS
 90
8
 70
0
 43
0.3500000006
 10
-37.9709646378
 20
16.9310662079
 10
-37.1138221664
 20
16.9310662079
 10
-36.6852509308
 20
17.3596374435
 10
-36.6852509308
 20
18.2167821808
 10
-37.1138221664
 20
18.6453511505
 10
-37.9709646378
 20
18.6453511505
 10
-37.9709646378
 20
19.9310671234
 10
-36.6852509308
 20
19.9310671234
  0
LWPOLYLINE
  5
2A0
100
AcDbEntity
  8
0
100
AcDbPolyline
 62
7
  6
CONTINUOUS
 90
7
 70
0
 43
0.3500000006
 10
-38.828109375
 20
16.9310662079
 10
-40.3281098328
 20
16.9310662079
 10
-38.828109375
 20
19.0739246521
 10
-38.828109375
 20
19.5024936218
 10
-39.2566783447
 20
19.9310671234
 10
-39.8995363312
 20
19.9310671234
 10
-40.3281098328
 20
19.288209137
  0
LWPOLYLINE
  5
2A1
100
AcDbEntity
  8
0
100
AcDbPolyline
 62
7
  6
CONTINUOUS
 90
8
 70
0
 43
0.3500000006
 10
19.9206554947
 20
18.345577652
 10
20.777797966
 20
18.345577652
 10
21.2063692017
 20
18.7741466217
 10
21.2063692017
 20
19.631289093
 10
20.777797966
 20
20.0598625946
 10
19.9206554947
 20
20.0598625946
 10
19.9206554947
 20
21.3455740356
 10
21.2063692017
 20
21.3455740356
  0
LWPOLYLINE
  5
2A2
100
AcDbEntity
  8
0
100
AcDbPolyline
 62
7
  6
CONTINUOUS
 90
2
 70
0
 43
0.3500000006
 10
43.9536751556
 20
-4.1071426506
 10
39.4536737823
 20
-1.6071430206
  0
LINE
  5
2A3
100
AcDbEntity
  8
0
100
AcDbLine
 62
7
  6
CONTINUOUS
 10
20.6349408891
 20
-9.9998252139
 11
20.6349408891
 21
9.9998252139
  0
LWPOLYLINE
  5
2A4
100
AcDbEntity
  8
0
100
AcDbPolyline
 62
7
  6
CONTINUOUS
 90
2
 70
0
 43
0.3500000006
 10
-46.8281072845
 20
21.4310675812
 10
-45.5423913116
 20
21.4310675812
  0
LWPOLYLINE
  5
2A5
100
AcDbEntity
  8
0
100
AcDbPolyline
 62
7
  6
CONTINUOUS
 90
6
 70
0
 43
0.3500000006
 10
-33.7566789322
 20
21.4310675812
 10
-34.6138214035
 20
21.4310675812
 10
-35.0423926392
 20
21.8596365509
 10
-35.0423926392
 20
24.0024949951
 10
-34.6138214035
 20
24.4310639648
 10
-33.7566789322
 20
24.4310639648
  0
LWPOLYLINE
  5
2A6
100
AcDbEntity
  8
0
100
AcDbPolyline
 62
7
  6
CONTINUOUS
 90
2
 70
0
 43
0.3500000006
 10
-39.6852518463
 20
22.2882100525
 10
-38.5423937073
 20
22.2882100525
  0
LWPOLYLINE
  5
2A7
100
AcDbEntity
  8
0
100
AcDbPolyline
 62
7
  6
CONTINUOUS
 90
2
 70
0
 43
0.3500000006
 10
-32.2566784744
 20
22.2882100525
 10
-31.1138226013
 20
22.2882100525
  0
LWPOLYLINE
  5
2A8
100
AcDbEntity
  8
0
100
AcDbPolyline
 62
7
  6
CONTINUOUS
 90
2
 70
0
 43
0.3500000006
 10
50.7163301697
 20
-4.1071426506
 10
46.2163287964
 20
-1.6071430206
  0
LWPOLYLINE
  5
2A9
100
AcDbEntity
  8
0
100
AcDbPolyline
 62
7
  6
CONTINUOUS
 90
4
 70
0
 43
0.3500000006
 10
22.9563697357
 20
-15.1562674084
 10
22.9563697357
 20
-14.5134105549
 10
24.4563701935
 20
-14.5134105549
 10
23.5992277222
 20
-17.5134103374
  0
LWPOLYLINE
  5
2AA
100
AcDbEntity
  8
0
100
AcDbPolyline
 62
7
  6
CONTINUOUS
 90
8
 70
0
 43
0.3500000006
 10
-50.6852506714
 20
23.1453525238
 10
-50.0423926849
 20
23.1453525238
 10
-50.0423926849
 20
21.4310675812
 10
-51.113824173
 20
21.4310675812
 10
-51.5423931427
 20
21.8596365509
 10
-51.5423931427
 20
24.0024949951
 10
-51.113824173
 20
24.4310639648
 10
-50.0423926849
 20
24.4310639648
  0
LWPOLYLINE
  5
2AB
100
AcDbEntity
  8
0
100
AcDbPolyline
 62
7
  6
CONTINUOUS
 90
2
 70
0
 43
0.3500000006
 10
-49.1852502136
 20
23.1453525238
 10
-47.6852497559
 20
23.1453525238
  0
LWPOLYLINE
  5
2AC
100
AcDbEntity
  8
0
100
AcDbPolyline
 62
7
  6
CONTINUOUS
 90
2
 70
0
 43
0.3500000006
 10
-45.9709648132
 20
23.1453525238
 10
-46.8281072845
 20
23.1453525238
  0
LWPOLYLINE
  5
2AD
100
AcDbEntity
  8
0
100
AcDbPolyline
 62
7
  6
CONTINUOUS
 90
3
 70
0
 43
0.3500000006
 10
34.3551836014
 20
-0.0357136459
 10
33.4980411301
 20
0.8214288254
 10
36.4980420456
 20
0.8214288254
  0
LWPOLYLINE
  5
2AE
100
AcDbEntity
  8
0
100
AcDbPolyline
 62
7
  6
CONTINUOUS
 90
4
 70
0
 43
0.3500000006
 10
-44.6852488403
 20
24.4310639648
 10
-43.1852483826
 20
24.4310639648
 10
-44.6852488403
 20
21.4310675812
 10
-43.1852483826
 20
21.4310675812
  0
LWPOLYLINE
  5
2AF
100
AcDbEntity
  8
0
100
AcDbPolyline
 62
7
  6
CONTINUOUS
 90
4
 70
0
 43
0.3500000006
 10
-42.3281059113
 20
24.4310639648
 10
-40.8281054535
 20
24.4310639648
 10
-42.3281059113
 20
21.4310675812
 10
-40.8281054535
 20
21.4310675812
  0
LINE
  5
2B0
100
AcDbEntity
  8
0
100
AcDbLine
 62
7
  6
CONTINUOUS
 10
27.6349408891
 20
4.9998637147
 11
27.6349408891
 21
-4.9998637147
  0
LWPOLYLINE
  5
2B1
100
AcDbEntity
  8
0
100
AcDbPolyline
 62
7
  6
CONTINUOUS
 90
7
 70
0
 43
0.3500000006
 10
43.2036749268
 20
1.1428578186
 10
43.2036749268
 20
-0.3571426392
 10
41.0608164825
 20
1.1428578186
 10
40.6322475128
 20
1.1428578186
 10
40.2036740112
 20
0.7142865829
 10
40.2036740112
 20
0.0714285965
 10
40.8465319977
 20
-0.3571426392
  0
LWPOLYLINE
  5
2B2
100
AcDbEntity
  8
0
100
AcDbPolyline
 62
7
  6
CONTINUOUS
 90
3
 70
0
 43
0.3500000006
 10
49.3234719543
 20
3.5000007477
 10
49.3234719543
 20
2.0000002899
 10
46.9663290253
 20
2.6428560104
  0
LWPOLYLINE
  5
2B3
100
AcDbEntity
  8
0
100
AcDbPolyline
 62
7
  6
CONTINUOUS
 90
7
 70
0
 43
0.3500000006
 10
49.9663299408
 20
1.1428578186
 10
49.9663299408
 20
-0.3571426392
 10
47.8234760284
 20
1.1428578186
 10
47.3949025269
 20
1.1428578186
 10
46.9663290253
 20
0.7142865829
 10
46.9663290253
 20
0.0714285965
 10
47.6091870117
 20
-0.3571426392
  0
SPLINE
  5
2B4
100
AcDbEntity
  8
0
100
AcDbSpline
 62
7
  6
CONTINUOUS
 70
0
 71
3
 72
13
 73
9
 74
0
 42
0.0000001
 43
0.0000001
 44
0.0000000001
 40
0.0
 40
0.0
 40
0.0
 40
0.0
 40
0.0867990085
 40
0.1810022567
 40
0.2875032541
 40
0.4082294612
 40
0.687850414
 40
1.0
 40
1.0
 40
1.0
 40
1.0
 10
-27.3650900711
 20
-3.4999786485
 30
0.0
 10
-27.382928006
 20
-3.4999748778
 30
0.0
 10
-27.420402187
 20
-3.4928461199
 30
0.0
 10
-27.4721015255
 20
-3.4624908463
 30
0.0
 10
-27.5187562176
 20
-3.4148888153
 30
0.0
 10
-27.5752539739
 20
-3.3267339336
 30
0.0
 10
-27.6225721358
 20
-3.1860579611
 30
0.0
 10
-27.6349408891
 20
-3.0641493977
 30
0.0
 10
-27.6349408891
 20
-3.0
 30
0.0
  0
SPLINE
  5
2B5
100
AcDbEntity
  8
0
100
AcDbSpline
 62
7
  6
CONTINUOUS
 70
0
 71
3
 72
13
 73
9
 74
0
 42
0.0000001
 43
0.0000001
 44
0.0000000001
 40
0.0
 40
0.0
 40
0.0
 40
0.0
 40
0.3121489376
 40
0.5917697627
 40
0.7124961552
 40
0.8189974576
 40
0.9132009788
 40
1.0
 40
1.0
 40
1.0
 40
1.0
 10
-27.6349408891
 20
1.0
 30
0.0
 10
-27.6349408891
 20
1.0641489464
 30
0.0
 10
-27.6225722952
 20
1.1860567431
 30
0.0
 10
-27.5752547682
 20
1.3267319762
 30
0.0
 10
-27.5187577609
 20
1.4148867901
 30
0.0
 10
-27.4721036407
 20
1.4624891119
 30
0.0
 10
-27.4204049116
 20
1.4928450088
 30
0.0
 10
-27.3829310254
 20
1.4999744989
 30
0.0
 10
-27.3650931764
 20
1.4999786478
 30
0.0
  0
SPLINE
  5
2B6
100
AcDbEntity
  8
0
100
AcDbSpline
 62
7
  6
CONTINUOUS
 70
0
 71
3
 72
13
 73
9
 74
0
 42
0.0000001
 43
0.0000001
 44
0.0000000001
 40
0.0
 40
0.0
 40
0.0
 40
0.0
 40
0.3121489376
 40
0.5917697627
 40
0.7124961552
 40
0.8189974576
 40
0.9132009788
 40
1.0
 40
1.0
 40
1.0
 40
1.0
 10
-27.6349408891
 20
-1.0
 30
0.0
 10
-27.6349408891
 20
-1.0641489464
 30
0.0
 10
-27.6225722952
 20
-1.1860567431
 30
0.0
 10
-27.5752547682
 20
-1.3267319762
 30
0.0
 10
-27.5187577609
 20
-1.4148867901
 30
0.0
 10
-27.4721036407
 20
-1.4624891119
 30
0.0
 10
-27.4204049116
 20
-1.4928450088
 30
0.0
 10
-27.3829310254
 20
-1.4999744989
 30
0.0
 10
-27.3650931764
 20
-1.4999786478
 30
0.0
  0
SPLINE
  5
2B7
100
AcDbEntity
  8
0
100
AcDbSpline
 62
7
  6
CONTINUOUS
 70
0
 71
3
 72
13
 73
9
 74
0
 42
0.0000001
 43
0.0000001
 44
0.0000000001
 40
0.0
 40
0.0
 40
0.0
 40
0.0
 40
0.0867990085
 40
0.1810022567
 40
0.2875032541
 40
0.4082294612
 40
0.687850414
 40
1.0
 40
1.0
 40
1.0
 40
1.0
 10
-27.3650900711
 20
3.4999786485
 30
0.0
 10
-27.382928006
 20
3.4999748778
 30
0.0
 10
-27.420402187
 20
3.4928461199
 30
0.0
 10
-27.4721015255
 20
3.4624908463
 30
0.0
 10
-27.5187562176
 20
3.4148888153
 30
0.0
 10
-27.5752539739
 20
3.3267339336
 30
0.0
 10
-27.6225721358
 20
3.1860579611
 30
0.0
 10
-27.6349408891
 20
3.0641493977
 30
0.0
 10
-27.6349408891
 20
3.0
 30
0.0
  0
SPLINE
  5
2B8
100
AcDbEntity
  8
0
100
AcDbSpline
 62
7
  6
CONTINUOUS
 70
0
 71
3
 72
13
 73
9
 74
0
 42
0.0000001
 43
0.0000001
 44
0.0000000001
 40
0.0
 40
0.0
 40
0.0
 40
0.0
 40
0.312149586
 40
0.5917705388
 40
0.7124967459
 40
0.8189977433
 40
0.9132009915
 40
1.0
 40
1.0
 40
1.0
 40
1.0
 10
-27.6349408891
 20
3.0
 30
0.0
 10
-27.6349408891
 20
2.9358506023
 30
0.0
 10
-27.6225721358
 20
2.8139420389
 30
0.0
 10
-27.5752539739
 20
2.6732660664
 30
0.0
 10
-27.5187562176
 20
2.5851111847
 30
0.0
 10
-27.4721015255
 20
2.5375091537
 30
0.0
 10
-27.420402187
 20
2.5071538801
 30
0.0
 10
-27.382928006
 20
2.5000251222
 30
0.0
 10
-27.3650900711
 20
2.5000213515
 30
0.0
  0
SPLINE
  5
2B9
100
AcDbEntity
  8
0
100
AcDbSpline
 62
7
  6
CONTINUOUS
 70
0
 71
3
 72
13
 73
9
 74
0
 42
0.0000001
 43
0.0000001
 44
0.0000000001
 40
0.0
 40
0.0
 40
0.0
 40
0.0
 40
0.0867990212
 40
0.1810025424
 40
0.2875038448
 40
0.4082302373
 40
0.6878510624
 40
1.0
 40
1.0
 40
1.0
 40
1.0
 10
-27.3650931764
 20
-0.5000213522
 30
0.0
 10
-27.3829310254
 20
-0.5000255011
 30
0.0
 10
-27.4204049116
 20
-0.5071549912
 30
0.0
 10
-27.4721036407
 20
-0.5375108881
 30
0.0
 10
-27.5187577609
 20
-0.5851132099
 30
0.0
 10
-27.5752547682
 20
-0.6732680238
 30
0.0
 10
-27.6225722952
 20
-0.8139432569
 30
0.0
 10
-27.6349408891
 20
-0.9358510536
 30
0.0
 10
-27.6349408891
 20
-1.0
 30
0.0
  0
SPLINE
  5
2BA
100
AcDbEntity
  8
0
100
AcDbSpline
 62
7
  6
CONTINUOUS
 70
0
 71
3
 72
13
 73
9
 74
0
 42
0.0000001
 43
0.0000001
 44
0.0000000001
 40
0.0
 40
0.0
 40
0.0
 40
0.0
 40
0.312149586
 40
0.5917705388
 40
0.7124967459
 40
0.8189977433
 40
0.9132009915
 40
1.0
 40
1.0
 40
1.0
 40
1.0
 10
-27.6349408891
 20
-3.0
 30
0.0
 10
-27.6349408891
 20
-2.9358506023
 30
0.0
 10
-27.6225721358
 20
-2.8139420389
 30
0.0
 10
-27.5752539739
 20
-2.6732660664
 30
0.0
 10
-27.5187562176
 20
-2.5851111847
 30
0.0
 10
-27.4721015255
 20
-2.5375091537
 30
0.0
 10
-27.420402187
 20
-2.5071538801
 30
0.0
 10
-27.382928006
 20
-2.5000251222
 30
0.0
 10
-27.3650900711
 20
-2.5000213515
 30
0.0
  0
SPLINE
  5
2BB
100
AcDbEntity
  8
0
100
AcDbSpline
 62
7
  6
CONTINUOUS
 70
0
 71
3
 72
13
 73
9
 74
0
 42
0.0000001
 43
0.0000001
 44
0.0000000001
 40
0.0
 40
0.0
 40
0.0
 40
0.0
 40
0.0867990212
 40
0.1810025424
 40
0.2875038448
 40
0.4082302373
 40
0.6878510624
 40
1.0
 40
1.0
 40
1.0
 40
1.0
 10
-27.3650931764
 20
0.5000213522
 30
0.0
 10
-27.3829310254
 20
0.5000255011
 30
0.0
 10
-27.4204049116
 20
0.5071549912
 30
0.0
 10
-27.4721036407
 20
0.5375108881
 30
0.0
 10
-27.5187577609
 20
0.5851132099
 30
0.0
 10
-27.5752547682
 20
0.6732680238
 30
0.0
 10
-27.6225722952
 20
0.8139432569
 30
0.0
 10
-27.6349408891
 20
0.9358510536
 30
0.0
 10
-27.6349408891
 20
1.0
 30
0.0
  0
SPLINE
  5
2BC
100
AcDbEntity
  8
0
100
AcDbSpline
 62
7
  6
CONTINUOUS
 70
0
 71
3
 72
13
 73
9
 74
0
 42
0.0000001
 43
0.0000001
 44
0.0000000001
 40
0.0
 40
0.0
 40
0.0
 40
0.0
 40
0.0867987475
 40
0.1809962809
 40
0.2874908904
 40
0.408213213
 40
0.6878368389
 40
1.0
 40
1.0
 40
1.0
 40
1.0
 10
-27.3650931764
 20
-1.4999786478
 30
0.0
 10
-27.3472534435
 20
-1.499982797
 30
0.0
 10
-27.3097730929
 20
-1.4928693749
 30
0.0
 10
-27.2580609926
 20
-1.4625271585
 30
0.0
 10
-27.2113943231
 20
-1.4149312207
 30
0.0
 10
-27.1548808808
 20
-1.3267749219
 30
0.0
 10
-27.1075494235
 20
-1.1860834651
 30
0.0
 10
-27.0951773327
 20
-1.0641588472
 30
0.0
 10
-27.0951773327
 20
-1.0
 30
0.0
  0
SPLINE
  5
2BD
100
AcDbEntity
  8
0
100
AcDbSpline
 62
7
  6
CONTINUOUS
 70
0
 71
3
 72
13
 73
9
 74
0
 42
0.0000001
 43
0.0000001
 44
0.0000000001
 40
0.0
 40
0.0
 40
0.0
 40
0.0
 40
0.3121631611
 40
0.591786787
 40
0.7125091096
 40
0.8190037191
 40
0.9132012525
 40
1.0
 40
1.0
 40
1.0
 40
1.0
 10
-27.0951773327
 20
1.0
 30
0.0
 10
-27.0951773327
 20
0.9358411528
 30
0.0
 10
-27.1075494235
 20
0.8139165349
 30
0.0
 10
-27.1548808808
 20
0.6732250781
 30
0.0
 10
-27.2113943231
 20
0.5850687793
 30
0.0
 10
-27.2580609926
 20
0.5374728415
 30
0.0
 10
-27.3097730929
 20
0.5071306251
 30
0.0
 10
-27.3472534435
 20
0.500017203
 30
0.0
 10
-27.3650931764
 20
0.5000213522
 30
0.0
  0
SPLINE
  5
2BE
100
AcDbEntity
  8
0
100
AcDbSpline
 62
7
  6
CONTINUOUS
 70
0
 71
3
 72
13
 73
9
 74
0
 42
0.0000001
 43
0.0000001
 44
0.0000000001
 40
0.0
 40
0.0
 40
0.0
 40
0.0
 40
0.0867987597
 40
0.180996566
 40
0.2874914805
 40
0.4082139888
 40
0.6878374871
 40
1.0
 40
1.0
 40
1.0
 40
1.0
 10
-27.3650900711
 20
2.5000213515
 30
0.0
 10
-27.347250424
 20
2.5000175805
 30
0.0
 10
-27.309770368
 20
2.5071317351
 30
0.0
 10
-27.2580588771
 20
2.5374745753
 30
0.0
 10
-27.2113927796
 20
2.5850708042
 30
0.0
 10
-27.1548800865
 20
2.6732270354
 30
0.0
 10
-27.1075492641
 20
2.8139177528
 30
0.0
 10
-27.0951773327
 20
2.935841604
 30
0.0
 10
-27.0951773327
 20
3.0
 30
0.0
  0
SPLINE
  5
2BF
100
AcDbEntity
  8
0
100
AcDbSpline
 62
7
  6
CONTINUOUS
 70
0
 71
3
 72
13
 73
9
 74
0
 42
0.0000001
 43
0.0000001
 44
0.0000000001
 40
0.0
 40
0.0
 40
0.0
 40
0.0
 40
0.0867987475
 40
0.1809962809
 40
0.2874908904
 40
0.408213213
 40
0.6878368389
 40
1.0
 40
1.0
 40
1.0
 40
1.0
 10
-27.3650931764
 20
1.4999786478
 30
0.0
 10
-27.3472534435
 20
1.499982797
 30
0.0
 10
-27.3097730929
 20
1.4928693749
 30
0.0
 10
-27.2580609926
 20
1.4625271585
 30
0.0
 10
-27.2113943231
 20
1.4149312207
 30
0.0
 10
-27.1548808808
 20
1.3267749219
 30
0.0
 10
-27.1075494235
 20
1.1860834651
 30
0.0
 10
-27.0951773327
 20
1.0641588472
 30
0.0
 10
-27.0951773327
 20
1.0
 30
0.0
  0
SPLINE
  5
2C0
100
AcDbEntity
  8
0
100
AcDbSpline
 62
7
  6
CONTINUOUS
 70
0
 71
3
 72
13
 73
9
 74
0
 42
0.0000001
 43
0.0000001
 44
0.0000000001
 40
0.0
 40
0.0
 40
0.0
 40
0.0
 40
0.3121631611
 40
0.591786787
 40
0.7125091096
 40
0.8190037191
 40
0.9132012525
 40
1.0
 40
1.0
 40
1.0
 40
1.0
 10
-27.0951773327
 20
-1.0
 30
0.0
 10
-27.0951773327
 20
-0.9358411528
 30
0.0
 10
-27.1075494235
 20
-0.8139165349
 30
0.0
 10
-27.1548808808
 20
-0.6732250781
 30
0.0
 10
-27.2113943231
 20
-0.5850687793
 30
0.0
 10
-27.2580609926
 20
-0.5374728415
 30
0.0
 10
-27.3097730929
 20
-0.5071306251
 30
0.0
 10
-27.3472534435
 20
-0.500017203
 30
0.0
 10
-27.3650931764
 20
-0.5000213522
 30
0.0
  0
SPLINE
  5
2C1
100
AcDbEntity
  8
0
100
AcDbSpline
 62
7
  6
CONTINUOUS
 70
0
 71
3
 72
13
 73
9
 74
0
 42
0.0000001
 43
0.0000001
 44
0.0000000001
 40
0.0
 40
0.0
 40
0.0
 40
0.0
 40
0.3121625129
 40
0.5917860112
 40
0.7125085195
 40
0.819003434
 40
0.9132012403
 40
1.0
 40
1.0
 40
1.0
 40
1.0
 10
-27.0951773327
 20
-3.0
 30
0.0
 10
-27.0951773327
 20
-3.064158396
 30
0.0
 10
-27.1075492641
 20
-3.1860822472
 30
0.0
 10
-27.1548800865
 20
-3.3267729646
 30
0.0
 10
-27.2113927796
 20
-3.4149291958
 30
0.0
 10
-27.2580588771
 20
-3.4625254247
 30
0.0
 10
-27.309770368
 20
-3.4928682649
 30
0.0
 10
-27.347250424
 20
-3.4999824195
 30
0.0
 10
-27.3650900711
 20
-3.4999786485
 30
0.0
  0
SPLINE
  5
2C2
100
AcDbEntity
  8
0
100
AcDbSpline
 62
7
  6
CONTINUOUS
 70
0
 71
3
 72
13
 73
9
 74
0
 42
0.0000001
 43
0.0000001
 44
0.0000000001
 40
0.0
 40
0.0
 40
0.0
 40
0.0
 40
0.0867987597
 40
0.180996566
 40
0.2874914805
 40
0.4082139888
 40
0.6878374871
 40
1.0
 40
1.0
 40
1.0
 40
1.0
 10
-27.3650900711
 20
-2.5000213515
 30
0.0
 10
-27.347250424
 20
-2.5000175805
 30
0.0
 10
-27.309770368
 20
-2.5071317351
 30
0.0
 10
-27.2580588771
 20
-2.5374745753
 30
0.0
 10
-27.2113927796
 20
-2.5850708042
 30
0.0
 10
-27.1548800865
 20
-2.6732270354
 30
0.0
 10
-27.1075492641
 20
-2.8139177528
 30
0.0
 10
-27.0951773327
 20
-2.935841604
 30
0.0
 10
-27.0951773327
 20
-3.0
 30
0.0
  0
SPLINE
  5
2C3
100
AcDbEntity
  8
0
100
AcDbSpline
 62
7
  6
CONTINUOUS
 70
0
 71
3
 72
13
 73
9
 74
0
 42
0.0000001
 43
0.0000001
 44
0.0000000001
 40
0.0
 40
0.0
 40
0.0
 40
0.0
 40
0.3121625129
 40
0.5917860112
 40
0.7125085195
 40
0.819003434
 40
0.9132012403
 40
1.0
 40
1.0
 40
1.0
 40
1.0
 10
-27.0951773327
 20
3.0
 30
0.0
 10
-27.0951773327
 20
3.064158396
 30
0.0
 10
-27.1075492641
 20
3.1860822472
 30
0.0
 10
-27.1548800865
 20
3.3267729646
 30
0.0
 10
-27.2113927796
 20
3.4149291958
 30
0.0
 10
-27.2580588771
 20
3.4625254247
 30
0.0
 10
-27.309770368
 20
3.4928682649
 30
0.0
 10
-27.347250424
 20
3.4999824195
 30
0.0
 10
-27.3650900711
 20
3.4999786485
 30
0.0
  0
ENDSEC
  0
SECTION
  2
OBJECTS
  0
DICTIONARY
  5
C
100
AcDbDictionary
280
0
281
1
  3
ACAD_GROUP
350
D
  3
ACAD_MLINESTYLE
350
17
  3
ACAD_LAYOUT
350
1A
  3
ACAD_PLOTSETTINGS
350
19
  3
ACAD_PLOTSTYLENAME
350
E
  0
DICTIONARY
  5
D
102
{ACAD_REACTORS
330
C
102
}
100
AcDbDictionary
280
0
281
1
  0
ACDBDICTIONARYWDFLT
  5
E
102
{ACAD_REACTORS
330
C
102
}
100
AcDbDictionary
281
1
  3
Normal
350
F
100
AcDbDictionaryWithDefault
340
F
  0
DICTIONARY
  5
17
102
{ACAD_REACTORS
330
C
102
}
100
AcDbDictionary
280
0
281
1
  3
Standard
350
18
  0
DICTIONARY
  5
19
102
{ACAD_REACTORS
330
C
102
}
100
AcDbDictionary
281
1
  0
DICTIONARY
  5
1A
102
{ACAD_REACTORS
330
C
102
}
100
AcDbDictionary
281
1
  3
Model
350
2C4
  3
Layout1
350
2C5
  0
ACDBPLACEHOLDER
  5
F
102
{ACAD_REACTORS
330
E
102
}
  0
MLINESTYLE
  5
18
102
{ACAD_REACTORS
330
17
102
}
100
AcDbMlineStyle
  2
STANDARD
 70
0
  3

 62
256
 51
90.0
 52
90.0
 71
2
 49
0.5
 62
256
  6
BYLAYER
 49
-0.5
 62
256
  6
BYLAYER
  0
LAYOUT
  5
2C4
102
{ACAD_REACTORS
330
1A
102
}
100
AcDbPlotSettings
  1

  2
none_device
  4
ISO_A4_(297.00_x_210.00_MM)
  6

 40
0.0
 41
0.0
 42
0.0
 43
0.0
 44
297.0
 45
210.0
 46
0.0
 47
0.0
 48
0.0
 49
0.0
140
0.0
141
0.0
142
1.0
143
1.0
 70
1024
 72
1
 73
0
 74
0
  7

 75
0
147
1.0
148
0.0
149
0.0
100
AcDbLayout
  1
Model
 70
0
 71
0
 10
0.0
 20
0.0
 11
297.0
 21
210.0
 12
0.0
 22
0.0
 32
0.0
 14
0.0
 24
0.0
 34
0.0
 15
0.0
 25
0.0
 35
0.0
146
0.0
 13
0.0
 23
0.0
 33
0.0
 16
1.0
 26
0.0
 36
0.0
 17
0.0
 27
1.0
 37
0.0
 76
0
330
20F
345
0
346
0
  0
LAYOUT
  5
2C5
102
{ACAD_REACTORS
330
1A
102
}
100
AcDbPlotSettings
  1

  2
none_device
  4
ISO_A4_(297.00_x_210.00_MM)
  6

 40
0.0
 41
0.0
 42
0.0
 43
0.0
 44
297.0
 45
210.0
 46
0.0
 47
0.0
 48
0.0
 49
0.0
140
0.0
141
0.0
142
1.0
143
1.0
 70
0
 72
1
 73
0
 74
0
  7

 75
0
147
1.0
148
0.0
149
0.0
100
AcDbLayout
  1
Layout1
 70
0
 71
1
 10
0.0
 20
0.0
 11
297.0
 21
210.0
 12
0.0
 22
0.0
 32
0.0
 14
0.0
 24
0.0
 34
0.0
 15
0.0
 25
0.0
 35
0.0
146
0.0
 13
0.0
 23
0.0
 33
0.0
 16
1.0
 26
0.0
 36
0.0
 17
0.0
 27
1.0
 37
0.0
 76
0
330
210
345
0
346
0
  0
ENDSEC
  0
EOF
