  0
SECTION
  2
HEADER
  9
$ACADVER
  1
AC1024
  9
$DWGCODEPAGE
  3
ANSI_1252
  9
$EXTMAX
 10
297.0
 20
210.0
 30
0.0
  9
$EXTMIN
 10
0.0
 20
0.0
 30
0.0
  9
$LIMMIN
 10
0.0
 20
0.0
  9
$LIMMAX
 10
297.0
 20
210.0
  9
$VIEWCTR
 10
148.5
 20
105.0
  9
$VIEWSIZE
 40
210.0
  9
$CLAYER
  8
0
  9
$LTSCALE
 40
16.335
  9
$CELTYPE
  6
BYLAYER
  9
$DIMSCALE
 40
1.0
  9
$DIMASZ
 40
3.0
  9
$DIMEXO
 40
0.5
  9
$DIMDLI
 40
11.286
  9
$DIMEXE
 40
1.5
  9
$DIMCEN
 40
2.673
  9
$DIMLFAC
 40
1.0
  9
$DIMBLK
  1
_FILLED
  9
$DIMALT
 70
0
  9
$DIMALTF
 40
0.0393700787
  9
$DIMTXT
 40
3.0
  9
$DIMTOL
 70
1
  9
$DIMLIM
 70
0
  9
$DIMTFAC
 40
1.0
  9
$DIMTP
 40
0.01
  9
$DIMTM
 40
0.01
  9
$DIMGAP
 40
0.625
  9
$DIMDSEP
 70
44
  9
$AUNITS
 70
0
  9
$PDMODE
 70
3
  9
$PDSIZE
 40
3.0
  9
$HANDSEED
  5
2A6
  9
$TILEMODE
 70
1
  9
$MEASUREMENT
 70
1
  9
$INSUNITS
 70
4
  0
ENDSEC
  0
SECTION
  2
CLASSES
  0
CLASS
  1
ACDBDICTIONARYWDFLT
  2
AcDbDictionaryWithDefault
  3
AutoCAD 2000
 90
0
 91
1
280
0
281
0
  0
CLASS
  1
ACDBPLACEHOLDER
  2
AcDbPlaceHolder
  3
AutoCAD 2000
 90
0
 91
1
280
0
281
0
  0
CLASS
  1
LAYOUT
  2
AcDbLayout
  3
AutoCAD 2000
 90
0
 91
0
280
0
281
0
  0
ENDSEC
  0
SECTION
  2
TABLES
  0
TABLE
  2
VPORT
  5
8
100
AcDbSymbolTable
 70
2
  0
VPORT
  5
1F4
100
AcDbSymbolTableRecord
100
AcDbViewportTableRecord
  2
*ACTIVE
 70
0
 10
0.0
 20
0.0
 11
1.0
 21
1.0
 12
148.5
 22
105.0
 13
0.0
 23
0.0
 14
1.0
 24
1.0
 15
0.0
 25
0.0
 16
0.0
 26
0.0
 36
1.0
 17
0.0
 27
0.0
 37
0.0
 40
210.0
 41
1.4142857143
 42
50.0
 43
0.0
 44
0.0
 50
0.0
 51
0.0
 71
0
 72
100
 73
1
 74
1
 75
0
 76
0
 77
0
 78
0
  0
ENDTAB
  0
TABLE
  2
LTYPE
  5
5
100
AcDbSymbolTable
 70
6
  0
LTYPE
  5
14
100
AcDbSymbolTableRecord
100
AcDbLinetypeTableRecord
  2
BYBLOCK
 70
0
  3

 72
65
 73
0
 40
0.0
  0
LTYPE
  5
15
100
AcDbSymbolTableRecord
100
AcDbLinetypeTableRecord
  2
BYLAYER
 70
0
  3

 72
65
 73
0
 40
0.0
  0
LTYPE
  5
16
100
AcDbSymbolTableRecord
100
AcDbLinetypeTableRecord
  2
CONTINUOUS
 70
64
  3
Solid line
 72
65
 73
0
 40
0.0
  0
LTYPE
  5
1F5
100
AcDbSymbolTableRecord
100
AcDbLinetypeTableRecord
  2
CENTER
 70
64
  3
____ _ ____ _ ____ _ ____ _ ____ _ ____ _ ____
 72
65
 73
4
 40
0.6
 49
0.375
 74
0
 49
-0.075
 74
0
 49
0.075
 74
0
 49
-0.075
 74
0
  0
LTYPE
  5
1F6
100
AcDbSymbolTableRecord
100
AcDbLinetypeTableRecord
  2
HIDDEN
 70
64
  3
- - - - - - - - - - - - - - - - - - - -
 72
65
 73
2
 40
0.2
 49
0.1
 74
0
 49
-0.1
 74
0
  0
LTYPE
  5
1F7
100
AcDbSymbolTableRecord
100
AcDbLinetypeTableRecord
  2
PHANTOM
 70
64
  3
_____ _ _ _____ _ _ _____ _ _ _____
 72
65
 73
6
 40
0.8
 49
0.45
 74
0
 49
-0.05
 74
0
 49
0.1
 74
0
 49
-0.05
 74
0
 49
0.1
 74
0
 49
-0.05
 74
0
  0
LTYPE
  5
1F8
100
AcDbSymbolTableRecord
100
AcDbLinetypeTableRecord
  2
DOT
 70
64
  3
. . . . . . . . . . . . . . . . . . . .
 72
65
 73
2
 40
0.2
 49
0.1
 74
0
 49
-0.1
 74
0
  0
LTYPE
  5
1F9
100
AcDbSymbolTableRecord
100
AcDbLinetypeTableRecord
  2
DASHED
 70
64
  3
- - - - - - - - - - - - - - - - - - - -
 72
65
 73
2
 40
0.2
 49
0.1
 74
0
 49
-0.1
 74
0
  0
ENDTAB
  0
TABLE
  2
LAYER
  5
2
100
AcDbSymbolTable
 70
36
  0
LAYER
  5
10
100
AcDbSymbolTableRecord
100
AcDbLayerTableRecord
  2
0
 70
0
 62
7
  6
CONTINUOUS
370
-3
390
F
  0
LAYER
  5
1FA
100
AcDbSymbolTableRecord
100
AcDbLayerTableRecord
  2
DEFAULT_1
 70
0
 62
7
  6
CENTER
370
-3
390
F
  0
LAYER
  5
1FB
100
AcDbSymbolTableRecord
100
AcDbLayerTableRecord
  2
DEFAULT_2
 70
0
 62
7
  6
HIDDEN
370
-3
390
F
  0
LAYER
  5
1FC
100
AcDbSymbolTableRecord
100
AcDbLayerTableRecord
  2
DEFAULT_3
 70
0
 62
7
  6
PHANTOM
370
-3
390
F
  0
LAYER
  5
1FD
100
AcDbSymbolTableRecord
100
AcDbLayerTableRecord
  2
ASSI
 70
0
 62
7
  6
CONTINUOUS
370
-3
390
F
  0
LAYER
  5
1FE
100
AcDbSymbolTableRecord
100
AcDbLayerTableRecord
  2
COORDINATE
 70
0
 62
7
  6
CONTINUOUS
370
-3
390
F
  0
LAYER
  5
1FF
100
AcDbSymbolTableRecord
100
AcDbLayerTableRecord
  2
COPY_PUBLISH
 70
0
 62
7
  6
CONTINUOUS
370
-3
390
F
  0
LAYER
  5
200
100
AcDbSymbolTableRecord
100
AcDbLayerTableRecord
  2
COSMETICI
 70
0
 62
7
  6
CONTINUOUS
370
-3
390
F
  0
LAYER
  5
201
100
AcDbSymbolTableRecord
100
AcDbLayerTableRecord
  2
CURVE
 70
0
 62
7
  6
CONTINUOUS
370
-3
390
F
  0
LAYER
  5
202
100
AcDbSymbolTableRecord
100
AcDbLayerTableRecord
  2
DRAFT
 70
0
 62
7
  6
CONTINUOUS
370
-3
390
F
  0
LAYER
  5
203
100
AcDbSymbolTableRecord
100
AcDbLayerTableRecord
  2
IMPORT_IGES
 70
0
 62
7
  6
CONTINUOUS
370
-3
390
F
  0
LAYER
  5
204
100
AcDbSymbolTableRecord
100
AcDbLayerTableRecord
  2
NOTE
 70
0
 62
7
  6
CONTINUOUS
370
-3
390
F
  0
LAYER
  5
205
100
AcDbSymbolTableRecord
100
AcDbLayerTableRecord
  2
PIANI
 70
0
 62
7
  6
CONTINUOUS
370
-3
390
F
  0
LAYER
  5
206
100
AcDbSymbolTableRecord
100
AcDbLayerTableRecord
  2
PUNTI
 70
0
 62
7
  6
CONTINUOUS
370
-3
390
F
  0
LAYER
  5
207
100
AcDbSymbolTableRecord
100
AcDbLayerTableRecord
  2
RACCORDO
 70
0
 62
7
  6
CONTINUOUS
370
-3
390
F
  0
LAYER
  5
208
100
AcDbSymbolTableRecord
100
AcDbLayerTableRecord
  2
SIMBOLI
 70
0
 62
7
  6
CONTINUOUS
370
-3
390
F
  0
LAYER
  5
209
100
AcDbSymbolTableRecord
100
AcDbLayerTableRecord
  2
SMUSSO
 70
0
 62
7
  6
CONTINUOUS
370
-3
390
F
  0
LAYER
  5
20A
100
AcDbSymbolTableRecord
100
AcDbLayerTableRecord
  2
SUPERFICI
 70
0
 62
7
  6
CONTINUOUS
370
-3
390
F
  0
LAYER
  5
20B
100
AcDbSymbolTableRecord
100
AcDbLayerTableRecord
  2
TRASH
 70
0
 62
7
  6
CONTINUOUS
370
-3
390
F
  0
ENDTAB
  0
TABLE
  2
STYLE
  5
3
100
AcDbSymbolTable
 70
1
  0
STYLE
  5
11
100
AcDbSymbolTableRecord
100
AcDbTextStyleTableRecord
  2
STANDARD
 70
0
 40
0.0
 41
0.8
 50
0.0
 71
0
 42
0.2
  3
txt
  4

  0
STYLE
  5
20C
100
AcDbSymbolTableRecord
100
AcDbTextStyleTableRecord
  2
TEXTSTYLE_1
 70
0
 40
0.0
 41
0.8
 50
0.0
 71
0
 42
0.2
  3
gdt
  4

  0
STYLE
  5
20D
100
AcDbSymbolTableRecord
100
AcDbTextStyleTableRecord
  2
TEXTSTYLE_2
 70
0
 40
0.0
 41
1.0
 50
0.0
 71
0
 42
0.2
  3
txt
  4

  0
ENDTAB
  0
TABLE
  2
VIEW
  5
6
100
AcDbSymbolTable
 70
0
  0
ENDTAB
  0
TABLE
  2
UCS
  5
7
100
AcDbSymbolTable
 70
0
  0
ENDTAB
  0
TABLE
  2
APPID
  5
9
100
AcDbSymbolTable
 70
1
  0
APPID
  5
20E
100
AcDbSymbolTableRecord
100
AcDbRegAppTableRecord
  2
ACAD
 70
0
  0
ENDTAB
  0
TABLE
  2
BLOCK_RECORD
  5
1
100
AcDbSymbolTable
 70
0
  0
BLOCK_RECORD
  5
20F
100
AcDbSymbolTableRecord
100
AcDbBlockTableRecord
  2
*Model_Space
  0
BLOCK_RECORD
  5
210
100
AcDbSymbolTableRecord
100
AcDbBlockTableRecord
  2
*Paper_Space
  0
BLOCK_RECORD
  5
211
100
AcDbSymbolTableRecord
100
AcDbBlockTableRecord
  2
_FILLED
  0
BLOCK_RECORD
  5
212
100
AcDbSymbolTableRecord
100
AcDbBlockTableRecord
  2
*D0
  0
BLOCK_RECORD
  5
213
100
AcDbSymbolTableRecord
100
AcDbBlockTableRecord
  2
*D1
  0
BLOCK_RECORD
  5
214
100
AcDbSymbolTableRecord
100
AcDbBlockTableRecord
  2
*D2
  0
BLOCK_RECORD
  5
215
100
AcDbSymbolTableRecord
100
AcDbBlockTableRecord
  2
*D3
  0
ENDTAB
  0
TABLE
  2
DIMSTYLE
  5
A
100
AcDbSymbolTable
 70
1
100
AcDbDimStyleTable
 71
0
  0
DIMSTYLE
105
216
100
AcDbSymbolTableRecord
100
AcDbDimStyleTableRecord
  2
STANDARD
 70
0
  3

  4

 40
1.0
 41
3.0
 42
0.5
 43
0.38
 44
1.5
 45
0.0
 46
0.0
 47
0.01
 48
0.01
140
3.0
141
0.09
142
0.0
143
25.4
144
1.0
145
0.0
146
1.0
147
0.625
 71
1
 72
0
 73
0
 74
0
 75
0
 76
0
 77
1
 78
8
 79
2
170
0
171
1
172
0
173
0
174
0
175
0
176
0
177
0
178
0
270
2
179
2
271
2
272
2
273
2
274
2
275
0
280
0
281
0
282
0
283
1
284
8
285
0
286
0
287
3
288
0
340
11
278
44
341
211
342
211
343
211
344
211
  0
DIMSTYLE
105
217
100
AcDbSymbolTableRecord
100
AcDbDimStyleTableRecord
  2
DIMSTYLE_1
 70
0
  3

  4

 40
1.0
 41
3.0
 42
0.5
 43
0.38
 44
1.5
 45
0.0
 46
0.0
 47
0.0
 48
0.0
140
3.0
141
0.09
142
0.0
143
25.4
144
1.0
145
0.0
146
1.0
147
0.75
 71
0
 72
0
 73
0
 74
0
 75
0
 76
0
 77
1
 78
8
 79
2
170
0
171
1
172
0
173
0
174
0
175
0
176
0
177
0
178
0
270
2
179
2
271
2
272
2
273
2
274
2
275
0
280
0
281
0
282
0
283
1
284
8
285
0
286
0
287
3
288
0
340
11
278
44
341
211
342
211
343
211
344
211
  0
ENDTAB
  0
ENDSEC
  0
SECTION
  2
BLOCKS
  0
BLOCK
  5
20
100
AcDbEntity
  8
0
100
AcDbBlockBegin
  2
*Model_Space
 70
0
 10
0.0
 20
0.0
 30
0.0
  3
*Model_Space
  1

  0
ENDBLK
  5
21
100
AcDbEntity
  8
0
100
AcDbBlockEnd
  0
BLOCK
  5
1C
100
AcDbEntity
  8
0
100
AcDbBlockBegin
  2
*Paper_Space
 70
0
 10
0.0
 20
0.0
 30
0.0
  3
*Paper_Space
  1

  0
ENDBLK
  5
1D
100
AcDbEntity
  8
0
100
AcDbBlockEnd
  0
BLOCK
  5
218
100
AcDbEntity
  8
0
100
AcDbBlockBegin
  2
_FILLED
 70
64
 10
0.0
 20
0.0
  3
_FILLED
  1

  0
SOLID
  5
219
100
AcDbEntity
  8
0
  6
BYBLOCK
 62
0
100
AcDbTrace
 10
0.0
 20
0.0
 11
-1.0
 21
0.3166666667
 12
-1.0
 22
-0.3166666667
 13
-1.0
 23
-0.3166666667
  0
ENDBLK
  5
21A
100
AcDbEntity
  8
0
  6
BYBLOCK
 62
0
100
AcDbBlockEnd
  0
BLOCK
  5
21B
100
AcDbEntity
  8
0
100
AcDbBlockBegin
 62
7
  6
CONTINUOUS
  2
*D0
 70
65
 10
0.0
 20
0.0
  3
*D0
  1

  0
MTEXT
  5
21C
100
AcDbEntity
  8
0
100
AcDbMText
 62
7
  6
CONTINUOUS
  7
STANDARD
 71
2
 72
1
 10
23.0573636797
 20
-11.25
 30
0.0
 11
1.0
 21
0.0
 31
0.0
 73
2
 44
0.9
  1
{\ftxt;\W0.0001;\H0.0001;\~}{\ftxt;\W1.5714285714;\H3.0; }{\ftxt;\W0.0001;\H0.0001;\~}
 40
3.0
 41
7.0714285714
  0
LINE
  5
21D
100
AcDbEntity
  8
0
100
AcDbLine
 62
7
  6
CONTINUOUS
 10
12.1906824166
 20
-4.5
 11
12.1906824166
 21
-16.5
  0
LINE
  5
21E
100
AcDbEntity
  8
0
100
AcDbLine
 62
7
  6
CONTINUOUS
 10
40.1906824166
 20
-4.5
 11
40.1906824166
 21
-16.5
  0
LINE
  5
21F
100
AcDbEntity
  8
0
100
AcDbLine
 62
7
  6
CONTINUOUS
 10
12.1906824166
 20
-15.0
 11
26.1906824166
 21
-15.0
  0
LINE
  5
220
100
AcDbEntity
  8
0
100
AcDbLine
 62
7
  6
CONTINUOUS
 10
40.1906824166
 20
-15.0
 11
26.1906824166
 21
-15.0
  0
INSERT
  5
221
100
AcDbEntity
  8
0
100
AcDbBlockReference
 62
7
  6
CONTINUOUS
  2
_FILLED
 10
12.1906824166
 20
-15.0
 41
3.0
 42
3.0
 43
3.0
 50
180.0
  0
INSERT
  5
222
100
AcDbEntity
  8
0
100
AcDbBlockReference
 62
7
  6
CONTINUOUS
  2
_FILLED
 10
40.1906824166
 20
-15.0
 41
3.0
 42
3.0
 43
3.0
  0
ENDBLK
  5
223
100
AcDbEntity
  8
0
  6
BYBLOCK
 62
0
100
AcDbBlockEnd
  0
BLOCK
  5
224
100
AcDbEntity
  8
0
100
AcDbBlockBegin
 62
7
  6
CONTINUOUS
  2
*D1
 70
65
 10
0.0
 20
0.0
  3
*D1
  1

  0
MTEXT
  5
225
100
AcDbEntity
  8
0
100
AcDbMText
 62
7
  6
CONTINUOUS
  7
TEXTSTYLE_2
 71
2
 72
1
 10
46.4406824166
 20
0.0
 30
0.0
 11
0.0
 21
1.0
 31
0.0
 73
2
 44
0.9
  1
{\ftxt;\W0.0001;\H0.0001;\~}{\ftxt;\W1.3333333333;\H3.0; }{\ftxt;\W0.0001;\H0.0001;\~}{\ftxt;\W0.0001;\H0.0001;\~}{\ftxt;\W0.7857142857;\H3.0; }{\ftxt;\W0.0001;\H0.0001;\~}
 40
3.0
 41
9.5357142857
  0
LINE
  5
226
100
AcDbEntity
  8
0
100
AcDbLine
 62
7
  6
CONTINUOUS
 10
39.2557838903
 20
4.0
 11
51.6906824166
 21
4.0
  0
LINE
  5
227
100
AcDbEntity
  8
0
100
AcDbLine
 62
7
  6
CONTINUOUS
 10
39.3840878903
 20
-4.0
 11
51.6906824166
 21
-4.0
  0
LINE
  5
228
100
AcDbEntity
  8
0
100
AcDbLine
 62
7
  6
CONTINUOUS
 10
50.1906824166
 20
4.0
 11
50.1906824166
 21
8.0
  0
LINE
  5
229
100
AcDbEntity
  8
0
100
AcDbLine
 62
7
  6
CONTINUOUS
 10
50.1906824166
 20
8.0
 11
50.1906824166
 21
0.0
  0
LINE
  5
22A
100
AcDbEntity
  8
0
100
AcDbLine
 62
7
  6
CONTINUOUS
 10
50.1906824166
 20
-4.0
 11
50.1906824166
 21
-8.0
  0
LINE
  5
22B
100
AcDbEntity
  8
0
100
AcDbLine
 62
7
  6
CONTINUOUS
 10
50.1906824166
 20
-8.0
 11
50.1906824166
 21
0.0
  0
INSERT
  5
22C
100
AcDbEntity
  8
0
100
AcDbBlockReference
 62
7
  6
CONTINUOUS
  2
_FILLED
 10
50.1906824166
 20
4.0
 41
3.0
 42
3.0
 43
3.0
 50
270.0
  0
INSERT
  5
22D
100
AcDbEntity
  8
0
100
AcDbBlockReference
 62
7
  6
CONTINUOUS
  2
_FILLED
 10
50.1906824166
 20
-4.0
 41
3.0
 42
3.0
 43
3.0
 50
90.0
  0
ENDBLK
  5
22E
100
AcDbEntity
  8
0
  6
BYBLOCK
 62
0
100
AcDbBlockEnd
  0
BLOCK
  5
22F
100
AcDbEntity
  8
0
100
AcDbBlockBegin
 62
7
  6
CONTINUOUS
  2
*D2
 70
65
 10
0.0
 20
0.0
  3
*D2
  1

  0
MTEXT
  5
230
100
AcDbEntity
  8
0
100
AcDbMText
 62
7
  6
CONTINUOUS
  7
STANDARD
 71
3
 72
1
 10
0.9656824166
 20
-11.25
 30
0.0
 11
1.0
 21
0.0
 31
0.0
 73
2
 44
0.9
  1
{\ftxt;\W0.0001;\H0.0001;\~}{\ftxt;\W2.1428571429;\H3.0; }{\ftxt;\W0.0001;\H0.0001;\~}
 40
3.0
 41
9.6428571429
  0
LINE
  5
231
100
AcDbEntity
  8
0
100
AcDbLine
 62
7
  6
CONTINUOUS
 10
12.1906824166
 20
-5.3321381053
 11
12.1906824166
 21
-16.5
  0
LINE
  5
232
100
AcDbEntity
  8
0
100
AcDbLine
 62
7
  6
CONTINUOUS
 10
11.3906824166
 20
-5.5482290526
 11
11.3906824166
 21
-16.5
  0
LINE
  5
233
100
AcDbEntity
  8
0
100
AcDbLine
 62
7
  6
CONTINUOUS
 10
12.1906824166
 20
-15.0
 11
16.1906824166
 21
-15.0
  0
LINE
  5
234
100
AcDbEntity
  8
0
100
AcDbLine
 62
7
  6
CONTINUOUS
 10
16.1906824166
 20
-15.0
 11
11.7906824166
 21
-15.0
  0
LINE
  5
235
100
AcDbEntity
  8
0
100
AcDbLine
 62
7
  6
CONTINUOUS
 10
11.3906824166
 20
-15.0
 11
-5.462889012
 21
-15.0
  0
LINE
  5
236
100
AcDbEntity
  8
0
100
AcDbLine
 62
7
  6
CONTINUOUS
 10
-5.462889012
 20
-15.0
 11
11.7906824166
 21
-15.0
  0
INSERT
  5
237
100
AcDbEntity
  8
0
100
AcDbBlockReference
 62
7
  6
CONTINUOUS
  2
_FILLED
 10
12.1906824166
 20
-15.0
 41
3.0
 42
3.0
 43
3.0
 50
180.0
  0
INSERT
  5
238
100
AcDbEntity
  8
0
100
AcDbBlockReference
 62
7
  6
CONTINUOUS
  2
_FILLED
 10
11.3906824166
 20
-15.0
 41
3.0
 42
3.0
 43
3.0
 50
0.0
  0
ENDBLK
  5
239
100
AcDbEntity
  8
0
  6
BYBLOCK
 62
0
100
AcDbBlockEnd
  0
BLOCK
  5
23A
100
AcDbEntity
  8
0
100
AcDbBlockBegin
 62
7
  6
CONTINUOUS
  2
*D3
 70
65
 10
0.0
 20
0.0
  3
*D3
  1

  0
MTEXT
  5
23B
100
AcDbEntity
  8
0
100
AcDbMText
 62
7
  6
CONTINUOUS
  7
TEXTSTYLE_2
 71
2
 72
1
 10
56.4406824166
 20
0.0
 30
0.0
 11
0.0
 21
1.0
 31
0.0
 73
2
 44
0.9
  1
{\ftxt;\W0.0001;\H0.0001;\~}{\ftxt;\W1.3333333333;\H3.0; }{\ftxt;\W0.0001;\H0.0001;\~}{\ftxt;\W0.0001;\H0.0001;\~}{\ftxt;\W1.3571428571;\H3.0; }{\ftxt;\W0.0001;\H0.0001;\~}
 40
3.0
 41
12.1071428571
  0
LINE
  5
23C
100
AcDbEntity
  8
0
100
AcDbLine
 62
7
  6
CONTINUOUS
 10
12.6906824166
 20
-5.0
 11
61.6906824166
 21
-5.0
  0
LINE
  5
23D
100
AcDbEntity
  8
0
100
AcDbLine
 62
7
  6
CONTINUOUS
 10
12.6906824166
 20
5.0
 11
61.6906824166
 21
5.0
  0
LINE
  5
23E
100
AcDbEntity
  8
0
100
AcDbLine
 62
7
  6
CONTINUOUS
 10
60.1906824166
 20
-5.0
 11
60.1906824166
 21
-9.0
  0
LINE
  5
23F
100
AcDbEntity
  8
0
100
AcDbLine
 62
7
  6
CONTINUOUS
 10
60.1906824166
 20
-9.0
 11
60.1906824166
 21
0.0
  0
LINE
  5
240
100
AcDbEntity
  8
0
100
AcDbLine
 62
7
  6
CONTINUOUS
 10
60.1906824166
 20
5.0
 11
60.1906824166
 21
9.0
  0
LINE
  5
241
100
AcDbEntity
  8
0
100
AcDbLine
 62
7
  6
CONTINUOUS
 10
60.1906824166
 20
9.0
 11
60.1906824166
 21
0.0
  0
INSERT
  5
242
100
AcDbEntity
  8
0
100
AcDbBlockReference
 62
7
  6
CONTINUOUS
  2
_FILLED
 10
60.1906824166
 20
-5.0
 41
3.0
 42
3.0
 43
3.0
 50
90.0
  0
INSERT
  5
243
100
AcDbEntity
  8
0
100
AcDbBlockReference
 62
7
  6
CONTINUOUS
  2
_FILLED
 10
60.1906824166
 20
5.0
 41
3.0
 42
3.0
 43
3.0
 50
270.0
  0
ENDBLK
  5
244
100
AcDbEntity
  8
0
  6
BYBLOCK
 62
0
100
AcDbBlockEnd
  0
ENDSEC
  0
SECTION
  2
ENTITIES
  0
DIMENSION
  5
245
100
AcDbEntity
  8
0
100
AcDbDimension
 62
7
  6
CONTINUOUS
  2
*D0
 10
40.1906824166
 20
-15.0
 11
22.628792141
 21
-15.0
 70
160
 71
2
 72
2
 41
0.9
 42
28.0
  1
{\ftxt;\W0.0001;\H0.0001;\~}{\ftxt;\W1.5714285714;\H3.0; }{\ftxt;\W0.0001;\H0.0001;\~}
  3
DIMSTYLE_1
100
AcDbAlignedDimension
 13
12.1906824166
 23
-4.0
 14
40.1906824166
 24
-4.0
100
AcDbRotatedDimension
  0
DIMENSION
  5
246
100
AcDbEntity
  8
0
100
AcDbDimension
 62
7
  6
CONTINUOUS
  2
*D1
 10
50.1906824166
 20
-4.0
 11
50.1906824166
 21
0.8214285714
 70
160
 71
2
 72
2
 41
0.9
 42
8.0
  1
{\ftxt;\W0.0001;\H0.0001;\~}{\ftxt;\W1.3333333333;\H3.0; }{\ftxt;\W0.0001;\H0.0001;\~}{\ftxt;\W0.0001;\H0.0001;\~}{\ftxt;\W0.7857142857;\H3.0; }{\ftxt;\W0.0001;\H0.0001;\~}
  3
DIMSTYLE_1
100
AcDbAlignedDimension
 13
38.7557838903
 23
4.0
 14
38.8840878903
 24
-4.0
 50
270.0
100
AcDbRotatedDimension
  0
DIMENSION
  5
247
100
AcDbEntity
  8
0
100
AcDbDimension
 62
7
  6
CONTINUOUS
  2
*D2
 10
11.3906824166
 20
-15.0
 11
-2.6771747905
 21
-15.0
 70
160
 71
3
 72
2
 41
0.9
 42
0.8
  1
{\ftxt;\W0.0001;\H0.0001;\~}{\ftxt;\W2.1428571429;\H3.0; }{\ftxt;\W0.0001;\H0.0001;\~}
  3
DIMSTYLE_1
100
AcDbAlignedDimension
 13
12.1906824166
 23
-4.8321381053
 14
11.3906824166
 24
-5.0482290526
 50
180.0
100
AcDbRotatedDimension
  0
DIMENSION
  5
248
100
AcDbEntity
  8
0
100
AcDbDimension
 62
7
  6
CONTINUOUS
  2
*D3
 10
60.1906824166
 20
5.0
 11
60.1906824166
 21
-0.0357142857
 70
160
 71
2
 72
2
 41
0.9
 42
10.0
  1
{\ftxt;\W0.0001;\H0.0001;\~}{\ftxt;\W1.3333333333;\H3.0; }{\ftxt;\W0.0001;\H0.0001;\~}{\ftxt;\W0.0001;\H0.0001;\~}{\ftxt;\W1.3571428571;\H3.0; }{\ftxt;\W0.0001;\H0.0001;\~}
  3
DIMSTYLE_1
100
AcDbAlignedDimension
 13
12.1906824166
 23
-5.0
 14
12.1906824166
 24
5.0
 50
90.0
100
AcDbRotatedDimension
  0
LEADER
  5
249
100
AcDbEntity
  8
0
100
AcDbLeader
 62
7
  6
CONTINUOUS
  3
STANDARD
 71
1
 72
0
 73
3
 75
0
 40
3.0
 41
33.2142857143
 76
3
 10
-23.464905566
 20
2.9998848256
 30
0.0
 10
-30.2854341746
 20
15.5660945172
 30
0.0
 10
-31.2854341746
 20
15.5660945172
 30
0.0
1001
ACAD
1000
DSTYLE
1002
{
1070
77
1070
0
1002
}
  0
LWPOLYLINE
  5
24A
100
AcDbEntity
  8
0
100
AcDbPolyline
 62
7
  6
CONTINUOUS
 90
3
 70
0
 43
0.3500000006
 10
-63.9282892456
 20
17.066095253
 10
-63.9282892456
 20
14.0660943375
 10
-62.8568622894
 20
14.0660943375
  0
LWPOLYLINE
  5
24B
100
AcDbEntity
  8
0
100
AcDbPolyline
 62
7
  6
CONTINUOUS
 90
6
 70
0
 43
0.3500000006
 10
-61.9997198181
 20
17.066095253
 10
-61.9997198181
 20
14.4946655731
 10
-61.5711463165
 20
14.0660943375
 10
-60.9282928619
 20
14.0660943375
 10
-60.4997193604
 20
14.4946655731
 10
-60.4997193604
 20
17.066095253
  0
LWPOLYLINE
  5
24C
100
AcDbEntity
  8
0
100
AcDbPolyline
 62
7
  6
CONTINUOUS
 90
4
 70
0
 43
0.3500000006
 10
-59.642576889
 20
14.0660943375
 10
-59.642576889
 20
17.066095253
 10
-58.1425764313
 20
14.0660943375
 10
-58.1425764313
 20
17.066095253
  0
LWPOLYLINE
  5
24D
100
AcDbEntity
  8
0
100
AcDbPolyline
 62
7
  6
CONTINUOUS
 90
2
 70
0
 43
0.3500000006
 10
-54.9282910309
 20
14.0660943375
 10
-54.9282910309
 20
17.066095253
  0
LWPOLYLINE
  5
24E
100
AcDbEntity
  8
0
100
AcDbPolyline
 62
7
  6
CONTINUOUS
 90
2
 70
0
 43
0.3500000006
 10
-53.4282905731
 20
17.066095253
 10
-53.4282905731
 20
14.0660943375
  0
LWPOLYLINE
  5
24F
100
AcDbEntity
  8
0
100
AcDbPolyline
 62
7
  6
CONTINUOUS
 90
3
 70
0
 43
0.3500000006
 10
-52.5711481018
 20
14.0660943375
 10
-52.5711481018
 20
17.066095253
 10
-51.2854321289
 20
17.066095253
  0
LWPOLYLINE
  5
250
100
AcDbEntity
  8
0
100
AcDbPolyline
 62
7
  6
CONTINUOUS
 90
13
 70
0
 43
0.3500000006
 10
-41.5711492767
 20
10.4232377014
 10
-41.5711492767
 20
11.7089514084
 10
-41.3568647919
 20
12.137522644
 10
-40.9282912903
 20
12.5660938797
 10
-40.7140068054
 20
12.5660938797
 10
-40.2854333038
 20
12.137522644
 10
-40.071148819
 20
11.7089514084
 10
-40.071148819
 20
10.4232377014
 10
-40.2854333038
 20
9.9946664658
 10
-40.7140068054
 20
9.5660952301
 10
-40.9282912903
 20
9.5660952301
 10
-41.3568647919
 20
9.9946664658
 10
-41.5711492767
 20
10.4232377014
  0
LWPOLYLINE
  5
251
100
AcDbEntity
  8
0
100
AcDbPolyline
 62
7
  6
CONTINUOUS
 90
3
 70
0
 43
0.3500000006
 10
-45.7140037994
 20
14.0660943375
 10
-44.8568613281
 20
17.066095253
 10
-43.9997188568
 20
14.0660943375
  0
LWPOLYLINE
  5
252
100
AcDbEntity
  8
0
100
AcDbPolyline
 62
7
  6
CONTINUOUS
 90
3
 70
0
 43
0.3500000006
 10
-38.2854326935
 20
14.0660943375
 10
-37.4282902222
 20
17.066095253
 10
-36.5711477509
 20
14.0660943375
  0
LWPOLYLINE
  5
253
100
AcDbEntity
  8
0
100
AcDbPolyline
 62
7
  6
CONTINUOUS
 90
5
 70
0
 43
0.3500000006
 10
-36.8568634186
 20
9.5660952301
 10
-36.8568634186
 20
11.7089514084
 10
-35.14257621
 20
11.7089514084
 10
-34.9282917252
 20
11.4946669235
 10
-34.9282917252
 20
9.5660952301
  0
LWPOLYLINE
  5
254
100
AcDbEntity
  8
0
100
AcDbPolyline
 62
7
  6
CONTINUOUS
 90
2
 70
0
 43
0.3500000006
 10
-35.9282920303
 20
11.7089514084
 10
-35.9282920303
 20
9.5660952301
  0
LWPOLYLINE
  5
255
100
AcDbEntity
  8
0
100
AcDbPolyline
 62
7
  6
CONTINUOUS
 90
5
 70
0
 43
0.3500000006
 10
-34.0711492538
 20
9.5660952301
 10
-34.0711492538
 20
11.7089514084
 10
-32.3568620453
 20
11.7089514084
 10
-32.1425775604
 20
11.4946669235
 10
-32.1425775604
 20
9.5660952301
  0
LWPOLYLINE
  5
256
100
AcDbEntity
  8
0
100
AcDbPolyline
 62
7
  6
CONTINUOUS
 90
2
 70
0
 43
0.3500000006
 10
-33.1425778656
 20
11.7089514084
 10
-33.1425778656
 20
9.5660952301
  0
LWPOLYLINE
  5
257
100
AcDbEntity
  8
0
100
AcDbPolyline
 62
7
  6
CONTINUOUS
 90
2
 70
0
 43
0.3500000006
 10
-32.642577713
 20
14.0660943375
 10
-32.642577713
 20
17.066095253
  0
LWPOLYLINE
  5
258
100
AcDbEntity
  8
0
100
AcDbPolyline
 62
7
  6
CONTINUOUS
 90
3
 70
0
 43
0.3500000006
 10
-35.7140052795
 20
17.066095253
 10
-34.8568628082
 20
14.0660943375
 10
-33.9997203369
 20
17.066095253
  0
LINE
  5
259
100
AcDbEntity
  8
0
100
AcDbLine
 62
7
  6
CONTINUOUS
 10
-21.8093175834
 20
4.0
 11
-21.8093175834
 21
-4.0
  0
LWPOLYLINE
  5
25A
100
AcDbEntity
  8
0
100
AcDbPolyline
 62
7
  6
CONTINUOUS
 90
7
 70
0
 43
0.3500000006
 10
22.2002197723
 20
-14.2500001373
 10
20.7002215805
 20
-14.2500001373
 10
22.2002197723
 20
-12.1071428261
 10
22.2002197723
 20
-11.6785715904
 10
21.7716485367
 20
-11.2499997883
 10
21.1287928162
 20
-11.2499997883
 10
20.7002215805
 20
-11.8928572083
  0
LWPOLYLINE
  5
25B
100
AcDbEntity
  8
0
100
AcDbPolyline
 62
7
  6
CONTINUOUS
 90
13
 70
0
 43
0.3500000006
 10
-0.9628890424
 20
-12.5357140617
 10
-1.2486032939
 20
-12.3214284439
 10
-1.2486032939
 20
-11.6785715904
 10
-0.9628890424
 20
-11.2499997883
 10
-0.3200318702
 20
-11.2499997883
 10
-0.0343175833
 20
-11.6785715904
 10
-0.0343175833
 20
-12.3214284439
 10
-0.3200318702
 20
-12.5357140617
 10
0.1085395601
 20
-12.9642858639
 10
0.1085395601
 20
-13.8214283352
 10
-0.3200318702
 20
-14.2500001373
 10
-0.9628890424
 20
-14.2500001373
 10
-1.3914604197
 20
-13.8214283352
  0
LWPOLYLINE
  5
25C
100
AcDbEntity
  8
0
100
AcDbPolyline
 62
7
  6
CONTINUOUS
 90
10
 70
0
 43
0.3500000006
 10
-2.4628890753
 20
-13.7499999847
 10
-2.3914604416
 20
-13.8928572521
 10
-2.3914604416
 20
-13.9642856026
 10
-2.534317709
 20
-14.1071428699
 10
-2.6057460594
 20
-14.1071428699
 10
-2.6771746931
 20
-14.0357145195
 10
-2.6771746931
 20
-13.9642856026
 10
-2.6057460594
 20
-13.8214283352
 10
-2.534317709
 20
-13.7499999847
 10
-2.4628890753
 20
-13.7499999847
  0
LWPOLYLINE
  5
25D
100
AcDbEntity
  8
0
100
AcDbPolyline
 62
7
  6
CONTINUOUS
 90
13
 70
0
 43
0.3500000006
 10
-5.4628891411
 20
-13.3928570995
 10
-5.4628891411
 20
-12.1071428261
 10
-5.2486035233
 20
-11.6785715904
 10
-4.8200317211
 20
-11.2499997883
 10
-4.6057461033
 20
-11.2499997883
 10
-4.1771748676
 20
-11.6785715904
 10
-3.9628889666
 20
-12.1071428261
 10
-3.9628889666
 20
-13.3928570995
 10
-4.1771748676
 20
-13.8214283352
 10
-4.6057461033
 20
-14.2500001373
 10
-4.8200317211
 20
-14.2500001373
 10
-5.2486035233
 20
-13.8214283352
 10
-5.4628891411
 20
-13.3928570995
  0
LINE
  5
25E
100
AcDbEntity
  8
0
100
AcDbLine
 62
7
  6
CONTINUOUS
 10
12.1906824166
 20
-5.0
 11
11.3906824166
 21
-5.0
  0
LINE
  5
25F
100
AcDbEntity
  8
0
100
AcDbLine
 62
7
  6
CONTINUOUS
 10
6.9906824166
 20
-5.0
 11
6.1906824166
 21
-5.0
  0
LINE
  5
260
100
AcDbEntity
  8
0
100
AcDbLine
 62
7
  6
CONTINUOUS
 10
-21.8093175834
 20
-4.0
 11
6.1906824166
 21
-4.0
  0
LINE
  5
261
100
AcDbEntity
  8
0
100
AcDbLine
 62
7
  6
CONTINUOUS
 10
12.1906824166
 20
-4.0
 11
40.1906824166
 21
-4.0
  0
LINE
  5
262
100
AcDbEntity
  8
0
100
AcDbLine
 62
7
  6
CONTINUOUS
 10
-39.8638034332
 20
-2.9999999985
 11
-37.0133753302
 21
-2.9993801968
  0
LINE
  5
263
100
AcDbEntity
  8
0
100
AcDbLine
 62
7
  6
CONTINUOUS
 10
-27.2762071671
 20
-3.0000669101
 11
-22.5608685291
 21
-2.999458751
  0
LINE
  5
264
100
AcDbEntity
  8
0
100
AcDbLine
 62
7
  6
CONTINUOUS
 10
-22.5608685291
 20
-2.999458751
 11
-21.8093175834
 21
-2.9999999929
  0
LINE
  5
265
100
AcDbEntity
  8
0
100
AcDbLine
 62
7
  6
CONTINUOUS
 10
-37.0133753302
 20
-2.9993801968
 11
-27.2762071671
 21
-3.0000669101
  0
LWPOLYLINE
  5
266
100
AcDbEntity
  8
0
100
AcDbPolyline
 62
7
  6
CONTINUOUS
 90
4
 70
0
 43
0.3500000006
 10
-1.3914604197
 20
-13.8214283352
 10
-1.3914604197
 20
-12.9642858639
 10
-0.9628890424
 20
-12.5357140617
 10
-0.3200318702
 20
-12.5357140617
  0
LWPOLYLINE
  5
267
100
AcDbEntity
  8
0
100
AcDbPolyline
 62
7
  6
CONTINUOUS
 90
3
 70
0
 10
-21.8093175834
 20
-0.5000000007
 10
-26.1835083208
 20
-0.499857286
 10
-37.371553384
 20
-0.5007321559
  0
LINE
  5
268
100
AcDbEntity
  8
0
100
AcDbLine
 62
7
  6
CONTINUOUS
 10
-37.7098871637
 20
-2.0001707666
 11
-39.8638034332
 21
-2.0000000015
  0
LINE
  5
269
100
AcDbEntity
  8
0
100
AcDbLine
 62
7
  6
CONTINUOUS
 10
-21.8093175834
 20
-2.0000000071
 11
-37.7098871637
 21
-2.0001707666
  0
LINE
  5
26A
100
AcDbEntity
  8
0
100
AcDbLine
 62
7
  6
CONTINUOUS
 10
-37.371553384
 20
-0.5007321559
 11
-39.8638026519
 21
-0.5000000014
  0
LINE
  5
26B
100
AcDbEntity
  8
0
100
AcDbLine
 62
7
  6
CONTINUOUS
 10
-39.8638026519
 20
-1.4999999986
 11
-21.8093175834
 21
-1.4999999993
  0
LWPOLYLINE
  5
26C
100
AcDbEntity
  8
0
100
AcDbPolyline
 62
7
  6
CONTINUOUS
 90
3
 70
0
 43
0.3500000006
 10
-2.3914604416
 20
-13.9642856026
 10
-2.4628890753
 20
-14.1785712204
 10
-2.6057460594
 20
-14.4642857552
  0
LWPOLYLINE
  5
26D
100
AcDbEntity
  8
0
100
AcDbPolyline
 62
7
  6
CONTINUOUS
 90
4
 70
0
 43
0.3500000006
 10
49.0121104889
 20
0.8214288254
 10
48.1549680176
 20
0.8214288254
 10
47.726394516
 20
1.250000061
 10
47.726394516
 20
1.8928580475
  0
LWPOLYLINE
  5
26E
100
AcDbEntity
  8
0
100
AcDbPolyline
 62
7
  6
CONTINUOUS
 90
13
 70
0
 43
0.3500000006
 10
58.5835400391
 20
1.6785712967
 10
57.2978240662
 20
1.6785712967
 10
56.8692550964
 20
1.8928580475
 10
56.4406815948
 20
2.3214292831
 10
56.4406815948
 20
2.535713768
 10
56.8692550964
 20
2.9642850037
 10
57.2978240662
 20
3.1785717545
 10
58.5835400391
 20
3.1785717545
 10
59.0121090088
 20
2.9642850037
 10
59.4406825104
 20
2.535713768
 10
59.4406825104
 20
2.3214292831
 10
59.0121090088
 20
1.8928580475
 10
58.5835400391
 20
1.6785712967
  0
LINE
  5
26F
100
AcDbEntity
  8
0
100
AcDbLine
 62
7
  6
CONTINUOUS
 10
-39.8638034332
 20
2.0000000015
 11
-37.0133753302
 21
2.0006198032
  0
LWPOLYLINE
  5
270
100
AcDbEntity
  8
0
100
AcDbPolyline
 62
7
  6
CONTINUOUS
 90
3
 70
0
 10
-21.8093175834
 20
1.4999999993
 10
-26.1835083208
 20
1.500142714
 10
-37.371553384
 20
1.4992678441
  0
LINE
  5
271
100
AcDbEntity
  8
0
100
AcDbLine
 62
7
  6
CONTINUOUS
 10
-27.2762071671
 20
1.9999330899
 11
-22.5608685291
 21
2.000541249
  0
LINE
  5
272
100
AcDbEntity
  8
0
100
AcDbLine
 62
7
  6
CONTINUOUS
 10
-37.7098871637
 20
2.9998292334
 11
-39.8638034332
 21
2.9999999985
  0
LINE
  5
273
100
AcDbEntity
  8
0
100
AcDbLine
 62
7
  6
CONTINUOUS
 10
-22.5608685291
 20
2.000541249
 11
-21.8093175834
 21
2.0000000071
  0
LINE
  5
274
100
AcDbEntity
  8
0
100
AcDbLine
 62
7
  6
CONTINUOUS
 10
-37.371553384
 20
1.4992678441
 11
-39.8638026519
 21
1.4999999986
  0
LINE
  5
275
100
AcDbEntity
  8
0
100
AcDbLine
 62
7
  6
CONTINUOUS
 10
-37.0133753302
 20
2.0006198032
 11
-27.2762071671
 21
1.9999330899
  0
LINE
  5
276
100
AcDbEntity
  8
0
100
AcDbLine
 62
7
  6
CONTINUOUS
 10
-21.8093175834
 20
2.9999999929
 11
-37.7098871637
 21
2.9998292334
  0
LINE
  5
277
100
AcDbEntity
  8
0
100
AcDbLine
 62
7
  6
CONTINUOUS
 10
-39.8638026519
 20
0.5000000014
 11
-21.8093175834
 21
0.5000000007
  0
LINE
  5
278
100
AcDbEntity
  8
0
100
AcDbLine
 62
7
  6
CONTINUOUS
 10
-21.8093175834
 20
4.0
 11
6.1906824166
 21
4.0
  0
LINE
  5
279
100
AcDbEntity
  8
0
100
AcDbLine
 62
7
  6
CONTINUOUS
 10
12.1906824166
 20
4.0
 11
40.1906824166
 21
4.0
  0
LINE
  5
27A
100
AcDbEntity
  8
0
100
AcDbLine
 62
7
  6
CONTINUOUS
 10
12.1906824166
 20
5.0
 11
11.3906824166
 21
5.0
  0
LINE
  5
27B
100
AcDbEntity
  8
0
100
AcDbLine
 62
7
  6
CONTINUOUS
 10
6.9906824166
 20
5.0
 11
6.1906824166
 21
5.0
  0
LWPOLYLINE
  5
27C
100
AcDbEntity
  8
0
100
AcDbPolyline
 62
7
  6
CONTINUOUS
 90
13
 70
0
 43
0.3500000006
 10
23.4859357452
 20
-12.5357140617
 10
23.2002200775
 20
-12.3214284439
 10
23.2002200775
 20
-11.6785715904
 10
23.4859357452
 20
-11.2499997883
 10
24.1287914658
 20
-11.2499997883
 10
24.4145071335
 20
-11.6785715904
 10
24.4145071335
 20
-12.3214284439
 10
24.1287914658
 20
-12.5357140617
 10
24.5573627014
 20
-12.9642858639
 10
24.5573627014
 20
-13.8214283352
 10
24.1287914658
 20
-14.2500001373
 10
23.4859357452
 20
-14.2500001373
 10
23.0573645096
 20
-13.8214283352
  0
LINE
  5
27D
100
AcDbEntity
  8
0
100
AcDbLine
 62
7
  6
CONTINUOUS
 10
6.1906824166
 20
-5.0
 11
6.1906824166
 21
5.0
  0
LINE
  5
27E
100
AcDbEntity
  8
0
100
AcDbLine
 62
7
  6
CONTINUOUS
 10
6.9906824166
 20
-5.0
 11
6.9906824166
 21
5.0
  0
LWPOLYLINE
  5
27F
100
AcDbEntity
  8
0
100
AcDbPolyline
 62
7
  6
CONTINUOUS
 90
8
 70
0
 43
0.3500000006
 10
-43.7140077209
 20
9.5660952301
 10
-42.8568607178
 20
9.5660952301
 10
-42.428291748
 20
9.9946664658
 10
-42.428291748
 20
10.8518089371
 10
-42.8568607178
 20
11.2803801727
 10
-43.7140077209
 20
11.2803801727
 10
-43.7140077209
 20
12.5660938797
 10
-42.428291748
 20
12.5660938797
  0
LWPOLYLINE
  5
280
100
AcDbEntity
  8
0
100
AcDbPolyline
 62
7
  6
CONTINUOUS
 90
7
 70
0
 43
0.3500000006
 10
-44.5711501923
 20
9.5660952301
 10
-46.07115065
 20
9.5660952301
 10
-44.5711501923
 20
11.7089514084
 10
-44.5711501923
 20
12.137522644
 10
-44.999719162
 20
12.5660938797
 10
-45.6425771484
 20
12.5660938797
 10
-46.07115065
 20
11.9232381592
  0
LINE
  5
281
100
AcDbEntity
  8
0
100
AcDbLine
 62
7
  6
CONTINUOUS
 10
11.3906824166
 20
-5.0
 11
11.3906824166
 21
5.0
  0
LINE
  5
282
100
AcDbEntity
  8
0
100
AcDbLine
 62
7
  6
CONTINUOUS
 10
12.1906824166
 20
-5.0
 11
12.1906824166
 21
5.0
  0
LWPOLYLINE
  5
283
100
AcDbEntity
  8
0
100
AcDbPolyline
 62
7
  6
CONTINUOUS
 90
13
 70
0
 43
0.3500000006
 10
47.9406835327
 20
-3.1785712624
 10
47.1906833038
 20
-2.9285711861
 10
46.6906831512
 20
-2.4285710335
 10
46.440683075
 20
-1.6785719376
 10
46.6906831512
 20
-0.9285717087
 10
47.1906833038
 20
-0.4285715561
 10
47.9406835327
 20
-0.1785714798
 10
48.6906837616
 20
-0.4285715561
 10
49.1906839142
 20
-0.9285717087
 10
49.4406839905
 20
-1.6785719376
 10
49.1906839142
 20
-2.4285710335
 10
48.6906837616
 20
-2.9285711861
 10
47.9406835327
 20
-3.1785712624
  0
LWPOLYLINE
  5
284
100
AcDbEntity
  8
0
100
AcDbPolyline
 62
7
  6
CONTINUOUS
 90
2
 70
0
 43
0.3500000006
 10
-52.5711481018
 20
14.0660943375
 10
-51.2854321289
 20
14.0660943375
  0
LWPOLYLINE
  5
285
100
AcDbEntity
  8
0
100
AcDbPolyline
 62
7
  6
CONTINUOUS
 90
6
 70
0
 43
0.3500000006
 10
-39.4997220154
 20
14.0660943375
 10
-40.3568644867
 20
14.0660943375
 10
-40.7854334564
 20
14.4946655731
 10
-40.7854334564
 20
16.6375240173
 10
-40.3568644867
 20
17.066095253
 10
-39.4997220154
 20
17.066095253
  0
LWPOLYLINE
  5
286
100
AcDbEntity
  8
0
100
AcDbPolyline
 62
7
  6
CONTINUOUS
 90
2
 70
0
 43
0.3500000006
 10
-45.4282926636
 20
14.9232368088
 10
-44.2854345245
 20
14.9232368088
  0
LWPOLYLINE
  5
287
100
AcDbEntity
  8
0
100
AcDbPolyline
 62
7
  6
CONTINUOUS
 90
2
 70
0
 43
0.3500000006
 10
-37.9997192917
 20
14.9232368088
 10
-36.8568634186
 20
14.9232368088
  0
LWPOLYLINE
  5
288
100
AcDbEntity
  8
0
100
AcDbPolyline
 62
7
  6
CONTINUOUS
 90
8
 70
0
 43
0.3500000006
 10
-56.4282914886
 20
15.7803792801
 10
-55.7854335022
 20
15.7803792801
 10
-55.7854335022
 20
14.0660943375
 10
-56.8568649902
 20
14.0660943375
 10
-57.28543396
 20
14.4946655731
 10
-57.28543396
 20
16.6375240173
 10
-56.8568649902
 20
17.066095253
 10
-55.7854335022
 20
17.066095253
  0
LWPOLYLINE
  5
289
100
AcDbEntity
  8
0
100
AcDbPolyline
 62
7
  6
CONTINUOUS
 90
2
 70
0
 43
0.3500000006
 10
-54.9282910309
 20
15.7803792801
 10
-53.4282905731
 20
15.7803792801
  0
LWPOLYLINE
  5
28A
100
AcDbEntity
  8
0
100
AcDbPolyline
 62
7
  6
CONTINUOUS
 90
2
 70
0
 43
0.3500000006
 10
-51.7140056305
 20
15.7803792801
 10
-52.5711481018
 20
15.7803792801
  0
LWPOLYLINE
  5
28B
100
AcDbEntity
  8
0
100
AcDbPolyline
 62
7
  6
CONTINUOUS
 90
13
 70
0
 43
0.3500000006
 10
57.9406820526
 20
-4.0357137337
 10
57.1906818237
 20
-3.7857147903
 10
56.6906816711
 20
-3.2857146378
 10
56.4406815948
 20
-2.5357144089
 10
56.6906816711
 20
-1.78571418
 10
57.1906818237
 20
-1.2857140274
 10
57.9406820526
 20
-1.0357139511
 10
58.6906822815
 20
-1.2857140274
 10
59.1906824341
 20
-1.78571418
 10
59.4406825104
 20
-2.5357144089
 10
59.1906824341
 20
-3.2857146378
 10
58.6906822815
 20
-3.7857147903
 10
57.9406820526
 20
-4.0357137337
  0
LWPOLYLINE
  5
28C
100
AcDbEntity
  8
0
100
AcDbPolyline
 62
7
  6
CONTINUOUS
 90
4
 70
0
 43
0.3500000006
 10
-50.4282896576
 20
17.066095253
 10
-48.9282891998
 20
17.066095253
 10
-50.4282896576
 20
14.0660943375
 10
-48.9282891998
 20
14.0660943375
  0
LWPOLYLINE
  5
28D
100
AcDbEntity
  8
0
100
AcDbPolyline
 62
7
  6
CONTINUOUS
 90
4
 70
0
 43
0.3500000006
 10
-48.0711467285
 20
17.066095253
 10
-46.5711462708
 20
17.066095253
 10
-48.0711467285
 20
14.0660943375
 10
-46.5711462708
 20
14.0660943375
  0
LWPOLYLINE
  5
28E
100
AcDbEntity
  8
0
100
AcDbPolyline
 62
7
  6
CONTINUOUS
 90
2
 70
0
 43
0.3500000006
 10
50.1906842194
 20
-2.9285711861
 10
45.6906828461
 20
-0.4285715561
  0
LWPOLYLINE
  5
28F
100
AcDbEntity
  8
0
100
AcDbPolyline
 62
7
  6
CONTINUOUS
 90
4
 70
0
 43
0.3500000006
 10
23.0573645096
 20
-13.8214283352
 10
23.0573645096
 20
-12.9642858639
 10
23.4859357452
 20
-12.5357140617
 10
24.1287914658
 20
-12.5357140617
  0
LWPOLYLINE
  5
290
100
AcDbEntity
  8
0
100
AcDbPolyline
 62
7
  6
CONTINUOUS
 90
2
 70
0
 43
0.3500000006
 10
60.1906827393
 20
-3.7857147903
 10
55.690681366
 20
-1.2857140274
  0
LINE
  5
291
100
AcDbEntity
  8
0
100
AcDbLine
 62
7
  6
CONTINUOUS
 10
40.1906824166
 20
4.0
 11
40.1906824166
 21
-4.0
  0
LWPOLYLINE
  5
292
100
AcDbEntity
  8
0
100
AcDbPolyline
 62
7
  6
CONTINUOUS
 90
13
 70
0
 43
0.3500000006
 10
47.726394516
 20
1.250000061
 10
47.5121100311
 20
0.9642866592
 10
46.8692520447
 20
0.9642866592
 10
46.440683075
 20
1.250000061
 10
46.440683075
 20
1.8928580475
 10
46.8692520447
 20
2.1785714493
 10
47.5121100311
 20
2.1785714493
 10
47.726394516
 20
1.8928580475
 10
48.1549680176
 20
2.3214292831
 10
49.0121104889
 20
2.3214292831
 10
49.4406839905
 20
1.8928580475
 10
49.4406839905
 20
1.250000061
 10
49.0121104889
 20
0.8214288254
  0
LWPOLYLINE
  5
293
100
AcDbEntity
  8
0
100
AcDbPolyline
 62
7
  6
CONTINUOUS
 90
3
 70
0
 43
0.3500000006
 10
57.2978240662
 20
-0.0357136459
 10
56.4406815948
 20
0.8214288254
 10
59.4406825104
 20
0.8214288254
  0
SPLINE
  5
294
100
AcDbEntity
  8
0
100
AcDbSpline
 62
7
  6
CONTINUOUS
 70
0
 71
3
 72
13
 73
9
 74
0
 42
0.0000001
 43
0.0000001
 44
0.0000000001
 40
0.0
 40
0.0
 40
0.0
 40
0.0
 40
0.0985333612
 40
0.2018093395
 40
0.3133356686
 40
0.4348072058
 40
0.7051866888
 40
1.0
 40
1.0
 40
1.0
 40
1.0
 10
-39.8638034332
 20
2.0000000015
 30
0.0
 10
-39.885301353
 20
2.0000025837
 30
0.0
 10
-39.9295813525
 20
2.006861661
 30
0.0
 10
-39.9920406928
 20
2.0365642181
 30
0.0
 10
-40.0488994856
 20
2.0839804502
 30
0.0
 10
-40.116957635
 20
2.1710077464
 30
0.0
 10
-40.1753770883
 20
2.3118475271
 30
0.0
 10
-40.1906824166
 20
2.4356778974
 30
0.0
 10
-40.1906824166
 20
2.5
 30
0.0
  0
SPLINE
  5
295
100
AcDbEntity
  8
0
100
AcDbSpline
 62
7
  6
CONTINUOUS
 70
0
 71
3
 72
13
 73
9
 74
0
 42
0.0000001
 43
0.0000001
 44
0.0000000001
 40
0.0
 40
0.0
 40
0.0
 40
0.0
 40
0.098533366
 40
0.2018093124
 40
0.3133356009
 40
0.4348071095
 40
0.7051866027
 40
1.0
 40
1.0
 40
1.0
 40
1.0
 10
-39.8638026519
 20
1.4999999986
 30
0.0
 10
-39.8853005981
 20
1.4999974957
 30
0.0
 10
-39.9295806706
 20
1.4931385622
 30
0.0
 10
-39.9920401548
 20
1.4634361422
 30
0.0
 10
-40.0488990901
 20
1.4160199732
 30
0.0
 10
-40.1169574268
 20
1.3289926704
 30
0.0
 10
-40.1753770461
 20
1.1881527354
 30
0.0
 10
-40.1906824166
 20
1.0643221971
 30
0.0
 10
-40.1906824166
 20
1.0
 30
0.0
  0
SPLINE
  5
296
100
AcDbEntity
  8
0
100
AcDbSpline
 62
7
  6
CONTINUOUS
 70
0
 71
3
 72
13
 73
9
 74
0
 42
0.0000001
 43
0.0000001
 44
0.0000000001
 40
0.0
 40
0.0
 40
0.0
 40
0.0
 40
0.098533366
 40
0.2018093124
 40
0.3133356009
 40
0.4348071095
 40
0.7051866027
 40
1.0
 40
1.0
 40
1.0
 40
1.0
 10
-39.8638026519
 20
-0.5000000014
 30
0.0
 10
-39.8853005981
 20
-0.5000025043
 30
0.0
 10
-39.9295806706
 20
-0.5068614378
 30
0.0
 10
-39.9920401548
 20
-0.5365638578
 30
0.0
 10
-40.0488990901
 20
-0.5839800268
 30
0.0
 10
-40.1169574268
 20
-0.6710073296
 30
0.0
 10
-40.1753770461
 20
-0.8118472646
 30
0.0
 10
-40.1906824166
 20
-0.9356778029
 30
0.0
 10
-40.1906824166
 20
-1.0
 30
0.0
  0
SPLINE
  5
297
100
AcDbEntity
  8
0
100
AcDbSpline
 62
7
  6
CONTINUOUS
 70
0
 71
3
 72
13
 73
9
 74
0
 42
0.0000001
 43
0.0000001
 44
0.0000000001
 40
0.0
 40
0.0
 40
0.0
 40
0.0
 40
0.2948133112
 40
0.5651927942
 40
0.6866643314
 40
0.7981906605
 40
0.9014666388
 40
1.0
 40
1.0
 40
1.0
 40
1.0
 10
-40.1906824166
 20
-2.5
 30
0.0
 10
-40.1906824166
 20
-2.4356778974
 30
0.0
 10
-40.1753770883
 20
-2.3118475271
 30
0.0
 10
-40.116957635
 20
-2.1710077464
 30
0.0
 10
-40.0488994856
 20
-2.0839804502
 30
0.0
 10
-39.9920406928
 20
-2.0365642181
 30
0.0
 10
-39.9295813525
 20
-2.006861661
 30
0.0
 10
-39.885301353
 20
-2.0000025837
 30
0.0
 10
-39.8638034332
 20
-2.0000000015
 30
0.0
  0
SPLINE
  5
298
100
AcDbEntity
  8
0
100
AcDbSpline
 62
7
  6
CONTINUOUS
 70
0
 71
3
 72
13
 73
9
 74
0
 42
0.0000001
 43
0.0000001
 44
0.0000000001
 40
0.0
 40
0.0
 40
0.0
 40
0.0
 40
0.2948133973
 40
0.5651928905
 40
0.6866643991
 40
0.7981906876
 40
0.901466634
 40
1.0
 40
1.0
 40
1.0
 40
1.0
 10
-40.1906824166
 20
-1.0
 30
0.0
 10
-40.1906824166
 20
-1.0643221971
 30
0.0
 10
-40.1753770461
 20
-1.1881527354
 30
0.0
 10
-40.1169574268
 20
-1.3289926704
 30
0.0
 10
-40.0488990901
 20
-1.4160199732
 30
0.0
 10
-39.9920401548
 20
-1.4634361422
 30
0.0
 10
-39.9295806706
 20
-1.4931385622
 30
0.0
 10
-39.8853005981
 20
-1.4999974957
 30
0.0
 10
-39.8638026519
 20
-1.4999999986
 30
0.0
  0
SPLINE
  5
299
100
AcDbEntity
  8
0
100
AcDbSpline
 62
7
  6
CONTINUOUS
 70
0
 71
3
 72
13
 73
9
 74
0
 42
0.0000001
 43
0.0000001
 44
0.0000000001
 40
0.0
 40
0.0
 40
0.0
 40
0.0
 40
0.2948133973
 40
0.5651928905
 40
0.6866643991
 40
0.7981906876
 40
0.901466634
 40
1.0
 40
1.0
 40
1.0
 40
1.0
 10
-40.1906824166
 20
1.0
 30
0.0
 10
-40.1906824166
 20
0.9356778029
 30
0.0
 10
-40.1753770461
 20
0.8118472646
 30
0.0
 10
-40.1169574268
 20
0.6710073296
 30
0.0
 10
-40.0488990901
 20
0.5839800268
 30
0.0
 10
-39.9920401548
 20
0.5365638578
 30
0.0
 10
-39.9295806706
 20
0.5068614378
 30
0.0
 10
-39.8853005981
 20
0.5000025043
 30
0.0
 10
-39.8638026519
 20
0.5000000014
 30
0.0
  0
SPLINE
  5
29A
100
AcDbEntity
  8
0
100
AcDbSpline
 62
7
  6
CONTINUOUS
 70
0
 71
3
 72
13
 73
9
 74
0
 42
0.0000001
 43
0.0000001
 44
0.0000000001
 40
0.0
 40
0.0
 40
0.0
 40
0.0
 40
0.2948133112
 40
0.5651927942
 40
0.6866643314
 40
0.7981906605
 40
0.9014666388
 40
1.0
 40
1.0
 40
1.0
 40
1.0
 10
-40.1906824166
 20
2.5
 30
0.0
 10
-40.1906824166
 20
2.5643221026
 30
0.0
 10
-40.1753770883
 20
2.6881524729
 30
0.0
 10
-40.116957635
 20
2.8289922536
 30
0.0
 10
-40.0488994856
 20
2.9160195498
 30
0.0
 10
-39.9920406928
 20
2.9634357819
 30
0.0
 10
-39.9295813525
 20
2.993138339
 30
0.0
 10
-39.885301353
 20
2.9999974163
 30
0.0
 10
-39.8638034332
 20
2.9999999985
 30
0.0
  0
SPLINE
  5
29B
100
AcDbEntity
  8
0
100
AcDbSpline
 62
7
  6
CONTINUOUS
 70
0
 71
3
 72
13
 73
9
 74
0
 42
0.0000001
 43
0.0000001
 44
0.0000000001
 40
0.0
 40
0.0
 40
0.0
 40
0.0
 40
0.0985333612
 40
0.2018093395
 40
0.3133356686
 40
0.4348072058
 40
0.7051866888
 40
1.0
 40
1.0
 40
1.0
 40
1.0
 10
-39.8638034332
 20
-2.9999999985
 30
0.0
 10
-39.885301353
 20
-2.9999974163
 30
0.0
 10
-39.9295813525
 20
-2.993138339
 30
0.0
 10
-39.9920406928
 20
-2.9634357819
 30
0.0
 10
-40.0488994856
 20
-2.9160195498
 30
0.0
 10
-40.116957635
 20
-2.8289922536
 30
0.0
 10
-40.1753770883
 20
-2.6881524729
 30
0.0
 10
-40.1906824166
 20
-2.5643221026
 30
0.0
 10
-40.1906824166
 20
-2.5
 30
0.0
  0
SPLINE
  5
29C
100
AcDbEntity
  8
0
100
AcDbSpline
 62
7
  6
CONTINUOUS
 70
0
 71
3
 72
13
 73
9
 74
0
 42
0.0000001
 43
0.0000001
 44
0.0000000001
 40
0.0
 40
0.0
 40
0.0
 40
0.0
 40
0.0960003921
 40
0.1974323101
 40
0.3078360563
 40
0.4290984976
 40
0.7014279647
 40
1.0
 40
1.0
 40
1.0
 40
1.0
 10
-21.8093175834
 20
2.0
 30
0.0
 10
-21.8299871134
 20
2.0
 30
0.0
 10
-21.872743138
 20
2.0069360489
 30
0.0
 10
-21.9328706488
 20
2.0367033537
 30
0.0
 10
-21.9874840871
 20
2.0842056255
 30
0.0
 10
-22.0529986399
 20
2.171496349
 30
0.0
 10
-22.1089476278
 20
2.3123330514
 30
0.0
 10
-22.1235806947
 20
2.4357154329
 30
0.0
 10
-22.1235806947
 20
2.5
 30
0.0
  0
SPLINE
  5
29D
100
AcDbEntity
  8
0
100
AcDbSpline
 62
7
  6
CONTINUOUS
 70
0
 71
3
 72
13
 73
9
 74
0
 42
0.0000001
 43
0.0000001
 44
0.0000000001
 40
0.0
 40
0.0
 40
0.0
 40
0.0
 40
0.2985720353
 40
0.5709015024
 40
0.6921639437
 40
0.8025676899
 40
0.9039996079
 40
1.0
 40
1.0
 40
1.0
 40
1.0
 10
-22.1235806947
 20
2.5
 30
0.0
 10
-22.1235806947
 20
2.5642845671
 30
0.0
 10
-22.1089476278
 20
2.6876669486
 30
0.0
 10
-22.0529986399
 20
2.828503651
 30
0.0
 10
-21.9874840871
 20
2.9157943745
 30
0.0
 10
-21.9328706488
 20
2.9632966463
 30
0.0
 10
-21.872743138
 20
2.9930639511
 30
0.0
 10
-21.8299871134
 20
3.0
 30
0.0
 10
-21.8093175834
 20
3.0
 30
0.0
  0
SPLINE
  5
29E
100
AcDbEntity
  8
0
100
AcDbSpline
 62
7
  6
CONTINUOUS
 70
0
 71
3
 72
13
 73
9
 74
0
 42
0.0000001
 43
0.0000001
 44
0.0000000001
 40
0.0
 40
0.0
 40
0.0
 40
0.0
 40
0.2985720353
 40
0.5709015024
 40
0.6921639437
 40
0.8025676899
 40
0.9039996079
 40
1.0
 40
1.0
 40
1.0
 40
1.0
 10
-22.1235806947
 20
-1.0
 30
0.0
 10
-22.1235806947
 20
-1.0642845671
 30
0.0
 10
-22.1089476278
 20
-1.1876669486
 30
0.0
 10
-22.0529986399
 20
-1.328503651
 30
0.0
 10
-21.9874840871
 20
-1.4157943745
 30
0.0
 10
-21.9328706488
 20
-1.4632966463
 30
0.0
 10
-21.872743138
 20
-1.4930639511
 30
0.0
 10
-21.8299871134
 20
-1.5
 30
0.0
 10
-21.8093175834
 20
-1.5
 30
0.0
  0
SPLINE
  5
29F
100
AcDbEntity
  8
0
100
AcDbSpline
 62
7
  6
CONTINUOUS
 70
0
 71
3
 72
13
 73
9
 74
0
 42
0.0000001
 43
0.0000001
 44
0.0000000001
 40
0.0
 40
0.0
 40
0.0
 40
0.0
 40
0.0960003921
 40
0.1974323101
 40
0.3078360563
 40
0.4290984976
 40
0.7014279647
 40
1.0
 40
1.0
 40
1.0
 40
1.0
 10
-21.8093175834
 20
-0.5
 30
0.0
 10
-21.8299871134
 20
-0.5
 30
0.0
 10
-21.872743138
 20
-0.5069360489
 30
0.0
 10
-21.9328706488
 20
-0.5367033537
 30
0.0
 10
-21.9874840871
 20
-0.5842056255
 30
0.0
 10
-22.0529986399
 20
-0.671496349
 30
0.0
 10
-22.1089476278
 20
-0.8123330514
 30
0.0
 10
-22.1235806947
 20
-0.9357154329
 30
0.0
 10
-22.1235806947
 20
-1.0
 30
0.0
  0
SPLINE
  5
2A0
100
AcDbEntity
  8
0
100
AcDbSpline
 62
7
  6
CONTINUOUS
 70
0
 71
3
 72
13
 73
9
 74
0
 42
0.0000001
 43
0.0000001
 44
0.0000000001
 40
0.0
 40
0.0
 40
0.0
 40
0.0
 40
0.0960003921
 40
0.1974323101
 40
0.3078360563
 40
0.4290984976
 40
0.7014279647
 40
1.0
 40
1.0
 40
1.0
 40
1.0
 10
-21.8093175834
 20
-3.0
 30
0.0
 10
-21.8299871134
 20
-3.0
 30
0.0
 10
-21.872743138
 20
-2.9930639511
 30
0.0
 10
-21.9328706488
 20
-2.9632966463
 30
0.0
 10
-21.9874840871
 20
-2.9157943745
 30
0.0
 10
-22.0529986399
 20
-2.828503651
 30
0.0
 10
-22.1089476278
 20
-2.6876669486
 30
0.0
 10
-22.1235806947
 20
-2.5642845671
 30
0.0
 10
-22.1235806947
 20
-2.5
 30
0.0
  0
SPLINE
  5
2A1
100
AcDbEntity
  8
0
100
AcDbSpline
 62
7
  6
CONTINUOUS
 70
0
 71
3
 72
13
 73
9
 74
0
 42
0.0000001
 43
0.0000001
 44
0.0000000001
 40
0.0
 40
0.0
 40
0.0
 40
0.0
 40
0.2985720353
 40
0.5709015024
 40
0.6921639437
 40
0.8025676899
 40
0.9039996079
 40
1.0
 40
1.0
 40
1.0
 40
1.0
 10
-22.1235806947
 20
-2.5
 30
0.0
 10
-22.1235806947
 20
-2.4357154329
 30
0.0
 10
-22.1089476278
 20
-2.3123330514
 30
0.0
 10
-22.0529986399
 20
-2.171496349
 30
0.0
 10
-21.9874840871
 20
-2.0842056255
 30
0.0
 10
-21.9328706488
 20
-2.0367033537
 30
0.0
 10
-21.872743138
 20
-2.0069360489
 30
0.0
 10
-21.8299871134
 20
-2.0
 30
0.0
 10
-21.8093175834
 20
-2.0
 30
0.0
  0
SPLINE
  5
2A2
100
AcDbEntity
  8
0
100
AcDbSpline
 62
7
  6
CONTINUOUS
 70
0
 71
3
 72
13
 73
9
 74
0
 42
0.0000001
 43
0.0000001
 44
0.0000000001
 40
0.0
 40
0.0
 40
0.0
 40
0.0
 40
0.2985720353
 40
0.5709015024
 40
0.6921639437
 40
0.8025676899
 40
0.9039996079
 40
1.0
 40
1.0
 40
1.0
 40
1.0
 10
-22.1235806947
 20
1.0
 30
0.0
 10
-22.1235806947
 20
0.9357154329
 30
0.0
 10
-22.1089476278
 20
0.8123330514
 30
0.0
 10
-22.0529986399
 20
0.671496349
 30
0.0
 10
-21.9874840871
 20
0.5842056255
 30
0.0
 10
-21.9328706488
 20
0.5367033537
 30
0.0
 10
-21.872743138
 20
0.5069360489
 30
0.0
 10
-21.8299871134
 20
0.5
 30
0.0
 10
-21.8093175834
 20
0.5
 30
0.0
  0
SPLINE
  5
2A3
100
AcDbEntity
  8
0
100
AcDbSpline
 62
7
  6
CONTINUOUS
 70
0
 71
3
 72
13
 73
9
 74
0
 42
0.0000001
 43
0.0000001
 44
0.0000000001
 40
0.0
 40
0.0
 40
0.0
 40
0.0
 40
0.0960003921
 40
0.1974323101
 40
0.3078360563
 40
0.4290984976
 40
0.7014279647
 40
1.0
 40
1.0
 40
1.0
 40
1.0
 10
-21.8093175834
 20
1.5
 30
0.0
 10
-21.8299871134
 20
1.5
 30
0.0
 10
-21.872743138
 20
1.4930639511
 30
0.0
 10
-21.9328706488
 20
1.4632966463
 30
0.0
 10
-21.9874840871
 20
1.4157943745
 30
0.0
 10
-22.0529986399
 20
1.328503651
 30
0.0
 10
-22.1089476278
 20
1.1876669486
 30
0.0
 10
-22.1235806947
 20
1.0642845671
 30
0.0
 10
-22.1235806947
 20
1.0
 30
0.0
  0
ENDSEC
  0
SECTION
  2
OBJECTS
  0
DICTIONARY
  5
C
100
AcDbDictionary
280
0
281
1
  3
ACAD_GROUP
350
D
  3
ACAD_MLINESTYLE
350
17
  3
ACAD_LAYOUT
350
1A
  3
ACAD_PLOTSETTINGS
350
19
  3
ACAD_PLOTSTYLENAME
350
E
  0
DICTIONARY
  5
D
102
{ACAD_REACTORS
330
C
102
}
100
AcDbDictionary
280
0
281
1
  0
ACDBDICTIONARYWDFLT
  5
E
102
{ACAD_REACTORS
330
C
102
}
100
AcDbDictionary
281
1
  3
Normal
350
F
100
AcDbDictionaryWithDefault
340
F
  0
DICTIONARY
  5
17
102
{ACAD_REACTORS
330
C
102
}
100
AcDbDictionary
280
0
281
1
  3
Standard
350
18
  0
DICTIONARY
  5
19
102
{ACAD_REACTORS
330
C
102
}
100
AcDbDictionary
281
1
  0
DICTIONARY
  5
1A
102
{ACAD_REACTORS
330
C
102
}
100
AcDbDictionary
281
1
  3
Model
350
2A4
  3
Layout1
350
2A5
  0
ACDBPLACEHOLDER
  5
F
102
{ACAD_REACTORS
330
E
102
}
  0
MLINESTYLE
  5
18
102
{ACAD_REACTORS
330
17
102
}
100
AcDbMlineStyle
  2
STANDARD
 70
0
  3

 62
256
 51
90.0
 52
90.0
 71
2
 49
0.5
 62
256
  6
BYLAYER
 49
-0.5
 62
256
  6
BYLAYER
  0
LAYOUT
  5
2A4
102
{ACAD_REACTORS
330
1A
102
}
100
AcDbPlotSettings
  1

  2
none_device
  4
ISO_A4_(297.00_x_210.00_MM)
  6

 40
0.0
 41
0.0
 42
0.0
 43
0.0
 44
297.0
 45
210.0
 46
0.0
 47
0.0
 48
0.0
 49
0.0
140
0.0
141
0.0
142
1.0
143
1.0
 70
1024
 72
1
 73
0
 74
0
  7

 75
0
147
1.0
148
0.0
149
0.0
100
AcDbLayout
  1
Model
 70
0
 71
0
 10
0.0
 20
0.0
 11
297.0
 21
210.0
 12
0.0
 22
0.0
 32
0.0
 14
0.0
 24
0.0
 34
0.0
 15
0.0
 25
0.0
 35
0.0
146
0.0
 13
0.0
 23
0.0
 33
0.0
 16
1.0
 26
0.0
 36
0.0
 17
0.0
 27
1.0
 37
0.0
 76
0
330
20F
345
0
346
0
  0
LAYOUT
  5
2A5
102
{ACAD_REACTORS
330
1A
102
}
100
AcDbPlotSettings
  1

  2
none_device
  4
ISO_A4_(297.00_x_210.00_MM)
  6

 40
0.0
 41
0.0
 42
0.0
 43
0.0
 44
297.0
 45
210.0
 46
0.0
 47
0.0
 48
0.0
 49
0.0
140
0.0
141
0.0
142
1.0
143
1.0
 70
0
 72
1
 73
0
 74
0
  7

 75
0
147
1.0
148
0.0
149
0.0
100
AcDbLayout
  1
Layout1
 70
0
 71
1
 10
0.0
 20
0.0
 11
297.0
 21
210.0
 12
0.0
 22
0.0
 32
0.0
 14
0.0
 24
0.0
 34
0.0
 15
0.0
 25
0.0
 35
0.0
146
0.0
 13
0.0
 23
0.0
 33
0.0
 16
1.0
 26
0.0
 36
0.0
 17
0.0
 27
1.0
 37
0.0
 76
0
330
210
345
0
346
0
  0
ENDSEC
  0
EOF
