  0
SECTION
  2
HEADER
  9
$ACADVER
  1
AC1024
  9
$DWGCODEPAGE
  3
ANSI_1252
  9
$EXTMAX
 10
297.0
 20
210.0
 30
0.0
  9
$EXTMIN
 10
0.0
 20
0.0
 30
0.0
  9
$LIMMIN
 10
0.0
 20
0.0
  9
$LIMMAX
 10
297.0
 20
210.0
  9
$VIEWCTR
 10
148.5
 20
105.0
  9
$VIEWSIZE
 40
210.0
  9
$CLAYER
  8
0
  9
$LTSCALE
 40
16.335
  9
$CELTYPE
  6
BYLAYER
  9
$DIMSCALE
 40
1.0
  9
$DIMASZ
 40
3.0
  9
$DIMEXO
 40
0.5
  9
$DIMDLI
 40
11.286
  9
$DIMEXE
 40
1.5
  9
$DIMCEN
 40
2.673
  9
$DIMLFAC
 40
1.0
  9
$DIMBLK
  1
_FILLED
  9
$DIMALT
 70
0
  9
$DIMALTF
 40
0.0393700787
  9
$DIMTXT
 40
3.0
  9
$DIMTOL
 70
1
  9
$DIMLIM
 70
0
  9
$DIMTFAC
 40
1.0
  9
$DIMTP
 40
0.01
  9
$DIMTM
 40
0.01
  9
$DIMGAP
 40
0.625
  9
$DIMDSEP
 70
44
  9
$AUNITS
 70
0
  9
$PDMODE
 70
3
  9
$PDSIZE
 40
3.0
  9
$HANDSEED
  5
A2E
  9
$TILEMODE
 70
1
  9
$MEASUREMENT
 70
1
  9
$INSUNITS
 70
4
  0
ENDSEC
  0
SECTION
  2
CLASSES
  0
CLASS
  1
ACDBDICTIONARYWDFLT
  2
AcDbDictionaryWithDefault
  3
AutoCAD 2000
 90
0
 91
1
280
0
281
0
  0
CLASS
  1
ACDBPLACEHOLDER
  2
AcDbPlaceHolder
  3
AutoCAD 2000
 90
0
 91
1
280
0
281
0
  0
CLASS
  1
LAYOUT
  2
AcDbLayout
  3
AutoCAD 2000
 90
0
 91
0
280
0
281
0
  0
ENDSEC
  0
SECTION
  2
TABLES
  0
TABLE
  2
VPORT
  5
8
100
AcDbSymbolTable
 70
2
  0
VPORT
  5
1F4
100
AcDbSymbolTableRecord
100
AcDbViewportTableRecord
  2
*ACTIVE
 70
0
 10
0.0
 20
0.0
 11
1.0
 21
1.0
 12
148.5
 22
105.0
 13
0.0
 23
0.0
 14
1.0
 24
1.0
 15
0.0
 25
0.0
 16
0.0
 26
0.0
 36
1.0
 17
0.0
 27
0.0
 37
0.0
 40
210.0
 41
1.4142857143
 42
50.0
 43
0.0
 44
0.0
 50
0.0
 51
0.0
 71
0
 72
100
 73
1
 74
1
 75
0
 76
0
 77
0
 78
0
  0
ENDTAB
  0
TABLE
  2
LTYPE
  5
5
100
AcDbSymbolTable
 70
6
  0
LTYPE
  5
14
100
AcDbSymbolTableRecord
100
AcDbLinetypeTableRecord
  2
BYBLOCK
 70
0
  3

 72
65
 73
0
 40
0.0
  0
LTYPE
  5
15
100
AcDbSymbolTableRecord
100
AcDbLinetypeTableRecord
  2
BYLAYER
 70
0
  3

 72
65
 73
0
 40
0.0
  0
LTYPE
  5
16
100
AcDbSymbolTableRecord
100
AcDbLinetypeTableRecord
  2
CONTINUOUS
 70
64
  3
Solid line
 72
65
 73
0
 40
0.0
  0
LTYPE
  5
1F5
100
AcDbSymbolTableRecord
100
AcDbLinetypeTableRecord
  2
CENTER
 70
64
  3
____ _ ____ _ ____ _ ____ _ ____ _ ____ _ ____
 72
65
 73
4
 40
0.6
 49
0.375
 74
0
 49
-0.075
 74
0
 49
0.075
 74
0
 49
-0.075
 74
0
  0
LTYPE
  5
1F6
100
AcDbSymbolTableRecord
100
AcDbLinetypeTableRecord
  2
HIDDEN
 70
64
  3
- - - - - - - - - - - - - - - - - - - -
 72
65
 73
2
 40
0.2
 49
0.1
 74
0
 49
-0.1
 74
0
  0
LTYPE
  5
1F7
100
AcDbSymbolTableRecord
100
AcDbLinetypeTableRecord
  2
PHANTOM
 70
64
  3
_____ _ _ _____ _ _ _____ _ _ _____
 72
65
 73
6
 40
0.8
 49
0.45
 74
0
 49
-0.05
 74
0
 49
0.1
 74
0
 49
-0.05
 74
0
 49
0.1
 74
0
 49
-0.05
 74
0
  0
LTYPE
  5
1F8
100
AcDbSymbolTableRecord
100
AcDbLinetypeTableRecord
  2
DOT
 70
64
  3
. . . . . . . . . . . . . . . . . . . .
 72
65
 73
2
 40
0.2
 49
0.1
 74
0
 49
-0.1
 74
0
  0
LTYPE
  5
1F9
100
AcDbSymbolTableRecord
100
AcDbLinetypeTableRecord
  2
DASHED
 70
64
  3
- - - - - - - - - - - - - - - - - - - -
 72
65
 73
2
 40
0.2
 49
0.1
 74
0
 49
-0.1
 74
0
  0
ENDTAB
  0
TABLE
  2
LAYER
  5
2
100
AcDbSymbolTable
 70
36
  0
LAYER
  5
10
100
AcDbSymbolTableRecord
100
AcDbLayerTableRecord
  2
0
 70
0
 62
7
  6
CONTINUOUS
370
-3
390
F
  0
LAYER
  5
1FA
100
AcDbSymbolTableRecord
100
AcDbLayerTableRecord
  2
DEFAULT_1
 70
0
 62
7
  6
CENTER
370
-3
390
F
  0
LAYER
  5
1FB
100
AcDbSymbolTableRecord
100
AcDbLayerTableRecord
  2
DEFAULT_2
 70
0
 62
7
  6
HIDDEN
370
-3
390
F
  0
LAYER
  5
1FC
100
AcDbSymbolTableRecord
100
AcDbLayerTableRecord
  2
DEFAULT_3
 70
0
 62
7
  6
PHANTOM
370
-3
390
F
  0
LAYER
  5
1FD
100
AcDbSymbolTableRecord
100
AcDbLayerTableRecord
  2
Livello_1
 70
0
 62
7
  6
CONTINUOUS
370
-3
390
F
  0
LAYER
  5
1FE
100
AcDbSymbolTableRecord
100
AcDbLayerTableRecord
  2
SNAPLINE
 70
0
 62
7
  6
CONTINUOUS
370
-3
390
F
  0
ENDTAB
  0
TABLE
  2
STYLE
  5
3
100
AcDbSymbolTable
 70
1
  0
STYLE
  5
11
100
AcDbSymbolTableRecord
100
AcDbTextStyleTableRecord
  2
STANDARD
 70
0
 40
0.0
 41
0.8
 50
0.0
 71
0
 42
0.2
  3
txt
  4

  0
STYLE
  5
1FF
100
AcDbSymbolTableRecord
100
AcDbTextStyleTableRecord
  2
TEXTSTYLE_1
 70
0
 40
0.0
 41
0.8
 50
0.0
 71
0
 42
0.2
  3
gdt
  4

  0
ENDTAB
  0
TABLE
  2
VIEW
  5
6
100
AcDbSymbolTable
 70
0
  0
ENDTAB
  0
TABLE
  2
UCS
  5
7
100
AcDbSymbolTable
 70
0
  0
ENDTAB
  0
TABLE
  2
APPID
  5
9
100
AcDbSymbolTable
 70
1
  0
APPID
  5
200
100
AcDbSymbolTableRecord
100
AcDbRegAppTableRecord
  2
ACAD
 70
0
  0
ENDTAB
  0
TABLE
  2
BLOCK_RECORD
  5
1
100
AcDbSymbolTable
 70
0
  0
BLOCK_RECORD
  5
201
100
AcDbSymbolTableRecord
100
AcDbBlockTableRecord
  2
*Model_Space
  0
BLOCK_RECORD
  5
202
100
AcDbSymbolTableRecord
100
AcDbBlockTableRecord
  2
*Paper_Space
  0
BLOCK_RECORD
  5
203
100
AcDbSymbolTableRecord
100
AcDbBlockTableRecord
  2
_FILLED
  0
BLOCK_RECORD
  5
204
100
AcDbSymbolTableRecord
100
AcDbBlockTableRecord
  2
*D0
  0
BLOCK_RECORD
  5
205
100
AcDbSymbolTableRecord
100
AcDbBlockTableRecord
  2
*D1
  0
BLOCK_RECORD
  5
206
100
AcDbSymbolTableRecord
100
AcDbBlockTableRecord
  2
*D2
  0
ENDTAB
  0
TABLE
  2
DIMSTYLE
  5
A
100
AcDbSymbolTable
 70
1
100
AcDbDimStyleTable
 71
0
  0
DIMSTYLE
105
207
100
AcDbSymbolTableRecord
100
AcDbDimStyleTableRecord
  2
STANDARD
 70
0
  3

  4

 40
1.0
 41
3.0
 42
0.5
 43
0.38
 44
1.5
 45
0.0
 46
0.0
 47
0.01
 48
0.01
140
3.0
141
0.09
142
0.0
143
25.4
144
1.0
145
0.0
146
1.0
147
0.625
 71
1
 72
0
 73
0
 74
0
 75
0
 76
0
 77
1
 78
8
 79
2
170
0
171
1
172
0
173
0
174
0
175
0
176
0
177
0
178
0
270
2
179
2
271
2
272
2
273
2
274
2
275
0
280
0
281
0
282
0
283
1
284
8
285
0
286
0
287
3
288
0
340
11
278
44
341
203
342
203
343
203
344
203
  0
DIMSTYLE
105
208
100
AcDbSymbolTableRecord
100
AcDbDimStyleTableRecord
  2
DIMSTYLE_1
 70
0
  3

  4

 40
1.0
 41
3.0
 42
0.5
 43
0.38
 44
1.5
 45
0.0
 46
0.0
 47
0.0
 48
0.0
140
2.5495500794
141
0.09
142
0.0
143
25.4
144
1.0
145
0.0
146
1.0
147
0.6373875198
 71
0
 72
0
 73
0
 74
0
 75
0
 76
0
 77
1
 78
8
 79
2
170
0
171
1
172
0
173
0
174
0
175
0
176
0
177
0
178
0
270
2
179
2
271
2
272
2
273
2
274
2
275
0
280
0
281
0
282
0
283
1
284
8
285
0
286
0
287
3
288
0
340
11
278
44
341
203
342
203
343
203
344
203
  0
DIMSTYLE
105
209
100
AcDbSymbolTableRecord
100
AcDbDimStyleTableRecord
  2
DIMSTYLE_2
 70
0
  3

  4

 40
1.0
 41
3.0
 42
0.5
 43
0.38
 44
1.5
 45
0.0
 46
0.0
 47
0.0
 48
0.0
140
3.0
141
0.09
142
0.0
143
25.4
144
1.0
145
0.0
146
1.0
147
0.75
 71
0
 72
0
 73
0
 74
0
 75
0
 76
0
 77
1
 78
8
 79
2
170
0
171
1
172
0
173
0
174
0
175
0
176
0
177
0
178
0
270
2
179
2
271
1
272
1
273
2
274
2
275
0
280
0
281
0
282
0
283
1
284
8
285
0
286
0
287
3
288
0
340
11
278
44
341
203
342
203
343
203
344
203
  0
DIMSTYLE
105
20A
100
AcDbSymbolTableRecord
100
AcDbDimStyleTableRecord
  2
DIMSTYLE_3
 70
0
  3

  4

 40
1.0
 41
3.0
 42
0.5
 43
0.38
 44
1.5
 45
0.0
 46
0.0
 47
0.0
 48
0.0
140
3.0
141
0.09
142
0.0
143
25.4
144
1.0
145
0.0
146
1.0
147
0.75
 71
0
 72
0
 73
0
 74
0
 75
0
 76
0
 77
1
 78
8
 79
2
170
0
171
1
172
0
173
0
174
0
175
0
176
0
177
0
178
0
270
2
179
2
271
2
272
2
273
2
274
2
275
0
280
0
281
0
282
0
283
1
284
8
285
0
286
0
287
3
288
0
340
11
278
44
341
203
342
203
343
203
344
203
  0
ENDTAB
  0
ENDSEC
  0
SECTION
  2
BLOCKS
  0
BLOCK
  5
20
100
AcDbEntity
  8
0
100
AcDbBlockBegin
  2
*Model_Space
 70
0
 10
0.0
 20
0.0
 30
0.0
  3
*Model_Space
  1

  0
ENDBLK
  5
21
100
AcDbEntity
  8
0
100
AcDbBlockEnd
  0
BLOCK
  5
1C
100
AcDbEntity
  8
0
100
AcDbBlockBegin
  2
*Paper_Space
 70
0
 10
0.0
 20
0.0
 30
0.0
  3
*Paper_Space
  1

  0
ENDBLK
  5
1D
100
AcDbEntity
  8
0
100
AcDbBlockEnd
  0
BLOCK
  5
20B
100
AcDbEntity
  8
0
100
AcDbBlockBegin
  2
_FILLED
 70
64
 10
0.0
 20
0.0
  3
_FILLED
  1

  0
SOLID
  5
20C
100
AcDbEntity
  8
0
  6
BYBLOCK
 62
0
100
AcDbTrace
 10
0.0
 20
0.0
 11
-1.0
 21
0.3166666667
 12
-1.0
 22
-0.3166666667
 13
-1.0
 23
-0.3166666667
  0
ENDBLK
  5
20D
100
AcDbEntity
  8
0
  6
BYBLOCK
 62
0
100
AcDbBlockEnd
  0
BLOCK
  5
20E
100
AcDbEntity
  8
0
100
AcDbBlockBegin
 62
7
  6
CONTINUOUS
  2
*D0
 70
65
 10
0.0
 20
0.0
  3
*D0
  1

  0
MTEXT
  5
20F
100
AcDbEntity
  8
0
100
AcDbMText
 62
7
  6
CONTINUOUS
  7
STANDARD
 71
2
 72
1
 10
-60.0550010989
 20
3.5981694128
 30
0.0
 11
0.0
 21
1.0
 31
0.0
 73
2
 44
0.9
  1
{\ftxt;\W0.0001;\H0.0001;\~}{\ftxt;\W3.4285714286;\H2.5495500794; }{\ftxt;\W0.0001;\H0.0001;\~}
 40
2.5495500794
 41
13.1119718369
  0
LINE
  5
210
100
AcDbEntity
  8
0
100
AcDbLine
 62
7
  6
CONTINUOUS
 10
-39.5795180661
 20
75.8469360306
 11
-58.3680634997
 21
75.8469360306
  0
LINE
  5
211
100
AcDbEntity
  8
0
100
AcDbLine
 62
7
  6
CONTINUOUS
 10
-39.6001284851
 20
-68.6505972049
 11
-58.3680634997
 21
-68.6505972049
  0
LINE
  5
212
100
AcDbEntity
  8
0
100
AcDbLine
 62
7
  6
CONTINUOUS
 10
-56.8680634997
 20
75.8469360306
 11
-56.8680634997
 21
3.5981694128
  0
LINE
  5
213
100
AcDbEntity
  8
0
100
AcDbLine
 62
7
  6
CONTINUOUS
 10
-56.8680634997
 20
-68.6505972049
 11
-56.8680634997
 21
3.5981694128
  0
INSERT
  5
214
100
AcDbEntity
  8
0
100
AcDbBlockReference
 62
7
  6
CONTINUOUS
  2
_FILLED
 10
-56.8680634997
 20
75.8469360306
 41
3.0
 42
3.0
 43
3.0
 50
90.0
  0
INSERT
  5
215
100
AcDbEntity
  8
0
100
AcDbBlockReference
 62
7
  6
CONTINUOUS
  2
_FILLED
 10
-56.8680634997
 20
-68.6505972049
 41
3.0
 42
3.0
 43
3.0
 50
270.0
  0
ENDBLK
  5
216
100
AcDbEntity
  8
0
  6
BYBLOCK
 62
0
100
AcDbBlockEnd
  0
BLOCK
  5
217
100
AcDbEntity
  8
0
100
AcDbBlockBegin
 62
7
  6
CONTINUOUS
  2
*D1
 70
65
 10
0.0
 20
0.0
  3
*D1
  1

  0
MTEXT
  5
218
100
AcDbEntity
  8
0
100
AcDbMText
 62
7
  6
CONTINUOUS
  7
STANDARD
 71
2
 72
1
 10
-0.5854190235
 20
95.6113632669
 30
0.0
 11
1.0
 21
0.0
 31
0.0
 73
2
 44
0.9
  1
{\ftxt;\W0.0001;\H0.0001;\~}{\ftxt;\W1.5714285714;\H3.0; }{\ftxt;\W0.0001;\H0.0001;\~}
 40
3.0
 41
7.0714285714
  0
LINE
  5
219
100
AcDbEntity
  8
0
100
AcDbLine
 62
7
  6
CONTINUOUS
 10
-39.5891925424
 20
67.1071115493
 11
-39.5891925424
 21
93.3613632669
  0
LINE
  5
21A
100
AcDbEntity
  8
0
100
AcDbLine
 62
7
  6
CONTINUOUS
 10
38.4183544954
 20
75.8520933385
 11
38.4183544954
 21
93.3613632669
  0
LINE
  5
21B
100
AcDbEntity
  8
0
100
AcDbLine
 62
7
  6
CONTINUOUS
 10
-39.5891925424
 20
91.8613632669
 11
-0.5854190235
 21
91.8613632669
  0
LINE
  5
21C
100
AcDbEntity
  8
0
100
AcDbLine
 62
7
  6
CONTINUOUS
 10
38.4183544954
 20
91.8613632669
 11
-0.5854190235
 21
91.8613632669
  0
INSERT
  5
21D
100
AcDbEntity
  8
0
100
AcDbBlockReference
 62
7
  6
CONTINUOUS
  2
_FILLED
 10
-39.5891925424
 20
91.8613632669
 41
3.0
 42
3.0
 43
3.0
 50
180.0
  0
INSERT
  5
21E
100
AcDbEntity
  8
0
100
AcDbBlockReference
 62
7
  6
CONTINUOUS
  2
_FILLED
 10
38.4183544954
 20
91.8613632669
 41
3.0
 42
3.0
 43
3.0
  0
ENDBLK
  5
21F
100
AcDbEntity
  8
0
  6
BYBLOCK
 62
0
100
AcDbBlockEnd
  0
BLOCK
  5
220
100
AcDbEntity
  8
0
100
AcDbBlockBegin
 62
7
  6
CONTINUOUS
  2
*D2
 70
65
 10
0.0
 20
0.0
  3
*D2
  1

  0
MTEXT
  5
221
100
AcDbEntity
  8
0
100
AcDbMText
 62
7
  6
CONTINUOUS
  7
STANDARD
 71
2
 72
1
 10
122.1763008987
 20
95.2026148821
 30
0.0
 11
1.0
 21
0.0
 31
0.0
 73
2
 44
0.9
  1
{\ftxt;\W0.0001;\H0.0001;\~}{\ftxt;\W2.9285714286;\H3.0; }{\ftxt;\W0.0001;\H0.0001;\~}
 40
3.0
 41
13.1785714286
  0
LINE
  5
222
100
AcDbEntity
  8
0
100
AcDbLine
 62
7
  6
CONTINUOUS
 10
91.8649770467
 20
77.5338684129
 11
91.8763884448
 21
92.9750077044
  0
LINE
  5
223
100
AcDbEntity
  8
0
100
AcDbLine
 62
7
  6
CONTINUOUS
 10
152.4613428307
 20
69.8084282229
 11
152.478430429
 21
92.9302212404
  0
LINE
  5
224
100
AcDbEntity
  8
0
100
AcDbLine
 62
7
  6
CONTINUOUS
 10
91.8752799067
 20
91.475008114
 11
122.1763008987
 21
91.4526148821
  0
LINE
  5
225
100
AcDbEntity
  8
0
100
AcDbLine
 62
7
  6
CONTINUOUS
 10
152.4773218908
 20
91.4302216501
 11
122.1763008987
 21
91.4526148821
  0
INSERT
  5
226
100
AcDbEntity
  8
0
100
AcDbBlockReference
 62
7
  6
CONTINUOUS
  2
_FILLED
 10
91.8752799067
 20
91.475008114
 41
3.0
 42
3.0
 43
3.0
 50
179.9576569565
  0
INSERT
  5
227
100
AcDbEntity
  8
0
100
AcDbBlockReference
 62
7
  6
CONTINUOUS
  2
_FILLED
 10
152.4773218908
 20
91.4302216501
 41
3.0
 42
3.0
 43
3.0
 50
359.9576569565
  0
ENDBLK
  5
228
100
AcDbEntity
  8
0
  6
BYBLOCK
 62
0
100
AcDbBlockEnd
  0
ENDSEC
  0
SECTION
  2
ENTITIES
  0
DIMENSION
  5
229
100
AcDbEntity
  8
0
100
AcDbDimension
 62
7
  6
CONTINUOUS
  2
*D0
 10
-56.8680634997
 20
-68.6505972049
 11
-56.8680634997
 21
3.2339483676
 70
160
 71
2
 72
2
 41
0.9
 42
144.4975332354
  1
{\ftxt;\W0.0001;\H0.0001;\~}{\ftxt;\W3.4285714286;\H2.5495500794; }{\ftxt;\W0.0001;\H0.0001;\~}
  3
DIMSTYLE_1
100
AcDbAlignedDimension
 13
-39.0795180661
 23
75.8469360306
 14
-39.1001284851
 24
-68.6505972049
 50
270.0
100
AcDbRotatedDimension
  0
DIMENSION
  5
22A
100
AcDbEntity
  8
0
100
AcDbDimension
 62
7
  6
CONTINUOUS
  2
*D1
 10
38.4183544954
 20
91.8613632669
 11
-1.0139904413
 21
91.8613632669
 70
160
 71
2
 72
2
 41
0.9
 42
78.0075470379
  1
{\ftxt;\W0.0001;\H0.0001;\~}{\ftxt;\W1.5714285714;\H3.0; }{\ftxt;\W0.0001;\H0.0001;\~}
  3
DIMSTYLE_2
100
AcDbAlignedDimension
 13
-39.5891925424
 23
66.6071115493
 14
38.4183544954
 24
75.3520933385
100
AcDbRotatedDimension
  0
DIMENSION
  5
22B
100
AcDbEntity
  8
0
100
AcDbDimension
 62
7
  6
CONTINUOUS
  2
*D2
 10
152.4773218908
 20
91.4302216501
 11
121.7461425136
 21
91.4529327801
 70
160
 71
2
 72
2
 41
0.9
 42
60.6020585333
  1
{\ftxt;\W0.0001;\H0.0001;\~}{\ftxt;\W2.9285714286;\H3.0; }{\ftxt;\W0.0001;\H0.0001;\~}
  3
DIMSTYLE_3
100
AcDbAlignedDimension
 13
91.864607534
 23
77.0338685494
 14
152.460973318
 24
69.3084283595
 50
359.9576569565
100
AcDbRotatedDimension
  0
LINE
  5
22C
100
AcDbEntity
  8
Livello_1
100
AcDbLine
 62
7
  6
CONTINUOUS
 10
-30.3023688342
 20
-56.5987024785
 11
-30.3042950418
 21
-56.5780920585
  0
LINE
  5
22D
100
AcDbEntity
  8
Livello_1
100
AcDbLine
 62
7
  6
CONTINUOUS
 10
-39.5886518545
 20
-68.2183293064
 11
-39.5900232215
 21
-68.2025181178
  0
LINE
  5
22E
100
AcDbEntity
  8
Livello_1
100
AcDbLine
 62
7
  6
CONTINUOUS
 10
-39.5900232215
 20
-68.2025181178
 11
-39.5908451365
 21
-68.1867260979
  0
LINE
  5
22F
100
AcDbEntity
  8
Livello_1
100
AcDbLine
 62
7
  6
CONTINUOUS
 10
-6.6367125083
 20
-67.9715830881
 11
-6.6367921719
 21
-67.969682874
  0
LINE
  5
230
100
AcDbEntity
  8
Livello_1
100
AcDbLine
 62
7
  6
CONTINUOUS
 10
-39.5908451365
 20
-68.1867260979
 11
-39.59111875
 21
-68.1709715519
  0
LINE
  5
231
100
AcDbEntity
  8
Livello_1
100
AcDbLine
 62
7
  6
CONTINUOUS
 10
-39.59111875
 20
70.9767131328
 11
-39.5891925424
 21
66.6071115493
  0
LWPOLYLINE
  5
232
100
AcDbEntity
  8
0
100
AcDbPolyline
 62
7
  6
CONTINUOUS
 90
3
 70
0
 43
0.3500000006
 10
-58.051785141
 20
3.9623909912
 10
-58.051785141
 20
2.6876149292
 10
-60.0549988403
 20
3.233948822
  0
LWPOLYLINE
  5
233
100
AcDbEntity
  8
0
100
AcDbPolyline
 62
7
  6
CONTINUOUS
 90
3
 70
0
 43
0.3500000006
 10
-58.051785141
 20
1.95917276
 10
-58.051785141
 20
0.6843989639
 10
-60.0549988403
 20
1.2307305908
  0
LWPOLYLINE
  5
234
100
AcDbEntity
  8
0
100
AcDbPolyline
 62
7
  6
CONTINUOUS
 90
8
 70
0
 43
0.3500000006
 10
-57.5054512482
 20
6.1477197647
 10
-57.5054512482
 20
6.8761619339
 10
-57.8696723328
 20
7.2403830185
 10
-58.598114502
 20
7.2403830185
 10
-58.9623355865
 20
6.8761619339
 10
-58.9623355865
 20
6.1477197647
 10
-60.0549988403
 20
6.1477197647
 10
-60.0549988403
 20
7.2403830185
  0
LINE
  5
235
100
AcDbEntity
  8
Livello_1
100
AcDbLine
 62
7
  6
CONTINUOUS
 10
-39.59111875
 20
75.3520933385
 11
-39.59111875
 21
70.9767131328
  0
LINE
  5
236
100
AcDbEntity
  8
Livello_1
100
AcDbLine
 62
7
  6
CONTINUOUS
 10
-39.59111875
 20
-68.1709715519
 11
-39.59111875
 21
13.0533438864
  0
LINE
  5
237
100
AcDbEntity
  8
Livello_1
100
AcDbLine
 62
7
  6
CONTINUOUS
 10
-39.5891925424
 20
66.6071115493
 11
-39.5891925424
 21
14.3211736247
  0
LINE
  5
238
100
AcDbEntity
  8
Livello_1
100
AcDbLine
 62
7
  6
CONTINUOUS
 10
-39.0756656515
 20
13.2677307745
 11
-39.0756656515
 21
14.0651806559
  0
LINE
  5
239
100
AcDbEntity
  8
Livello_1
100
AcDbLine
 62
7
  6
CONTINUOUS
 10
-32.8757819126
 20
11.6443231421
 11
-32.8757819126
 21
-56.6062146874
  0
LINE
  5
23A
100
AcDbEntity
  8
Livello_1
100
AcDbLine
 62
7
  6
CONTINUOUS
 10
-32.7684921608
 20
-56.4632900952
 11
-32.7684921608
 21
11.4958125481
  0
LINE
  5
23B
100
AcDbEntity
  8
Livello_1
100
AcDbLine
 62
7
  6
CONTINUOUS
 10
-30.3042950418
 20
11.6368109327
 11
-30.3042950418
 21
11.6142743056
  0
LINE
  5
23C
100
AcDbEntity
  8
Livello_1
100
AcDbLine
 62
7
  6
CONTINUOUS
 10
-39.5891925424
 20
75.3520933385
 11
-39.589176986
 21
75.3627965639
  0
LINE
  5
23D
100
AcDbEntity
  8
Livello_1
100
AcDbLine
 62
7
  6
CONTINUOUS
 10
-39.589176986
 20
75.3627965639
 11
-39.5889350761
 21
75.3787830382
  0
LINE
  5
23E
100
AcDbEntity
  8
Livello_1
100
AcDbLine
 62
7
  6
CONTINUOUS
 10
-39.5889350761
 20
75.3787830382
 11
-39.588306305
 21
75.3922080269
  0
LINE
  5
23F
100
AcDbEntity
  8
Livello_1
100
AcDbLine
 62
7
  6
CONTINUOUS
 10
-39.588306305
 20
75.3922080269
 11
-39.5872051515
 21
75.4049655051
  0
LINE
  5
240
100
AcDbEntity
  8
Livello_1
100
AcDbLine
 62
7
  6
CONTINUOUS
 10
-39.5872051515
 20
75.4049655051
 11
-39.5842481883
 21
75.4278906385
  0
LINE
  5
241
100
AcDbEntity
  8
Livello_1
100
AcDbLine
 62
7
  6
CONTINUOUS
 10
-39.5842481883
 20
75.4278906385
 11
-39.5822072183
 21
75.4393582834
  0
LINE
  5
242
100
AcDbEntity
  8
Livello_1
100
AcDbLine
 62
7
  6
CONTINUOUS
 10
-39.5822072183
 20
75.4393582834
 11
-39.5793468664
 21
75.4523232176
  0
LINE
  5
243
100
AcDbEntity
  8
Livello_1
100
AcDbLine
 62
7
  6
CONTINUOUS
 10
-39.5722419177
 20
75.4782599263
 11
-39.568035467
 21
75.4946548783
  0
LINE
  5
244
100
AcDbEntity
  8
Livello_1
100
AcDbLine
 62
7
  6
CONTINUOUS
 10
-39.5793468664
 20
75.4523232176
 11
-39.5756624421
 21
75.4665380595
  0
LINE
  5
245
100
AcDbEntity
  8
Livello_1
100
AcDbLine
 62
7
  6
CONTINUOUS
 10
-39.568035467
 20
75.4946548783
 11
-39.5640420444
 21
75.508712973
  0
LINE
  5
246
100
AcDbEntity
  8
Livello_1
100
AcDbLine
 62
7
  6
CONTINUOUS
 10
-39.5756624421
 20
75.4665380595
 11
-39.5722419177
 21
75.4782599263
  0
LINE
  5
247
100
AcDbEntity
  8
Livello_1
100
AcDbLine
 62
7
  6
CONTINUOUS
 10
-39.5640420444
 20
75.508712973
 11
-39.5601186347
 21
75.5208382746
  0
LINE
  5
248
100
AcDbEntity
  8
Livello_1
100
AcDbLine
 62
7
  6
CONTINUOUS
 10
-39.5516314982
 20
75.5422100133
 11
-39.5483488494
 21
75.5517395044
  0
LINE
  5
249
100
AcDbEntity
  8
Livello_1
100
AcDbLine
 62
7
  6
CONTINUOUS
 10
-39.5601186347
 20
75.5208382746
 11
-39.5560289835
 21
75.5318593333
  0
LINE
  5
24A
100
AcDbEntity
  8
Livello_1
100
AcDbLine
 62
7
  6
CONTINUOUS
 10
-39.5483488494
 20
75.5517395044
 11
-39.5444241123
 21
75.5614301307
  0
LINE
  5
24B
100
AcDbEntity
  8
Livello_1
100
AcDbLine
 62
7
  6
CONTINUOUS
 10
-39.5560289835
 20
75.5318593333
 11
-39.5516314982
 21
75.5422100133
  0
LINE
  5
24C
100
AcDbEntity
  8
Livello_1
100
AcDbLine
 62
7
  6
CONTINUOUS
 10
-39.5444241123
 20
75.5614301307
 11
-39.5397967457
 21
75.571382605
  0
LINE
  5
24D
100
AcDbEntity
  8
Livello_1
100
AcDbLine
 62
7
  6
CONTINUOUS
 10
152.0953001129
 20
-64.8516075069
 11
152.0838506175
 21
-64.8548085139
  0
LINE
  5
24E
100
AcDbEntity
  8
Livello_1
100
AcDbLine
 62
7
  6
CONTINUOUS
 10
151.6241875413
 20
-68.4365571887
 11
151.6335818826
 21
-68.434045316
  0
LINE
  5
24F
100
AcDbEntity
  8
Livello_1
100
AcDbLine
 62
7
  6
CONTINUOUS
 10
152.0838506175
 20
-64.8548085139
 11
152.0715433684
 21
-64.8580306531
  0
LINE
  5
250
100
AcDbEntity
  8
Livello_1
100
AcDbLine
 62
7
  6
CONTINUOUS
 10
151.8027882514
 20
-67.8907048759
 11
151.8178126691
 21
-67.8868524613
  0
LINE
  5
251
100
AcDbEntity
  8
Livello_1
100
AcDbLine
 62
7
  6
CONTINUOUS
 10
152.0715433684
 20
-64.8580306531
 11
152.0581910265
 21
-64.8613113789
  0
LINE
  5
252
100
AcDbEntity
  8
Livello_1
100
AcDbLine
 62
7
  6
CONTINUOUS
 10
152.4492908383
 20
-68.2061118015
 11
152.4507804703
 21
-68.2057547279
  0
LINE
  5
253
100
AcDbEntity
  8
Livello_1
100
AcDbLine
 62
7
  6
CONTINUOUS
 10
152.0581910265
 20
-64.8613113789
 11
152.0547361782
 21
-64.8621289143
  0
LINE
  5
254
100
AcDbEntity
  8
Livello_1
100
AcDbLine
 62
7
  6
CONTINUOUS
 10
151.6146824001
 20
-68.4387831287
 11
151.6241875413
 21
-68.4365571887
  0
LINE
  5
255
100
AcDbEntity
  8
Livello_1
100
AcDbLine
 62
7
  6
CONTINUOUS
 10
152.4363452345
 20
-68.2076824234
 11
152.4384244417
 21
-68.2071958736
  0
LINE
  5
256
100
AcDbEntity
  8
Livello_1
100
AcDbLine
 62
7
  6
CONTINUOUS
 10
152.0547361782
 20
-64.8621289143
 11
152.0468564091
 21
-64.8638700464
  0
LINE
  5
257
100
AcDbEntity
  8
Livello_1
100
AcDbLine
 62
7
  6
CONTINUOUS
 10
151.6050715292
 20
-68.4407182445
 11
151.6146824001
 21
-68.4387831287
  0
LINE
  5
258
100
AcDbEntity
  8
Livello_1
100
AcDbLine
 62
7
  6
CONTINUOUS
 10
151.648499039
 20
-67.9151677106
 11
151.6954984997
 21
-67.9057292942
  0
LINE
  5
259
100
AcDbEntity
  8
Livello_1
100
AcDbLine
 62
7
  6
CONTINUOUS
 10
152.0468564091
 20
-64.8638700464
 11
152.0386761322
 21
-64.8654571185
  0
LINE
  5
25A
100
AcDbEntity
  8
Livello_1
100
AcDbLine
 62
7
  6
CONTINUOUS
 10
151.9613203329
 20
-64.8726761017
 11
151.9568848429
 21
-64.8734935383
  0
LINE
  5
25B
100
AcDbEntity
  8
Livello_1
100
AcDbLine
 62
7
  6
CONTINUOUS
 10
152.4222806555
 20
-68.2090789768
 11
152.4253384813
 21
-68.2085291044
  0
LINE
  5
25C
100
AcDbEntity
  8
Livello_1
100
AcDbLine
 62
7
  6
CONTINUOUS
 10
152.434114839
 20
-68.2080594564
 11
152.4363452345
 21
-68.2076824234
  0
LINE
  5
25D
100
AcDbEntity
  8
Livello_1
100
AcDbLine
 62
7
  6
CONTINUOUS
 10
151.5953599973
 20
-68.4423576436
 11
151.6050715292
 21
-68.4407182445
  0
LINE
  5
25E
100
AcDbEntity
  8
Livello_1
100
AcDbLine
 62
7
  6
CONTINUOUS
 10
152.0386761322
 20
-64.8654571185
 11
152.0301207672
 21
-64.8668982505
  0
LINE
  5
25F
100
AcDbEntity
  8
Livello_1
100
AcDbLine
 62
7
  6
CONTINUOUS
 10
152.4476009865
 20
-68.206365888
 11
152.4492908383
 21
-68.2061118015
  0
LINE
  5
260
100
AcDbEntity
  8
Livello_1
100
AcDbLine
 62
7
  6
CONTINUOUS
 10
38.010212145
 20
-68.6437449444
 11
37.993662972
 21
-68.6462118038
  0
LINE
  5
261
100
AcDbEntity
  8
Livello_1
100
AcDbLine
 62
7
  6
CONTINUOUS
 10
151.7386455452
 20
-67.899950672
 11
151.7763992103
 21
-67.8943646702
  0
LINE
  5
262
100
AcDbEntity
  8
Livello_1
100
AcDbLine
 62
7
  6
CONTINUOUS
 10
152.0301207672
 20
-64.8668982505
 11
152.0210888488
 21
-64.8682027152
  0
LINE
  5
263
100
AcDbEntity
  8
Livello_1
100
AcDbLine
 62
7
  6
CONTINUOUS
 10
151.7763992103
 20
-67.8943646702
 11
151.8027882514
 21
-67.8907048759
  0
LINE
  5
264
100
AcDbEntity
  8
Livello_1
100
AcDbLine
 62
7
  6
CONTINUOUS
 10
151.5855528724
 20
-68.4436964339
 11
151.5953599973
 21
-68.4423576436
  0
LINE
  5
265
100
AcDbEntity
  8
Livello_1
100
AcDbLine
 62
7
  6
CONTINUOUS
 10
152.4188863157
 20
-68.2095397996
 11
152.4222806555
 21
-68.2090789768
  0
LINE
  5
266
100
AcDbEntity
  8
Livello_1
100
AcDbLine
 62
7
  6
CONTINUOUS
 10
151.6954984997
 20
-67.9057292942
 11
151.7386455452
 21
-67.899950672
  0
LINE
  5
267
100
AcDbEntity
  8
Livello_1
100
AcDbLine
 62
7
  6
CONTINUOUS
 10
151.535623286
 20
-67.9282659212
 11
151.5920781997
 21
-67.9207537124
  0
LINE
  5
268
100
AcDbEntity
  8
Livello_1
100
AcDbLine
 62
7
  6
CONTINUOUS
 10
152.0210888488
 20
-64.8682027152
 11
152.0114345809
 21
-64.8693820642
  0
LINE
  5
269
100
AcDbEntity
  8
Livello_1
100
AcDbLine
 62
7
  6
CONTINUOUS
 10
5.0694050108
 20
-68.0481813347
 11
5.0333279447
 21
-68.0525097938
  0
LINE
  5
26A
100
AcDbEntity
  8
Livello_1
100
AcDbLine
 62
7
  6
CONTINUOUS
 10
5.2796092385
 20
-68.0246231243
 11
5.2346166171
 21
-68.0299731667
  0
LINE
  5
26B
100
AcDbEntity
  8
Livello_1
100
AcDbLine
 62
7
  6
CONTINUOUS
 10
37.993662972
 20
-68.6462118038
 11
37.9770785939
 21
-68.6481312485
  0
LINE
  5
26C
100
AcDbEntity
  8
Livello_1
100
AcDbLine
 62
7
  6
CONTINUOUS
 10
-6.2435701284
 20
-67.8908796575
 11
-6.2369361781
 21
-67.8901155504
  0
LINE
  5
26D
100
AcDbEntity
  8
Livello_1
100
AcDbLine
 62
7
  6
CONTINUOUS
 10
152.4317185368
 20
-68.2083244871
 11
152.434114839
 21
-68.2080594564
  0
LINE
  5
26E
100
AcDbEntity
  8
Livello_1
100
AcDbLine
 62
7
  6
CONTINUOUS
 10
-6.3591096447
 20
-67.9035148504
 11
-6.2435701284
 21
-67.8908796575
  0
LINE
  5
26F
100
AcDbEntity
  8
Livello_1
100
AcDbLine
 62
7
  6
CONTINUOUS
 10
5.1860327767
 20
-68.0361268802
 11
5.1028640313
 21
-68.044997585
  0
LINE
  5
270
100
AcDbEntity
  8
Livello_1
100
AcDbLine
 62
7
  6
CONTINUOUS
 10
151.5756552242
 20
-68.4447297231
 11
151.5855528724
 21
-68.4436964339
  0
LINE
  5
271
100
AcDbEntity
  8
Livello_1
100
AcDbLine
 62
7
  6
CONTINUOUS
 10
152.0114345809
 20
-64.8693820642
 11
152.000932303
 21
-64.8704523997
  0
LINE
  5
272
100
AcDbEntity
  8
Livello_1
100
AcDbLine
 62
7
  6
CONTINUOUS
 10
152.3070265963
 20
-68.2129368875
 11
152.312479783
 21
-68.212381519
  0
LINE
  5
273
100
AcDbEntity
  8
Livello_1
100
AcDbLine
 62
7
  6
CONTINUOUS
 10
-3.1955311917
 20
-68.6210301663
 11
-3.3475992001
 21
-68.6362937589
  0
LINE
  5
274
100
AcDbEntity
  8
Livello_1
100
AcDbLine
 62
7
  6
CONTINUOUS
 10
151.5920781997
 20
-67.9207537124
 11
151.648499039
 21
-67.9151677106
  0
LINE
  5
275
100
AcDbEntity
  8
Livello_1
100
AcDbLine
 62
7
  6
CONTINUOUS
 10
152.4150836067
 20
-68.2099085545
 11
152.4188863157
 21
-68.2095397996
  0
LINE
  5
276
100
AcDbEntity
  8
Livello_1
100
AcDbLine
 62
7
  6
CONTINUOUS
 10
5.3869698401
 20
-68.0080719721
 11
5.3756277921
 21
-68.0091701263
  0
LINE
  5
277
100
AcDbEntity
  8
Livello_1
100
AcDbLine
 62
7
  6
CONTINUOUS
 10
-34.2903886227
 20
-68.0317067534
 11
-35.919382216
 21
-68.1879221772
  0
LINE
  5
278
100
AcDbEntity
  8
Livello_1
100
AcDbLine
 62
7
  6
CONTINUOUS
 10
5.1028640313
 20
-68.044997585
 11
5.0694050108
 21
-68.0481813347
  0
LINE
  5
279
100
AcDbEntity
  8
Livello_1
100
AcDbLine
 62
7
  6
CONTINUOUS
 10
-6.5803418038
 20
-67.9377078305
 11
-6.5702890758
 21
-67.9367542535
  0
LINE
  5
27A
100
AcDbEntity
  8
Livello_1
100
AcDbLine
 62
7
  6
CONTINUOUS
 10
-6.2369361781
 20
-67.8901155504
 11
-6.2041659916
 21
-67.8870485745
  0
LINE
  5
27B
100
AcDbEntity
  8
Livello_1
100
AcDbLine
 62
7
  6
CONTINUOUS
 10
-36.367032814
 20
-67.7213947343
 11
-34.7172361814
 21
-67.5728841409
  0
LINE
  5
27C
100
AcDbEntity
  8
Livello_1
100
AcDbLine
 62
7
  6
CONTINUOUS
 10
-6.123265281
 20
-67.8812699524
 11
-6.058472008
 21
-67.8754839361
  0
LINE
  5
27D
100
AcDbEntity
  8
Livello_1
100
AcDbLine
 62
7
  6
CONTINUOUS
 10
4.9524272341
 20
-68.0580957956
 11
4.8807864427
 21
-68.0643497252
  0
LINE
  5
27E
100
AcDbEntity
  8
Livello_1
100
AcDbLine
 62
7
  6
CONTINUOUS
 10
152.000932303
 20
-64.8704523997
 11
151.9891927198
 21
-64.8714397235
  0
LINE
  5
27F
100
AcDbEntity
  8
Livello_1
100
AcDbLine
 62
7
  6
CONTINUOUS
 10
37.9770785939
 20
-68.6481312485
 11
37.9604844585
 21
-68.6495019346
  0
LINE
  5
280
100
AcDbEntity
  8
Livello_1
100
AcDbLine
 62
7
  6
CONTINUOUS
 10
-33.366412049
 20
-67.9561192103
 11
-34.2903886227
 21
-68.0317067534
  0
LINE
  5
281
100
AcDbEntity
  8
Livello_1
100
AcDbLine
 62
7
  6
CONTINUOUS
 10
152.4455681517
 20
-68.2065248232
 11
152.4476009865
 21
-68.206365888
  0
LINE
  5
282
100
AcDbEntity
  8
Livello_1
100
AcDbLine
 62
7
  6
CONTINUOUS
 10
-2.9912574888
 20
-68.6053101959
 11
-3.1955311917
 21
-68.6210301663
  0
LINE
  5
283
100
AcDbEntity
  8
Livello_1
100
AcDbLine
 62
7
  6
CONTINUOUS
 10
152.3012372423
 20
-68.2133795113
 11
152.3070265963
 21
-68.2129368875
  0
LINE
  5
284
100
AcDbEntity
  8
Livello_1
100
AcDbLine
 62
7
  6
CONTINUOUS
 10
-6.5590861198
 20
-67.9350016132
 11
-6.5464530455
 21
-67.9340480362
  0
LINE
  5
285
100
AcDbEntity
  8
Livello_1
100
AcDbLine
 62
7
  6
CONTINUOUS
 10
152.3714736892
 20
-68.2116989264
 11
152.3785039937
 21
-68.2111708639
  0
LINE
  5
286
100
AcDbEntity
  8
Livello_1
100
AcDbLine
 62
7
  6
CONTINUOUS
 10
151.5656721214
 20
-68.4454526195
 11
151.5756552242
 21
-68.4447297231
  0
LINE
  5
287
100
AcDbEntity
  8
Livello_1
100
AcDbLine
 62
7
  6
CONTINUOUS
 10
-34.7172361814
 20
-67.5728841409
 11
-31.9701968684
 21
-67.3748223814
  0
LINE
  5
288
100
AcDbEntity
  8
Livello_1
100
AcDbLine
 62
7
  6
CONTINUOUS
 10
-6.2041659916
 20
-67.8870485745
 11
-6.123265281
 21
-67.8812699524
  0
LINE
  5
289
100
AcDbEntity
  8
Livello_1
100
AcDbLine
 62
7
  6
CONTINUOUS
 10
151.9891927198
 20
-64.8714397235
 11
151.9754143452
 21
-64.872395894
  0
LINE
  5
28A
100
AcDbEntity
  8
Livello_1
100
AcDbLine
 62
7
  6
CONTINUOUS
 10
5.0333279447
 20
-68.0525097938
 11
4.9524272341
 21
-68.0580957956
  0
LINE
  5
28B
100
AcDbEntity
  8
Livello_1
100
AcDbLine
 62
7
  6
CONTINUOUS
 10
152.3785039937
 20
-68.2111708639
 11
152.384680744
 21
-68.2107484852
  0
LINE
  5
28C
100
AcDbEntity
  8
Livello_1
100
AcDbLine
 62
7
  6
CONTINUOUS
 10
-30.3287578759
 20
-67.7497099841
 11
-33.366412049
 21
-67.9561192103
  0
LINE
  5
28D
100
AcDbEntity
  8
Livello_1
100
AcDbLine
 62
7
  6
CONTINUOUS
 10
4.5723992885
 20
-68.0825586303
 11
4.4792868656
 21
-68.0888160385
  0
LINE
  5
28E
100
AcDbEntity
  8
Livello_1
100
AcDbLine
 62
7
  6
CONTINUOUS
 10
4.8807864427
 20
-68.0643497252
 11
4.7799796795
 21
-68.0710060571
  0
LINE
  5
28F
100
AcDbEntity
  8
Livello_1
100
AcDbLine
 62
7
  6
CONTINUOUS
 10
-6.058472008
 20
-67.8754839361
 11
-5.9661986859
 21
-67.8694269529
  0
LINE
  5
290
100
AcDbEntity
  8
Livello_1
100
AcDbLine
 62
7
  6
CONTINUOUS
 10
152.3653599666
 20
-68.2120937403
 11
152.3714736892
 21
-68.2116989264
  0
LINE
  5
291
100
AcDbEntity
  8
Livello_1
100
AcDbLine
 62
7
  6
CONTINUOUS
 10
152.4107602124
 20
-68.2101825759
 11
152.4150836067
 21
-68.2099085545
  0
LINE
  5
292
100
AcDbEntity
  8
Livello_1
100
AcDbLine
 62
7
  6
CONTINUOUS
 10
-5.7432245621
 20
-67.8568071177
 11
-5.6873531054
 21
-67.8533790764
  0
LINE
  5
293
100
AcDbEntity
  8
Livello_1
100
AcDbLine
 62
7
  6
CONTINUOUS
 10
-31.9701968684
 20
-67.3748223814
 11
-30.7049461797
 21
-67.2982069595
  0
LINE
  5
294
100
AcDbEntity
  8
Livello_1
100
AcDbLine
 62
7
  6
CONTINUOUS
 10
4.7799796795
 20
-68.0710060571
 11
4.7736751876
 21
-68.0713866266
  0
LINE
  5
295
100
AcDbEntity
  8
Livello_1
100
AcDbLine
 62
7
  6
CONTINUOUS
 10
-5.5213254701
 20
-67.8473687013
 11
-5.4488749147
 21
-67.8430406533
  0
LINE
  5
296
100
AcDbEntity
  8
Livello_1
100
AcDbLine
 62
7
  6
CONTINUOUS
 10
-29.1944143413
 20
-67.681907482
 11
-30.3287578759
 21
-67.7497099841
  0
LINE
  5
297
100
AcDbEntity
  8
Livello_1
100
AcDbLine
 62
7
  6
CONTINUOUS
 10
151.9754143452
 20
-64.872395894
 11
151.9568848429
 21
-64.8734935383
  0
LINE
  5
298
100
AcDbEntity
  8
Livello_1
100
AcDbLine
 62
7
  6
CONTINUOUS
 10
152.4291280194
 20
-68.2084776073
 11
152.4317185368
 21
-68.2083244871
  0
LINE
  5
299
100
AcDbEntity
  8
Livello_1
100
AcDbLine
 62
7
  6
CONTINUOUS
 10
-2.7278868326
 20
-68.5897955478
 11
-2.9912574888
 21
-68.6053101959
  0
LINE
  5
29A
100
AcDbEntity
  8
Livello_1
100
AcDbLine
 62
7
  6
CONTINUOUS
 10
-5.9661986859
 20
-67.8694269529
 11
-5.7706464179
 21
-67.8582836362
  0
LINE
  5
29B
100
AcDbEntity
  8
Livello_1
100
AcDbLine
 62
7
  6
CONTINUOUS
 10
4.7736751876
 20
-68.0713866266
 11
4.5723992885
 21
-68.0825586303
  0
LINE
  5
29C
100
AcDbEntity
  8
Livello_1
100
AcDbLine
 62
7
  6
CONTINUOUS
 10
152.2654632671
 20
-68.4098177818
 11
151.5770367449
 21
-68.4473788271
  0
LINE
  5
29D
100
AcDbEntity
  8
Livello_1
100
AcDbLine
 62
7
  6
CONTINUOUS
 10
-5.7706464179
 20
-67.8582836362
 11
-5.7432245621
 21
-67.8568071177
  0
LINE
  5
29E
100
AcDbEntity
  8
Livello_1
100
AcDbLine
 62
7
  6
CONTINUOUS
 10
-30.7049461797
 20
-67.2982069595
 11
-29.5538446412
 21
-67.2361830796
  0
LINE
  5
29F
100
AcDbEntity
  8
Livello_1
100
AcDbLine
 62
7
  6
CONTINUOUS
 10
152.2949611435
 20
-68.2137136725
 11
152.3012372423
 21
-68.2133795113
  0
LINE
  5
2A0
100
AcDbEntity
  8
Livello_1
100
AcDbLine
 62
7
  6
CONTINUOUS
 10
152.2654632671
 20
-68.2141151057
 11
151.8422755027
 21
-68.2366517328
  0
LINE
  5
2A1
100
AcDbEntity
  8
Livello_1
100
AcDbLine
 62
7
  6
CONTINUOUS
 10
4.1116377065
 20
-68.1014354631
 11
4.0262838801
 21
-68.1059585814
  0
LINE
  5
2A2
100
AcDbEntity
  8
Livello_1
100
AcDbLine
 62
7
  6
CONTINUOUS
 10
151.5656721214
 20
-68.4454526195
 11
140.64985482
 21
-69.0173436092
  0
LINE
  5
2A3
100
AcDbEntity
  8
Livello_1
100
AcDbLine
 62
7
  6
CONTINUOUS
 10
140.572806524
 20
-68.5038167052
 11
151.535623286
 21
-67.9282659212
  0
LINE
  5
2A4
100
AcDbEntity
  8
Livello_1
100
AcDbLine
 62
7
  6
CONTINUOUS
 10
-28.003825551
 20
-67.6198836026
 11
-29.1944143413
 21
-67.681907482
  0
LINE
  5
2A5
100
AcDbEntity
  8
Livello_1
100
AcDbLine
 62
7
  6
CONTINUOUS
 10
-29.5538446412
 20
-67.2361830796
 11
-28.3461126054
 21
-67.1739665793
  0
LINE
  5
2A6
100
AcDbEntity
  8
Livello_1
100
AcDbLine
 62
7
  6
CONTINUOUS
 10
37.9604844585
 20
-68.6495019346
 11
37.9439051435
 21
-68.6503236454
  0
LINE
  5
2A7
100
AcDbEntity
  8
Livello_1
100
AcDbLine
 62
7
  6
CONTINUOUS
 10
152.384680744
 20
-68.2107484852
 11
152.3894183689
 21
-68.2105248755
  0
LINE
  5
2A8
100
AcDbEntity
  8
Livello_1
100
AcDbLine
 62
7
  6
CONTINUOUS
 10
-25.4812643479
 20
-67.5031554312
 11
-28.003825551
 21
-67.6198836026
  0
LINE
  5
2A9
100
AcDbEntity
  8
Livello_1
100
AcDbLine
 62
7
  6
CONTINUOUS
 10
-2.4013830799
 20
-68.575295044
 11
-2.7278868326
 21
-68.5897955478
  0
LINE
  5
2AA
100
AcDbEntity
  8
Livello_1
100
AcDbLine
 62
7
  6
CONTINUOUS
 10
-28.3461126054
 20
-67.1739665793
 11
-25.7954287739
 21
-67.0610908235
  0
LINE
  5
2AB
100
AcDbEntity
  8
Livello_1
100
AcDbLine
 62
7
  6
CONTINUOUS
 10
152.3602852375
 20
-68.2123119549
 11
152.3653599666
 21
-68.2120937403
  0
LINE
  5
2AC
100
AcDbEntity
  8
Livello_1
100
AcDbLine
 62
7
  6
CONTINUOUS
 10
4.4792868656
 20
-68.0888160385
 11
4.3779518963
 21
-68.0931528882
  0
LINE
  5
2AD
100
AcDbEntity
  8
Livello_1
100
AcDbLine
 62
7
  6
CONTINUOUS
 10
-24.9508732321
 20
-67.4810576658
 11
-25.4812643479
 21
-67.5031554312
  0
LINE
  5
2AE
100
AcDbEntity
  8
Livello_1
100
AcDbLine
 62
7
  6
CONTINUOUS
 10
-5.3446573297
 20
-67.8387517129
 11
-5.2824757534
 21
-67.8361966982
  0
LINE
  5
2AF
100
AcDbEntity
  8
Livello_1
100
AcDbLine
 62
7
  6
CONTINUOUS
 10
-5.4488749147
 20
-67.8430406533
 11
-5.3446573297
 21
-67.8387517129
  0
LINE
  5
2B0
100
AcDbEntity
  8
Livello_1
100
AcDbLine
 62
7
  6
CONTINUOUS
 10
-5.5996063927
 20
-67.8503206549
 11
-5.5213254701
 21
-67.8473687013
  0
LINE
  5
2B1
100
AcDbEntity
  8
Livello_1
100
AcDbLine
 62
7
  6
CONTINUOUS
 10
-5.2824757534
 20
-67.8361966982
 11
-5.175550898
 21
-67.8322708538
  0
LINE
  5
2B2
100
AcDbEntity
  8
Livello_1
100
AcDbLine
 62
7
  6
CONTINUOUS
 10
-5.6873531054
 20
-67.8533790764
 11
-5.6098455247
 21
-67.8506343178
  0
LINE
  5
2B3
100
AcDbEntity
  8
Livello_1
100
AcDbLine
 62
7
  6
CONTINUOUS
 10
152.4057151682
 20
-68.2103603573
 11
152.4107602124
 21
-68.2101825759
  0
LINE
  5
2B4
100
AcDbEntity
  8
Livello_1
100
AcDbLine
 62
7
  6
CONTINUOUS
 10
-5.0247492045
 20
-67.8286844894
 11
-4.9097754064
 21
-67.8246228158
  0
LINE
  5
2B5
100
AcDbEntity
  8
Livello_1
100
AcDbLine
 62
7
  6
CONTINUOUS
 10
-19.9414918831
 20
-67.3037929608
 11
-24.9508732321
 21
-67.4810576658
  0
LINE
  5
2B6
100
AcDbEntity
  8
Livello_1
100
AcDbLine
 62
7
  6
CONTINUOUS
 10
-25.7954287739
 20
-67.0610908235
 11
-21.2609462968
 21
-66.9008255485
  0
LINE
  5
2B7
100
AcDbEntity
  8
Livello_1
100
AcDbLine
 62
7
  6
CONTINUOUS
 10
152.287946384
 20
-68.2139434096
 11
152.2949611435
 21
-68.2137136725
  0
LINE
  5
2B8
100
AcDbEntity
  8
Livello_1
100
AcDbLine
 62
7
  6
CONTINUOUS
 10
-2.0118829329
 20
-68.5627180407
 11
-2.4013830799
 21
-68.575295044
  0
LINE
  5
2B9
100
AcDbEntity
  8
Livello_1
100
AcDbLine
 62
7
  6
CONTINUOUS
 10
4.0262838801
 20
-68.1059585814
 11
3.9217249795
 21
-68.10931822
  0
LINE
  5
2BA
100
AcDbEntity
  8
Livello_1
100
AcDbLine
 62
7
  6
CONTINUOUS
 10
4.3504874232
 20
-68.0939232537
 11
4.1116377065
 21
-68.1014354631
  0
LINE
  5
2BB
100
AcDbEntity
  8
Livello_1
100
AcDbLine
 62
7
  6
CONTINUOUS
 10
-5.6098455247
 20
-67.8506343178
 11
-5.5996063927
 21
-67.8503206549
  0
LINE
  5
2BC
100
AcDbEntity
  8
Livello_1
100
AcDbLine
 62
7
  6
CONTINUOUS
 10
-21.2609462968
 20
-66.9008255485
 11
-20.1841940149
 21
-66.869240562
  0
LINE
  5
2BD
100
AcDbEntity
  8
Livello_1
100
AcDbLine
 62
7
  6
CONTINUOUS
 10
3.7351642967
 20
-68.1140776979
 11
3.5830863979
 21
-68.1183860884
  0
LINE
  5
2BE
100
AcDbEntity
  8
Livello_1
100
AcDbLine
 62
7
  6
CONTINUOUS
 10
4.3779518963
 20
-68.0931528882
 11
4.3504874232
 21
-68.0939232537
  0
LINE
  5
2BF
100
AcDbEntity
  8
Livello_1
100
AcDbLine
 62
7
  6
CONTINUOUS
 10
-18.453689292
 20
-67.2623795009
 11
-19.9414918831
 21
-67.3037929608
  0
LINE
  5
2C0
100
AcDbEntity
  8
Livello_1
100
AcDbLine
 62
7
  6
CONTINUOUS
 10
3.8539239123
 20
-68.1108738795
 11
3.7351642967
 21
-68.1140776979
  0
LINE
  5
2C1
100
AcDbEntity
  8
Livello_1
100
AcDbLine
 62
7
  6
CONTINUOUS
 10
152.4428697915
 20
-68.2065954601
 11
152.4455681517
 21
-68.2065248232
  0
LINE
  5
2C2
100
AcDbEntity
  8
Livello_1
100
AcDbLine
 62
7
  6
CONTINUOUS
 10
-20.1841940149
 20
-66.869240562
 11
-18.6775145916
 21
-66.8297533097
  0
LINE
  5
2C3
100
AcDbEntity
  8
Livello_1
100
AcDbLine
 62
7
  6
CONTINUOUS
 10
-16.9225470346
 20
-67.2228922486
 11
-18.453689292
 21
-67.2623795009
  0
LINE
  5
2C4
100
AcDbEntity
  8
Livello_1
100
AcDbLine
 62
7
  6
CONTINUOUS
 10
152.3980279419
 20
-62.8277857269
 11
152.363314603
 21
-62.8286317172
  0
LINE
  5
2C5
100
AcDbEntity
  8
Livello_1
100
AcDbLine
 62
7
  6
CONTINUOUS
 10
-18.6775145916
 20
-66.8297533097
 11
-17.1274955014
 21
-66.7921922644
  0
LINE
  5
2C6
100
AcDbEntity
  8
Livello_1
100
AcDbLine
 62
7
  6
CONTINUOUS
 10
-5.175550898
 20
-67.8322708538
 11
-5.0247492045
 21
-67.8286844894
  0
LINE
  5
2C7
100
AcDbEntity
  8
Livello_1
100
AcDbLine
 62
7
  6
CONTINUOUS
 10
3.9217249795
 20
-68.10931822
 11
3.8539239123
 21
-68.1108738795
  0
LINE
  5
2C8
100
AcDbEntity
  8
Livello_1
100
AcDbLine
 62
7
  6
CONTINUOUS
 10
-4.9097754064
 20
-67.8246228158
 11
-4.7556580315
 21
-67.82117228
  0
LINE
  5
2C9
100
AcDbEntity
  8
Livello_1
100
AcDbLine
 62
7
  6
CONTINUOUS
 10
-1.5645045533
 20
-68.5529872558
 11
-2.0118829329
 21
-68.5627180407
  0
LINE
  5
2CA
100
AcDbEntity
  8
Livello_1
100
AcDbLine
 62
7
  6
CONTINUOUS
 10
-13.7941936066
 20
-67.157015954
 11
-16.9225470346
 21
-67.2228922486
  0
LINE
  5
2CB
100
AcDbEntity
  8
Livello_1
100
AcDbLine
 62
7
  6
CONTINUOUS
 10
-17.1274955014
 20
-66.7921922644
 11
-13.9598474424
 21
-66.7263159698
  0
LINE
  5
2CC
100
AcDbEntity
  8
Livello_1
100
AcDbLine
 62
7
  6
CONTINUOUS
 10
3.5830863979
 20
-68.1183860884
 11
3.3008970143
 21
-68.1239720902
  0
LINE
  5
2CD
100
AcDbEntity
  8
Livello_1
100
AcDbLine
 62
7
  6
CONTINUOUS
 10
152.4253169073
 20
-62.8272725853
 11
152.3980279419
 21
-62.8277857269
  0
LINE
  5
2CE
100
AcDbEntity
  8
Livello_1
100
AcDbLine
 62
7
  6
CONTINUOUS
 10
-4.6255235804
 20
-67.8201337092
 11
-4.4717350612
 21
-67.8173198654
  0
LINE
  5
2CF
100
AcDbEntity
  8
Livello_1
100
AcDbLine
 62
7
  6
CONTINUOUS
 10
3.1673963036
 20
-68.1250112512
 11
3.0111954223
 21
-68.1278245048
  0
LINE
  5
2D0
100
AcDbEntity
  8
Livello_1
100
AcDbLine
 62
7
  6
CONTINUOUS
 10
152.4262570802
 20
-68.2085281156
 11
152.4291280194
 21
-68.2084776073
  0
LINE
  5
2D1
100
AcDbEntity
  8
Livello_1
100
AcDbLine
 62
7
  6
CONTINUOUS
 10
152.3894183689
 20
-68.2105248755
 11
152.3933804957
 21
-68.2104553114
  0
LINE
  5
2D2
100
AcDbEntity
  8
Livello_1
100
AcDbLine
 62
7
  6
CONTINUOUS
 10
37.9439051435
 20
-68.6503236454
 11
37.9273642311
 21
-68.6505972049
  0
LINE
  5
2D3
100
AcDbEntity
  8
Livello_1
100
AcDbLine
 62
7
  6
CONTINUOUS
 10
151.9568848429
 20
-64.8734935383
 11
151.3757480724
 21
-64.8827393338
  0
LINE
  5
2D4
100
AcDbEntity
  8
Livello_1
100
AcDbLine
 62
7
  6
CONTINUOUS
 10
152.2796944206
 20
-68.2140735258
 11
152.287946384
 21
-68.2139434096
  0
LINE
  5
2D5
100
AcDbEntity
  8
Livello_1
100
AcDbLine
 62
7
  6
CONTINUOUS
 10
-13.9598474424
 20
-66.7263159698
 11
-13.5477983176
 21
-66.7198167555
  0
LINE
  5
2D6
100
AcDbEntity
  8
Livello_1
100
AcDbLine
 62
7
  6
CONTINUOUS
 10
152.3558023941
 20
-68.212381519
 11
152.3602852375
 21
-68.2123119549
  0
LINE
  5
2D7
100
AcDbEntity
  8
Livello_1
100
AcDbLine
 62
7
  6
CONTINUOUS
 10
-8.5881781824
 20
-67.0814969747
 11
-13.7941936066
 21
-67.157015954
  0
LINE
  5
2D8
100
AcDbEntity
  8
Livello_1
100
AcDbLine
 62
7
  6
CONTINUOUS
 10
152.1092478477
 20
-62.8286317172
 11
151.0710220622
 21
-62.8436561349
  0
LINE
  5
2D9
100
AcDbEntity
  8
Livello_1
100
AcDbLine
 62
7
  6
CONTINUOUS
 10
152.3994965973
 20
-68.210443997
 11
152.4057151682
 21
-68.2103603573
  0
LINE
  5
2DA
100
AcDbEntity
  8
Livello_1
100
AcDbLine
 62
7
  6
CONTINUOUS
 10
-1.0751909185
 20
-68.5464898744
 11
-1.5645045533
 21
-68.5529872558
  0
LINE
  5
2DB
100
AcDbEntity
  8
Livello_1
100
AcDbLine
 62
7
  6
CONTINUOUS
 10
152.4450150747
 20
-62.8270090801
 11
152.4253169073
 21
-62.8272725853
  0
LINE
  5
2DC
100
AcDbEntity
  8
Livello_1
100
AcDbLine
 62
7
  6
CONTINUOUS
 10
-13.5477983176
 20
-66.7198167555
 11
-7.3760705699
 21
-66.6398292557
  0
LINE
  5
2DD
100
AcDbEntity
  8
Livello_1
100
AcDbLine
 62
7
  6
CONTINUOUS
 10
-4.4717350612
 20
-67.8173198654
 11
-4.0435486822
 21
-67.8120274671
  0
LINE
  5
2DE
100
AcDbEntity
  8
Livello_1
100
AcDbLine
 62
7
  6
CONTINUOUS
 10
31.5957279063
 20
-56.4632900952
 11
30.8133024628
 21
-56.4727285116
  0
LINE
  5
2DF
100
AcDbEntity
  8
Livello_1
100
AcDbLine
 62
7
  6
CONTINUOUS
 10
119.4943569223
 20
-56.7460662195
 11
119.3956971939
 21
-56.7472095792
  0
LINE
  5
2E0
100
AcDbEntity
  8
Livello_1
100
AcDbLine
 62
7
  6
CONTINUOUS
 10
30.8133024628
 20
-56.4727285116
 11
29.9950495623
 21
-56.482166928
  0
LINE
  5
2E1
100
AcDbEntity
  8
Livello_1
100
AcDbLine
 62
7
  6
CONTINUOUS
 10
121.4589098306
 20
-56.7292245623
 11
121.3633180468
 21
-56.7302589539
  0
LINE
  5
2E2
100
AcDbEntity
  8
Livello_1
100
AcDbLine
 62
7
  6
CONTINUOUS
 10
29.9950495623
 20
-56.482166928
 11
29.1428954113
 21
-56.4914127235
  0
LINE
  5
2E3
100
AcDbEntity
  8
Livello_1
100
AcDbLine
 62
7
  6
CONTINUOUS
 10
29.1428954113
 20
-56.4914127235
 11
28.2568400097
 21
-56.5008511399
  0
LINE
  5
2E4
100
AcDbEntity
  8
Livello_1
100
AcDbLine
 62
7
  6
CONTINUOUS
 10
123.4551792766
 20
-56.7096485344
 11
122.3942242442
 21
-56.7208205375
  0
LINE
  5
2E5
100
AcDbEntity
  8
Livello_1
100
AcDbLine
 62
7
  6
CONTINUOUS
 10
2.712055414
 20
-68.1278245048
 11
2.5660652803
 21
-68.1293297008
  0
LINE
  5
2E6
100
AcDbEntity
  8
Livello_1
100
AcDbLine
 62
7
  6
CONTINUOUS
 10
114.1758677772
 20
-56.7905492466
 11
113.4552735912
 21
-56.798061456
  0
LINE
  5
2E7
100
AcDbEntity
  8
Livello_1
100
AcDbLine
 62
7
  6
CONTINUOUS
 10
118.4308599108
 20
-56.752795581
 11
117.5033910504
 21
-56.7622339974
  0
LINE
  5
2E8
100
AcDbEntity
  8
Livello_1
100
AcDbLine
 62
7
  6
CONTINUOUS
 10
-7.2915100656
 20
-67.0686030324
 11
-8.5881781824
 21
-67.0814969747
  0
LINE
  5
2E9
100
AcDbEntity
  8
Livello_1
100
AcDbLine
 62
7
  6
CONTINUOUS
 10
114.9320968005
 20
-56.7830370378
 11
114.1758677772
 21
-56.7905492466
  0
LINE
  5
2EA
100
AcDbEntity
  8
Livello_1
100
AcDbLine
 62
7
  6
CONTINUOUS
 10
112.1224258847
 20
-56.8075100446
 11
111.9505203755
 21
-56.8092334591
  0
LINE
  5
2EB
100
AcDbEntity
  8
Livello_1
100
AcDbLine
 62
7
  6
CONTINUOUS
 10
120.3663293485
 20
-56.7377711628
 11
119.4943569223
 21
-56.7460662195
  0
LINE
  5
2EC
100
AcDbEntity
  8
Livello_1
100
AcDbLine
 62
7
  6
CONTINUOUS
 10
123.0281390976
 20
-56.816745668
 11
120.5920646063
 21
-56.8394749159
  0
LINE
  5
2ED
100
AcDbEntity
  8
Livello_1
100
AcDbLine
 62
7
  6
CONTINUOUS
 10
26.3664600732
 20
-56.5158755582
 11
25.3600300085
 21
-56.5253139746
  0
LINE
  5
2EE
100
AcDbEntity
  8
Livello_1
100
AcDbLine
 62
7
  6
CONTINUOUS
 10
115.750349701
 20
-56.7755248289
 11
114.9320968005
 21
-56.7830370378
  0
LINE
  5
2EF
100
AcDbEntity
  8
Livello_1
100
AcDbLine
 62
7
  6
CONTINUOUS
 10
122.3942242442
 20
-56.7208205375
 11
121.4589098306
 21
-56.7292245623
  0
LINE
  5
2F0
100
AcDbEntity
  8
Livello_1
100
AcDbLine
 62
7
  6
CONTINUOUS
 10
117.5033910504
 20
-56.7622339974
 11
116.6080898539
 21
-56.7697462063
  0
LINE
  5
2F1
100
AcDbEntity
  8
Livello_1
100
AcDbLine
 62
7
  6
CONTINUOUS
 10
113.4552735912
 20
-56.798061456
 11
112.7092241939
 21
-56.8041885602
  0
LINE
  5
2F2
100
AcDbEntity
  8
Livello_1
100
AcDbLine
 62
7
  6
CONTINUOUS
 10
152.4569560199
 20
-62.8269119992
 11
152.4450150747
 21
-62.8270090801
  0
LINE
  5
2F3
100
AcDbEntity
  8
Livello_1
100
AcDbLine
 62
7
  6
CONTINUOUS
 10
28.2568400097
 20
-56.5008511399
 11
27.2848148486
 21
-56.5087208073
  0
LINE
  5
2F4
100
AcDbEntity
  8
Livello_1
100
AcDbLine
 62
7
  6
CONTINUOUS
 10
-4.7556580315
 20
-67.82117228
 11
-4.6255235804
 21
-67.8201337092
  0
LINE
  5
2F5
100
AcDbEntity
  8
Livello_1
100
AcDbLine
 62
7
  6
CONTINUOUS
 10
3.3008970143
 20
-68.1239720902
 11
3.1673963036
 21
-68.1250112512
  0
LINE
  5
2F6
100
AcDbEntity
  8
Livello_1
100
AcDbLine
 62
7
  6
CONTINUOUS
 10
27.2848148486
 20
-56.5087208073
 11
26.3664600732
 21
-56.5158755582
  0
LINE
  5
2F7
100
AcDbEntity
  8
Livello_1
100
AcDbLine
 62
7
  6
CONTINUOUS
 10
121.3633180468
 20
-56.7302589539
 11
120.3663293485
 21
-56.7377711628
  0
LINE
  5
2F8
100
AcDbEntity
  8
Livello_1
100
AcDbLine
 62
7
  6
CONTINUOUS
 10
-3.9262331274
 20
-67.0443328186
 11
-7.2915100656
 21
-67.0686030324
  0
LINE
  5
2F9
100
AcDbEntity
  8
Livello_1
100
AcDbLine
 62
7
  6
CONTINUOUS
 10
24.3218041968
 20
-56.5308999764
 11
23.2550572699
 21
-56.5386048061
  0
LINE
  5
2FA
100
AcDbEntity
  8
Livello_1
100
AcDbLine
 62
7
  6
CONTINUOUS
 10
119.3956971939
 20
-56.7472095792
 11
119.0612563125
 21
-56.7495833142
  0
LINE
  5
2FB
100
AcDbEntity
  8
Livello_1
100
AcDbLine
 62
7
  6
CONTINUOUS
 10
23.2550572699
 20
-56.5386048061
 11
22.1603936079
 21
-56.546117015
  0
LINE
  5
2FC
100
AcDbEntity
  8
Livello_1
100
AcDbLine
 62
7
  6
CONTINUOUS
 10
-7.3760705699
 20
-66.6398292557
 11
-3.9693801729
 21
-66.6172926287
  0
LINE
  5
2FD
100
AcDbEntity
  8
Livello_1
100
AcDbLine
 62
7
  6
CONTINUOUS
 10
116.6080898539
 20
-56.7697462063
 11
115.750349701
 21
-56.7755248289
  0
LINE
  5
2FE
100
AcDbEntity
  8
Livello_1
100
AcDbLine
 62
7
  6
CONTINUOUS
 10
21.0730495345
 20
-56.5517030168
 11
19.9595090397
 21
-56.5592152256
  0
LINE
  5
2FF
100
AcDbEntity
  8
Livello_1
100
AcDbLine
 62
7
  6
CONTINUOUS
 10
24.6326992443
 20
-56.528952167
 11
24.3218041968
 21
-56.5308999764
  0
LINE
  5
300
100
AcDbEntity
  8
Livello_1
100
AcDbLine
 62
7
  6
CONTINUOUS
 10
22.1603936079
 20
-56.546117015
 11
21.8406235581
 21
-56.5480648244
  0
LINE
  5
301
100
AcDbEntity
  8
Livello_1
100
AcDbLine
 62
7
  6
CONTINUOUS
 10
112.7092241939
 20
-56.8041885602
 11
112.1310060081
 21
-56.8074998724
  0
LINE
  5
302
100
AcDbEntity
  8
Livello_1
100
AcDbLine
 62
7
  6
CONTINUOUS
 10
123.7771424053
 20
-56.7077701034
 11
123.4551792766
 21
-56.7096485344
  0
LINE
  5
303
100
AcDbEntity
  8
Livello_1
100
AcDbLine
 62
7
  6
CONTINUOUS
 10
119.0612563125
 20
-56.7495833142
 11
118.4308599108
 21
-56.752795581
  0
LINE
  5
304
100
AcDbEntity
  8
Livello_1
100
AcDbLine
 62
7
  6
CONTINUOUS
 10
17.6646255507
 20
-56.5705798496
 11
17.3109738734
 21
-56.5723134363
  0
LINE
  5
305
100
AcDbEntity
  8
Livello_1
100
AcDbLine
 62
7
  6
CONTINUOUS
 10
19.9595090397
 20
-56.5592152256
 11
18.8215057113
 21
-56.5648012275
  0
LINE
  5
306
100
AcDbEntity
  8
Livello_1
100
AcDbLine
 62
7
  6
CONTINUOUS
 10
18.8215057113
 20
-56.5648012275
 11
17.6646255507
 21
-56.5705798496
  0
LINE
  5
307
100
AcDbEntity
  8
Livello_1
100
AcDbLine
 62
7
  6
CONTINUOUS
 10
25.3600300085
 20
-56.5253139746
 11
24.6326992443
 21
-56.528952167
  0
LINE
  5
308
100
AcDbEntity
  8
Livello_1
100
AcDbLine
 62
7
  6
CONTINUOUS
 10
21.8406235581
 20
-56.5480648244
 11
21.0730495345
 21
-56.5517030168
  0
LINE
  5
309
100
AcDbEntity
  8
Livello_1
100
AcDbLine
 62
7
  6
CONTINUOUS
 10
-0.5691104726
 20
-68.5442787067
 11
-1.0751909185
 21
-68.5464898744
  0
LINE
  5
30A
100
AcDbEntity
  8
Livello_1
100
AcDbLine
 62
7
  6
CONTINUOUS
 10
-31.1290935409
 20
-56.6021028436
 11
-30.3023688342
 21
-56.5987024785
  0
LINE
  5
30B
100
AcDbEntity
  8
Livello_1
100
AcDbLine
 62
7
  6
CONTINUOUS
 10
107.5450914447
 20
-56.8055736649
 11
107.0296383462
 21
-56.8074998724
  0
LINE
  5
30C
100
AcDbEntity
  8
Livello_1
100
AcDbLine
 62
7
  6
CONTINUOUS
 10
152.460973318
 20
-62.8268981305
 11
152.4569560199
 21
-62.8269119992
  0
LINE
  5
30D
100
AcDbEntity
  8
Livello_1
100
AcDbLine
 62
7
  6
CONTINUOUS
 10
-31.7287646001
 20
-56.6042167623
 11
-31.1290935409
 21
-56.6021028436
  0
LINE
  5
30E
100
AcDbEntity
  8
Livello_1
100
AcDbLine
 62
7
  6
CONTINUOUS
 10
152.2654632671
 20
-68.2141151057
 11
152.2796944206
 21
-68.2140735258
  0
LINE
  5
30F
100
AcDbEntity
  8
Livello_1
100
AcDbLine
 62
7
  6
CONTINUOUS
 10
152.440362899
 20
-68.2066028968
 11
152.4428697915
 21
-68.2065954601
  0
LINE
  5
310
100
AcDbEntity
  8
Livello_1
100
AcDbLine
 62
7
  6
CONTINUOUS
 10
-32.1188520201
 20
-56.6052762202
 11
-31.7287646001
 21
-56.6042167623
  0
LINE
  5
311
100
AcDbEntity
  8
Livello_1
100
AcDbLine
 62
7
  6
CONTINUOUS
 10
-30.3023688342
 20
-56.5987024785
 11
-24.094972887
 21
-56.5836780603
  0
LINE
  5
312
100
AcDbEntity
  8
Livello_1
100
AcDbLine
 62
7
  6
CONTINUOUS
 10
-0.5609435462
 20
-67.0366279889
 11
-3.9262331274
 21
-67.0443328186
  0
LINE
  5
313
100
AcDbEntity
  8
Livello_1
100
AcDbLine
 62
7
  6
CONTINUOUS
 10
152.3933804957
 20
-68.2104553114
 11
152.3994965973
 21
-68.210443997
  0
LINE
  5
314
100
AcDbEntity
  8
Livello_1
100
AcDbLine
 62
7
  6
CONTINUOUS
 10
-4.0435486822
 20
-67.8120274671
 11
-3.8848196686
 21
-67.8117338635
  0
LINE
  5
315
100
AcDbEntity
  8
Livello_1
100
AcDbLine
 62
7
  6
CONTINUOUS
 10
-32.5011897218
 20
-56.6059674451
 11
-32.1188520201
 21
-56.6052762202
  0
LINE
  5
316
100
AcDbEntity
  8
Livello_1
100
AcDbLine
 62
7
  6
CONTINUOUS
 10
-3.9693801729
 20
-66.6172926287
 11
-0.5609435462
 21
-66.611514006
  0
LINE
  5
317
100
AcDbEntity
  8
Livello_1
100
AcDbLine
 62
7
  6
CONTINUOUS
 10
2.5660652803
 20
-68.1293297008
 11
2.4148416133
 21
-68.1295580915
  0
LINE
  5
318
100
AcDbEntity
  8
Livello_1
100
AcDbLine
 62
7
  6
CONTINUOUS
 10
123.8105645411
 20
-56.7077223268
 11
123.7771424053
 21
-56.7077701034
  0
LINE
  5
319
100
AcDbEntity
  8
Livello_1
100
AcDbLine
 62
7
  6
CONTINUOUS
 10
112.1310060081
 20
-56.8074998724
 11
112.1224258847
 21
-56.8075100446
  0
LINE
  5
31A
100
AcDbEntity
  8
Livello_1
100
AcDbLine
 62
7
  6
CONTINUOUS
 10
152.4253384813
 20
-68.2085291044
 11
152.4262570802
 21
-68.2085281156
  0
LINE
  5
31B
100
AcDbEntity
  8
Livello_1
100
AcDbLine
 62
7
  6
CONTINUOUS
 10
-24.094972887
 20
-56.5836780603
 11
-20.5829189452
 21
-56.5798256452
  0
LINE
  5
31C
100
AcDbEntity
  8
Livello_1
100
AcDbLine
 62
7
  6
CONTINUOUS
 10
-8.9072003947
 20
-56.5723134363
 11
-6.8361546374
 21
-56.5705798496
  0
LINE
  5
31D
100
AcDbEntity
  8
Livello_1
100
AcDbLine
 62
7
  6
CONTINUOUS
 10
-20.5829189452
 20
-56.5798256452
 11
-16.8377939095
 21
-56.5761658514
  0
LINE
  5
31E
100
AcDbEntity
  8
Livello_1
100
AcDbLine
 62
7
  6
CONTINUOUS
 10
-32.8757819126
 20
-56.6062146874
 11
-32.5011897218
 21
-56.6059674451
  0
LINE
  5
31F
100
AcDbEntity
  8
Livello_1
100
AcDbLine
 62
7
  6
CONTINUOUS
 10
-16.8377939095
 20
-56.5761658514
 11
-8.9072003947
 21
-56.5723134363
  0
LINE
  5
320
100
AcDbEntity
  8
Livello_1
100
AcDbLine
 62
7
  6
CONTINUOUS
 10
138.5901779625
 20
-69.1057565309
 11
138.5712844212
 21
-69.1057565309
  0
LINE
  5
321
100
AcDbEntity
  8
Livello_1
100
AcDbLine
 62
7
  6
CONTINUOUS
 10
-39.1001284851
 20
-68.6505972049
 11
-3.454107125
 21
-68.6505972049
  0
LINE
  5
322
100
AcDbEntity
  8
Livello_1
100
AcDbLine
 62
7
  6
CONTINUOUS
 10
2.2830890274
 20
-68.6505972049
 11
37.9273642311
 21
-68.6505972049
  0
LINE
  5
323
100
AcDbEntity
  8
Livello_1
100
AcDbLine
 62
7
  6
CONTINUOUS
 10
152.312479783
 20
-68.212381519
 11
152.3558023941
 21
-68.212381519
  0
LINE
  5
324
100
AcDbEntity
  8
Livello_1
100
AcDbLine
 62
7
  6
CONTINUOUS
 10
2.4148416133
 20
-68.1295580915
 11
-3.5856796602
 21
-68.1295580915
  0
LINE
  5
325
100
AcDbEntity
  8
Livello_1
100
AcDbLine
 62
7
  6
CONTINUOUS
 10
3.0111954223
 20
-68.1278245048
 11
2.712055414
 21
-68.1278245048
  0
LINE
  5
326
100
AcDbEntity
  8
Livello_1
100
AcDbLine
 62
7
  6
CONTINUOUS
 10
-3.8848196686
 20
-68.1278245048
 11
-4.1820334693
 21
-68.1278245048
  0
LINE
  5
327
100
AcDbEntity
  8
Livello_1
100
AcDbLine
 62
7
  6
CONTINUOUS
 10
-3.8848196686
 20
-67.8117338635
 11
2.712055414
 21
-67.8117338635
  0
LINE
  5
328
100
AcDbEntity
  8
Livello_1
100
AcDbLine
 62
7
  6
CONTINUOUS
 10
152.363314603
 20
-62.8286317172
 11
152.107514261
 21
-62.8286317172
  0
LINE
  5
329
100
AcDbEntity
  8
Livello_1
100
AcDbLine
 62
7
  6
CONTINUOUS
 10
110.9968550943
 20
-56.8150120813
 11
111.6232737664
 21
-56.8150120813
  0
LINE
  5
32A
100
AcDbEntity
  8
Livello_1
100
AcDbLine
 62
7
  6
CONTINUOUS
 10
108.5571208094
 20
-56.8111596667
 11
109.3976306398
 21
-56.8111651334
  0
LINE
  5
32B
100
AcDbEntity
  8
Livello_1
100
AcDbLine
 62
7
  6
CONTINUOUS
 10
107.1330756834
 20
-56.8092334591
 11
108.2090551334
 21
-56.8092334591
  0
LINE
  5
32C
100
AcDbEntity
  8
Livello_1
100
AcDbLine
 62
7
  6
CONTINUOUS
 10
-6.8361546374
 20
-56.5705798496
 11
5.6597305891
 21
-56.5705798496
  0
LINE
  5
32D
100
AcDbEntity
  8
Livello_1
100
AcDbLine
 62
7
  6
CONTINUOUS
 10
-0.5609435462
 20
-66.611514006
 11
-0.2517300931
 21
-66.6115726684
  0
LINE
  5
32E
100
AcDbEntity
  8
Livello_1
100
AcDbLine
 62
7
  6
CONTINUOUS
 10
7.7325223658
 20
-56.5723134363
 11
15.6613698612
 21
-56.5761658514
  0
LINE
  5
32F
100
AcDbEntity
  8
Livello_1
100
AcDbLine
 62
7
  6
CONTINUOUS
 10
31.3297278015
 20
-56.6059674451
 11
31.7049573242
 21
-56.6062146874
  0
LINE
  5
330
100
AcDbEntity
  8
Livello_1
100
AcDbLine
 62
7
  6
CONTINUOUS
 10
5.6597305891
 20
-56.5705798496
 11
7.7325223658
 21
-56.5723134363
  0
LINE
  5
331
100
AcDbEntity
  8
Livello_1
100
AcDbLine
 62
7
  6
CONTINUOUS
 10
15.6613698612
 20
-56.5761658514
 11
17.5517497977
 21
-56.5780920585
  0
LINE
  5
332
100
AcDbEntity
  8
Livello_1
100
AcDbLine
 62
7
  6
CONTINUOUS
 10
17.5517497977
 20
-56.5780920585
 11
19.4045686894
 21
-56.5798256452
  0
LINE
  5
333
100
AcDbEntity
  8
Livello_1
100
AcDbLine
 62
7
  6
CONTINUOUS
 10
122.6238718709
 20
-56.8434551174
 11
123.5274729809
 21
-56.8445791488
  0
LINE
  5
334
100
AcDbEntity
  8
Livello_1
100
AcDbLine
 62
7
  6
CONTINUOUS
 10
19.4045686894
 20
-56.5798256452
 11
22.9202824249
 21
-56.5836780603
  0
LINE
  5
335
100
AcDbEntity
  8
Livello_1
100
AcDbLine
 62
7
  6
CONTINUOUS
 10
121.7400500596
 20
-56.8422841978
 11
122.6238718709
 21
-56.8434551174
  0
LINE
  5
336
100
AcDbEntity
  8
Livello_1
100
AcDbLine
 62
7
  6
CONTINUOUS
 10
-3.5856796602
 20
-68.1295580915
 11
-3.7429015231
 21
-68.129309998
  0
LINE
  5
337
100
AcDbEntity
  8
Livello_1
100
AcDbLine
 62
7
  6
CONTINUOUS
 10
123.5274729809
 20
-56.8445791488
 11
123.8331011676
 21
-56.8450609178
  0
LINE
  5
338
100
AcDbEntity
  8
Livello_1
100
AcDbLine
 62
7
  6
CONTINUOUS
 10
114.9621456354
 20
-56.8225242907
 11
117.0426422417
 21
-56.8261840844
  0
LINE
  5
339
100
AcDbEntity
  8
Livello_1
100
AcDbLine
 62
7
  6
CONTINUOUS
 10
109.8758023912
 20
-56.8130858737
 11
110.9968550943
 21
-56.8150120813
  0
LINE
  5
33A
100
AcDbEntity
  8
Livello_1
100
AcDbLine
 62
7
  6
CONTINUOUS
 10
2.712055414
 20
-67.8117338635
 11
2.8725422234
 21
-67.8120279841
  0
LINE
  5
33B
100
AcDbEntity
  8
Livello_1
100
AcDbLine
 62
7
  6
CONTINUOUS
 10
30.9471725792
 20
-56.6052762202
 11
31.3297278015
 21
-56.6059674451
  0
LINE
  5
33C
100
AcDbEntity
  8
Livello_1
100
AcDbLine
 62
7
  6
CONTINUOUS
 10
121.1617313983
 20
-56.8411417871
 11
121.7400500596
 21
-56.8422841978
  0
LINE
  5
33D
100
AcDbEntity
  8
Livello_1
100
AcDbLine
 62
7
  6
CONTINUOUS
 10
114.0177261503
 20
-56.8205980831
 11
114.9621456354
 21
-56.8225242907
  0
LINE
  5
33E
100
AcDbEntity
  8
Livello_1
100
AcDbLine
 62
7
  6
CONTINUOUS
 10
112.289147635
 20
-56.816745668
 11
113.1262773684
 21
-56.8186718755
  0
LINE
  5
33F
100
AcDbEntity
  8
Livello_1
100
AcDbLine
 62
7
  6
CONTINUOUS
 10
113.1262773684
 20
-56.8186718755
 11
114.0177261503
 21
-56.8205980831
  0
LINE
  5
340
100
AcDbEntity
  8
Livello_1
100
AcDbLine
 62
7
  6
CONTINUOUS
 10
22.9202824249
 20
-56.5836780603
 11
29.1296179734
 21
-56.5987024785
  0
LINE
  5
341
100
AcDbEntity
  8
Livello_1
100
AcDbLine
 62
7
  6
CONTINUOUS
 10
111.6232737664
 20
-56.8150120813
 11
112.289147635
 21
-56.816745668
  0
LINE
  5
342
100
AcDbEntity
  8
Livello_1
100
AcDbLine
 62
7
  6
CONTINUOUS
 10
30.3593206031
 20
-56.6035726182
 11
30.9471725792
 21
-56.6052762202
  0
LINE
  5
343
100
AcDbEntity
  8
Livello_1
100
AcDbLine
 62
7
  6
CONTINUOUS
 10
120.5920646063
 20
-56.8394749159
 11
121.1617313983
 21
-56.8411417871
  0
LINE
  5
344
100
AcDbEntity
  8
Livello_1
100
AcDbLine
 62
7
  6
CONTINUOUS
 10
118.1767931555
 20
-56.8300364995
 11
119.3600623573
 21
-56.8336962938
  0
LINE
  5
345
100
AcDbEntity
  8
Livello_1
100
AcDbLine
 62
7
  6
CONTINUOUS
 10
117.0426422417
 20
-56.8261840844
 11
118.1767931555
 21
-56.8300364995
  0
LINE
  5
346
100
AcDbEntity
  8
Livello_1
100
AcDbLine
 62
7
  6
CONTINUOUS
 10
29.548668605
 20
-56.6004542136
 11
30.3593206031
 21
-56.6035726182
  0
LINE
  5
347
100
AcDbEntity
  8
Livello_1
100
AcDbLine
 62
7
  6
CONTINUOUS
 10
109.3976306398
 20
-56.8111651334
 11
109.8758023912
 21
-56.8130858737
  0
LINE
  5
348
100
AcDbEntity
  8
Livello_1
100
AcDbLine
 62
7
  6
CONTINUOUS
 10
-0.0954232725
 20
-68.5462335384
 11
-0.5691104726
 21
-68.5442787067
  0
LINE
  5
349
100
AcDbEntity
  8
Livello_1
100
AcDbLine
 62
7
  6
CONTINUOUS
 10
29.1315441809
 20
-56.5987024785
 11
29.3411030928
 21
-56.5995864996
  0
LINE
  5
34A
100
AcDbEntity
  8
Livello_1
100
AcDbLine
 62
7
  6
CONTINUOUS
 10
29.3411030928
 20
-56.5995864996
 11
29.548668605
 21
-56.6004542136
  0
LINE
  5
34B
100
AcDbEntity
  8
Livello_1
100
AcDbLine
 62
7
  6
CONTINUOUS
 10
5.8048763553
 20
-67.065624862
 11
-0.5609435462
 21
-67.0366279889
  0
LINE
  5
34C
100
AcDbEntity
  8
Livello_1
100
AcDbLine
 62
7
  6
CONTINUOUS
 10
-0.2517300931
 20
-66.6115726684
 11
6.2164045261
 21
-66.6417554628
  0
LINE
  5
34D
100
AcDbEntity
  8
Livello_1
100
AcDbLine
 62
7
  6
CONTINUOUS
 10
-22.9456049347
 20
-56.5478506017
 11
-23.7461751018
 21
-56.5441611137
  0
LINE
  5
34E
100
AcDbEntity
  8
Livello_1
100
AcDbLine
 62
7
  6
CONTINUOUS
 10
-19.548352954
 20
-56.5667274345
 11
-20.6940611121
 21
-56.5611414332
  0
LINE
  5
34F
100
AcDbEntity
  8
Livello_1
100
AcDbLine
 62
7
  6
CONTINUOUS
 10
-18.4818119204
 20
-56.5723134363
 11
-19.548352954
 21
-56.5667274345
  0
LINE
  5
350
100
AcDbEntity
  8
Livello_1
100
AcDbLine
 62
7
  6
CONTINUOUS
 10
-20.6940611121
 20
-56.5611414332
 11
-21.8187736094
 21
-56.5553628111
  0
LINE
  5
351
100
AcDbEntity
  8
Livello_1
100
AcDbLine
 62
7
  6
CONTINUOUS
 10
108.2090551334
 20
-56.8092334591
 11
108.5571208094
 21
-56.8111596667
  0
LINE
  5
352
100
AcDbEntity
  8
Livello_1
100
AcDbLine
 62
7
  6
CONTINUOUS
 10
-23.7461751018
 20
-56.5441611137
 11
-24.1175309439
 21
-56.5419163908
  0
LINE
  5
353
100
AcDbEntity
  8
Livello_1
100
AcDbLine
 62
7
  6
CONTINUOUS
 10
119.3600623573
 20
-56.8336962938
 11
120.5920646063
 21
-56.8412085026
  0
LINE
  5
354
100
AcDbEntity
  8
Livello_1
100
AcDbLine
 62
7
  6
CONTINUOUS
 10
-22.1620204539
 20
-56.5528413078
 11
-22.9456049347
 21
-56.5478506017
  0
LINE
  5
355
100
AcDbEntity
  8
Livello_1
100
AcDbLine
 62
7
  6
CONTINUOUS
 10
-25.1295388782
 20
-56.534752391
 11
-25.8740047431
 21
-56.5297030399
  0
LINE
  5
356
100
AcDbEntity
  8
Livello_1
100
AcDbLine
 62
7
  6
CONTINUOUS
 10
-31.0585859839
 20
-56.482166928
 11
-31.3223971405
 21
-56.4803632454
  0
LINE
  5
357
100
AcDbEntity
  8
Livello_1
100
AcDbLine
 62
7
  6
CONTINUOUS
 10
-24.1175309439
 20
-56.5419163908
 11
-25.1295388782
 21
-56.534752391
  0
LINE
  5
358
100
AcDbEntity
  8
Livello_1
100
AcDbLine
 62
7
  6
CONTINUOUS
 10
-21.8187736094
 20
-56.5553628111
 11
-22.1620204539
 21
-56.5528413078
  0
LINE
  5
359
100
AcDbEntity
  8
Livello_1
100
AcDbLine
 62
7
  6
CONTINUOUS
 10
-26.1791292871
 20
-56.5272401821
 11
-27.1950110664
 21
-56.5197279733
  0
LINE
  5
35A
100
AcDbEntity
  8
Livello_1
100
AcDbLine
 62
7
  6
CONTINUOUS
 10
-4.3397119458
 20
-68.125010661
 11
-4.4717350612
 21
-68.1239720902
  0
LINE
  5
35B
100
AcDbEntity
  8
Livello_1
100
AcDbLine
 62
7
  6
CONTINUOUS
 10
-29.1963405488
 20
-56.5008511399
 11
-30.1482722427
 21
-56.4933389311
  0
LINE
  5
35C
100
AcDbEntity
  8
Livello_1
100
AcDbLine
 62
7
  6
CONTINUOUS
 10
3.4543732465
 20
-67.8201331195
 11
3.5830863979
 21
-67.82117228
  0
LINE
  5
35D
100
AcDbEntity
  8
Livello_1
100
AcDbLine
 62
7
  6
CONTINUOUS
 10
-25.8740047431
 20
-56.5297030399
 11
-26.1791292871
 21
-56.5272401821
  0
LINE
  5
35E
100
AcDbEntity
  8
Livello_1
100
AcDbLine
 62
7
  6
CONTINUOUS
 10
6.1337702288
 20
-67.0686030324
 11
5.8048763553
 21
-67.065624862
  0
LINE
  5
35F
100
AcDbEntity
  8
Livello_1
100
AcDbLine
 62
7
  6
CONTINUOUS
 10
-27.1950110664
 20
-56.5197279733
 11
-28.2145526399
 21
-56.5102895569
  0
LINE
  5
360
100
AcDbEntity
  8
Livello_1
100
AcDbLine
 62
7
  6
CONTINUOUS
 10
-28.2145526399
 20
-56.5102895569
 11
-29.1963405488
 21
-56.5008511399
  0
LINE
  5
361
100
AcDbEntity
  8
Livello_1
100
AcDbLine
 62
7
  6
CONTINUOUS
 10
-3.7429015231
 20
-68.129309998
 11
-3.8848196686
 21
-68.1278245048
  0
LINE
  5
362
100
AcDbEntity
  8
Livello_1
100
AcDbLine
 62
7
  6
CONTINUOUS
 10
6.2164045261
 20
-66.6417554628
 11
9.5722430474
 21
-66.6773903005
  0
LINE
  5
363
100
AcDbEntity
  8
Livello_1
100
AcDbLine
 62
7
  6
CONTINUOUS
 10
9.4462690837
 20
-67.1044304905
 11
6.1337702288
 21
-67.0686030324
  0
LINE
  5
364
100
AcDbEntity
  8
Livello_1
100
AcDbLine
 62
7
  6
CONTINUOUS
 10
-30.1482722427
 20
-56.4933389311
 11
-30.4151350568
 21
-56.4904735481
  0
LINE
  5
365
100
AcDbEntity
  8
Livello_1
100
AcDbLine
 62
7
  6
CONTINUOUS
 10
-31.9352148421
 20
-56.4727285116
 11
-32.7684921608
 21
-56.4632900952
  0
LINE
  5
366
100
AcDbEntity
  8
Livello_1
100
AcDbLine
 62
7
  6
CONTINUOUS
 10
2.8725422234
 20
-67.8120279841
 11
3.1687081193
 21
-67.8155381598
  0
LINE
  5
367
100
AcDbEntity
  8
Livello_1
100
AcDbLine
 62
7
  6
CONTINUOUS
 10
-4.6146596502
 20
-68.1201196751
 11
-4.6831471915
 21
-68.1192899717
  0
LINE
  5
368
100
AcDbEntity
  8
Livello_1
100
AcDbLine
 62
7
  6
CONTINUOUS
 10
-4.6871704897
 20
-68.1192157917
 11
-4.7556580315
 21
-68.1183860884
  0
LINE
  5
369
100
AcDbEntity
  8
Livello_1
100
AcDbLine
 62
7
  6
CONTINUOUS
 10
-31.3223971405
 20
-56.4803632454
 11
-31.9352148421
 21
-56.4727285116
  0
LINE
  5
36A
100
AcDbEntity
  8
Livello_1
100
AcDbLine
 62
7
  6
CONTINUOUS
 10
0.3941766652
 20
-68.5525081449
 11
-0.0954232725
 21
-68.5462335384
  0
LINE
  5
36B
100
AcDbEntity
  8
Livello_1
100
AcDbLine
 62
7
  6
CONTINUOUS
 10
-30.4151350568
 20
-56.4904735481
 11
-31.0585859839
 21
-56.482166928
  0
LINE
  5
36C
100
AcDbEntity
  8
Livello_1
100
AcDbLine
 62
7
  6
CONTINUOUS
 10
3.1687081193
 20
-67.8155381598
 11
3.3008970143
 21
-67.8173198654
  0
LINE
  5
36D
100
AcDbEntity
  8
Livello_1
100
AcDbLine
 62
7
  6
CONTINUOUS
 10
9.5722430474
 20
-66.6773903005
 11
12.8284966467
 21
-66.7282421774
  0
LINE
  5
36E
100
AcDbEntity
  8
Livello_1
100
AcDbLine
 62
7
  6
CONTINUOUS
 10
12.6628428109
 20
-67.157015954
 11
9.4462690837
 21
-67.1044304905
  0
LINE
  5
36F
100
AcDbEntity
  8
Livello_1
100
AcDbLine
 62
7
  6
CONTINUOUS
 10
-39.1001284851
 20
-68.6505972049
 11
-39.1161258648
 21
-68.6503236667
  0
LINE
  5
370
100
AcDbEntity
  8
Livello_1
100
AcDbLine
 62
7
  6
CONTINUOUS
 10
-4.1820334693
 20
-68.1278245048
 11
-4.3397119458
 21
-68.125010661
  0
LINE
  5
371
100
AcDbEntity
  8
Livello_1
100
AcDbLine
 62
7
  6
CONTINUOUS
 10
3.3008970143
 20
-67.8173198654
 11
3.4543732465
 21
-67.8201331195
  0
LINE
  5
372
100
AcDbEntity
  8
Livello_1
100
AcDbLine
 62
7
  6
CONTINUOUS
 10
-4.6831471915
 20
-68.1192899717
 11
-4.6871704897
 21
-68.1192157917
  0
LINE
  5
373
100
AcDbEntity
  8
Livello_1
100
AcDbLine
 62
7
  6
CONTINUOUS
 10
-4.5396917515
 20
-68.12213169
 11
-4.5494706826
 21
-68.1219329707
  0
LINE
  5
374
100
AcDbEntity
  8
Livello_1
100
AcDbLine
 62
7
  6
CONTINUOUS
 10
-4.9540515257
 20
-68.1127136524
 11
-4.9585748553
 21
-68.1126196794
  0
LINE
  5
375
100
AcDbEntity
  8
Livello_1
100
AcDbLine
 62
7
  6
CONTINUOUS
 10
-4.8149040324
 20
-68.1166261042
 11
-4.8292586386
 21
-68.1163220303
  0
LINE
  5
376
100
AcDbEntity
  8
Livello_1
100
AcDbLine
 62
7
  6
CONTINUOUS
 10
3.5830863979
 20
-67.82117228
 11
3.7329970485
 21
-67.8244848021
  0
LINE
  5
377
100
AcDbEntity
  8
Livello_1
100
AcDbLine
 62
7
  6
CONTINUOUS
 10
0.8403336982
 20
-68.5624678303
 11
0.3941766652
 21
-68.5525081449
  0
LINE
  5
378
100
AcDbEntity
  8
Livello_1
100
AcDbLine
 62
7
  6
CONTINUOUS
 10
107.0560273874
 20
-56.8074998724
 11
107.1330756834
 21
-56.8092334591
  0
LINE
  5
379
100
AcDbEntity
  8
Livello_1
100
AcDbLine
 62
7
  6
CONTINUOUS
 10
12.8284966467
 20
-66.7282421774
 11
19.0152821755
 21
-66.869240562
  0
LINE
  5
37A
100
AcDbEntity
  8
Livello_1
100
AcDbLine
 62
7
  6
CONTINUOUS
 10
-5.0247492045
 20
-68.1108738795
 11
-5.0984379361
 21
-68.1091777339
  0
LINE
  5
37B
100
AcDbEntity
  8
Livello_1
100
AcDbLine
 62
7
  6
CONTINUOUS
 10
-5.2824757534
 20
-68.1014354631
 11
-5.5213254701
 21
-68.0958494613
  0
LINE
  5
37C
100
AcDbEntity
  8
Livello_1
100
AcDbLine
 62
7
  6
CONTINUOUS
 10
17.8751780365
 20
-67.2792618955
 11
12.6628428109
 21
-67.157015954
  0
LINE
  5
37D
100
AcDbEntity
  8
Livello_1
100
AcDbLine
 62
7
  6
CONTINUOUS
 10
3.8539239123
 20
-67.8286844894
 11
3.9993687765
 21
-67.8321405733
  0
LINE
  5
37E
100
AcDbEntity
  8
Livello_1
100
AcDbLine
 62
7
  6
CONTINUOUS
 10
-4.9585748553
 20
-68.1126196794
 11
-5.0247492045
 21
-68.1108738795
  0
LINE
  5
37F
100
AcDbEntity
  8
Livello_1
100
AcDbLine
 62
7
  6
CONTINUOUS
 10
-4.4717350612
 20
-68.1239720902
 11
-4.5396917515
 21
-68.12213169
  0
LINE
  5
380
100
AcDbEntity
  8
Livello_1
100
AcDbLine
 62
7
  6
CONTINUOUS
 10
18.7706538361
 20
-67.3037929608
 11
17.8751780365
 21
-67.2792618955
  0
LINE
  5
381
100
AcDbEntity
  8
Livello_1
100
AcDbLine
 62
7
  6
CONTINUOUS
 10
-4.5494706826
 20
-68.1219329707
 11
-4.6146596502
 21
-68.1201196751
  0
LINE
  5
382
100
AcDbEntity
  8
Livello_1
100
AcDbLine
 62
7
  6
CONTINUOUS
 10
-4.8292586386
 20
-68.1163220303
 11
-4.9540515257
 21
-68.1127136524
  0
LINE
  5
383
100
AcDbEntity
  8
Livello_1
100
AcDbLine
 62
7
  6
CONTINUOUS
 10
19.0152821755
 20
-66.869240562
 11
20.4919127634
 21
-66.9125802295
  0
LINE
  5
384
100
AcDbEntity
  8
Livello_1
100
AcDbLine
 62
7
  6
CONTINUOUS
 10
-4.7556580315
 20
-68.1183860884
 11
-4.8149040324
 21
-68.1166261042
  0
LINE
  5
385
100
AcDbEntity
  8
Livello_1
100
AcDbLine
 62
7
  6
CONTINUOUS
 10
4.4260261119
 20
-67.8502623338
 11
4.4394703749
 21
-67.8506739926
  0
LINE
  5
386
100
AcDbEntity
  8
Livello_1
100
AcDbLine
 62
7
  6
CONTINUOUS
 10
20.2286133813
 20
-67.3490588359
 11
18.7706538361
 21
-67.3037929608
  0
LINE
  5
387
100
AcDbEntity
  8
Livello_1
100
AcDbLine
 62
7
  6
CONTINUOUS
 10
-5.0984379361
 20
-68.1091777339
 11
-5.2008900779
 21
-68.1058362982
  0
LINE
  5
388
100
AcDbEntity
  8
Livello_1
100
AcDbLine
 62
7
  6
CONTINUOUS
 10
1.2298955107
 20
-68.5752321675
 11
0.8403336982
 21
-68.5624678303
  0
LINE
  5
389
100
AcDbEntity
  8
Livello_1
100
AcDbLine
 62
7
  6
CONTINUOUS
 10
20.4919127634
 20
-66.9125802295
 11
21.9252036855
 21
-66.9595796912
  0
LINE
  5
38A
100
AcDbEntity
  8
Livello_1
100
AcDbLine
 62
7
  6
CONTINUOUS
 10
21.648792924
 20
-67.3977918843
 11
20.2286133813
 21
-67.3490588359
  0
LINE
  5
38B
100
AcDbEntity
  8
Livello_1
100
AcDbLine
 62
7
  6
CONTINUOUS
 10
3.7329970485
 20
-67.8244848021
 11
3.8539239123
 21
-67.8286844894
  0
LINE
  5
38C
100
AcDbEntity
  8
Livello_1
100
AcDbLine
 62
7
  6
CONTINUOUS
 10
4.4394703749
 20
-67.8506739926
 11
4.5169377102
 21
-67.8534117083
  0
LINE
  5
38D
100
AcDbEntity
  8
Livello_1
100
AcDbLine
 62
7
  6
CONTINUOUS
 10
3.9993687765
 20
-67.8321405733
 11
4.1116377065
 21
-67.8361966982
  0
LINE
  5
38E
100
AcDbEntity
  8
Livello_1
100
AcDbLine
 62
7
  6
CONTINUOUS
 10
138.9363007224
 20
-69.1246333637
 11
138.8328801003
 21
-69.1207809491
  0
LINE
  5
38F
100
AcDbEntity
  8
Livello_1
100
AcDbLine
 62
7
  6
CONTINUOUS
 10
21.9252036855
 20
-66.9595796912
 11
24.6490535611
 21
-67.0630170306
  0
LINE
  5
390
100
AcDbEntity
  8
Livello_1
100
AcDbLine
 62
7
  6
CONTINUOUS
 10
109.0236482402
 20
-67.1439142505
 11
108.8260193614
 21
-67.1364020417
  0
LINE
  5
391
100
AcDbEntity
  8
Livello_1
100
AcDbLine
 62
7
  6
CONTINUOUS
 10
4.3504874232
 20
-67.8473687013
 11
4.4260261119
 21
-67.8502623338
  0
LINE
  5
392
100
AcDbEntity
  8
Livello_1
100
AcDbLine
 62
7
  6
CONTINUOUS
 10
24.3385489293
 20
-67.5031554312
 11
21.648792924
 21
-67.3977918843
  0
LINE
  5
393
100
AcDbEntity
  8
Livello_1
100
AcDbLine
 62
7
  6
CONTINUOUS
 10
109.9828995226
 20
-67.1909137122
 11
109.6047850107
 21
-67.175889294
  0
LINE
  5
394
100
AcDbEntity
  8
Livello_1
100
AcDbLine
 62
7
  6
CONTINUOUS
 10
24.6490535611
 20
-67.0630170306
 11
25.4481249472
 21
-67.095744632
  0
LINE
  5
395
100
AcDbEntity
  8
Livello_1
100
AcDbLine
 62
7
  6
CONTINUOUS
 10
4.1116377065
 20
-67.8361966982
 11
4.274809175
 21
-67.8429223359
  0
LINE
  5
396
100
AcDbEntity
  8
Livello_1
100
AcDbLine
 62
7
  6
CONTINUOUS
 10
139.666140704
 20
-69.162194409
 11
139.4929746594
 21
-69.1546822002
  0
LINE
  5
397
100
AcDbEntity
  8
Livello_1
100
AcDbLine
 62
7
  6
CONTINUOUS
 10
1.5563337944
 20
-68.589840746
 11
1.2298955107
 21
-68.5752321675
  0
LINE
  5
398
100
AcDbEntity
  8
Livello_1
100
AcDbLine
 62
7
  6
CONTINUOUS
 10
25.4461103524
 20
-67.5529041714
 11
24.3385489293
 21
-67.5031554312
  0
LINE
  5
399
100
AcDbEntity
  8
Livello_1
100
AcDbLine
 62
7
  6
CONTINUOUS
 10
111.4350672764
 20
-67.2643022156
 11
110.9028721832
 21
-67.2398393815
  0
LINE
  5
39A
100
AcDbEntity
  8
Livello_1
100
AcDbLine
 62
7
  6
CONTINUOUS
 10
140.2492036821
 20
-69.1941694525
 11
140.0459888021
 21
-69.1847310361
  0
LINE
  5
39B
100
AcDbEntity
  8
Livello_1
100
AcDbLine
 62
7
  6
CONTINUOUS
 10
115.7578619099
 20
-67.9038030866
 11
116.1226855902
 21
-67.9207537124
  0
LINE
  5
39C
100
AcDbEntity
  8
Livello_1
100
AcDbLine
 62
7
  6
CONTINUOUS
 10
113.8071916823
 20
-67.8022919543
 11
114.2434776569
 21
-67.8229023744
  0
LINE
  5
39D
100
AcDbEntity
  8
Livello_1
100
AcDbLine
 62
7
  6
CONTINUOUS
 10
109.6047850107
 20
-67.175889294
 11
109.286960791
 21
-67.1608648763
  0
LINE
  5
39E
100
AcDbEntity
  8
Livello_1
100
AcDbLine
 62
7
  6
CONTINUOUS
 10
134.7076976306
 20
-68.4267684076
 11
134.5091306499
 21
-68.4173293572
  0
LINE
  5
39F
100
AcDbEntity
  8
Livello_1
100
AcDbLine
 62
7
  6
CONTINUOUS
 10
117.6126070097
 20
-67.5726880271
 11
116.6681875246
 21
-67.527614773
  0
LINE
  5
3A0
100
AcDbEntity
  8
Livello_1
100
AcDbLine
 62
7
  6
CONTINUOUS
 10
129.2093386245
 20
-68.1520912262
 11
127.911283901
 21
-68.0900673463
  0
LINE
  5
3A1
100
AcDbEntity
  8
Livello_1
100
AcDbLine
 62
7
  6
CONTINUOUS
 10
121.7508709745
 20
-67.7795627069
 11
120.652354898
 21
-67.7269772433
  0
LINE
  5
3A2
100
AcDbEntity
  8
Livello_1
100
AcDbLine
 62
7
  6
CONTINUOUS
 10
116.6681875246
 20
-67.527614773
 11
115.7634479117
 21
-67.4842751055
  0
LINE
  5
3A3
100
AcDbEntity
  8
Livello_1
100
AcDbLine
 62
7
  6
CONTINUOUS
 10
139.0528362697
 20
-69.1302193655
 11
138.9363007224
 21
-69.1246333637
  0
LINE
  5
3A4
100
AcDbEntity
  8
Livello_1
100
AcDbLine
 62
7
  6
CONTINUOUS
 10
119.4070780421
 20
-68.0956533481
 11
120.1538524242
 21
-68.1314808062
  0
LINE
  5
3A5
100
AcDbEntity
  8
Livello_1
100
AcDbLine
 62
7
  6
CONTINUOUS
 10
129.6558148205
 20
-68.6313786158
 11
130.595630086
 21
-68.6769827542
  0
LINE
  5
3A6
100
AcDbEntity
  8
Livello_1
100
AcDbLine
 62
7
  6
CONTINUOUS
 10
134.5091306499
 20
-68.4173293572
 11
133.2705542939
 21
-68.3570396979
  0
LINE
  5
3A7
100
AcDbEntity
  8
Livello_1
100
AcDbLine
 62
7
  6
CONTINUOUS
 10
114.9818701948
 20
-67.4426524478
 11
114.0986268609
 21
-67.399714599
  0
LINE
  5
3A8
100
AcDbEntity
  8
Livello_1
100
AcDbLine
 62
7
  6
CONTINUOUS
 10
112.655897523
 20
-67.3263260956
 11
112.1228056101
 21
-67.3002076682
  0
LINE
  5
3A9
100
AcDbEntity
  8
Livello_1
100
AcDbLine
 62
7
  6
CONTINUOUS
 10
140.6047815669
 20
-68.7220560084
 11
139.1187125626
 21
-68.648667505
  0
LINE
  5
3AA
100
AcDbEntity
  8
Livello_1
100
AcDbLine
 62
7
  6
CONTINUOUS
 10
113.342590459
 20
-67.3602273467
 11
112.655897523
 21
-67.3263260956
  0
LINE
  5
3AB
100
AcDbEntity
  8
Livello_1
100
AcDbLine
 62
7
  6
CONTINUOUS
 10
25.4481249472
 20
-67.095744632
 11
29.5341215368
 21
-67.2982069595
  0
LINE
  5
3AC
100
AcDbEntity
  8
Livello_1
100
AcDbLine
 62
7
  6
CONTINUOUS
 10
139.8429665424
 20
-69.1660468236
 11
140.6781868301
 21
-69.207460284
  0
LINE
  5
3AD
100
AcDbEntity
  8
Livello_1
100
AcDbLine
 62
7
  6
CONTINUOUS
 10
121.4630955902
 20
-68.2029431026
 11
122.1815709478
 21
-68.2385779403
  0
LINE
  5
3AE
100
AcDbEntity
  8
Livello_1
100
AcDbLine
 62
7
  6
CONTINUOUS
 10
124.1172167582
 20
-67.8982170853
 11
123.0891750821
 21
-67.8472565019
  0
LINE
  5
3AF
100
AcDbEntity
  8
Livello_1
100
AcDbLine
 62
7
  6
CONTINUOUS
 10
137.6420819741
 20
-68.5735454144
 11
136.1691111805
 21
-68.500156911
  0
LINE
  5
3B0
100
AcDbEntity
  8
Livello_1
100
AcDbLine
 62
7
  6
CONTINUOUS
 10
131.8898488337
 20
-68.2875036091
 11
130.5353397944
 21
-68.2198937278
  0
LINE
  5
3B1
100
AcDbEntity
  8
Livello_1
100
AcDbLine
 62
7
  6
CONTINUOUS
 10
112.4640472664
 20
-67.7289034509
 11
112.9136240725
 21
-67.751440078
  0
LINE
  5
3B2
100
AcDbEntity
  8
Livello_1
100
AcDbLine
 62
7
  6
CONTINUOUS
 10
119.5969858669
 20
-67.6724655727
 11
118.581296708
 21
-67.6216136964
  0
LINE
  5
3B3
100
AcDbEntity
  8
Livello_1
100
AcDbLine
 62
7
  6
CONTINUOUS
 10
122.913337137
 20
-67.837926792
 11
121.7508709745
 21
-67.7795627069
  0
LINE
  5
3B4
100
AcDbEntity
  8
Livello_1
100
AcDbLine
 62
7
  6
CONTINUOUS
 10
125.3530714219
 20
-67.9602409647
 11
124.1172167582
 21
-67.8982170853
  0
LINE
  5
3B5
100
AcDbEntity
  8
Livello_1
100
AcDbLine
 62
7
  6
CONTINUOUS
 10
136.1691111805
 20
-68.500156911
 11
134.7076976306
 21
-68.4267684076
  0
LINE
  5
3B6
100
AcDbEntity
  8
Livello_1
100
AcDbLine
 62
7
  6
CONTINUOUS
 10
136.966753662
 20
-69.013683815
 11
138.3832865797
 21
-69.0851461114
  0
LINE
  5
3B7
100
AcDbEntity
  8
Livello_1
100
AcDbLine
 62
7
  6
CONTINUOUS
 10
126.4271246649
 20
-68.4624032453
 11
127.3977405708
 21
-68.5113289141
  0
LINE
  5
3B8
100
AcDbEntity
  8
Livello_1
100
AcDbLine
 62
7
  6
CONTINUOUS
 10
118.581296708
 20
-67.6216136964
 11
117.6126070097
 21
-67.5726880271
  0
LINE
  5
3B9
100
AcDbEntity
  8
Livello_1
100
AcDbLine
 62
7
  6
CONTINUOUS
 10
133.2705542939
 20
-68.3570396979
 11
131.8898488337
 21
-68.2875036091
  0
LINE
  5
3BA
100
AcDbEntity
  8
Livello_1
100
AcDbLine
 62
7
  6
CONTINUOUS
 10
116.9993187389
 20
-67.9677531736
 11
117.5203416757
 21
-67.9941422158
  0
LINE
  5
3BB
100
AcDbEntity
  8
Livello_1
100
AcDbLine
 62
7
  6
CONTINUOUS
 10
126.6172413348
 20
-68.0241910517
 11
125.3530714219
 21
-67.9602409647
  0
LINE
  5
3BC
100
AcDbEntity
  8
Livello_1
100
AcDbLine
 62
7
  6
CONTINUOUS
 10
140.6799036554
 20
-69.2167060796
 11
140.459930771
 21
-69.2055340765
  0
LINE
  5
3BD
100
AcDbEntity
  8
Livello_1
100
AcDbLine
 62
7
  6
CONTINUOUS
 10
139.1187125626
 20
-68.648667505
 11
137.6420819741
 21
-68.5735454144
  0
LINE
  5
3BE
100
AcDbEntity
  8
Livello_1
100
AcDbLine
 62
7
  6
CONTINUOUS
 10
122.9491645945
 20
-68.2799914002
 11
123.7616388734
 21
-68.3214048601
  0
LINE
  5
3BF
100
AcDbEntity
  8
Livello_1
100
AcDbLine
 62
7
  6
CONTINUOUS
 10
127.911283901
 20
-68.0900673463
 11
126.6172413348
 21
-68.0241910517
  0
LINE
  5
3C0
100
AcDbEntity
  8
Livello_1
100
AcDbLine
 62
7
  6
CONTINUOUS
 10
139.3330994457
 20
-69.1452437832
 11
139.1863224422
 21
-69.1377315744
  0
LINE
  5
3C1
100
AcDbEntity
  8
Livello_1
100
AcDbLine
 62
7
  6
CONTINUOUS
 10
115.0467061402
 20
-67.8662420418
 11
115.4117224415
 21
-67.8849262538
  0
LINE
  5
3C2
100
AcDbEntity
  8
Livello_1
100
AcDbLine
 62
7
  6
CONTINUOUS
 10
130.5353397944
 20
-68.2198937278
 11
129.2093386245
 21
-68.1520912262
  0
LINE
  5
3C3
100
AcDbEntity
  8
Livello_1
100
AcDbLine
 62
7
  6
CONTINUOUS
 10
-39.1161258648
 20
-68.6503236667
 11
-39.1321066561
 21
-68.6495032314
  0
LINE
  5
3C4
100
AcDbEntity
  8
Livello_1
100
AcDbLine
 62
7
  6
CONTINUOUS
 10
112.0183228754
 20
-67.2943510521
 11
111.4350672764
 21
-67.2643022156
  0
LINE
  5
3C5
100
AcDbEntity
  8
Livello_1
100
AcDbLine
 62
7
  6
CONTINUOUS
 10
116.5252629357
 20
-67.9432903395
 11
116.9993187389
 21
-67.9677531736
  0
LINE
  5
3C6
100
AcDbEntity
  8
Livello_1
100
AcDbLine
 62
7
  6
CONTINUOUS
 10
120.652354898
 20
-67.7269772433
 11
119.5969858669
 21
-67.6724655727
  0
LINE
  5
3C7
100
AcDbEntity
  8
Livello_1
100
AcDbLine
 62
7
  6
CONTINUOUS
 10
135.5860482018
 20
-68.9422215191
 11
136.966753662
 21
-69.013683815
  0
LINE
  5
3C8
100
AcDbEntity
  8
Livello_1
100
AcDbLine
 62
7
  6
CONTINUOUS
 10
129.4801633842
 20
-68.6222784628
 11
129.6558148205
 21
-68.6313786158
  0
LINE
  5
3C9
100
AcDbEntity
  8
Livello_1
100
AcDbLine
 62
7
  6
CONTINUOUS
 10
118.7186352951
 20
-68.0600185103
 11
119.4070780421
 21
-68.0956533481
  0
LINE
  5
3CA
100
AcDbEntity
  8
Livello_1
100
AcDbLine
 62
7
  6
CONTINUOUS
 10
127.3977405708
 20
-68.5113289141
 11
128.41362235
 21
-68.564106998
  0
LINE
  5
3CB
100
AcDbEntity
  8
Livello_1
100
AcDbLine
 62
7
  6
CONTINUOUS
 10
110.4155417
 20
-67.2134503393
 11
109.9828995226
 21
-67.1909137122
  0
LINE
  5
3CC
100
AcDbEntity
  8
Livello_1
100
AcDbLine
 62
7
  6
CONTINUOUS
 10
114.0986268609
 20
-67.399714599
 11
113.342590459
 21
-67.3602273467
  0
LINE
  5
3CD
100
AcDbEntity
  8
Livello_1
100
AcDbLine
 62
7
  6
CONTINUOUS
 10
123.7616388734
 20
-68.3214048601
 11
124.6213215891
 21
-68.3664781143
  0
LINE
  5
3CE
100
AcDbEntity
  8
Livello_1
100
AcDbLine
 62
7
  6
CONTINUOUS
 10
117.5203416757
 20
-67.9941422158
 11
118.0941588582
 21
-68.0241910517
  0
LINE
  5
3CF
100
AcDbEntity
  8
Livello_1
100
AcDbLine
 62
7
  6
CONTINUOUS
 10
131.7600224555
 20
-68.7390066337
 11
132.9789264944
 21
-68.8029567212
  0
LINE
  5
3D0
100
AcDbEntity
  8
Livello_1
100
AcDbLine
 62
7
  6
CONTINUOUS
 10
109.4073487528
 20
-67.5576636094
 11
109.5776523979
 21
-67.5666210765
  0
LINE
  5
3D1
100
AcDbEntity
  8
Livello_1
100
AcDbLine
 62
7
  6
CONTINUOUS
 10
108.9144322809
 20
-67.527614773
 11
108.9841609884
 21
-67.5312745672
  0
LINE
  5
3D2
100
AcDbEntity
  8
Livello_1
100
AcDbLine
 62
7
  6
CONTINUOUS
 10
108.8260193614
 20
-67.1364020417
 11
108.6830947731
 21
-67.1288898328
  0
LINE
  5
3D3
100
AcDbEntity
  8
Livello_1
100
AcDbLine
 62
7
  6
CONTINUOUS
 10
-5.5213254701
 20
-68.0958494613
 11
-5.6472585479
 21
-68.0891803128
  0
LINE
  5
3D4
100
AcDbEntity
  8
Livello_1
100
AcDbLine
 62
7
  6
CONTINUOUS
 10
125.5035245979
 20
-68.413477576
 11
126.4271246649
 21
-68.4624032453
  0
LINE
  5
3D5
100
AcDbEntity
  8
Livello_1
100
AcDbLine
 62
7
  6
CONTINUOUS
 10
110.0957912645
 20
-67.5990770694
 11
110.3798908663
 21
-67.6141014876
  0
LINE
  5
3D6
100
AcDbEntity
  8
Livello_1
100
AcDbLine
 62
7
  6
CONTINUOUS
 10
29.159846036
 20
-67.7497099841
 11
25.4461103524
 21
-67.5529041714
  0
LINE
  5
3D7
100
AcDbEntity
  8
Livello_1
100
AcDbLine
 62
7
  6
CONTINUOUS
 10
132.9789264944
 20
-68.8029567212
 11
134.2542850092
 21
-68.8705666019
  0
LINE
  5
3D8
100
AcDbEntity
  8
Livello_1
100
AcDbLine
 62
7
  6
CONTINUOUS
 10
123.0891750821
 20
-67.8472565019
 11
122.913337137
 21
-67.837926792
  0
LINE
  5
3D9
100
AcDbEntity
  8
Livello_1
100
AcDbLine
 62
7
  6
CONTINUOUS
 10
124.6213215891
 20
-68.3664781143
 11
125.5035245979
 21
-68.413477576
  0
LINE
  5
3DA
100
AcDbEntity
  8
Livello_1
100
AcDbLine
 62
7
  6
CONTINUOUS
 10
130.595630086
 20
-68.6769827542
 11
131.7600224555
 21
-68.7390066337
  0
LINE
  5
3DB
100
AcDbEntity
  8
Livello_1
100
AcDbLine
 62
7
  6
CONTINUOUS
 10
115.7634479117
 20
-67.4842751055
 11
114.9818701948
 21
-67.4426524478
  0
LINE
  5
3DC
100
AcDbEntity
  8
Livello_1
100
AcDbLine
 62
7
  6
CONTINUOUS
 10
114.2434776569
 20
-67.8229023744
 11
114.6649318346
 21
-67.8454390014
  0
LINE
  5
3DD
100
AcDbEntity
  8
Livello_1
100
AcDbLine
 62
7
  6
CONTINUOUS
 10
120.1538524242
 20
-68.1314808062
 11
120.7858410705
 21
-68.1651894369
  0
LINE
  5
3DE
100
AcDbEntity
  8
Livello_1
100
AcDbLine
 62
7
  6
CONTINUOUS
 10
110.6846168759
 20
-67.6310521128
 11
111.0005148886
 21
-67.6480027381
  0
LINE
  5
3DF
100
AcDbEntity
  8
Livello_1
100
AcDbLine
 62
7
  6
CONTINUOUS
 10
134.2542850092
 20
-68.8705666019
 11
135.5860482018
 21
-68.9422215191
  0
LINE
  5
3E0
100
AcDbEntity
  8
Livello_1
100
AcDbLine
 62
7
  6
CONTINUOUS
 10
-5.2008900779
 20
-68.1058362982
 11
-5.2824757534
 21
-68.1014354631
  0
LINE
  5
3E1
100
AcDbEntity
  8
Livello_1
100
AcDbLine
 62
7
  6
CONTINUOUS
 10
4.5723992885
 20
-67.8568071177
 11
4.6017119496
 21
-67.8583891338
  0
LINE
  5
3E2
100
AcDbEntity
  8
Livello_1
100
AcDbLine
 62
7
  6
CONTINUOUS
 10
109.2324491215
 20
-67.548225193
 11
109.4073487528
 21
-67.5576636094
  0
LINE
  5
3E3
100
AcDbEntity
  8
Livello_1
100
AcDbLine
 62
7
  6
CONTINUOUS
 10
122.1815709478
 20
-68.2385779403
 11
122.9491645945
 21
-68.2799914002
  0
LINE
  5
3E4
100
AcDbEntity
  8
Livello_1
100
AcDbLine
 62
7
  6
CONTINUOUS
 10
140.459930771
 20
-69.2055340765
 11
140.2492036821
 21
-69.1941694525
  0
LINE
  5
3E5
100
AcDbEntity
  8
Livello_1
100
AcDbLine
 62
7
  6
CONTINUOUS
 10
138.6257960907
 20
-69.1076827384
 11
138.5901779625
 21
-69.1057565309
  0
LINE
  5
3E6
100
AcDbEntity
  8
Livello_1
100
AcDbLine
 62
7
  6
CONTINUOUS
 10
110.9028721832
 20
-67.2398393815
 11
110.4155417
 21
-67.2134503393
  0
LINE
  5
3E7
100
AcDbEntity
  8
Livello_1
100
AcDbLine
 62
7
  6
CONTINUOUS
 10
114.6649318346
 20
-67.8454390014
 11
115.0467061402
 21
-67.8662420418
  0
LINE
  5
3E8
100
AcDbEntity
  8
Livello_1
100
AcDbLine
 62
7
  6
CONTINUOUS
 10
115.4117224415
 20
-67.8849262538
 11
115.7578619099
 21
-67.9038030866
  0
LINE
  5
3E9
100
AcDbEntity
  8
Livello_1
100
AcDbLine
 62
7
  6
CONTINUOUS
 10
112.9136240725
 20
-67.751440078
 11
113.363200878
 21
-67.7759029126
  0
LINE
  5
3EA
100
AcDbEntity
  8
Livello_1
100
AcDbLine
 62
7
  6
CONTINUOUS
 10
128.41362235
 20
-68.564106998
 11
129.4801633842
 21
-68.6222784628
  0
LINE
  5
3EB
100
AcDbEntity
  8
Livello_1
100
AcDbLine
 62
7
  6
CONTINUOUS
 10
111.6702571994
 20
-67.6855637834
 11
112.4640472664
 21
-67.7289034509
  0
LINE
  5
3EC
100
AcDbEntity
  8
Livello_1
100
AcDbLine
 62
7
  6
CONTINUOUS
 10
138.7462007654
 20
-69.1151949473
 11
138.6766479659
 21
-69.1113425327
  0
LINE
  5
3ED
100
AcDbEntity
  8
Livello_1
100
AcDbLine
 62
7
  6
CONTINUOUS
 10
138.3832865797
 20
-69.0851461114
 11
139.8429665424
 21
-69.1660468236
  0
LINE
  5
3EE
100
AcDbEntity
  8
Livello_1
100
AcDbLine
 62
7
  6
CONTINUOUS
 10
-5.7432245621
 20
-68.0825586303
 11
-5.9445132346
 21
-68.0713866266
  0
LINE
  5
3EF
100
AcDbEntity
  8
Livello_1
100
AcDbLine
 62
7
  6
CONTINUOUS
 10
111.3316299398
 20
-67.6666869506
 11
111.6702571994
 21
-67.6855637834
  0
LINE
  5
3F0
100
AcDbEntity
  8
Livello_1
100
AcDbLine
 62
7
  6
CONTINUOUS
 10
110.3798908663
 20
-67.6141014876
 11
110.6846168759
 21
-67.6310521128
  0
LINE
  5
3F1
100
AcDbEntity
  8
Livello_1
100
AcDbLine
 62
7
  6
CONTINUOUS
 10
120.7858410705
 20
-68.1651894369
 11
121.4630955902
 21
-68.2029431026
  0
LINE
  5
3F2
100
AcDbEntity
  8
Livello_1
100
AcDbLine
 62
7
  6
CONTINUOUS
 10
116.1226855902
 20
-67.9207537124
 11
116.5252629357
 21
-67.9432903395
  0
LINE
  5
3F3
100
AcDbEntity
  8
Livello_1
100
AcDbLine
 62
7
  6
CONTINUOUS
 10
112.1228056101
 20
-67.3002076682
 11
112.0183228754
 21
-67.2943510521
  0
LINE
  5
3F4
100
AcDbEntity
  8
Livello_1
100
AcDbLine
 62
7
  6
CONTINUOUS
 10
139.1863224422
 20
-69.1377315744
 11
139.0528362697
 21
-69.1302193655
  0
LINE
  5
3F5
100
AcDbEntity
  8
Livello_1
100
AcDbLine
 62
7
  6
CONTINUOUS
 10
111.0005148886
 20
-67.6480027381
 11
111.3316299398
 21
-67.6666869506
  0
LINE
  5
3F6
100
AcDbEntity
  8
Livello_1
100
AcDbLine
 62
7
  6
CONTINUOUS
 10
4.6017119496
 20
-67.8583891338
 11
4.7828316174
 21
-67.8686986947
  0
LINE
  5
3F7
100
AcDbEntity
  8
Livello_1
100
AcDbLine
 62
7
  6
CONTINUOUS
 10
109.6123131964
 20
-67.5690282334
 11
109.8419011412
 21
-67.5821264441
  0
LINE
  5
3F8
100
AcDbEntity
  8
Livello_1
100
AcDbLine
 62
7
  6
CONTINUOUS
 10
140.0459888021
 20
-69.1847310361
 11
139.8504787512
 21
-69.173559033
  0
LINE
  5
3F9
100
AcDbEntity
  8
Livello_1
100
AcDbLine
 62
7
  6
CONTINUOUS
 10
118.0941588582
 20
-68.0241910517
 11
118.7186352951
 21
-68.0600185103
  0
LINE
  5
3FA
100
AcDbEntity
  8
Livello_1
100
AcDbLine
 62
7
  6
CONTINUOUS
 10
4.274809175
 20
-67.8429223359
 11
4.3504874232
 21
-67.8473687013
  0
LINE
  5
3FB
100
AcDbEntity
  8
Livello_1
100
AcDbLine
 62
7
  6
CONTINUOUS
 10
139.4929746594
 20
-69.1546822002
 11
139.3330994457
 21
-69.1452437832
  0
LINE
  5
3FC
100
AcDbEntity
  8
Livello_1
100
AcDbLine
 62
7
  6
CONTINUOUS
 10
1.8192931827
 20
-68.6053839572
 11
1.5563337944
 21
-68.589840746
  0
LINE
  5
3FD
100
AcDbEntity
  8
Livello_1
100
AcDbLine
 62
7
  6
CONTINUOUS
 10
113.363200878
 20
-67.7759029126
 11
113.8071916823
 21
-67.8022919543
  0
LINE
  5
3FE
100
AcDbEntity
  8
Livello_1
100
AcDbLine
 62
7
  6
CONTINUOUS
 10
-5.9445132346
 20
-68.0713866266
 11
-5.9640575747
 21
-68.0702036265
  0
LINE
  5
3FF
100
AcDbEntity
  8
Livello_1
100
AcDbLine
 62
7
  6
CONTINUOUS
 10
4.5169377102
 20
-67.8534117083
 11
4.5723992885
 21
-67.8568071177
  0
LINE
  5
400
100
AcDbEntity
  8
Livello_1
100
AcDbLine
 62
7
  6
CONTINUOUS
 10
29.5341215368
 20
-67.2982069595
 11
30.6345504169
 21
-67.3658168408
  0
LINE
  5
401
100
AcDbEntity
  8
Livello_1
100
AcDbLine
 62
7
  6
CONTINUOUS
 10
139.8504787512
 20
-69.173559033
 11
139.666140704
 21
-69.162194409
  0
LINE
  5
402
100
AcDbEntity
  8
Livello_1
100
AcDbLine
 62
7
  6
CONTINUOUS
 10
30.2450712815
 20
-67.8173198654
 11
29.159846036
 21
-67.7497099841
  0
LINE
  5
403
100
AcDbEntity
  8
Livello_1
100
AcDbLine
 62
7
  6
CONTINUOUS
 10
138.8328801003
 20
-69.1207809491
 11
138.7462007654
 21
-69.1151949473
  0
LINE
  5
404
100
AcDbEntity
  8
Livello_1
100
AcDbLine
 62
7
  6
CONTINUOUS
 10
109.286960791
 20
-67.1608648763
 11
109.0236482402
 21
-67.1439142505
  0
LINE
  5
405
100
AcDbEntity
  8
Livello_1
100
AcDbLine
 62
7
  6
CONTINUOUS
 10
4.7828316174
 20
-67.8686986947
 11
4.8807864427
 21
-67.8750303283
  0
LINE
  5
406
100
AcDbEntity
  8
Livello_1
100
AcDbLine
 62
7
  6
CONTINUOUS
 10
30.6345504169
 20
-67.3658168408
 11
31.6729688227
 21
-67.4336193429
  0
LINE
  5
407
100
AcDbEntity
  8
Livello_1
100
AcDbLine
 62
7
  6
CONTINUOUS
 10
109.8419011412
 20
-67.5821264441
 11
110.0957912645
 21
-67.5990770694
  0
LINE
  5
408
100
AcDbEntity
  8
Livello_1
100
AcDbLine
 62
7
  6
CONTINUOUS
 10
-5.9640575747
 20
-68.0702036265
 11
-6.058472008
 21
-68.0638929134
  0
LINE
  5
409
100
AcDbEntity
  8
Livello_1
100
AcDbLine
 62
7
  6
CONTINUOUS
 10
109.0912581198
 20
-67.5387867766
 11
109.2324491215
 21
-67.548225193
  0
LINE
  5
40A
100
AcDbEntity
  8
Livello_1
100
AcDbLine
 62
7
  6
CONTINUOUS
 10
108.6830947731
 20
-67.1288898328
 11
108.5683087626
 21
-67.1211850031
  0
LINE
  5
40B
100
AcDbEntity
  8
Livello_1
100
AcDbLine
 62
7
  6
CONTINUOUS
 10
-5.6472585479
 20
-68.0891803128
 11
-5.7432245621
 21
-68.0825586303
  0
LINE
  5
40C
100
AcDbEntity
  8
Livello_1
100
AcDbLine
 62
7
  6
CONTINUOUS
 10
4.9524272341
 20
-67.8812699524
 11
4.98190572
 21
-67.8833135415
  0
LINE
  5
40D
100
AcDbEntity
  8
Livello_1
100
AcDbLine
 62
7
  6
CONTINUOUS
 10
31.2723176848
 20
-67.8887821612
 11
30.2450712815
 21
-67.8173198654
  0
LINE
  5
40E
100
AcDbEntity
  8
Livello_1
100
AcDbLine
 62
7
  6
CONTINUOUS
 10
109.5776523979
 20
-67.5666210765
 11
109.6123131964
 21
-67.5690282334
  0
LINE
  5
40F
100
AcDbEntity
  8
Livello_1
100
AcDbLine
 62
7
  6
CONTINUOUS
 10
108.9841609884
 20
-67.5312745672
 11
109.0912581198
 21
-67.5387867766
  0
LINE
  5
410
100
AcDbEntity
  8
Livello_1
100
AcDbLine
 62
7
  6
CONTINUOUS
 10
138.6766479659
 20
-69.1113425327
 11
138.6257960907
 21
-69.1076827384
  0
LINE
  5
411
100
AcDbEntity
  8
Livello_1
100
AcDbLine
 62
7
  6
CONTINUOUS
 10
31.6729688227
 20
-67.4336193429
 11
33.5596889654
 21
-67.5746177276
  0
LINE
  5
412
100
AcDbEntity
  8
Livello_1
100
AcDbLine
 62
7
  6
CONTINUOUS
 10
2.0230681286
 20
-68.6210812893
 11
1.8192931827
 21
-68.6053839572
  0
LINE
  5
413
100
AcDbEntity
  8
Livello_1
100
AcDbLine
 62
7
  6
CONTINUOUS
 10
33.1363085801
 20
-68.033632961
 11
31.2723176848
 21
-67.8887821612
  0
LINE
  5
414
100
AcDbEntity
  8
Livello_1
100
AcDbLine
 62
7
  6
CONTINUOUS
 10
-6.123265281
 20
-68.0580957956
 11
-6.1916965995
 21
-68.0527162026
  0
LINE
  5
415
100
AcDbEntity
  8
Livello_1
100
AcDbLine
 62
7
  6
CONTINUOUS
 10
4.98190572
 20
-67.8833135415
 11
5.0531117933
 21
-67.8890111858
  0
LINE
  5
416
100
AcDbEntity
  8
Livello_1
100
AcDbLine
 62
7
  6
CONTINUOUS
 10
-39.1321066561
 20
-68.6495032314
 11
-39.1480772054
 21
-68.6481353616
  0
LINE
  5
417
100
AcDbEntity
  8
Livello_1
100
AcDbLine
 62
7
  6
CONTINUOUS
 10
4.8807864427
 20
-67.8750303283
 11
4.9524272341
 21
-67.8812699524
  0
LINE
  5
418
100
AcDbEntity
  8
Livello_1
100
AcDbLine
 62
7
  6
CONTINUOUS
 10
33.5596889654
 20
-67.5746177276
 11
34.7356583776
 21
-67.6774260812
  0
LINE
  5
419
100
AcDbEntity
  8
Livello_1
100
AcDbLine
 62
7
  6
CONTINUOUS
 10
-6.058472008
 20
-68.0638929134
 11
-6.123265281
 21
-68.0580957956
  0
LINE
  5
41A
100
AcDbEntity
  8
Livello_1
100
AcDbLine
 62
7
  6
CONTINUOUS
 10
-6.2008660801
 20
-68.0518921848
 11
-6.2775544934
 21
-68.044997585
  0
LINE
  5
41B
100
AcDbEntity
  8
Livello_1
100
AcDbLine
 62
7
  6
CONTINUOUS
 10
-6.1916965995
 20
-68.0527162026
 11
-6.2008660801
 21
-68.0518921848
  0
LINE
  5
41C
100
AcDbEntity
  8
Livello_1
100
AcDbLine
 62
7
  6
CONTINUOUS
 10
34.4591428905
 20
-68.1575924363
 11
33.1363085801
 21
-68.033632961
  0
LINE
  5
41D
100
AcDbEntity
  8
Livello_1
100
AcDbLine
 62
7
  6
CONTINUOUS
 10
2.1748274691
 20
-68.6363092694
 11
2.0230681286
 21
-68.6210812893
  0
LINE
  5
41E
100
AcDbEntity
  8
Livello_1
100
AcDbLine
 62
7
  6
CONTINUOUS
 10
5.1028640313
 20
-67.8945607839
 11
5.1897471257
 21
-67.9037648882
  0
LINE
  5
41F
100
AcDbEntity
  8
Livello_1
100
AcDbLine
 62
7
  6
CONTINUOUS
 10
34.7356583776
 20
-67.6774260812
 11
36.5919246449
 21
-67.8776101581
  0
LINE
  5
420
100
AcDbEntity
  8
Livello_1
100
AcDbLine
 62
7
  6
CONTINUOUS
 10
-6.2775544934
 20
-68.044997585
 11
-6.3534462736
 21
-68.0365899046
  0
LINE
  5
421
100
AcDbEntity
  8
Livello_1
100
AcDbLine
 62
7
  6
CONTINUOUS
 10
-6.3534462736
 20
-68.0365899046
 11
-6.3548611659
 21
-68.0364332604
  0
LINE
  5
422
100
AcDbEntity
  8
Livello_1
100
AcDbLine
 62
7
  6
CONTINUOUS
 10
5.0531117933
 20
-67.8890111858
 11
5.1028640313
 21
-67.8945607839
  0
LINE
  5
423
100
AcDbEntity
  8
Livello_1
100
AcDbLine
 62
7
  6
CONTINUOUS
 10
36.1309832153
 20
-68.3497236022
 11
34.4591428905
 21
-68.1575924363
  0
LINE
  5
424
100
AcDbEntity
  8
Livello_1
100
AcDbLine
 62
7
  6
CONTINUOUS
 10
5.2346166171
 20
-67.9095852016
 11
5.2769032118
 21
-67.9144722147
  0
LINE
  5
425
100
AcDbEntity
  8
Livello_1
100
AcDbLine
 62
7
  6
CONTINUOUS
 10
-39.1480772054
 20
-68.6481353616
 11
-39.1640437125
 21
-68.6462184575
  0
LINE
  5
426
100
AcDbEntity
  8
Livello_1
100
AcDbLine
 62
7
  6
CONTINUOUS
 10
-6.3548611659
 20
-68.0364332604
 11
-6.4522449843
 21
-68.0244274376
  0
LINE
  5
427
100
AcDbEntity
  8
Livello_1
100
AcDbLine
 62
7
  6
CONTINUOUS
 10
5.1897471257
 20
-67.9037648882
 11
5.2346166171
 21
-67.9095852016
  0
LINE
  5
428
100
AcDbEntity
  8
Livello_1
100
AcDbLine
 62
7
  6
CONTINUOUS
 10
2.2830890274
 20
-68.6505972049
 11
2.1748274691
 21
-68.6363092694
  0
LINE
  5
429
100
AcDbEntity
  8
Livello_1
100
AcDbLine
 62
7
  6
CONTINUOUS
 10
36.5919246449
 20
-67.8776101581
 11
37.1938644552
 21
-67.9585108709
  0
LINE
  5
42A
100
AcDbEntity
  8
Livello_1
100
AcDbLine
 62
7
  6
CONTINUOUS
 10
5.2769032118
 20
-67.9144722147
 11
5.3361277467
 21
-67.9226834123
  0
LINE
  5
42B
100
AcDbEntity
  8
Livello_1
100
AcDbLine
 62
7
  6
CONTINUOUS
 10
36.7234846098
 20
-68.4325505226
 11
36.1309832153
 21
-68.3497236022
  0
LINE
  5
42C
100
AcDbEntity
  8
Livello_1
100
AcDbLine
 62
7
  6
CONTINUOUS
 10
-6.4522449843
 20
-68.0244274376
 11
-6.5364182315
 21
-68.0124313551
  0
LINE
  5
42D
100
AcDbEntity
  8
Livello_1
100
AcDbLine
 62
7
  6
CONTINUOUS
 10
37.1938644552
 20
-67.9585108709
 11
37.7224293748
 21
-68.0374853761
  0
LINE
  5
42E
100
AcDbEntity
  8
Livello_1
100
AcDbLine
 62
7
  6
CONTINUOUS
 10
-39.1640437125
 20
-68.6462184575
 11
-39.1800121984
 21
-68.6437498754
  0
LINE
  5
42F
100
AcDbEntity
  8
Livello_1
100
AcDbLine
 62
7
  6
CONTINUOUS
 10
37.2445237096
 20
-68.5171110291
 11
36.7234846098
 21
-68.4325505226
  0
LINE
  5
430
100
AcDbEntity
  8
Livello_1
100
AcDbLine
 62
7
  6
CONTINUOUS
 10
-39.1800121984
 20
-68.6437498754
 11
-39.1959884622
 21
-68.6407259454
  0
LINE
  5
431
100
AcDbEntity
  8
Livello_1
100
AcDbLine
 62
7
  6
CONTINUOUS
 10
37.7224293748
 20
-68.0374853761
 11
38.4183544954
 21
-68.1709715519
  0
LINE
  5
432
100
AcDbEntity
  8
Livello_1
100
AcDbLine
 62
7
  6
CONTINUOUS
 10
37.9273642311
 20
-68.6505972049
 11
37.2445237096
 21
-68.5171110291
  0
LINE
  5
433
100
AcDbEntity
  8
Livello_1
100
AcDbLine
 62
7
  6
CONTINUOUS
 10
108.8863096531
 20
-67.5220287717
 11
108.9144322809
 21
-67.527614773
  0
LINE
  5
434
100
AcDbEntity
  8
Livello_1
100
AcDbLine
 62
7
  6
CONTINUOUS
 10
5.3728869626
 20
-67.9303169946
 11
5.4095162485
 21
-67.9377078305
  0
LINE
  5
435
100
AcDbEntity
  8
Livello_1
100
AcDbLine
 62
7
  6
CONTINUOUS
 10
-6.5364182315
 20
-68.0124313551
 11
-6.5612372153
 21
-68.0074067662
  0
LINE
  5
436
100
AcDbEntity
  8
Livello_1
100
AcDbLine
 62
7
  6
CONTINUOUS
 10
5.3361277467
 20
-67.9226834123
 11
5.3728869626
 21
-67.9303169946
  0
LINE
  5
437
100
AcDbEntity
  8
Livello_1
100
AcDbLine
 62
7
  6
CONTINUOUS
 10
-39.1959884622
 20
-68.6407259454
 11
-39.2119780465
 21
-68.6371420026
  0
LINE
  5
438
100
AcDbEntity
  8
Livello_1
100
AcDbLine
 62
7
  6
CONTINUOUS
 10
-39.2119780465
 20
-68.6371420026
 11
-39.2279862006
 21
-68.6329924157
  0
LINE
  5
439
100
AcDbEntity
  8
Livello_1
100
AcDbLine
 62
7
  6
CONTINUOUS
 10
-6.5803418038
 20
-68.0016579175
 11
-6.593782575
 21
-67.9979827475
  0
LINE
  5
43A
100
AcDbEntity
  8
Livello_1
100
AcDbLine
 62
7
  6
CONTINUOUS
 10
-39.2279862006
 20
-68.6329924157
 11
-39.2440178437
 21
-68.628270623
  0
LINE
  5
43B
100
AcDbEntity
  8
Livello_1
100
AcDbLine
 62
7
  6
CONTINUOUS
 10
-6.5612372153
 20
-68.0074067662
 11
-6.5803418038
 21
-68.0016579175
  0
LINE
  5
43C
100
AcDbEntity
  8
Livello_1
100
AcDbLine
 62
7
  6
CONTINUOUS
 10
-39.2440178437
 20
-68.628270623
 11
-39.2600775304
 21
-68.6229691745
  0
LWPOLYLINE
  5
43D
100
AcDbEntity
  8
0
100
AcDbPolyline
 62
7
  6
CONTINUOUS
 90
3
 70
0
 43
0.3500000006
 10
-57.7482637939
 20
5.2978690567
 10
-57.5661555176
 20
5.2371647873
 10
-57.3233384399
 20
5.1157585144
  0
LINE
  5
43E
100
AcDbEntity
  8
Livello_1
100
AcDbLine
 62
7
  6
CONTINUOUS
 10
5.4339790826
 20
-67.9471462469
 11
5.4446646402
 21
-67.950849406
  0
LINE
  5
43F
100
AcDbEntity
  8
Livello_1
100
AcDbLine
 62
7
  6
CONTINUOUS
 10
-6.593782575
 20
-67.9979827475
 11
-6.6048171295
 21
-67.9941457086
  0
LINE
  5
440
100
AcDbEntity
  8
Livello_1
100
AcDbLine
 62
7
  6
CONTINUOUS
 10
5.4095162485
 20
-67.9377078305
 11
5.4232840948
 21
-67.9427127974
  0
LINE
  5
441
100
AcDbEntity
  8
Livello_1
100
AcDbLine
 62
7
  6
CONTINUOUS
 10
-39.2600775304
 20
-68.6229691745
 11
-39.2761694182
 21
-68.6170797748
  0
LINE
  5
442
100
AcDbEntity
  8
Livello_1
100
AcDbLine
 62
7
  6
CONTINUOUS
 10
-6.6048171295
 20
-67.9941457086
 11
-6.6117437852
 21
-67.9914950458
  0
LINE
  5
443
100
AcDbEntity
  8
Livello_1
100
AcDbLine
 62
7
  6
CONTINUOUS
 10
-39.2761694182
 20
-68.6170797748
 11
-39.2863927404
 21
-68.6130361596
  0
LINE
  5
444
100
AcDbEntity
  8
Livello_1
100
AcDbLine
 62
7
  6
CONTINUOUS
 10
-6.6117437852
 20
-67.9914950458
 11
-6.6236939618
 21
-67.9866334993
  0
LINE
  5
445
100
AcDbEntity
  8
Livello_1
100
AcDbLine
 62
7
  6
CONTINUOUS
 10
-39.2863927404
 20
-68.6130361596
 11
-39.2901126691
 21
-68.6115151663
  0
LINE
  5
446
100
AcDbEntity
  8
Livello_1
100
AcDbLine
 62
7
  6
CONTINUOUS
 10
5.4232840948
 20
-67.9427127974
 11
5.4339790826
 21
-67.9471462469
  0
LINE
  5
447
100
AcDbEntity
  8
Livello_1
100
AcDbLine
 62
7
  6
CONTINUOUS
 10
-39.2901126691
 20
-68.6115151663
 11
-39.3076995409
 21
-68.6039909353
  0
LINE
  5
448
100
AcDbEntity
  8
Livello_1
100
AcDbLine
 62
7
  6
CONTINUOUS
 10
5.4528559148
 20
-67.9546584558
 11
5.4557281519
 21
-67.9559655304
  0
LINE
  5
449
100
AcDbEntity
  8
Livello_1
100
AcDbLine
 62
7
  6
CONTINUOUS
 10
-39.3076995409
 20
-68.6039909353
 11
-39.3242492386
 21
-68.5963535883
  0
LINE
  5
44A
100
AcDbEntity
  8
Livello_1
100
AcDbLine
 62
7
  6
CONTINUOUS
 10
5.4446646402
 20
-67.950849406
 11
5.4528559148
 21
-67.9546584558
  0
LINE
  5
44B
100
AcDbEntity
  8
Livello_1
100
AcDbLine
 62
7
  6
CONTINUOUS
 10
-39.5891925424
 20
14.3229072114
 11
-39.4218051199
 21
14.2402729125
  0
LINE
  5
44C
100
AcDbEntity
  8
Livello_1
100
AcDbLine
 62
7
  6
CONTINUOUS
 10
-39.3242492386
 20
-68.5963535883
 11
-39.3398481057
 21
-68.5885878597
  0
LINE
  5
44D
100
AcDbEntity
  8
Livello_1
100
AcDbLine
 62
7
  6
CONTINUOUS
 10
-39.4218051199
 20
14.2402729125
 11
-39.256343905
 21
14.1574459921
  0
LINE
  5
44E
100
AcDbEntity
  8
Livello_1
100
AcDbLine
 62
7
  6
CONTINUOUS
 10
108.8502020922
 20
-67.5044545952
 11
108.8650428256
 21
-67.5120192234
  0
LINE
  5
44F
100
AcDbEntity
  8
Livello_1
100
AcDbLine
 62
7
  6
CONTINUOUS
 10
-39.256343905
 20
14.1574459921
 11
-39.0756656515
 21
14.0651806559
  0
LINE
  5
450
100
AcDbEntity
  8
Livello_1
100
AcDbLine
 62
7
  6
CONTINUOUS
 10
108.8297030241
 20
-67.4938908266
 11
108.8502020922
 21
-67.5044545952
  0
LINE
  5
451
100
AcDbEntity
  8
Livello_1
100
AcDbLine
 62
7
  6
CONTINUOUS
 10
108.8650428256
 20
-67.5120192234
 11
108.8843834455
 21
-67.5220287717
  0
LINE
  5
452
100
AcDbEntity
  8
Livello_1
100
AcDbLine
 62
7
  6
CONTINUOUS
 10
108.8136519441
 20
-67.4853121922
 11
108.8297030241
 21
-67.4938908266
  0
LINE
  5
453
100
AcDbEntity
  8
Livello_1
100
AcDbLine
 62
7
  6
CONTINUOUS
 10
-39.3398481057
 20
-68.5885878597
 11
-39.3545665222
 21
-68.5806823233
  0
LINE
  5
454
100
AcDbEntity
  8
Livello_1
100
AcDbLine
 62
7
  6
CONTINUOUS
 10
108.7998600476
 20
-67.4775700666
 11
108.8136519441
 21
-67.4853121922
  0
LINE
  5
455
100
AcDbEntity
  8
Livello_1
100
AcDbLine
 62
7
  6
CONTINUOUS
 10
-39.3545665222
 20
-68.5806823233
 11
-39.3684633856
 21
-68.5726280309
  0
LINE
  5
456
100
AcDbEntity
  8
Livello_1
100
AcDbLine
 62
7
  6
CONTINUOUS
 10
108.7875407273
 20
-67.470252103
 11
108.7998600476
 21
-67.4775700666
  0
LINE
  5
457
100
AcDbEntity
  8
Livello_1
100
AcDbLine
 62
7
  6
CONTINUOUS
 10
-39.3684633856
 20
-68.5726280309
 11
-39.3815890191
 21
-68.564417589
  0
LINE
  5
458
100
AcDbEntity
  8
Livello_1
100
AcDbLine
 62
7
  6
CONTINUOUS
 10
108.7763040306
 20
-67.4631532577
 11
108.7875407273
 21
-67.470252103
  0
LINE
  5
459
100
AcDbEntity
  8
Livello_1
100
AcDbLine
 62
7
  6
CONTINUOUS
 10
-6.6236939618
 20
-67.9866334993
 11
-6.6313249598
 21
-67.9817116042
  0
LINE
  5
45A
100
AcDbEntity
  8
Livello_1
100
AcDbLine
 62
7
  6
CONTINUOUS
 10
5.4557281519
 20
-67.9559655304
 11
5.4628680354
 21
-67.9606189118
  0
LINE
  5
45B
100
AcDbEntity
  8
Livello_1
100
AcDbLine
 62
7
  6
CONTINUOUS
 10
108.7659216907
 20
-67.4561524771
 11
108.7763040306
 21
-67.4631532577
  0
LINE
  5
45C
100
AcDbEntity
  8
Livello_1
100
AcDbLine
 62
7
  6
CONTINUOUS
 10
-39.3815890191
 20
-68.564417589
 11
-39.3939871163
 21
-68.5560445099
  0
LINE
  5
45D
100
AcDbEntity
  8
Livello_1
100
AcDbLine
 62
7
  6
CONTINUOUS
 10
-39.3939871163
 20
-68.5560445099
 11
-39.4056960727
 21
-68.5475027362
  0
LINE
  5
45E
100
AcDbEntity
  8
Livello_1
100
AcDbLine
 62
7
  6
CONTINUOUS
 10
-39.4056960727
 20
-68.5475027362
 11
-39.416749915
 21
-68.5387862896
  0
LINE
  5
45F
100
AcDbEntity
  8
Livello_1
100
AcDbLine
 62
7
  6
CONTINUOUS
 10
108.753835015
 20
-67.4463924927
 11
108.7659216907
 21
-67.4561524771
  0
LINE
  5
460
100
AcDbEntity
  8
Livello_1
100
AcDbLine
 62
7
  6
CONTINUOUS
 10
108.7410648055
 20
-67.4356028434
 11
108.753835015
 21
-67.4463924927
  0
LINE
  5
461
100
AcDbEntity
  8
Livello_1
100
AcDbLine
 62
7
  6
CONTINUOUS
 10
-39.416749915
 20
-68.5387862896
 11
-39.4271789559
 21
-68.5298889974
  0
LINE
  5
462
100
AcDbEntity
  8
Livello_1
100
AcDbLine
 62
7
  6
CONTINUOUS
 10
108.7288860231
 20
-67.424799034
 11
108.7410648055
 21
-67.4356028434
  0
LINE
  5
463
100
AcDbEntity
  8
Livello_1
100
AcDbLine
 62
7
  6
CONTINUOUS
 10
-32.7684921608
 20
11.4958125481
 11
-32.8549788727
 21
11.5728608457
  0
LINE
  5
464
100
AcDbEntity
  8
Livello_1
100
AcDbLine
 62
7
  6
CONTINUOUS
 10
31.5957279063
 20
-56.4632900952
 11
31.6841408258
 21
-56.5441908074
  0
LINE
  5
465
100
AcDbEntity
  8
Livello_1
100
AcDbLine
 62
7
  6
CONTINUOUS
 10
-39.4271789559
 20
-68.5298889974
 11
-39.4370102554
 21
-68.5208042878
  0
LINE
  5
466
100
AcDbEntity
  8
Livello_1
100
AcDbLine
 62
7
  6
CONTINUOUS
 10
31.6785548245
 20
-56.5798256452
 11
31.7049573242
 21
-56.6062146874
  0
LWPOLYLINE
  5
467
100
AcDbEntity
  8
0
100
AcDbPolyline
 62
7
  6
CONTINUOUS
 90
3
 70
0
 43
0.3500000006
 10
-59.3265566711
 20
-0.7724876404
 10
-60.0549988403
 20
-0.0440454712
 10
-57.5054512482
 20
-0.0440454712
  0
LINE
  5
468
100
AcDbEntity
  8
Livello_1
100
AcDbLine
 62
7
  6
CONTINUOUS
 10
-32.8493928714
 20
11.6179340999
 11
-32.8757819126
 21
11.6443231421
  0
LINE
  5
469
100
AcDbEntity
  8
Livello_1
100
AcDbLine
 62
7
  6
CONTINUOUS
 10
-39.4370102554
 20
-68.5208042878
 11
-39.446267954
 21
-68.5115250278
  0
LINE
  5
46A
100
AcDbEntity
  8
Livello_1
100
AcDbLine
 62
7
  6
CONTINUOUS
 10
-39.446267954
 20
-68.5115250278
 11
-39.4576712929
 21
-68.4999769548
  0
LINE
  5
46B
100
AcDbEntity
  8
Livello_1
100
AcDbLine
 62
7
  6
CONTINUOUS
 10
-6.6313249598
 20
-67.9817116042
 11
-6.6337010045
 21
-67.9792354243
  0
LINE
  5
46C
100
AcDbEntity
  8
Livello_1
100
AcDbLine
 62
7
  6
CONTINUOUS
 10
-39.4576712929
 20
-68.4999769548
 11
-39.4686928671
 21
-68.488036761
  0
LINE
  5
46D
100
AcDbEntity
  8
Livello_1
100
AcDbLine
 62
7
  6
CONTINUOUS
 10
-39.4686928671
 20
-68.488036761
 11
-39.4793191475
 21
-68.4757179119
  0
LINE
  5
46E
100
AcDbEntity
  8
Livello_1
100
AcDbLine
 62
7
  6
CONTINUOUS
 10
5.4628680354
 20
-67.9606189118
 11
5.4666960853
 21
-67.965255744
  0
LINE
  5
46F
100
AcDbEntity
  8
Livello_1
100
AcDbLine
 62
7
  6
CONTINUOUS
 10
-39.4793191475
 20
-68.4757179119
 11
-39.4895365712
 21
-68.4630349267
  0
LINE
  5
470
100
AcDbEntity
  8
Livello_1
100
AcDbLine
 62
7
  6
CONTINUOUS
 10
-39.4895365712
 20
-68.4630349267
 11
-39.4993316429
 21
-68.4500033753
  0
LINE
  5
471
100
AcDbEntity
  8
Livello_1
100
AcDbLine
 62
7
  6
CONTINUOUS
 10
-39.4993316429
 20
-68.4500033753
 11
-39.5086910449
 21
-68.4366398663
  0
LINE
  5
472
100
AcDbEntity
  8
Livello_1
100
AcDbLine
 62
7
  6
CONTINUOUS
 10
-39.5086910449
 20
-68.4366398663
 11
-39.5176017406
 21
-68.4229620114
  0
LINE
  5
473
100
AcDbEntity
  8
Livello_1
100
AcDbLine
 62
7
  6
CONTINUOUS
 10
-6.6337010045
 20
-67.9792354243
 11
-6.6352955859
 21
-67.9767482335
  0
LINE
  5
474
100
AcDbEntity
  8
Livello_1
100
AcDbLine
 62
7
  6
CONTINUOUS
 10
-39.5176017406
 20
-68.4229620114
 11
-39.5260510882
 21
-68.4089883793
  0
LINE
  5
475
100
AcDbEntity
  8
Livello_1
100
AcDbLine
 62
7
  6
CONTINUOUS
 10
-39.5260510882
 20
-68.4089883793
 11
-39.5340269455
 21
-68.3947384249
  0
LINE
  5
476
100
AcDbEntity
  8
Livello_1
100
AcDbLine
 62
7
  6
CONTINUOUS
 10
-39.5340269455
 20
-68.3947384249
 11
-39.5415177736
 21
-68.3802324108
  0
LINE
  5
477
100
AcDbEntity
  8
Livello_1
100
AcDbLine
 62
7
  6
CONTINUOUS
 10
-39.5415177736
 20
-68.3802324108
 11
-39.5485127342
 21
-68.3654913049
  0
LINE
  5
478
100
AcDbEntity
  8
Livello_1
100
AcDbLine
 62
7
  6
CONTINUOUS
 10
-39.5485127342
 20
-68.3654913049
 11
-39.5517890831
 21
-68.3581130556
  0
LINE
  5
479
100
AcDbEntity
  8
Livello_1
100
AcDbLine
 62
7
  6
CONTINUOUS
 10
-39.5517890831
 20
-68.3581130556
 11
-39.5580219672
 21
-68.3430664993
  0
LINE
  5
47A
100
AcDbEntity
  8
Livello_1
100
AcDbLine
 62
7
  6
CONTINUOUS
 10
-39.5580219672
 20
-68.3430664993
 11
-39.5637334818
 21
-68.3278464703
  0
LINE
  5
47B
100
AcDbEntity
  8
Livello_1
100
AcDbLine
 62
7
  6
CONTINUOUS
 10
-39.5637334818
 20
-68.3278464703
 11
-39.5689165888
 21
-68.3124755427
  0
LINE
  5
47C
100
AcDbEntity
  8
Livello_1
100
AcDbLine
 62
7
  6
CONTINUOUS
 10
-39.5689165888
 20
-68.3124755427
 11
-39.5735652613
 21
-68.2969763014
  0
LINE
  5
47D
100
AcDbEntity
  8
Livello_1
100
AcDbLine
 62
7
  6
CONTINUOUS
 10
-6.6352955859
 20
-67.9767482335
 11
-6.6367125083
 21
-67.9715830881
  0
LINE
  5
47E
100
AcDbEntity
  8
Livello_1
100
AcDbLine
 62
7
  6
CONTINUOUS
 10
5.4666960853
 20
-67.965255744
 11
5.4678803325
 21
-67.969682874
  0
LINE
  5
47F
100
AcDbEntity
  8
Livello_1
100
AcDbLine
 62
7
  6
CONTINUOUS
 10
-39.5735652613
 20
-68.2969763014
 11
-39.5776744941
 21
-68.2813711987
  0
LINE
  5
480
100
AcDbEntity
  8
Livello_1
100
AcDbLine
 62
7
  6
CONTINUOUS
 10
-39.5776744941
 20
-68.2813711987
 11
-39.5812402968
 21
-68.265682422
  0
LINE
  5
481
100
AcDbEntity
  8
Livello_1
100
AcDbLine
 62
7
  6
CONTINUOUS
 10
-39.5812402968
 20
-68.265682422
 11
-39.5842596703
 21
-68.2499317637
  0
LINE
  5
482
100
AcDbEntity
  8
Livello_1
100
AcDbLine
 62
7
  6
CONTINUOUS
 10
-39.5842596703
 20
-68.2499317637
 11
-39.5867305703
 21
-68.2341405049
  0
LINE
  5
483
100
AcDbEntity
  8
Livello_1
100
AcDbLine
 62
7
  6
CONTINUOUS
 10
-39.5867305703
 20
-68.2341405049
 11
-39.5886518545
 21
-68.2183293064
  0
LINE
  5
484
100
AcDbEntity
  8
Livello_1
100
AcDbLine
 62
7
  6
CONTINUOUS
 10
-3.5856796602
 20
-68.1295580915
 11
-3.5856796602
 21
-67.8117338635
  0
LWPOLYLINE
  5
485
100
AcDbEntity
  8
0
100
AcDbPolyline
 62
7
  6
CONTINUOUS
 90
4
 70
0
 43
0.3500000006
 10
-2.9425618515
 20
94.9685095825
 10
-2.9425618515
 20
95.6113630371
 10
-1.4425618186
 20
95.6113630371
 10
-2.2997047148
 20
92.6113621216
  0
LINE
  5
486
100
AcDbEntity
  8
Livello_1
100
AcDbLine
 62
7
  6
CONTINUOUS
 10
-0.5854190238
 20
12.9969060083
 11
-0.5854190238
 21
14.2683955408
  0
LINE
  5
487
100
AcDbEntity
  8
Livello_1
100
AcDbLine
 62
7
  6
CONTINUOUS
 10
-0.5854190238
 20
73.7514149541
 11
-0.5854190238
 21
74.2499174398
  0
LWPOLYLINE
  5
488
100
AcDbEntity
  8
0
100
AcDbPolyline
 62
7
  6
CONTINUOUS
 90
4
 70
0
 43
0.3500000006
 10
-0.5854190286
 20
93.0399310913
 10
-0.5854190286
 20
93.8970780945
 10
-0.1568475983
 20
94.3256470642
 10
0.4860095562
 20
94.3256470642
  0
LINE
  5
489
100
AcDbEntity
  8
Livello_1
100
AcDbLine
 62
7
  6
CONTINUOUS
 10
2.4148416133
 20
-67.8117338635
 11
2.4148416133
 21
-68.1295580915
  0
LINE
  5
48A
100
AcDbEntity
  8
Livello_1
100
AcDbLine
 62
7
  6
CONTINUOUS
 10
-6.6367921719
 20
-67.969682874
 11
-6.6366423982
 21
-67.9672123333
  0
LINE
  5
48B
100
AcDbEntity
  8
Livello_1
100
AcDbLine
 62
7
  6
CONTINUOUS
 10
-39.5397967457
 20
75.571382605
 11
-39.534377231
 21
75.5817332735
  0
LINE
  5
48C
100
AcDbEntity
  8
Livello_1
100
AcDbLine
 62
7
  6
CONTINUOUS
 10
-39.534377231
 20
75.5817332735
 11
-39.5280275321
 21
75.5926824771
  0
LINE
  5
48D
100
AcDbEntity
  8
Livello_1
100
AcDbLine
 62
7
  6
CONTINUOUS
 10
38.0430996126
 20
-68.6371803975
 11
38.0266999381
 21
-68.6407332107
  0
LINE
  5
48E
100
AcDbEntity
  8
Livello_1
100
AcDbLine
 62
7
  6
CONTINUOUS
 10
38.0266999381
 20
-68.6407332107
 11
38.010212145
 21
-68.6437449444
  0
LINE
  5
48F
100
AcDbEntity
  8
Livello_1
100
AcDbLine
 62
7
  6
CONTINUOUS
 10
5.3731541593
 20
-68.0095308805
 11
5.3505331172
 21
-68.0131330553
  0
LINE
  5
490
100
AcDbEntity
  8
Livello_1
100
AcDbLine
 62
7
  6
CONTINUOUS
 10
-6.5702890758
 20
-67.9367542535
 11
-6.5590861198
 21
-67.9350016132
  0
LINE
  5
491
100
AcDbEntity
  8
Livello_1
100
AcDbLine
 62
7
  6
CONTINUOUS
 10
5.3756277921
 20
-68.0091701263
 11
5.3731541593
 21
-68.0095308805
  0
LINE
  5
492
100
AcDbEntity
  8
Livello_1
100
AcDbLine
 62
7
  6
CONTINUOUS
 10
-37.3037474698
 20
-68.3516498098
 11
-38.2118354861
 21
-68.4833526217
  0
LINE
  5
493
100
AcDbEntity
  8
Livello_1
100
AcDbLine
 62
7
  6
CONTINUOUS
 10
5.3361277467
 20
-68.0166823357
 11
5.2796092385
 21
-68.0246231243
  0
LINE
  5
494
100
AcDbEntity
  8
Livello_1
100
AcDbLine
 62
7
  6
CONTINUOUS
 10
-38.7347619463
 20
-68.0135353856
 11
-37.7646888988
 21
-67.8776101581
  0
LINE
  5
495
100
AcDbEntity
  8
Livello_1
100
AcDbLine
 62
7
  6
CONTINUOUS
 10
-6.5069657937
 20
-67.9226834123
 11
-6.4492817796
 21
-67.9146222166
  0
LINE
  5
496
100
AcDbEntity
  8
Livello_1
100
AcDbLine
 62
7
  6
CONTINUOUS
 10
-3.3475992001
 20
-68.6362937589
 11
-3.455853282
 21
-68.6505972049
  0
LINE
  5
497
100
AcDbEntity
  8
Livello_1
100
AcDbLine
 62
7
  6
CONTINUOUS
 10
-36.6453697824
 20
-68.2668966824
 11
-37.3037474698
 21
-68.3516498098
  0
LINE
  5
498
100
AcDbEntity
  8
Livello_1
100
AcDbLine
 62
7
  6
CONTINUOUS
 10
5.2346166171
 20
-68.0299731667
 11
5.1860327767
 21
-68.0361268802
  0
LINE
  5
499
100
AcDbEntity
  8
Livello_1
100
AcDbLine
 62
7
  6
CONTINUOUS
 10
-6.4073808717
 20
-67.9095852016
 11
-6.3591096447
 21
-67.9035148504
  0
LINE
  5
49A
100
AcDbEntity
  8
Livello_1
100
AcDbLine
 62
7
  6
CONTINUOUS
 10
-6.4492817796
 20
-67.9146222166
 11
-6.4073808717
 21
-67.9095852016
  0
LINE
  5
49B
100
AcDbEntity
  8
Livello_1
100
AcDbLine
 62
7
  6
CONTINUOUS
 10
-37.7646888988
 20
-67.8776101581
 11
-37.1005325898
 21
-67.8003692396
  0
LINE
  5
49C
100
AcDbEntity
  8
Livello_1
100
AcDbLine
 62
7
  6
CONTINUOUS
 10
-35.919382216
 20
-68.1879221772
 11
-36.6453697824
 21
-68.2668966824
  0
LINE
  5
49D
100
AcDbEntity
  8
Livello_1
100
AcDbLine
 62
7
  6
CONTINUOUS
 10
-37.1005325898
 20
-67.8003692396
 11
-36.367032814
 21
-67.7213947343
  0
LINE
  5
49E
100
AcDbEntity
  8
Livello_1
100
AcDbLine
 62
7
  6
CONTINUOUS
 10
108.7172527205
 20
-67.4139519443
 11
108.7288860231
 21
-67.424799034
  0
LINE
  5
49F
100
AcDbEntity
  8
Livello_1
100
AcDbLine
 62
7
  6
CONTINUOUS
 10
108.7061271928
 20
-67.4030368931
 11
108.7172527205
 21
-67.4139519443
  0
LINE
  5
4A0
100
AcDbEntity
  8
Livello_1
100
AcDbLine
 62
7
  6
CONTINUOUS
 10
108.6954780575
 20
-67.3920324517
 11
108.7061271928
 21
-67.4030368931
  0
LINE
  5
4A1
100
AcDbEntity
  8
Livello_1
100
AcDbLine
 62
7
  6
CONTINUOUS
 10
108.6852789006
 20
-67.3809196013
 11
108.6954780575
 21
-67.3920324517
  0
LINE
  5
4A2
100
AcDbEntity
  8
Livello_1
100
AcDbLine
 62
7
  6
CONTINUOUS
 10
-39.5280275321
 20
75.5926824771
 11
-39.5205164928
 21
75.6045585108
  0
LINE
  5
4A3
100
AcDbEntity
  8
Livello_1
100
AcDbLine
 62
7
  6
CONTINUOUS
 10
-39.5205164928
 20
75.6045585108
 11
-39.5113960397
 21
75.6179941118
  0
LINE
  5
4A4
100
AcDbEntity
  8
Livello_1
100
AcDbLine
 62
7
  6
CONTINUOUS
 10
-39.5065582457
 20
75.6248443128
 11
-39.4971778326
 21
75.6383998284
  0
LINE
  5
4A5
100
AcDbEntity
  8
Livello_1
100
AcDbLine
 62
7
  6
CONTINUOUS
 10
-39.5113960397
 20
75.6179941118
 11
-39.5065582457
 21
75.6248443128
  0
LINE
  5
4A6
100
AcDbEntity
  8
Livello_1
100
AcDbLine
 62
7
  6
CONTINUOUS
 10
38.0593840475
 20
-68.6330915845
 11
38.0430996126
 21
-68.6371803975
  0
LINE
  5
4A7
100
AcDbEntity
  8
Livello_1
100
AcDbLine
 62
7
  6
CONTINUOUS
 10
5.3505331172
 20
-68.0131330553
 11
5.3361277467
 21
-68.0166823357
  0
LINE
  5
4A8
100
AcDbEntity
  8
Livello_1
100
AcDbLine
 62
7
  6
CONTINUOUS
 10
-38.2118354861
 20
-68.4833526217
 11
-39.1001284851
 21
-68.6505972049
  0
LINE
  5
4A9
100
AcDbEntity
  8
Livello_1
100
AcDbLine
 62
7
  6
CONTINUOUS
 10
-39.59111875
 20
-68.1709715519
 11
-38.7347619463
 21
-68.0135353856
  0
LINE
  5
4AA
100
AcDbEntity
  8
Livello_1
100
AcDbLine
 62
7
  6
CONTINUOUS
 10
108.6755073074
 20
-67.3696811224
 11
108.6852789006
 21
-67.3809196013
  0
LINE
  5
4AB
100
AcDbEntity
  8
Livello_1
100
AcDbLine
 62
7
  6
CONTINUOUS
 10
108.6661441478
 20
-67.3583011391
 11
108.6755073074
 21
-67.3696811224
  0
LINE
  5
4AC
100
AcDbEntity
  8
Livello_1
100
AcDbLine
 62
7
  6
CONTINUOUS
 10
-39.4971778326
 20
75.6383998284
 11
-39.4874405458
 21
75.6514852274
  0
LINE
  5
4AD
100
AcDbEntity
  8
Livello_1
100
AcDbLine
 62
7
  6
CONTINUOUS
 10
-39.4874405458
 20
75.6514852274
 11
-39.4772896297
 21
75.664186859
  0
LINE
  5
4AE
100
AcDbEntity
  8
Livello_1
100
AcDbLine
 62
7
  6
CONTINUOUS
 10
-39.4772896297
 20
75.664186859
 11
-39.4666571974
 21
75.6765926784
  0
LINE
  5
4AF
100
AcDbEntity
  8
Livello_1
100
AcDbLine
 62
7
  6
CONTINUOUS
 10
-6.5334858088
 20
-67.9297647192
 11
-6.5069657937
 21
-67.9226834123
  0
LINE
  5
4B0
100
AcDbEntity
  8
Livello_1
100
AcDbLine
 62
7
  6
CONTINUOUS
 10
5.4007353233
 20
-68.0045469111
 11
5.3869698401
 21
-68.0080719721
  0
LINE
  5
4B1
100
AcDbEntity
  8
Livello_1
100
AcDbLine
 62
7
  6
CONTINUOUS
 10
38.0535308151
 20
13.2037806875
 11
38.0729366507
 21
13.1965577785
  0
LINE
  5
4B2
100
AcDbEntity
  8
Livello_1
100
AcDbLine
 62
7
  6
CONTINUOUS
 10
38.0729366507
 20
13.1965577785
 11
38.0949178628
 21
13.1879212855
  0
LINE
  5
4B3
100
AcDbEntity
  8
Livello_1
100
AcDbLine
 62
7
  6
CONTINUOUS
 10
38.0949178628
 20
13.1879212855
 11
38.1205972303
 21
13.1773851892
  0
LINE
  5
4B4
100
AcDbEntity
  8
Livello_1
100
AcDbLine
 62
7
  6
CONTINUOUS
 10
37.9600499392
 20
13.2433059608
 11
37.9963822729
 21
13.2282055017
  0
LINE
  5
4B5
100
AcDbEntity
  8
Livello_1
100
AcDbLine
 62
7
  6
CONTINUOUS
 10
38.248023357
 20
13.1230581547
 11
38.3599030807
 21
13.0761029635
  0
LINE
  5
4B6
100
AcDbEntity
  8
Livello_1
100
AcDbLine
 62
7
  6
CONTINUOUS
 10
37.9287553894
 20
13.2564895393
 11
37.9600499392
 21
13.2433059608
  0
LINE
  5
4B7
100
AcDbEntity
  8
Livello_1
100
AcDbLine
 62
7
  6
CONTINUOUS
 10
37.9963822729
 20
13.2282055017
 11
38.0276768227
 21
13.2150219232
  0
LINE
  5
4B8
100
AcDbEntity
  8
Livello_1
100
AcDbLine
 62
7
  6
CONTINUOUS
 10
38.3599030807
 20
13.0761029635
 11
38.4183544954
 21
13.0514176789
  0
LINE
  5
4B9
100
AcDbEntity
  8
Livello_1
100
AcDbLine
 62
7
  6
CONTINUOUS
 10
38.1205972303
 20
13.1773851892
 11
38.248023357
 21
13.1230581547
  0
LINE
  5
4BA
100
AcDbEntity
  8
Livello_1
100
AcDbLine
 62
7
  6
CONTINUOUS
 10
37.902901397
 20
13.2677307745
 11
37.9287553894
 21
13.2564895393
  0
LINE
  5
4BB
100
AcDbEntity
  8
Livello_1
100
AcDbLine
 62
7
  6
CONTINUOUS
 10
38.0276768227
 20
13.2150219232
 11
38.0535308151
 21
13.2037806875
  0
LINE
  5
4BC
100
AcDbEntity
  8
Livello_1
100
AcDbLine
 62
7
  6
CONTINUOUS
 10
108.6573115585
 20
-67.3450089665
 11
108.6661441478
 21
-67.3583011391
  0
LINE
  5
4BD
100
AcDbEntity
  8
Livello_1
100
AcDbLine
 62
7
  6
CONTINUOUS
 10
108.6483100769
 20
-67.3307307954
 11
108.6573115585
 21
-67.3450089665
  0
LINE
  5
4BE
100
AcDbEntity
  8
Livello_1
100
AcDbLine
 62
7
  6
CONTINUOUS
 10
29.1315441809
 20
11.6142743056
 11
29.1315441809
 21
11.6368109327
  0
LINE
  5
4BF
100
AcDbEntity
  8
Livello_1
100
AcDbLine
 62
7
  6
CONTINUOUS
 10
29.1315441809
 20
-56.5780920585
 11
29.1315441809
 21
-56.5987024785
  0
LINE
  5
4C0
100
AcDbEntity
  8
Livello_1
100
AcDbLine
 62
7
  6
CONTINUOUS
 10
31.5957279063
 20
11.4958125481
 11
31.5957279063
 21
-56.4632900952
  0
LINE
  5
4C1
100
AcDbEntity
  8
Livello_1
100
AcDbLine
 62
7
  6
CONTINUOUS
 10
31.7049573242
 20
-56.6062146874
 11
31.7049573242
 21
11.6443231421
  0
LINE
  5
4C2
100
AcDbEntity
  8
Livello_1
100
AcDbLine
 62
7
  6
CONTINUOUS
 10
-39.4666571974
 20
75.6765926784
 11
-39.4554607439
 21
75.6887951107
  0
LINE
  5
4C3
100
AcDbEntity
  8
Livello_1
100
AcDbLine
 62
7
  6
CONTINUOUS
 10
-39.4554607439
 20
75.6887951107
 11
-39.4443417465
 21
75.7001590238
  0
LINE
  5
4C4
100
AcDbEntity
  8
Livello_1
100
AcDbLine
 62
7
  6
CONTINUOUS
 10
108.6391732735
 20
-67.3154800188
 11
108.6483100769
 21
-67.3307307954
  0
LINE
  5
4C5
100
AcDbEntity
  8
Livello_1
100
AcDbLine
 62
7
  6
CONTINUOUS
 10
108.6299445861
 20
-67.2992910409
 11
108.6391732735
 21
-67.3154800188
  0
LINE
  5
4C6
100
AcDbEntity
  8
Livello_1
100
AcDbLine
 62
7
  6
CONTINUOUS
 10
108.6206793482
 20
-67.2822253699
 11
108.6299445861
 21
-67.2992910409
  0
LINE
  5
4C7
100
AcDbEntity
  8
Livello_1
100
AcDbLine
 62
7
  6
CONTINUOUS
 10
108.6114470517
 20
-67.2643790056
 11
108.6206793482
 21
-67.2822253699
  0
LINE
  5
4C8
100
AcDbEntity
  8
Livello_1
100
AcDbLine
 62
7
  6
CONTINUOUS
 10
38.3916909039
 20
75.512052402
 11
38.3875416523
 21
75.5217805682
  0
LINE
  5
4C9
100
AcDbEntity
  8
Livello_1
100
AcDbLine
 62
7
  6
CONTINUOUS
 10
38.3733703946
 20
75.555989291
 11
38.36980384
 21
75.5646546964
  0
LINE
  5
4CA
100
AcDbEntity
  8
Livello_1
100
AcDbLine
 62
7
  6
CONTINUOUS
 10
38.3957235782
 20
75.5012189823
 11
38.3916909039
 21
75.512052402
  0
LINE
  5
4CB
100
AcDbEntity
  8
Livello_1
100
AcDbLine
 62
7
  6
CONTINUOUS
 10
38.3763663819
 20
75.5473047958
 11
38.3733703946
 21
75.555989291
  0
LINE
  5
4CC
100
AcDbEntity
  8
Livello_1
100
AcDbLine
 62
7
  6
CONTINUOUS
 10
38.3996637543
 20
75.4891103521
 11
38.3957235782
 21
75.5012189823
  0
LINE
  5
4CD
100
AcDbEntity
  8
Livello_1
100
AcDbLine
 62
7
  6
CONTINUOUS
 10
38.4033300778
 20
75.4763337188
 11
38.3996637543
 21
75.4891103521
  0
LINE
  5
4CE
100
AcDbEntity
  8
Livello_1
100
AcDbLine
 62
7
  6
CONTINUOUS
 10
38.3788672442
 20
75.5383575982
 11
38.3763663819
 21
75.5473047958
  0
LINE
  5
4CF
100
AcDbEntity
  8
Livello_1
100
AcDbLine
 62
7
  6
CONTINUOUS
 10
38.4056123531
 20
75.4675505189
 11
38.4033300778
 21
75.4763337188
  0
LINE
  5
4D0
100
AcDbEntity
  8
Livello_1
100
AcDbLine
 62
7
  6
CONTINUOUS
 10
38.4088432329
 20
75.4536484471
 11
38.4056123531
 21
75.4675505189
  0
LINE
  5
4D1
100
AcDbEntity
  8
Livello_1
100
AcDbLine
 62
7
  6
CONTINUOUS
 10
38.4113403305
 20
75.4406569986
 11
38.4088432329
 21
75.4536484471
  0
LINE
  5
4D2
100
AcDbEntity
  8
Livello_1
100
AcDbLine
 62
7
  6
CONTINUOUS
 10
38.413266472
 20
75.4277546008
 11
38.4113403305
 21
75.4406569986
  0
LINE
  5
4D3
100
AcDbEntity
  8
Livello_1
100
AcDbLine
 62
7
  6
CONTINUOUS
 10
38.4146947017
 20
75.4143098393
 11
38.413266472
 21
75.4277546008
  0
LINE
  5
4D4
100
AcDbEntity
  8
Livello_1
100
AcDbLine
 62
7
  6
CONTINUOUS
 10
38.4173075674
 20
75.3812064613
 11
38.4146947017
 21
75.4143098393
  0
LINE
  5
4D5
100
AcDbEntity
  8
Livello_1
100
AcDbLine
 62
7
  6
CONTINUOUS
 10
38.4180934479
 20
75.3663856792
 11
38.4173075674
 21
75.3812064613
  0
LINE
  5
4D6
100
AcDbEntity
  8
Livello_1
100
AcDbLine
 62
7
  6
CONTINUOUS
 10
38.4183544954
 20
75.3520933385
 11
38.4180934479
 21
75.3663856792
  0
LINE
  5
4D7
100
AcDbEntity
  8
Livello_1
100
AcDbLine
 62
7
  6
CONTINUOUS
 10
37.902901397
 20
14.0651806559
 11
37.902901397
 21
13.2677307745
  0
LINE
  5
4D8
100
AcDbEntity
  8
Livello_1
100
AcDbLine
 62
7
  6
CONTINUOUS
 10
38.4183544954
 20
13.0514176789
 11
38.4183544954
 21
-68.1709715519
  0
LINE
  5
4D9
100
AcDbEntity
  8
Livello_1
100
AcDbLine
 62
7
  6
CONTINUOUS
 10
38.4183544954
 20
14.324833419
 11
38.4183544954
 21
75.3520933385
  0
LINE
  5
4DA
100
AcDbEntity
  8
Livello_1
100
AcDbLine
 62
7
  6
CONTINUOUS
 10
38.4183544954
 20
-68.1709715519
 11
38.4182655474
 21
-68.1805428774
  0
LINE
  5
4DB
100
AcDbEntity
  8
Livello_1
100
AcDbLine
 62
7
  6
CONTINUOUS
 10
38.4182655474
 20
-68.1805428774
 11
38.4176842564
 21
-68.1971731456
  0
LINE
  5
4DC
100
AcDbEntity
  8
Livello_1
100
AcDbLine
 62
7
  6
CONTINUOUS
 10
-39.4443417465
 20
75.7001590238
 11
-39.4409820707
 21
75.7034939663
  0
LINE
  5
4DD
100
AcDbEntity
  8
Livello_1
100
AcDbLine
 62
7
  6
CONTINUOUS
 10
-39.4409820707
 20
75.7034939663
 11
-39.4290592684
 21
75.7148940925
  0
LINE
  5
4DE
100
AcDbEntity
  8
Livello_1
100
AcDbLine
 62
7
  6
CONTINUOUS
 10
-39.4290592684
 20
75.7148940925
 11
-39.4179573535
 21
75.7248225548
  0
LWPOLYLINE
  5
4DF
100
AcDbEntity
  8
0
100
AcDbPolyline
 62
7
  6
CONTINUOUS
 90
2
 70
0
 43
0.3500000006
 10
-57.5054512482
 20
1.534247406
 10
-58.7802273102
 20
1.534247406
  0
LINE
  5
4E0
100
AcDbEntity
  8
Livello_1
100
AcDbLine
 62
7
  6
CONTINUOUS
 10
38.3081830072
 20
75.6602540988
 11
38.3002433314
 21
75.669353537
  0
LINE
  5
4E1
100
AcDbEntity
  8
Livello_1
100
AcDbLine
 62
7
  6
CONTINUOUS
 10
38.3002433314
 20
75.669353537
 11
38.286025239
 21
75.6863188757
  0
LINE
  5
4E2
100
AcDbEntity
  8
Livello_1
100
AcDbLine
 62
7
  6
CONTINUOUS
 10
38.3375604122
 20
75.6196019925
 11
38.3230459906
 21
75.6407005442
  0
LINE
  5
4E3
100
AcDbEntity
  8
Livello_1
100
AcDbLine
 62
7
  6
CONTINUOUS
 10
38.3460030471
 20
75.6070589516
 11
38.3375604122
 21
75.6196019925
  0
LINE
  5
4E4
100
AcDbEntity
  8
Livello_1
100
AcDbLine
 62
7
  6
CONTINUOUS
 10
38.3230459906
 20
75.6407005442
 11
38.3149171583
 21
75.653159562
  0
LINE
  5
4E5
100
AcDbEntity
  8
Livello_1
100
AcDbLine
 62
7
  6
CONTINUOUS
 10
38.3524782025
 20
75.5967216839
 11
38.3460030471
 21
75.6070589516
  0
LINE
  5
4E6
100
AcDbEntity
  8
Livello_1
100
AcDbLine
 62
7
  6
CONTINUOUS
 10
38.3531999708
 20
75.5955223728
 11
38.3524782025
 21
75.5967216839
  0
LINE
  5
4E7
100
AcDbEntity
  8
Livello_1
100
AcDbLine
 62
7
  6
CONTINUOUS
 10
38.3602317108
 20
75.5834931233
 11
38.3531999708
 21
75.5955223728
  0
LINE
  5
4E8
100
AcDbEntity
  8
Livello_1
100
AcDbLine
 62
7
  6
CONTINUOUS
 10
38.3832676638
 20
75.5305191835
 11
38.3788672442
 21
75.5383575982
  0
LINE
  5
4E9
100
AcDbEntity
  8
Livello_1
100
AcDbLine
 62
7
  6
CONTINUOUS
 10
38.3655219671
 20
75.5736351991
 11
38.3602317108
 21
75.5834931233
  0
LINE
  5
4EA
100
AcDbEntity
  8
Livello_1
100
AcDbLine
 62
7
  6
CONTINUOUS
 10
108.6023336678
 20
-67.2458910144
 11
108.6114470517
 21
-67.2643790056
  0
LINE
  5
4EB
100
AcDbEntity
  8
Livello_1
100
AcDbLine
 62
7
  6
CONTINUOUS
 10
38.3875416523
 20
75.5217805682
 11
38.3832676638
 21
75.5305191835
  0
LINE
  5
4EC
100
AcDbEntity
  8
Livello_1
100
AcDbLine
 62
7
  6
CONTINUOUS
 10
108.6002678549
 20
-67.2415729682
 11
108.6023336678
 21
-67.2458910144
  0
LINE
  5
4ED
100
AcDbEntity
  8
Livello_1
100
AcDbLine
 62
7
  6
CONTINUOUS
 10
38.36980384
 20
75.5646546964
 11
38.3655219671
 21
75.5736351991
  0
LINE
  5
4EE
100
AcDbEntity
  8
Livello_1
100
AcDbLine
 62
7
  6
CONTINUOUS
 10
38.4176842564
 20
-68.1971731456
 11
38.4165645713
 21
-68.2136658436
  0
LINE
  5
4EF
100
AcDbEntity
  8
Livello_1
100
AcDbLine
 62
7
  6
CONTINUOUS
 10
38.4165645713
 20
-68.2136658436
 11
38.4149101279
 21
-68.2300160254
  0
LINE
  5
4F0
100
AcDbEntity
  8
Livello_1
100
AcDbLine
 62
7
  6
CONTINUOUS
 10
5.4678803325
 20
-67.969682874
 11
5.4666960853
 21
-67.97425917
  0
LINE
  5
4F1
100
AcDbEntity
  8
Livello_1
100
AcDbLine
 62
7
  6
CONTINUOUS
 10
-6.6366423982
 20
-67.9672123333
 11
-6.6350568014
 21
-67.9624686521
  0
LINE
  5
4F2
100
AcDbEntity
  8
Livello_1
100
AcDbLine
 62
7
  6
CONTINUOUS
 10
-39.4179573535
 20
75.7248225548
 11
-39.4073884098
 21
75.7335894081
  0
LINE
  5
4F3
100
AcDbEntity
  8
Livello_1
100
AcDbLine
 62
7
  6
CONTINUOUS
 10
-21.1341995018
 20
11.5917376785
 11
-20.8267087386
 21
11.5940676884
  0
LINE
  5
4F4
100
AcDbEntity
  8
Livello_1
100
AcDbLine
 62
7
  6
CONTINUOUS
 10
-17.9882376083
 20
11.6080795462
 11
-17.6616328118
 21
11.610421891
  0
LINE
  5
4F5
100
AcDbEntity
  8
Livello_1
100
AcDbLine
 62
7
  6
CONTINUOUS
 10
-26.5269312537
 20
11.5578803716
 11
-25.4878956315
 21
11.5653948125
  0
LINE
  5
4F6
100
AcDbEntity
  8
Livello_1
100
AcDbLine
 62
7
  6
CONTINUOUS
 10
-31.9860667173
 20
11.5069845512
 11
-31.1678138163
 21
11.5127631739
  0
LINE
  5
4F7
100
AcDbEntity
  8
Livello_1
100
AcDbLine
 62
7
  6
CONTINUOUS
 10
-25.4878956315
 20
11.5653948125
 11
-24.429747732
 21
11.5728608457
  0
LINE
  5
4F8
100
AcDbEntity
  8
Livello_1
100
AcDbLine
 62
7
  6
CONTINUOUS
 10
-24.429747732
 20
11.5728608457
 11
-23.3387438637
 21
11.5803730551
  0
LINE
  5
4F9
100
AcDbEntity
  8
Livello_1
100
AcDbLine
 62
7
  6
CONTINUOUS
 10
-20.8267087386
 20
11.5940676884
 11
-19.9979297601
 21
11.5992498879
  0
LINE
  5
4FA
100
AcDbEntity
  8
Livello_1
100
AcDbLine
 62
7
  6
CONTINUOUS
 10
-30.3156596652
 20
11.523935177
 11
-29.4315304718
 21
11.5295211782
  0
LINE
  5
4FB
100
AcDbEntity
  8
Livello_1
100
AcDbLine
 62
7
  6
CONTINUOUS
 10
-18.8393160128
 20
11.6029096822
 11
-17.9882376083
 21
11.6080795462
  0
LINE
  5
4FC
100
AcDbEntity
  8
Livello_1
100
AcDbLine
 62
7
  6
CONTINUOUS
 10
-27.6004117579
 20
11.5480320965
 11
-27.5411505353
 21
11.5483980111
  0
LINE
  5
4FD
100
AcDbEntity
  8
Livello_1
100
AcDbLine
 62
7
  6
CONTINUOUS
 10
-22.5500752978
 20
11.5841741604
 11
-22.247739996
 21
11.5859590564
  0
LINE
  5
4FE
100
AcDbEntity
  8
Livello_1
100
AcDbLine
 62
7
  6
CONTINUOUS
 10
-22.247739996
 20
11.5859590564
 11
-21.1341995018
 21
11.5917376785
  0
LINE
  5
4FF
100
AcDbEntity
  8
Livello_1
100
AcDbLine
 62
7
  6
CONTINUOUS
 10
-23.3387438637
 20
11.5803730551
 11
-22.5500752978
 21
11.5841741604
  0
LINE
  5
500
100
AcDbEntity
  8
Livello_1
100
AcDbLine
 62
7
  6
CONTINUOUS
 10
30.3599834218
 20
11.641681073
 11
29.1315441809
 21
11.6368109327
  0
LINE
  5
501
100
AcDbEntity
  8
Livello_1
100
AcDbLine
 62
7
  6
CONTINUOUS
 10
-19.702945377
 20
11.5998462483
 11
-18.8393160128
 21
11.6029096822
  0
LINE
  5
502
100
AcDbEntity
  8
Livello_1
100
AcDbLine
 62
7
  6
CONTINUOUS
 10
30.9480247749
 20
11.6433846749
 11
30.3599834218
 21
11.641681073
  0
LINE
  5
503
100
AcDbEntity
  8
Livello_1
100
AcDbLine
 62
7
  6
CONTINUOUS
 10
29.1315441809
 20
11.6368109327
 11
22.9222086325
 21
11.621786515
  0
LINE
  5
504
100
AcDbEntity
  8
Livello_1
100
AcDbLine
 62
7
  6
CONTINUOUS
 10
-28.965681254
 20
11.5361660526
 11
-28.5154262349
 21
11.5370333876
  0
LINE
  5
505
100
AcDbEntity
  8
Livello_1
100
AcDbLine
 62
7
  6
CONTINUOUS
 10
-19.9979297601
 20
11.5992498879
 11
-19.702945377
 21
11.5998462483
  0
LINE
  5
506
100
AcDbEntity
  8
Livello_1
100
AcDbLine
 62
7
  6
CONTINUOUS
 10
31.3303643177
 20
11.6440758999
 11
30.9480247749
 21
11.6433846749
  0
LINE
  5
507
100
AcDbEntity
  8
Livello_1
100
AcDbLine
 62
7
  6
CONTINUOUS
 10
22.9222086325
 20
11.621786515
 11
19.4120808983
 21
11.6179340999
  0
LINE
  5
508
100
AcDbEntity
  8
Livello_1
100
AcDbLine
 62
7
  6
CONTINUOUS
 10
19.4120808983
 20
11.6179340999
 11
15.6650296549
 21
11.6142743056
  0
LINE
  5
509
100
AcDbEntity
  8
Livello_1
100
AcDbLine
 62
7
  6
CONTINUOUS
 10
31.7049573242
 20
11.6443231421
 11
31.3303643177
 21
11.6440758999
  0
LINE
  5
50A
100
AcDbEntity
  8
Livello_1
100
AcDbLine
 62
7
  6
CONTINUOUS
 10
13.2288789072
 20
13.0006216623
 11
18.723654376
 21
13.0044182171
  0
LINE
  5
50B
100
AcDbEntity
  8
Livello_1
100
AcDbLine
 62
7
  6
CONTINUOUS
 10
6.0979555829
 20
12.9969060083
 11
6.7595804786
 21
12.9974297442
  0
LINE
  5
50C
100
AcDbEntity
  8
Livello_1
100
AcDbLine
 62
7
  6
CONTINUOUS
 10
15.6650296549
 20
11.6142743056
 11
7.740227195
 21
11.610421891
  0
LINE
  5
50D
100
AcDbEntity
  8
Livello_1
100
AcDbLine
 62
7
  6
CONTINUOUS
 10
6.7595804786
 20
12.9974297442
 11
12.5969794939
 21
13.0005658026
  0
LINE
  5
50E
100
AcDbEntity
  8
Livello_1
100
AcDbLine
 62
7
  6
CONTINUOUS
 10
3.5848199846
 20
11.610421891
 11
-0.5817592295
 21
11.6086883043
  0
LWPOLYLINE
  5
50F
100
AcDbEntity
  8
0
100
AcDbPolyline
 62
7
  6
CONTINUOUS
 90
2
 70
0
 43
0.3500000006
 10
-57.5054512482
 20
3.5374656372
 10
-58.7802273102
 20
3.5374656372
  0
LINE
  5
510
100
AcDbEntity
  8
Livello_1
100
AcDbLine
 62
7
  6
CONTINUOUS
 10
-17.6616328118
 20
11.610421891
 11
-17.5714863056
 21
11.610421891
  0
LINE
  5
511
100
AcDbEntity
  8
Livello_1
100
AcDbLine
 62
7
  6
CONTINUOUS
 10
7.740227195
 20
11.610421891
 11
3.5848199846
 21
11.610421891
  0
LINE
  5
512
100
AcDbEntity
  8
Livello_1
100
AcDbLine
 62
7
  6
CONTINUOUS
 10
-4.746412236
 20
11.610421891
 11
-8.8977744109
 21
11.610421891
  0
LINE
  5
513
100
AcDbEntity
  8
Livello_1
100
AcDbLine
 62
7
  6
CONTINUOUS
 10
-16.828355493
 20
11.6142743056
 11
-18.7170018428
 21
11.6142743056
  0
LINE
  5
514
100
AcDbEntity
  8
Livello_1
100
AcDbLine
 62
7
  6
CONTINUOUS
 10
-0.5854190238
 20
12.9969060083
 11
6.0979555829
 21
12.9969060083
  0
LINE
  5
515
100
AcDbEntity
  8
Livello_1
100
AcDbLine
 62
7
  6
CONTINUOUS
 10
-16.8905719922
 20
13.0005658026
 11
-13.7716569801
 21
13.0005658026
  0
LINE
  5
516
100
AcDbEntity
  8
Livello_1
100
AcDbLine
 62
7
  6
CONTINUOUS
 10
12.5969794939
 20
13.0005658026
 11
13.2288789072
 21
13.0006216623
  0
LINE
  5
517
100
AcDbEntity
  8
Livello_1
100
AcDbLine
 62
7
  6
CONTINUOUS
 10
-25.4831905555
 20
13.010004219
 11
-24.9541680962
 21
13.0098946175
  0
LINE
  5
518
100
AcDbEntity
  8
Livello_1
100
AcDbLine
 62
7
  6
CONTINUOUS
 10
-12.4954557833
 20
12.9999952598
 11
-0.5854190238
 21
12.9969060083
  0
LINE
  5
519
100
AcDbEntity
  8
Livello_1
100
AcDbLine
 62
7
  6
CONTINUOUS
 10
-8.8977744109
 20
11.610421891
 11
-16.828355493
 21
11.6142743056
  0
LINE
  5
51A
100
AcDbEntity
  8
Livello_1
100
AcDbLine
 62
7
  6
CONTINUOUS
 10
-0.5817592295
 20
11.6086883043
 11
-4.746412236
 21
11.610421891
  0
LINE
  5
51B
100
AcDbEntity
  8
Livello_1
100
AcDbLine
 62
7
  6
CONTINUOUS
 10
-13.7716569801
 20
13.0005658026
 11
-12.4954557833
 21
12.9999952598
  0
LINE
  5
51C
100
AcDbEntity
  8
Livello_1
100
AcDbLine
 62
7
  6
CONTINUOUS
 10
-32.5011967358
 20
11.6440758999
 11
-32.8757819126
 21
11.6443231421
  0
LINE
  5
51D
100
AcDbEntity
  8
Livello_1
100
AcDbLine
 62
7
  6
CONTINUOUS
 10
-24.9541680962
 20
13.0098946175
 11
-19.8964186305
 21
13.0044182171
  0
LINE
  5
51E
100
AcDbEntity
  8
Livello_1
100
AcDbLine
 62
7
  6
CONTINUOUS
 10
-20.5698207351
 20
11.6179340999
 11
-24.0874606782
 21
11.621786515
  0
LINE
  5
51F
100
AcDbEntity
  8
Livello_1
100
AcDbLine
 62
7
  6
CONTINUOUS
 10
-33.9554211568
 20
13.2602185656
 11
-37.0234842938
 21
13.2638783599
  0
LINE
  5
520
100
AcDbEntity
  8
Livello_1
100
AcDbLine
 62
7
  6
CONTINUOUS
 10
-39.59111875
 20
13.0514176789
 11
-39.5130747975
 21
13.0513078847
  0
LINE
  5
521
100
AcDbEntity
  8
Livello_1
100
AcDbLine
 62
7
  6
CONTINUOUS
 10
-19.8964186305
 20
13.0044182171
 11
-16.8905719922
 21
13.0005658026
  0
LINE
  5
522
100
AcDbEntity
  8
Livello_1
100
AcDbLine
 62
7
  6
CONTINUOUS
 10
-32.1189081321
 20
11.6433846749
 11
-32.5011967358
 21
11.6440758999
  0
LINE
  5
523
100
AcDbEntity
  8
Livello_1
100
AcDbLine
 62
7
  6
CONTINUOUS
 10
-29.9168384245
 20
13.0182942306
 11
-25.4831905555
 21
13.010004219
  0
LINE
  5
524
100
AcDbEntity
  8
Livello_1
100
AcDbLine
 62
7
  6
CONTINUOUS
 10
-18.7170018428
 20
11.6142743056
 11
-20.5698207351
 21
11.6179340999
  0
LINE
  5
525
100
AcDbEntity
  8
Livello_1
100
AcDbLine
 62
7
  6
CONTINUOUS
 10
-34.0586722473
 20
13.027732647
 11
-29.9168384245
 21
13.0182942306
  0
LINE
  5
526
100
AcDbEntity
  8
Livello_1
100
AcDbLine
 62
7
  6
CONTINUOUS
 10
-24.0874606782
 20
11.621786515
 11
-30.3042950418
 21
11.6368109327
  0
LINE
  5
527
100
AcDbEntity
  8
Livello_1
100
AcDbLine
 62
7
  6
CONTINUOUS
 10
-31.5311141533
 20
11.641681073
 11
-32.1189081321
 21
11.6433846749
  0
LINE
  5
528
100
AcDbEntity
  8
Livello_1
100
AcDbLine
 62
7
  6
CONTINUOUS
 10
-37.2586355002
 20
13.0389497233
 11
-34.0586722473
 21
13.027732647
  0
LINE
  5
529
100
AcDbEntity
  8
Livello_1
100
AcDbLine
 62
7
  6
CONTINUOUS
 10
-30.7207803582
 20
11.6385626683
 11
-31.5311141533
 21
11.641681073
  0
LINE
  5
52A
100
AcDbEntity
  8
Livello_1
100
AcDbLine
 62
7
  6
CONTINUOUS
 10
-38.182290662
 20
13.2638783599
 11
-38.6619163029
 21
13.2658045669
  0
LINE
  5
52B
100
AcDbEntity
  8
Livello_1
100
AcDbLine
 62
7
  6
CONTINUOUS
 10
-30.3042950418
 20
11.6368109327
 11
-30.5134769562
 21
11.6376949544
  0
LINE
  5
52C
100
AcDbEntity
  8
Livello_1
100
AcDbLine
 62
7
  6
CONTINUOUS
 10
-30.5134769562
 20
11.6376949544
 11
-30.7207803582
 21
11.6385626683
  0
LINE
  5
52D
100
AcDbEntity
  8
Livello_1
100
AcDbLine
 62
7
  6
CONTINUOUS
 10
19.1863293917
 20
11.5953974728
 11
20.2333720135
 21
11.5907469083
  0
LINE
  5
52E
100
AcDbEntity
  8
Livello_1
100
AcDbLine
 62
7
  6
CONTINUOUS
 10
20.5897640993
 20
11.587885264
 11
21.430822573
 21
11.584028264
  0
LINE
  5
52F
100
AcDbEntity
  8
Livello_1
100
AcDbLine
 62
7
  6
CONTINUOUS
 10
-38.6900389313
 20
13.0456390562
 11
-37.2586355002
 21
13.0389497233
  0
LINE
  5
530
100
AcDbEntity
  8
Livello_1
100
AcDbLine
 62
7
  6
CONTINUOUS
 10
-38.6619163029
 20
13.2658045669
 11
-39.0775918585
 21
13.2677307745
  0
LINE
  5
531
100
AcDbEntity
  8
Livello_1
100
AcDbLine
 62
7
  6
CONTINUOUS
 10
16.7778191125
 20
11.6080394783
 11
19.1863293917
 21
11.5953974728
  0
LINE
  5
532
100
AcDbEntity
  8
Livello_1
100
AcDbLine
 62
7
  6
CONTINUOUS
 10
105.4140942041
 20
13.173970178
 11
105.805148306
 21
13.1718091363
  0
LINE
  5
533
100
AcDbEntity
  8
Livello_1
100
AcDbLine
 62
7
  6
CONTINUOUS
 10
104.6704340519
 20
13.1809218732
 11
104.9624484303
 21
13.1793213457
  0
LINE
  5
534
100
AcDbEntity
  8
Livello_1
100
AcDbLine
 62
7
  6
CONTINUOUS
 10
22.1582711272
 20
11.5788460082
 11
22.8187712953
 21
11.5747870533
  0
LINE
  5
535
100
AcDbEntity
  8
Livello_1
100
AcDbLine
 62
7
  6
CONTINUOUS
 10
21.430822573
 20
11.584028264
 11
21.7164028036
 21
11.5822992621
  0
LINE
  5
536
100
AcDbEntity
  8
Livello_1
100
AcDbLine
 62
7
  6
CONTINUOUS
 10
16.3987220517
 20
11.610421891
 11
16.7778191125
 21
11.6080394783
  0
LINE
  5
537
100
AcDbEntity
  8
Livello_1
100
AcDbLine
 62
7
  6
CONTINUOUS
 10
-37.5219867676
 20
14.3098090007
 11
-38.6882936643
 21
14.3173212101
  0
LINE
  5
538
100
AcDbEntity
  8
Livello_1
100
AcDbLine
 62
7
  6
CONTINUOUS
 10
23.0959522258
 20
11.5719254089
 11
24.9581952606
 21
11.5596729718
  0
LINE
  5
539
100
AcDbEntity
  8
Livello_1
100
AcDbLine
 62
7
  6
CONTINUOUS
 10
-39.5130747975
 20
13.0513078847
 11
-38.6900389313
 21
13.0456390562
  0
LINE
  5
53A
100
AcDbEntity
  8
Livello_1
100
AcDbLine
 62
7
  6
CONTINUOUS
 10
26.9890103031
 20
11.5428120098
 11
27.9860152501
 21
11.5352998009
  0
LINE
  5
53B
100
AcDbEntity
  8
Livello_1
100
AcDbLine
 62
7
  6
CONTINUOUS
 10
24.9581952606
 20
11.5596729718
 11
25.9582967265
 21
11.5522504262
  0
LINE
  5
53C
100
AcDbEntity
  8
Livello_1
100
AcDbLine
 62
7
  6
CONTINUOUS
 10
107.5996031136
 20
13.1531249244
 11
108.5910220593
 21
13.1456127155
  0
LINE
  5
53D
100
AcDbEntity
  8
Livello_1
100
AcDbLine
 62
7
  6
CONTINUOUS
 10
21.7164028036
 20
11.5822992621
 11
22.1582711272
 21
11.5788460082
  0
LINE
  5
53E
100
AcDbEntity
  8
Livello_1
100
AcDbLine
 62
7
  6
CONTINUOUS
 10
20.2333720135
 20
11.5907469083
 11
20.5897640993
 21
11.587885264
  0
LINE
  5
53F
100
AcDbEntity
  8
Livello_1
100
AcDbLine
 62
7
  6
CONTINUOUS
 10
-38.6882936643
 20
14.3173212101
 11
-39.1735169868
 21
14.3211736247
  0
LINE
  5
540
100
AcDbEntity
  8
Livello_1
100
AcDbLine
 62
7
  6
CONTINUOUS
 10
111.8884662328
 20
13.1163245157
 11
112.9325009047
 21
13.1078590493
  0
LINE
  5
541
100
AcDbEntity
  8
Livello_1
100
AcDbLine
 62
7
  6
CONTINUOUS
 10
112.9436854672
 20
13.1077143317
 11
113.3782252957
 21
13.1041992556
  0
LINE
  5
542
100
AcDbEntity
  8
Livello_1
100
AcDbLine
 62
7
  6
CONTINUOUS
 10
104.1611461337
 20
13.1850999678
 11
104.6704340519
 21
13.1809218732
  0
LINE
  5
543
100
AcDbEntity
  8
Livello_1
100
AcDbLine
 62
7
  6
CONTINUOUS
 10
105.805148306
 20
13.1718091363
 11
106.6815726697
 21
13.1642969275
  0
LINE
  5
544
100
AcDbEntity
  8
Livello_1
100
AcDbLine
 62
7
  6
CONTINUOUS
 10
110.5733325281
 20
13.1277828637
 11
111.6342696851
 21
13.1187852964
  0
LINE
  5
545
100
AcDbEntity
  8
Livello_1
100
AcDbLine
 62
7
  6
CONTINUOUS
 10
102.5244318726
 20
13.2001243861
 11
103.3973890635
 21
13.1926121767
  0
LINE
  5
546
100
AcDbEntity
  8
Livello_1
100
AcDbLine
 62
7
  6
CONTINUOUS
 10
109.545610711
 20
13.1369153744
 11
110.5733325281
 21
13.1277828637
  0
LINE
  5
547
100
AcDbEntity
  8
Livello_1
100
AcDbLine
 62
7
  6
CONTINUOUS
 10
108.5910220593
 20
13.1456127155
 11
109.545610711
 21
13.1369153744
  0
LINE
  5
548
100
AcDbEntity
  8
Livello_1
100
AcDbLine
 62
7
  6
CONTINUOUS
 10
25.9582967265
 20
11.5522504262
 11
26.9890103031
 21
11.5428120098
  0
LINE
  5
549
100
AcDbEntity
  8
Livello_1
100
AcDbLine
 62
7
  6
CONTINUOUS
 10
101.7119575937
 20
13.2076365949
 11
102.5244318726
 21
13.2001243861
  0
LINE
  5
54A
100
AcDbEntity
  8
Livello_1
100
AcDbLine
 62
7
  6
CONTINUOUS
 10
103.3973890635
 20
13.1926121767
 11
103.8824621787
 21
13.1879690893
  0
LINE
  5
54B
100
AcDbEntity
  8
Livello_1
100
AcDbLine
 62
7
  6
CONTINUOUS
 10
112.6992371893
 20
13.218808598
 11
110.1202381097
 21
13.2432714327
  0
LINE
  5
54C
100
AcDbEntity
  8
Livello_1
100
AcDbLine
 62
7
  6
CONTINUOUS
 10
111.6342696851
 20
13.1187852964
 11
111.8884662328
 21
13.1163245157
  0
LINE
  5
54D
100
AcDbEntity
  8
Livello_1
100
AcDbLine
 62
7
  6
CONTINUOUS
 10
22.8187712953
 20
11.5747870533
 11
23.0959522258
 21
11.5719254089
  0
LINE
  5
54E
100
AcDbEntity
  8
Livello_1
100
AcDbLine
 62
7
  6
CONTINUOUS
 10
103.8824621787
 20
13.1879690893
 11
104.1611461337
 21
13.1850999678
  0
LINE
  5
54F
100
AcDbEntity
  8
Livello_1
100
AcDbLine
 62
7
  6
CONTINUOUS
 10
29.8689421599
 20
11.5164222528
 11
30.7549383787
 21
11.5069845512
  0
LINE
  5
550
100
AcDbEntity
  8
Livello_1
100
AcDbLine
 62
7
  6
CONTINUOUS
 10
101.0216048639
 20
13.2151488038
 11
101.4672457648
 21
13.2104472424
  0
LINE
  5
551
100
AcDbEntity
  8
Livello_1
100
AcDbLine
 62
7
  6
CONTINUOUS
 10
96.5653240579
 20
13.2151488038
 11
97.0844369507
 21
13.2095628025
  0
LINE
  5
552
100
AcDbEntity
  8
Livello_1
100
AcDbLine
 62
7
  6
CONTINUOUS
 10
101.4672457648
 20
13.2104472424
 11
101.7119575937
 21
13.2076365949
  0
LINE
  5
553
100
AcDbEntity
  8
Livello_1
100
AcDbLine
 62
7
  6
CONTINUOUS
 10
27.9860152501
 20
11.5352998009
 11
28.9452665325
 21
11.523935177
  0
LINE
  5
554
100
AcDbEntity
  8
Livello_1
100
AcDbLine
 62
7
  6
CONTINUOUS
 10
104.9624484303
 20
13.1793213457
 11
105.4140942041
 21
13.173970178
  0
LINE
  5
555
100
AcDbEntity
  8
Livello_1
100
AcDbLine
 62
7
  6
CONTINUOUS
 10
28.9452665325
 20
11.523935177
 11
29.8689421599
 21
11.5164222528
  0
LINE
  5
556
100
AcDbEntity
  8
Livello_1
100
AcDbLine
 62
7
  6
CONTINUOUS
 10
106.6815726697
 20
13.1642969275
 11
107.5996031136
 21
13.1531249244
  0
LINE
  5
557
100
AcDbEntity
  8
Livello_1
100
AcDbLine
 62
7
  6
CONTINUOUS
 10
112.9325009047
 20
13.1078590493
 11
112.9436854672
 21
13.1077143317
  0
LINE
  5
558
100
AcDbEntity
  8
Livello_1
100
AcDbLine
 62
7
  6
CONTINUOUS
 10
30.7549383787
 20
11.5069845512
 11
31.5957279063
 21
11.4938863405
  0
LINE
  5
559
100
AcDbEntity
  8
Livello_1
100
AcDbLine
 62
7
  6
CONTINUOUS
 10
96.702662645
 20
15.7263454468
 11
96.6687613951
 21
15.7394436575
  0
LINE
  5
55A
100
AcDbEntity
  8
Livello_1
100
AcDbLine
 62
7
  6
CONTINUOUS
 10
96.6687613951
 20
15.7394436575
 11
96.1608205054
 21
15.9426585429
  0
LWPOLYLINE
  5
55B
100
AcDbEntity
  8
0
100
AcDbPolyline
 62
7
  6
CONTINUOUS
 90
13
 70
0
 43
0.3500000006
 10
-0.1568475983
 20
94.3256470642
 10
-0.4425618675
 20
94.5399315491
 10
-0.4425618675
 20
95.1827940674
 10
-0.1568475983
 20
95.6113630371
 10
0.4860095562
 20
95.6113630371
 10
0.7717238431
 20
95.1827940674
 10
0.7717238431
 20
94.5399315491
 10
0.4860095562
 20
94.3256470642
 10
0.9145809689
 20
93.8970780945
 10
0.9145809689
 20
93.0399310913
 10
0.4860095562
 20
92.6113621216
 10
-0.1568475983
 20
92.6113621216
 10
-0.5854190286
 20
93.0399310913
  0
LINE
  5
55C
100
AcDbEntity
  8
Livello_1
100
AcDbLine
 62
7
  6
CONTINUOUS
 10
38.2471233438
 20
75.7250174476
 11
38.2355985659
 21
75.7347190601
  0
LINE
  5
55D
100
AcDbEntity
  8
Livello_1
100
AcDbLine
 62
7
  6
CONTINUOUS
 10
38.2588234089
 20
75.7144348389
 11
38.2471233438
 21
75.7250174476
  0
LINE
  5
55E
100
AcDbEntity
  8
Livello_1
100
AcDbLine
 62
7
  6
CONTINUOUS
 10
38.2709547799
 20
75.7027070102
 11
38.2588234089
 21
75.7144348389
  0
LINE
  5
55F
100
AcDbEntity
  8
Livello_1
100
AcDbLine
 62
7
  6
CONTINUOUS
 10
38.2715774919
 20
75.7020852308
 11
38.2709547799
 21
75.7027070102
  0
LINE
  5
560
100
AcDbEntity
  8
Livello_1
100
AcDbLine
 62
7
  6
CONTINUOUS
 10
38.2782690176
 20
75.6951242282
 11
38.2715774919
 21
75.7020852308
  0
LINE
  5
561
100
AcDbEntity
  8
Livello_1
100
AcDbLine
 62
7
  6
CONTINUOUS
 10
38.3149171583
 20
75.653159562
 11
38.3081830072
 21
75.6602540988
  0
LINE
  5
562
100
AcDbEntity
  8
Livello_1
100
AcDbLine
 62
7
  6
CONTINUOUS
 10
38.286025239
 20
75.6863188757
 11
38.2782690176
 21
75.6951242282
  0
LINE
  5
563
100
AcDbEntity
  8
Livello_1
100
AcDbLine
 62
7
  6
CONTINUOUS
 10
38.4149101279
 20
-68.2300160254
 11
38.4127242252
 21
-68.2462195152
  0
LINE
  5
564
100
AcDbEntity
  8
Livello_1
100
AcDbLine
 62
7
  6
CONTINUOUS
 10
-39.4073884098
 20
75.7335894081
 11
-39.3971612726
 21
75.7413955683
  0
LINE
  5
565
100
AcDbEntity
  8
Livello_1
100
AcDbLine
 62
7
  6
CONTINUOUS
 10
-39.3971612726
 20
75.7413955683
 11
-39.3871377846
 21
75.7483798893
  0
LINE
  5
566
100
AcDbEntity
  8
Livello_1
100
AcDbLine
 62
7
  6
CONTINUOUS
 10
139.347090566
 20
14.7160740455
 11
139.3566548823
 21
14.7187153235
  0
LINE
  5
567
100
AcDbEntity
  8
Livello_1
100
AcDbLine
 62
7
  6
CONTINUOUS
 10
139.3370523444
 20
14.7135511123
 11
139.347090566
 21
14.7160740455
  0
LINE
  5
568
100
AcDbEntity
  8
Livello_1
100
AcDbLine
 62
7
  6
CONTINUOUS
 10
139.3265590282
 20
14.7111614911
 11
139.3370523444
 21
14.7135511123
  0
LINE
  5
569
100
AcDbEntity
  8
Livello_1
100
AcDbLine
 62
7
  6
CONTINUOUS
 10
139.3156345142
 20
14.7089200464
 11
139.3265590282
 21
14.7111614911
  0
LINE
  5
56A
100
AcDbEntity
  8
Livello_1
100
AcDbLine
 62
7
  6
CONTINUOUS
 10
139.3043077026
 20
14.7068412925
 11
139.3156345142
 21
14.7089200464
  0
LINE
  5
56B
100
AcDbEntity
  8
Livello_1
100
AcDbLine
 62
7
  6
CONTINUOUS
 10
139.4659165542
 20
14.4407888268
 11
139.4200594011
 21
14.4332382557
  0
LINE
  5
56C
100
AcDbEntity
  8
Livello_1
100
AcDbLine
 62
7
  6
CONTINUOUS
 10
139.2926122633
 20
14.7049391379
 11
139.3043077026
 21
14.7068412925
  0
LINE
  5
56D
100
AcDbEntity
  8
Livello_1
100
AcDbLine
 62
7
  6
CONTINUOUS
 10
139.4899190569
 20
14.4445404471
 11
139.4659165542
 21
14.4407888268
  0
LINE
  5
56E
100
AcDbEntity
  8
Livello_1
100
AcDbLine
 62
7
  6
CONTINUOUS
 10
139.4200594011
 20
14.4332382557
 11
139.3997869819
 21
14.4300951435
  0
LINE
  5
56F
100
AcDbEntity
  8
Livello_1
100
AcDbLine
 62
7
  6
CONTINUOUS
 10
139.2559612713
 20
14.409503249
 11
139.2316050405
 21
14.4057376241
  0
LINE
  5
570
100
AcDbEntity
  8
Livello_1
100
AcDbLine
 62
7
  6
CONTINUOUS
 10
139.5071540133
 20
14.4471044748
 11
139.4899190569
 21
14.4445404471
  0
LINE
  5
571
100
AcDbEntity
  8
Livello_1
100
AcDbLine
 62
7
  6
CONTINUOUS
 10
139.3890765731
 20
13.9658242048
 11
139.2991981952
 21
13.9525010128
  0
LINE
  5
572
100
AcDbEntity
  8
Livello_1
100
AcDbLine
 62
7
  6
CONTINUOUS
 10
139.2846770424
 20
14.4137251939
 11
139.2559612713
 21
14.409503249
  0
LINE
  5
573
100
AcDbEntity
  8
Livello_1
100
AcDbLine
 62
7
  6
CONTINUOUS
 10
139.4708957319
 20
13.9778334871
 11
139.3890765731
 21
13.9658242048
  0
LINE
  5
574
100
AcDbEntity
  8
Livello_1
100
AcDbLine
 62
7
  6
CONTINUOUS
 10
139.3997869819
 20
14.4300951435
 11
139.3739753523
 21
14.4263144082
  0
LINE
  5
575
100
AcDbEntity
  8
Livello_1
100
AcDbLine
 62
7
  6
CONTINUOUS
 10
139.2805862501
 20
14.7032266294
 11
139.2926122633
 21
14.7049391379
  0
LINE
  5
576
100
AcDbEntity
  8
Livello_1
100
AcDbLine
 62
7
  6
CONTINUOUS
 10
139.5176121768
 20
14.4485826133
 11
139.5071540133
 21
14.4471044748
  0
LINE
  5
577
100
AcDbEntity
  8
Livello_1
100
AcDbLine
 62
7
  6
CONTINUOUS
 10
139.3739753523
 20
14.4263144082
 11
139.2846770424
 21
14.4137251939
  0
LINE
  5
578
100
AcDbEntity
  8
Livello_1
100
AcDbLine
 62
7
  6
CONTINUOUS
 10
139.5562112774
 20
13.9897954712
 11
139.4708957319
 21
13.9778334871
  0
LINE
  5
579
100
AcDbEntity
  8
Livello_1
100
AcDbLine
 62
7
  6
CONTINUOUS
 10
139.5212843021
 20
14.4490765659
 11
139.5176121768
 21
14.4485826133
  0
LINE
  5
57A
100
AcDbEntity
  8
Livello_1
100
AcDbLine
 62
7
  6
CONTINUOUS
 10
139.587166201
 20
13.9939144732
 11
139.5562112774
 21
13.9897954712
  0
LINE
  5
57B
100
AcDbEntity
  8
Livello_1
100
AcDbLine
 62
7
  6
CONTINUOUS
 10
139.2682715725
 20
14.70171571
 11
139.2805862501
 21
14.7032266294
  0
LINE
  5
57C
100
AcDbEntity
  8
Livello_1
100
AcDbLine
 62
7
  6
CONTINUOUS
 10
139.2557133313
 20
14.7004169992
 11
139.2682715725
 21
14.70171571
  0
LINE
  5
57D
100
AcDbEntity
  8
Livello_1
100
AcDbLine
 62
7
  6
CONTINUOUS
 10
139.2429590571
 20
14.6993396081
 11
139.2557133313
 21
14.7004169992
  0
LINE
  5
57E
100
AcDbEntity
  8
Livello_1
100
AcDbLine
 62
7
  6
CONTINUOUS
 10
139.2419809948
 20
14.6992668422
 11
139.2429590571
 21
14.6993396081
  0
LINE
  5
57F
100
AcDbEntity
  8
Livello_1
100
AcDbLine
 62
7
  6
CONTINUOUS
 10
139.2290856574
 20
14.6984367332
 11
139.2419809948
 21
14.6992668422
  0
LINE
  5
580
100
AcDbEntity
  8
Livello_1
100
AcDbLine
 62
7
  6
CONTINUOUS
 10
139.2161207609
 20
14.6978417821
 11
139.2290856574
 21
14.6984367332
  0
LINE
  5
581
100
AcDbEntity
  8
Livello_1
100
AcDbLine
 62
7
  6
CONTINUOUS
 10
139.203134861
 20
14.6974844361
 11
139.2161207609
 21
14.6978417821
  0
LINE
  5
582
100
AcDbEntity
  8
Livello_1
100
AcDbLine
 62
7
  6
CONTINUOUS
 10
96.4957879713
 20
14.6353415512
 11
96.5260781602
 21
14.6358635536
  0
LINE
  5
583
100
AcDbEntity
  8
Livello_1
100
AcDbLine
 62
7
  6
CONTINUOUS
 10
-32.7684921608
 20
11.4958125481
 11
-31.9860667173
 21
11.5069845512
  0
LINE
  5
584
100
AcDbEntity
  8
Livello_1
100
AcDbLine
 62
7
  6
CONTINUOUS
 10
-29.4315304718
 20
11.5295211782
 11
-28.965681254
 21
11.5361660526
  0
LINE
  5
585
100
AcDbEntity
  8
Livello_1
100
AcDbLine
 62
7
  6
CONTINUOUS
 10
-31.1678138163
 20
11.5127631739
 11
-30.3156596652
 21
11.523935177
  0
LINE
  5
586
100
AcDbEntity
  8
Livello_1
100
AcDbLine
 62
7
  6
CONTINUOUS
 10
-28.5154262349
 20
11.5370333876
 11
-27.6004117579
 21
11.5480320965
  0
LINE
  5
587
100
AcDbEntity
  8
Livello_1
100
AcDbLine
 62
7
  6
CONTINUOUS
 10
-27.5411505353
 20
11.5483980111
 11
-26.5269312537
 21
11.5578803716
  0
LINE
  5
588
100
AcDbEntity
  8
Livello_1
100
AcDbLine
 62
7
  6
CONTINUOUS
 10
139.1901748568
 20
14.6973654312
 11
139.203134861
 21
14.6974844361
  0
LINE
  5
589
100
AcDbEntity
  8
Livello_1
100
AcDbLine
 62
7
  6
CONTINUOUS
 10
37.5172746768
 20
14.3173212101
 11
38.0007527328
 21
14.3211736247
  0
LINE
  5
58A
100
AcDbEntity
  8
Livello_1
100
AcDbLine
 62
7
  6
CONTINUOUS
 10
36.3511487206
 20
14.3098090007
 11
37.5172746768
 21
14.3173212101
  0
LINE
  5
58B
100
AcDbEntity
  8
Livello_1
100
AcDbLine
 62
7
  6
CONTINUOUS
 10
34.2807402139
 20
13.0328151563
 11
38.4183544954
 21
13.0514176789
  0
LINE
  5
58C
100
AcDbEntity
  8
Livello_1
100
AcDbLine
 62
7
  6
CONTINUOUS
 10
37.0095264075
 20
13.2638783599
 11
37.902901397
 21
13.2677307745
  0
LINE
  5
58D
100
AcDbEntity
  8
Livello_1
100
AcDbLine
 62
7
  6
CONTINUOUS
 10
38.0007527328
 20
14.3211736247
 11
38.4183544954
 21
14.3229072114
  0
LINE
  5
58E
100
AcDbEntity
  8
Livello_1
100
AcDbLine
 62
7
  6
CONTINUOUS
 10
99.2739568955
 20
13.2170750113
 11
98.8037696704
 21
13.2151488038
  0
LINE
  5
58F
100
AcDbEntity
  8
Livello_1
100
AcDbLine
 62
7
  6
CONTINUOUS
 10
109.1213069552
 20
13.2396116384
 11
107.1803906087
 21
13.232099351
  0
LINE
  5
590
100
AcDbEntity
  8
Livello_1
100
AcDbLine
 62
7
  6
CONTINUOUS
 10
33.2491843331
 20
13.0288810518
 11
34.2807402139
 21
13.0328151563
  0
LINE
  5
591
100
AcDbEntity
  8
Livello_1
100
AcDbLine
 62
7
  6
CONTINUOUS
 10
34.9215175928
 20
14.3042229995
 11
36.3511487206
 21
14.3098090007
  0
LINE
  5
592
100
AcDbEntity
  8
Livello_1
100
AcDbLine
 62
7
  6
CONTINUOUS
 10
109.9809733151
 20
14.6617305934
 11
110.238721438
 21
14.6627223978
  0
LINE
  5
593
100
AcDbEntity
  8
Livello_1
100
AcDbLine
 62
7
  6
CONTINUOUS
 10
110.6890232743
 20
13.2453328076
 11
110.0885767903
 21
13.2431078842
  0
LINE
  5
594
100
AcDbEntity
  8
Livello_1
100
AcDbLine
 62
7
  6
CONTINUOUS
 10
110.0885767903
 20
13.2431078842
 11
109.1213069552
 21
13.2396116384
  0
LINE
  5
595
100
AcDbEntity
  8
Livello_1
100
AcDbLine
 62
7
  6
CONTINUOUS
 10
96.5260781602
 20
14.6358635536
 11
97.048697906
 21
14.6377394871
  0
LINE
  5
596
100
AcDbEntity
  8
Livello_1
100
AcDbLine
 62
7
  6
CONTINUOUS
 10
111.5588682872
 20
13.2480797153
 11
110.6890232743
 21
13.2453328076
  0
LINE
  5
597
100
AcDbEntity
  8
Livello_1
100
AcDbLine
 62
7
  6
CONTINUOUS
 10
101.5632543832
 20
13.2207348056
 11
100.3349119278
 21
13.2170750113
  0
LINE
  5
598
100
AcDbEntity
  8
Livello_1
100
AcDbLine
 62
7
  6
CONTINUOUS
 10
31.3362677707
 20
13.0231024291
 11
33.2491843331
 21
13.0288810518
  0
LINE
  5
599
100
AcDbEntity
  8
Livello_1
100
AcDbLine
 62
7
  6
CONTINUOUS
 10
121.3916332954
 20
15.9859982104
 11
124.6232477961
 21
15.995244006
  0
LINE
  5
59A
100
AcDbEntity
  8
Livello_1
100
AcDbLine
 62
7
  6
CONTINUOUS
 10
112.1497650394
 20
13.2494985389
 11
111.5588682872
 21
13.2480797153
  0
LINE
  5
59B
100
AcDbEntity
  8
Livello_1
100
AcDbLine
 62
7
  6
CONTINUOUS
 10
103.7716511602
 20
13.2245872207
 11
102.2591931143
 21
13.2207348056
  0
LINE
  5
59C
100
AcDbEntity
  8
Livello_1
100
AcDbLine
 62
7
  6
CONTINUOUS
 10
115.2838222702
 20
15.9765597935
 11
118.2707920762
 21
15.9840720028
  0
LINE
  5
59D
100
AcDbEntity
  8
Livello_1
100
AcDbLine
 62
7
  6
CONTINUOUS
 10
106.281639679
 20
13.2301676614
 11
103.7716511602
 21
13.2245872207
  0
LINE
  5
59E
100
AcDbEntity
  8
Livello_1
100
AcDbLine
 62
7
  6
CONTINUOUS
 10
29.1954808726
 20
14.2928583755
 11
33.2491843331
 21
14.3022967919
  0
LINE
  5
59F
100
AcDbEntity
  8
Livello_1
100
AcDbLine
 62
7
  6
CONTINUOUS
 10
116.6479822473
 20
14.6716008657
 11
128.1389451758
 21
14.6973654312
  0
LINE
  5
5A0
100
AcDbEntity
  8
Livello_1
100
AcDbLine
 62
7
  6
CONTINUOUS
 10
126.2747616601
 20
15.9990964205
 11
127.9470949192
 21
16.0029488357
  0
LINE
  5
5A1
100
AcDbEntity
  8
Livello_1
100
AcDbLine
 62
7
  6
CONTINUOUS
 10
124.6232477961
 20
15.995244006
 11
126.2747616601
 21
15.9990964205
  0
LINE
  5
5A2
100
AcDbEntity
  8
Livello_1
100
AcDbLine
 62
7
  6
CONTINUOUS
 10
107.326852147
 20
15.9632689625
 11
109.791049266
 21
15.9690475846
  0
LINE
  5
5A3
100
AcDbEntity
  8
Livello_1
100
AcDbLine
 62
7
  6
CONTINUOUS
 10
107.1803906087
 20
13.232099351
 11
106.281639679
 21
13.2301676614
  0
LINE
  5
5A4
100
AcDbEntity
  8
Livello_1
100
AcDbLine
 62
7
  6
CONTINUOUS
 10
112.6370206907
 20
14.6653903877
 11
112.9127478566
 21
14.6659663234
  0
LINE
  5
5A5
100
AcDbEntity
  8
Livello_1
100
AcDbLine
 62
7
  6
CONTINUOUS
 10
101.7828143174
 20
14.6470933433
 11
105.6943925362
 21
14.6552660486
  0
LINE
  5
5A6
100
AcDbEntity
  8
Livello_1
100
AcDbLine
 62
7
  6
CONTINUOUS
 10
101.258528373
 20
15.9520969594
 11
103.0456635932
 21
15.9557567531
  0
LINE
  5
5A7
100
AcDbEntity
  8
Livello_1
100
AcDbLine
 62
7
  6
CONTINUOUS
 10
96.7402236893
 20
15.94458475
 11
98.4520442001
 21
15.9482445442
  0
LINE
  5
5A8
100
AcDbEntity
  8
Livello_1
100
AcDbLine
 62
7
  6
CONTINUOUS
 10
24.3104263009
 20
13.010004219
 11
29.4209998634
 21
13.0199663708
  0
LINE
  5
5A9
100
AcDbEntity
  8
Livello_1
100
AcDbLine
 62
7
  6
CONTINUOUS
 10
115.4699100295
 20
14.6692428023
 11
116.6479822473
 21
14.6716008657
  0
LINE
  5
5AA
100
AcDbEntity
  8
Livello_1
100
AcDbLine
 62
7
  6
CONTINUOUS
 10
98.6400420422
 20
14.6409275531
 11
101.4447926283
 21
14.6465135543
  0
LINE
  5
5AB
100
AcDbEntity
  8
Livello_1
100
AcDbLine
 62
7
  6
CONTINUOUS
 10
97.048697906
 20
14.6377394871
 11
98.6400420422
 21
14.6409275531
  0
LINE
  5
5AC
100
AcDbEntity
  8
Livello_1
100
AcDbLine
 62
7
  6
CONTINUOUS
 10
103.0456635932
 20
15.9557567531
 11
105.0733821168
 21
15.9596091682
  0
LINE
  5
5AD
100
AcDbEntity
  8
Livello_1
100
AcDbLine
 62
7
  6
CONTINUOUS
 10
101.4447926283
 20
14.6465135543
 11
101.7828143174
 21
14.6470933433
  0
LINE
  5
5AE
100
AcDbEntity
  8
Livello_1
100
AcDbLine
 62
7
  6
CONTINUOUS
 10
29.4209998634
 20
13.0199663708
 11
31.3362677707
 21
13.0231024291
  0
LINE
  5
5AF
100
AcDbEntity
  8
Livello_1
100
AcDbLine
 62
7
  6
CONTINUOUS
 10
112.7493727061
 20
13.2504415265
 11
112.1497650394
 21
13.2494985389
  0
LINE
  5
5B0
100
AcDbEntity
  8
Livello_1
100
AcDbLine
 62
7
  6
CONTINUOUS
 10
24.3104263009
 20
14.2853461666
 11
29.1954808726
 21
14.2928583755
  0
LINE
  5
5B1
100
AcDbEntity
  8
Livello_1
100
AcDbLine
 62
7
  6
CONTINUOUS
 10
98.9561326752
 20
15.7263454468
 11
100.2070117571
 21
15.7282716543
  0
LINE
  5
5B2
100
AcDbEntity
  8
Livello_1
100
AcDbLine
 62
7
  6
CONTINUOUS
 10
105.0733821168
 20
15.9596091682
 11
107.326852147
 21
15.9632689625
  0
LINE
  5
5B3
100
AcDbEntity
  8
Livello_1
100
AcDbLine
 62
7
  6
CONTINUOUS
 10
105.6943925362
 20
14.6552660486
 11
109.9809733151
 21
14.6617305934
  0
LINE
  5
5B4
100
AcDbEntity
  8
Livello_1
100
AcDbLine
 62
7
  6
CONTINUOUS
 10
109.791049266
 20
15.9690475846
 11
115.2838222702
 21
15.9765597935
  0
LINE
  5
5B5
100
AcDbEntity
  8
Livello_1
100
AcDbLine
 62
7
  6
CONTINUOUS
 10
98.4520442001
 20
15.9482445442
 11
99.723533701
 21
15.9501707518
  0
LINE
  5
5B6
100
AcDbEntity
  8
Livello_1
100
AcDbLine
 62
7
  6
CONTINUOUS
 10
32.7826569023
 20
13.2602185656
 11
35.8526462468
 21
13.2638783599
  0
LINE
  5
5B7
100
AcDbEntity
  8
Livello_1
100
AcDbLine
 62
7
  6
CONTINUOUS
 10
32.7845831099
 20
14.0615208616
 11
35.8507200393
 21
14.0651806559
  0
LINE
  5
5B8
100
AcDbEntity
  8
Livello_1
100
AcDbLine
 62
7
  6
CONTINUOUS
 10
18.7255805836
 20
14.2778339573
 11
21.5940886342
 21
14.2816863724
  0
LINE
  5
5B9
100
AcDbEntity
  8
Livello_1
100
AcDbLine
 62
7
  6
CONTINUOUS
 10
21.5940886342
 20
14.2816863724
 11
24.3104263009
 21
14.2853461666
  0
LINE
  5
5BA
100
AcDbEntity
  8
Livello_1
100
AcDbLine
 62
7
  6
CONTINUOUS
 10
112.9127478566
 20
14.6659663234
 11
115.4699100295
 21
14.6692428023
  0
LINE
  5
5BB
100
AcDbEntity
  8
Livello_1
100
AcDbLine
 62
7
  6
CONTINUOUS
 10
99.723533701
 20
15.9501707518
 11
101.258528373
 21
15.9520969594
  0
LINE
  5
5BC
100
AcDbEntity
  8
Livello_1
100
AcDbLine
 62
7
  6
CONTINUOUS
 10
33.2491843331
 20
14.3022967919
 11
34.9215175928
 21
14.3042229995
  0
LINE
  5
5BD
100
AcDbEntity
  8
Livello_1
100
AcDbLine
 62
7
  6
CONTINUOUS
 10
110.238721438
 20
14.6627223978
 11
112.6370206907
 21
14.6653903877
  0
LINE
  5
5BE
100
AcDbEntity
  8
Livello_1
100
AcDbLine
 62
7
  6
CONTINUOUS
 10
97.3930153748
 20
14.9005803161
 11
99.0784468446
 21
14.9025065237
  0
LINE
  5
5BF
100
AcDbEntity
  8
Livello_1
100
AcDbLine
 62
7
  6
CONTINUOUS
 10
18.723654376
 20
13.0044182171
 11
24.3104263009
 21
13.010004219
  0
LINE
  5
5C0
100
AcDbEntity
  8
Livello_1
100
AcDbLine
 62
7
  6
CONTINUOUS
 10
113.0524192541
 20
13.2506955082
 11
112.7493727061
 21
13.2504415265
  0
LINE
  5
5C1
100
AcDbEntity
  8
Livello_1
100
AcDbLine
 62
7
  6
CONTINUOUS
 10
28.779805317
 20
13.2582923581
 11
30.8922769664
 21
13.2602185656
  0
LINE
  5
5C2
100
AcDbEntity
  8
Livello_1
100
AcDbLine
 62
7
  6
CONTINUOUS
 10
105.590568802
 20
14.906166318
 11
110.2350400703
 21
14.9100187325
  0
LINE
  5
5C3
100
AcDbEntity
  8
Livello_1
100
AcDbLine
 62
7
  6
CONTINUOUS
 10
101.8379315574
 20
14.9025065237
 11
105.590568802
 21
14.906166318
  0
LINE
  5
5C4
100
AcDbEntity
  8
Livello_1
100
AcDbLine
 62
7
  6
CONTINUOUS
 10
23.9567746237
 20
14.0595946541
 11
26.4643114091
 21
14.0615208616
  0
LINE
  5
5C5
100
AcDbEntity
  8
Livello_1
100
AcDbLine
 62
7
  6
CONTINUOUS
 10
110.1127259009
 20
15.7282716543
 11
115.5170859856
 21
15.7319314486
  0
LINE
  5
5C6
100
AcDbEntity
  8
Livello_1
100
AcDbLine
 62
7
  6
CONTINUOUS
 10
15.4882168652
 20
14.0576684465
 11
18.4489772018
 21
14.0595946541
  0
LINE
  5
5C7
100
AcDbEntity
  8
Livello_1
100
AcDbLine
 62
7
  6
CONTINUOUS
 10
6.0998817904
 20
14.2703217484
 11
12.5989057015
 21
14.2739815427
  0
LINE
  5
5C8
100
AcDbEntity
  8
Livello_1
100
AcDbLine
 62
7
  6
CONTINUOUS
 10
12.5989057015
 20
14.2739815427
 11
15.7158815301
 21
14.2759077502
  0
LINE
  5
5C9
100
AcDbEntity
  8
Livello_1
100
AcDbLine
 62
7
  6
CONTINUOUS
 10
15.7158815301
 20
14.2759077502
 11
18.7255805836
 21
14.2778339573
  0
LINE
  5
5CA
100
AcDbEntity
  8
Livello_1
100
AcDbLine
 62
7
  6
CONTINUOUS
 10
124.8376183234
 20
14.9136785268
 11
128.1050439258
 21
14.9156047344
  0
LINE
  5
5CB
100
AcDbEntity
  8
Livello_1
100
AcDbLine
 62
7
  6
CONTINUOUS
 10
112.8516001941
 20
14.9100187325
 11
115.6374900767
 21
14.9117523192
  0
LINE
  5
5CC
100
AcDbEntity
  8
Livello_1
100
AcDbLine
 62
7
  6
CONTINUOUS
 10
124.7116443598
 20
15.7338576562
 11
127.9827297564
 21
15.7357838632
  0
LINE
  5
5CD
100
AcDbEntity
  8
Livello_1
100
AcDbLine
 62
7
  6
CONTINUOUS
 10
121.5270456755
 20
15.7319314486
 11
124.7116443598
 21
15.7338576562
  0
LINE
  5
5CE
100
AcDbEntity
  8
Livello_1
100
AcDbLine
 62
7
  6
CONTINUOUS
 10
118.2707920762
 20
15.9840720028
 11
121.3916332954
 21
15.9859982104
  0
LINE
  5
5CF
100
AcDbEntity
  8
Livello_1
100
AcDbLine
 62
7
  6
CONTINUOUS
 10
18.4470509942
 20
13.2544399429
 11
23.9567746237
 21
13.2563661505
  0
LINE
  5
5D0
100
AcDbEntity
  8
Livello_1
100
AcDbLine
 62
7
  6
CONTINUOUS
 10
23.9567746237
 20
13.2563661505
 11
28.779805317
 21
13.2582923581
  0
LINE
  5
5D1
100
AcDbEntity
  8
Livello_1
100
AcDbLine
 62
7
  6
CONTINUOUS
 10
115.6374900767
 20
14.9117523192
 11
121.6549621272
 21
14.9136785268
  0
LINE
  5
5D2
100
AcDbEntity
  8
Livello_1
100
AcDbLine
 62
7
  6
CONTINUOUS
 10
113.3576148767
 20
13.2507836415
 11
113.0524192541
 21
13.2506955082
  0
LINE
  5
5D3
100
AcDbEntity
  8
Livello_1
100
AcDbLine
 62
7
  6
CONTINUOUS
 10
12.4070424689
 20
13.2527063562
 11
18.4470509942
 21
13.2544399429
  0
LINE
  5
5D4
100
AcDbEntity
  8
Livello_1
100
AcDbLine
 62
7
  6
CONTINUOUS
 10
98.8037696704
 20
13.2151488038
 11
96.5653240579
 21
13.2151488038
  0
LINE
  5
5D5
100
AcDbEntity
  8
Livello_1
100
AcDbLine
 62
7
  6
CONTINUOUS
 10
100.3349119278
 20
13.2170750113
 11
99.2739568955
 21
13.2170750113
  0
LINE
  5
5D6
100
AcDbEntity
  8
Livello_1
100
AcDbLine
 62
7
  6
CONTINUOUS
 10
102.2591931143
 20
13.2207348056
 11
101.5632543832
 21
13.2207348056
  0
LINE
  5
5D7
100
AcDbEntity
  8
Livello_1
100
AcDbLine
 62
7
  6
CONTINUOUS
 10
-13.5798067235
 20
13.2527063562
 11
12.4070424689
 21
13.2527063562
  0
LINE
  5
5D8
100
AcDbEntity
  8
Livello_1
100
AcDbLine
 62
7
  6
CONTINUOUS
 10
30.8922769664
 20
13.2602185656
 11
32.7826569023
 21
13.2602185656
  0
LINE
  5
5D9
100
AcDbEntity
  8
Livello_1
100
AcDbLine
 62
7
  6
CONTINUOUS
 10
35.8526462468
 20
13.2638783599
 11
37.0095264075
 21
13.2638783599
  0
LINE
  5
5DA
100
AcDbEntity
  8
Livello_1
100
AcDbLine
 62
7
  6
CONTINUOUS
 10
-37.0234842938
 20
13.2638783599
 11
-38.182290662
 21
13.2638783599
  0
LINE
  5
5DB
100
AcDbEntity
  8
Livello_1
100
AcDbLine
 62
7
  6
CONTINUOUS
 10
-13.581732931
 20
14.0576684465
 11
15.4882168652
 21
14.0576684465
  0
LINE
  5
5DC
100
AcDbEntity
  8
Livello_1
100
AcDbLine
 62
7
  6
CONTINUOUS
 10
-25.1295388782
 20
14.0595946541
 11
-19.6217414558
 21
14.0595946541
  0
LINE
  5
5DD
100
AcDbEntity
  8
Livello_1
100
AcDbLine
 62
7
  6
CONTINUOUS
 10
18.4489772018
 20
14.0595946541
 11
23.9567746237
 21
14.0595946541
  0
LINE
  5
5DE
100
AcDbEntity
  8
Livello_1
100
AcDbLine
 62
7
  6
CONTINUOUS
 10
-33.9554211568
 20
14.0615208616
 11
-27.6370756636
 21
14.0615208616
  0
LINE
  5
5DF
100
AcDbEntity
  8
Livello_1
100
AcDbLine
 62
7
  6
CONTINUOUS
 10
26.4643114091
 20
14.0615208616
 11
32.7845831099
 21
14.0615208616
  0
LINE
  5
5E0
100
AcDbEntity
  8
Livello_1
100
AcDbLine
 62
7
  6
CONTINUOUS
 10
-39.0756656515
 20
14.0651806559
 11
-37.0234842938
 21
14.0651806559
  0
LINE
  5
5E1
100
AcDbEntity
  8
Livello_1
100
AcDbLine
 62
7
  6
CONTINUOUS
 10
35.8507200393
 20
14.0651806559
 11
37.902901397
 21
14.0651806559
  0
LINE
  5
5E2
100
AcDbEntity
  8
Livello_1
100
AcDbLine
 62
7
  6
CONTINUOUS
 10
-7.2726332328
 20
14.2703217484
 11
6.0998817904
 21
14.2703217484
  0
LINE
  5
5E3
100
AcDbEntity
  8
Livello_1
100
AcDbLine
 62
7
  6
CONTINUOUS
 10
96.3509371748
 20
14.6353415512
 11
96.4957879713
 21
14.6353415512
  0
LINE
  5
5E4
100
AcDbEntity
  8
Livello_1
100
AcDbLine
 62
7
  6
CONTINUOUS
 10
139.1901748568
 20
14.6973654312
 11
128.1389451758
 21
14.6973654312
  0
LINE
  5
5E5
100
AcDbEntity
  8
Livello_1
100
AcDbLine
 62
7
  6
CONTINUOUS
 10
96.8249768144
 20
14.9005803161
 11
97.3930153748
 21
14.9005803161
  0
LINE
  5
5E6
100
AcDbEntity
  8
Livello_1
100
AcDbLine
 62
7
  6
CONTINUOUS
 10
99.0784468446
 20
14.9025065237
 11
101.8379315574
 21
14.9025065237
  0
LINE
  5
5E7
100
AcDbEntity
  8
Livello_1
100
AcDbLine
 62
7
  6
CONTINUOUS
 10
110.2350400703
 20
14.9100187325
 11
112.8516001941
 21
14.9100187325
  0
LINE
  5
5E8
100
AcDbEntity
  8
Livello_1
100
AcDbLine
 62
7
  6
CONTINUOUS
 10
121.6549621272
 20
14.9136785268
 11
124.8376183234
 21
14.9136785268
  0
LINE
  5
5E9
100
AcDbEntity
  8
Livello_1
100
AcDbLine
 62
7
  6
CONTINUOUS
 10
139.4515612
 20
14.9156047344
 11
128.1050439258
 21
14.9156047344
  0
LINE
  5
5EA
100
AcDbEntity
  8
Livello_1
100
AcDbLine
 62
7
  6
CONTINUOUS
 10
96.702662645
 20
15.7263454468
 11
98.9561326752
 21
15.7263454468
  0
LINE
  5
5EB
100
AcDbEntity
  8
Livello_1
100
AcDbLine
 62
7
  6
CONTINUOUS
 10
100.2070117571
 20
15.7282716543
 11
110.1127259009
 21
15.7282716543
  0
LINE
  5
5EC
100
AcDbEntity
  8
Livello_1
100
AcDbLine
 62
7
  6
CONTINUOUS
 10
115.5170859856
 20
15.7319314486
 11
121.5270456755
 21
15.7319314486
  0
LINE
  5
5ED
100
AcDbEntity
  8
Livello_1
100
AcDbLine
 62
7
  6
CONTINUOUS
 10
127.9827297564
 20
15.7357838632
 11
139.3330994457
 21
15.7357838632
  0
LINE
  5
5EE
100
AcDbEntity
  8
Livello_1
100
AcDbLine
 62
7
  6
CONTINUOUS
 10
96.1608205054
 20
15.94458475
 11
96.7402236893
 21
15.94458475
  0
LINE
  5
5EF
100
AcDbEntity
  8
Livello_1
100
AcDbLine
 62
7
  6
CONTINUOUS
 10
139.0002508078
 20
16.0029488357
 11
127.9451687122
 21
16.0029488357
  0
LINE
  5
5F0
100
AcDbEntity
  8
Livello_1
100
AcDbLine
 62
7
  6
CONTINUOUS
 10
-19.6180816621
 20
13.2544399429
 11
-25.1295388782
 21
13.2563661505
  0
LINE
  5
5F1
100
AcDbEntity
  8
Livello_1
100
AcDbLine
 62
7
  6
CONTINUOUS
 10
-13.5798067235
 20
13.2527063562
 11
-19.6180816621
 21
13.2544399429
  0
LINE
  5
5F2
100
AcDbEntity
  8
Livello_1
100
AcDbLine
 62
7
  6
CONTINUOUS
 10
-19.6217414558
 20
14.0595946541
 11
-13.581732931
 21
14.0576684465
  0
LINE
  5
5F3
100
AcDbEntity
  8
Livello_1
100
AcDbLine
 62
7
  6
CONTINUOUS
 10
-29.950643364
 20
13.2582923581
 11
-33.9554211568
 21
13.2602185656
  0
LINE
  5
5F4
100
AcDbEntity
  8
Livello_1
100
AcDbLine
 62
7
  6
CONTINUOUS
 10
-25.1295388782
 20
13.2563661505
 11
-29.950643364
 21
13.2582923581
  0
LINE
  5
5F5
100
AcDbEntity
  8
Livello_1
100
AcDbLine
 62
7
  6
CONTINUOUS
 10
-7.2726332328
 20
14.2703217484
 11
-13.7697307725
 21
14.2739815427
  0
LINE
  5
5F6
100
AcDbEntity
  8
Livello_1
100
AcDbLine
 62
7
  6
CONTINUOUS
 10
-16.8867195771
 20
14.2759077502
 11
-19.8964186305
 21
14.2778339573
  0
LINE
  5
5F7
100
AcDbEntity
  8
Livello_1
100
AcDbLine
 62
7
  6
CONTINUOUS
 10
-13.7697307725
 20
14.2739815427
 11
-16.8867195771
 21
14.2759077502
  0
LINE
  5
5F8
100
AcDbEntity
  8
Livello_1
100
AcDbLine
 62
7
  6
CONTINUOUS
 10
-27.6370756636
 20
14.0615208616
 11
-25.1295388782
 21
14.0595946541
  0
LINE
  5
5F9
100
AcDbEntity
  8
Livello_1
100
AcDbLine
 62
7
  6
CONTINUOUS
 10
-37.0234842938
 20
14.0651806559
 11
-35.6108037912
 21
14.0634470692
  0
LINE
  5
5FA
100
AcDbEntity
  8
Livello_1
100
AcDbLine
 62
7
  6
CONTINUOUS
 10
-35.6108037912
 20
14.0634470692
 11
-33.9554211568
 21
14.0615208616
  0
LINE
  5
5FB
100
AcDbEntity
  8
Livello_1
100
AcDbLine
 62
7
  6
CONTINUOUS
 10
-34.4219485877
 20
14.3022967919
 11
-36.0942818473
 21
14.3042229995
  0
LINE
  5
5FC
100
AcDbEntity
  8
Livello_1
100
AcDbLine
 62
7
  6
CONTINUOUS
 10
-22.7651193021
 20
14.2816863724
 11
-25.4812643479
 21
14.2853461666
  0
LINE
  5
5FD
100
AcDbEntity
  8
Livello_1
100
AcDbLine
 62
7
  6
CONTINUOUS
 10
-19.8964186305
 20
14.2778339573
 11
-22.7651193021
 21
14.2816863724
  0
LINE
  5
5FE
100
AcDbEntity
  8
Livello_1
100
AcDbLine
 62
7
  6
CONTINUOUS
 10
-28.0227023838
 20
14.2891985812
 11
-30.3663189196
 21
14.2928583755
  0
LINE
  5
5FF
100
AcDbEntity
  8
Livello_1
100
AcDbLine
 62
7
  6
CONTINUOUS
 10
-25.4812643479
 20
14.2853461666
 11
-28.0227023838
 21
14.2891985812
  0
LINE
  5
600
100
AcDbEntity
  8
Livello_1
100
AcDbLine
 62
7
  6
CONTINUOUS
 10
-30.3663189196
 20
14.2928583755
 11
-34.4219485877
 21
14.3022967919
  0
LINE
  5
601
100
AcDbEntity
  8
Livello_1
100
AcDbLine
 62
7
  6
CONTINUOUS
 10
-36.0942818473
 20
14.3042229995
 11
-37.5219867676
 21
14.3098090007
  0
LINE
  5
602
100
AcDbEntity
  8
Livello_1
100
AcDbLine
 62
7
  6
CONTINUOUS
 10
-39.1735169868
 20
14.3211736247
 11
-39.5891925424
 21
14.3229072114
  0
LINE
  5
603
100
AcDbEntity
  8
Livello_1
100
AcDbLine
 62
7
  6
CONTINUOUS
 10
139.0182171363
 20
16.0014229408
 11
139.0312101474
 21
16.0006223154
  0
LINE
  5
604
100
AcDbEntity
  8
Livello_1
100
AcDbLine
 62
7
  6
CONTINUOUS
 10
139.0085337081
 20
16.0021326319
 11
139.0182171363
 21
16.0014229408
  0
LINE
  5
605
100
AcDbEntity
  8
Livello_1
100
AcDbLine
 62
7
  6
CONTINUOUS
 10
139.0312101474
 20
16.0006223154
 11
139.0408935756
 21
15.9999126243
  0
LINE
  5
606
100
AcDbEntity
  8
Livello_1
100
AcDbLine
 62
7
  6
CONTINUOUS
 10
139.0002508078
 20
16.0029488357
 11
139.0085337081
 21
16.0021326319
  0
LINE
  5
607
100
AcDbEntity
  8
Livello_1
100
AcDbLine
 62
7
  6
CONTINUOUS
 10
139.0408935756
 20
15.9999126243
 11
139.0491764754
 21
15.9990964205
  0
LINE
  5
608
100
AcDbEntity
  8
Livello_1
100
AcDbLine
 62
7
  6
CONTINUOUS
 10
139.0491764754
 20
15.9990964205
 11
139.065141677
 21
15.9974110467
  0
LINE
  5
609
100
AcDbEntity
  8
Livello_1
100
AcDbLine
 62
7
  6
CONTINUOUS
 10
139.065141677
 20
15.9974110467
 11
139.0772517547
 21
15.9959694074
  0
LINE
  5
60A
100
AcDbEntity
  8
Livello_1
100
AcDbLine
 62
7
  6
CONTINUOUS
 10
139.0772517547
 20
15.9959694074
 11
139.0872939234
 21
15.9945613151
  0
LINE
  5
60B
100
AcDbEntity
  8
Livello_1
100
AcDbLine
 62
7
  6
CONTINUOUS
 10
139.0872939234
 20
15.9945613151
 11
139.0959920721
 21
15.9931101955
  0
LINE
  5
60C
100
AcDbEntity
  8
Livello_1
100
AcDbLine
 62
7
  6
CONTINUOUS
 10
139.1036881449
 20
15.9915842117
 11
139.1153410832
 21
15.9893423974
  0
LINE
  5
60D
100
AcDbEntity
  8
Livello_1
100
AcDbLine
 62
7
  6
CONTINUOUS
 10
139.0959920721
 20
15.9931101955
 11
139.1036881449
 21
15.9915842117
  0
LINE
  5
60E
100
AcDbEntity
  8
Livello_1
100
AcDbLine
 62
7
  6
CONTINUOUS
 10
139.1153410832
 20
15.9893423974
 11
139.1278560361
 21
15.986736127
  0
LINE
  5
60F
100
AcDbEntity
  8
Livello_1
100
AcDbLine
 62
7
  6
CONTINUOUS
 10
139.1601260214
 20
15.978486001
 11
139.160901123
 21
15.9783089027
  0
LINE
  5
610
100
AcDbEntity
  8
Livello_1
100
AcDbLine
 62
7
  6
CONTINUOUS
 10
139.1278560361
 20
15.986736127
 11
139.1390035375
 21
15.9841676466
  0
LINE
  5
611
100
AcDbEntity
  8
Livello_1
100
AcDbLine
 62
7
  6
CONTINUOUS
 10
139.160901123
 20
15.9783089027
 11
139.1694606246
 21
15.9762190549
  0
LINE
  5
612
100
AcDbEntity
  8
Livello_1
100
AcDbLine
 62
7
  6
CONTINUOUS
 10
139.1390035375
 20
15.9841676466
 11
139.1495804595
 21
15.9814641359
  0
LINE
  5
613
100
AcDbEntity
  8
Livello_1
100
AcDbLine
 62
7
  6
CONTINUOUS
 10
139.1694606246
 20
15.9762190549
 11
139.1771928483
 21
15.9740857146
  0
LINE
  5
614
100
AcDbEntity
  8
Livello_1
100
AcDbLine
 62
7
  6
CONTINUOUS
 10
139.1495804595
 20
15.9814641359
 11
139.1601260214
 21
15.978486001
  0
LINE
  5
615
100
AcDbEntity
  8
Livello_1
100
AcDbLine
 62
7
  6
CONTINUOUS
 10
139.1771928483
 20
15.9740857146
 11
139.1840801371
 21
15.9719368796
  0
LINE
  5
616
100
AcDbEntity
  8
Livello_1
100
AcDbLine
 62
7
  6
CONTINUOUS
 10
139.1840801371
 20
15.9719368796
 11
139.1901430472
 21
15.9697934091
  0
LINE
  5
617
100
AcDbEntity
  8
Livello_1
100
AcDbLine
 62
7
  6
CONTINUOUS
 10
139.2427603187
 20
15.9407323354
 11
139.2467330169
 21
15.9392798065
  0
LINE
  5
618
100
AcDbEntity
  8
Livello_1
100
AcDbLine
 62
7
  6
CONTINUOUS
 10
139.1901430472
 20
15.9697934091
 11
139.1954232853
 21
15.9676711255
  0
LINE
  5
619
100
AcDbEntity
  8
Livello_1
100
AcDbLine
 62
7
  6
CONTINUOUS
 10
139.207125482
 20
15.9615353758
 11
139.212640083
 21
15.9592693721
  0
LINE
  5
61A
100
AcDbEntity
  8
Livello_1
100
AcDbLine
 62
7
  6
CONTINUOUS
 10
139.2467330169
 20
15.9392798065
 11
139.2505917406
 21
15.9375794992
  0
LINE
  5
61B
100
AcDbEntity
  8
Livello_1
100
AcDbLine
 62
7
  6
CONTINUOUS
 10
139.1954232853
 20
15.9676711255
 11
139.1999740978
 21
15.965581993
  0
LINE
  5
61C
100
AcDbEntity
  8
Livello_1
100
AcDbLine
 62
7
  6
CONTINUOUS
 10
139.212640083
 20
15.9592693721
 11
139.2179606288
 21
15.9567917502
  0
LINE
  5
61D
100
AcDbEntity
  8
Livello_1
100
AcDbLine
 62
7
  6
CONTINUOUS
 10
139.2505917406
 20
15.9375794992
 11
139.2543556544
 21
15.9356242351
  0
LINE
  5
61E
100
AcDbEntity
  8
Livello_1
100
AcDbLine
 62
7
  6
CONTINUOUS
 10
139.2179606288
 20
15.9567917502
 11
139.2231097225
 21
15.9540974884
  0
LINE
  5
61F
100
AcDbEntity
  8
Livello_1
100
AcDbLine
 62
7
  6
CONTINUOUS
 10
139.1999740978
 20
15.965581993
 11
139.2038544824
 21
15.9635347767
  0
LINE
  5
620
100
AcDbEntity
  8
Livello_1
100
AcDbLine
 62
7
  6
CONTINUOUS
 10
139.2231097225
 20
15.9540974884
 11
139.2281133675
 21
15.9511770904
  0
LINE
  5
621
100
AcDbEntity
  8
Livello_1
100
AcDbLine
 62
7
  6
CONTINUOUS
 10
38.2001288207
 20
75.7602566956
 11
38.1886281552
 21
75.7671670993
  0
LINE
  5
622
100
AcDbEntity
  8
Livello_1
100
AcDbLine
 62
7
  6
CONTINUOUS
 10
38.2122758301
 20
75.7522057317
 11
38.2001288207
 21
75.7602566956
  0
LINE
  5
623
100
AcDbEntity
  8
Livello_1
100
AcDbLine
 62
7
  6
CONTINUOUS
 10
38.2240427827
 20
75.7437325589
 11
38.2122758301
 21
75.7522057317
  0
LINE
  5
624
100
AcDbEntity
  8
Livello_1
100
AcDbLine
 62
7
  6
CONTINUOUS
 10
38.2355985659
 20
75.7347190601
 11
38.2240427827
 21
75.7437325589
  0
LINE
  5
625
100
AcDbEntity
  8
Livello_1
100
AcDbLine
 62
7
  6
CONTINUOUS
 10
108.5945363251
 20
-67.2228781009
 11
108.6002678549
 21
-67.2415729682
  0
LINE
  5
626
100
AcDbEntity
  8
Livello_1
100
AcDbLine
 62
7
  6
CONTINUOUS
 10
108.5890197612
 20
-67.2035224787
 11
108.5945363251
 21
-67.2228781009
  0
LINE
  5
627
100
AcDbEntity
  8
Livello_1
100
AcDbLine
 62
7
  6
CONTINUOUS
 10
108.5835976634
 20
-67.1830482978
 11
108.5890197612
 21
-67.2035224787
  0
LINE
  5
628
100
AcDbEntity
  8
Livello_1
100
AcDbLine
 62
7
  6
CONTINUOUS
 10
38.4127242252
 20
-68.2462195152
 11
38.4100097555
 21
-68.2622728245
  0
LINE
  5
629
100
AcDbEntity
  8
Livello_1
100
AcDbLine
 62
7
  6
CONTINUOUS
 10
38.4100097555
 20
-68.2622728245
 11
38.4067691403
 21
-68.2781730693
  0
LINE
  5
62A
100
AcDbEntity
  8
Livello_1
100
AcDbLine
 62
7
  6
CONTINUOUS
 10
-39.367293451
 20
75.7602566956
 11
-39.3555494795
 21
75.7678170037
  0
LINE
  5
62B
100
AcDbEntity
  8
Livello_1
100
AcDbLine
 62
7
  6
CONTINUOUS
 10
-39.3871377846
 20
75.7483798893
 11
-39.3772110499
 21
75.7546423602
  0
LINE
  5
62C
100
AcDbEntity
  8
Livello_1
100
AcDbLine
 62
7
  6
CONTINUOUS
 10
38.1596177246
 20
75.7826609378
 11
38.1385692242
 21
75.7931701659
  0
LINE
  5
62D
100
AcDbEntity
  8
Livello_1
100
AcDbLine
 62
7
  6
CONTINUOUS
 10
38.1385692242
 20
75.7931701659
 11
38.1215336062
 21
75.8018596903
  0
LINE
  5
62E
100
AcDbEntity
  8
Livello_1
100
AcDbLine
 62
7
  6
CONTINUOUS
 10
38.1755175949
 20
75.7744288613
 11
38.1596177246
 21
75.7826609378
  0
LINE
  5
62F
100
AcDbEntity
  8
Livello_1
100
AcDbLine
 62
7
  6
CONTINUOUS
 10
38.1215336062
 20
75.8018596903
 11
38.1080424846
 21
75.8091823649
  0
LINE
  5
630
100
AcDbEntity
  8
Livello_1
100
AcDbLine
 62
7
  6
CONTINUOUS
 10
38.1886281552
 20
75.7671670993
 11
38.1755175949
 21
75.7744288613
  0
LINE
  5
631
100
AcDbEntity
  8
Livello_1
100
AcDbLine
 62
7
  6
CONTINUOUS
 10
139.2543556544
 20
15.9356242351
 11
139.2580453231
 21
15.9334020854
  0
LINE
  5
632
100
AcDbEntity
  8
Livello_1
100
AcDbLine
 62
7
  6
CONTINUOUS
 10
139.2038544824
 20
15.9635347767
 11
139.207125482
 21
15.9615353758
  0
LINE
  5
633
100
AcDbEntity
  8
Livello_1
100
AcDbLine
 62
7
  6
CONTINUOUS
 10
139.2281133675
 20
15.9511770904
 11
139.2330033897
 21
15.9480144883
  0
LINE
  5
634
100
AcDbEntity
  8
Livello_1
100
AcDbLine
 62
7
  6
CONTINUOUS
 10
139.2580453231
 20
15.9334020854
 11
139.2616839627
 21
15.9308950854
  0
LINE
  5
635
100
AcDbEntity
  8
Livello_1
100
AcDbLine
 62
7
  6
CONTINUOUS
 10
139.2330033897
 20
15.9480144883
 11
139.2378220717
 21
15.9445830027
  0
LINE
  5
636
100
AcDbEntity
  8
Livello_1
100
AcDbLine
 62
7
  6
CONTINUOUS
 10
139.2805139838
 20
15.9126097065
 11
139.2835410173
 21
15.910343759
  0
LINE
  5
637
100
AcDbEntity
  8
Livello_1
100
AcDbLine
 62
7
  6
CONTINUOUS
 10
139.2378220717
 20
15.9445830027
 11
139.2426319803
 21
15.9408366864
  0
LINE
  5
638
100
AcDbEntity
  8
Livello_1
100
AcDbLine
 62
7
  6
CONTINUOUS
 10
139.2616839627
 20
15.9308950854
 11
139.2652996316
 21
15.9280769308
  0
LINE
  5
639
100
AcDbEntity
  8
Livello_1
100
AcDbLine
 62
7
  6
CONTINUOUS
 10
139.2426319803
 20
15.9408366864
 11
139.2427603187
 21
15.9407323354
  0
LINE
  5
63A
100
AcDbEntity
  8
Livello_1
100
AcDbLine
 62
7
  6
CONTINUOUS
 10
139.2835410173
 20
15.910343759
 11
139.2875455753
 21
15.9070562196
  0
LINE
  5
63B
100
AcDbEntity
  8
Livello_1
100
AcDbLine
 62
7
  6
CONTINUOUS
 10
139.2652996316
 20
15.9280769308
 11
139.268929363
 21
15.9249085169
  0
LINE
  5
63C
100
AcDbEntity
  8
Livello_1
100
AcDbLine
 62
7
  6
CONTINUOUS
 10
139.2875455753
 20
15.9070562196
 11
139.2912058795
 21
15.9037023223
  0
LINE
  5
63D
100
AcDbEntity
  8
Livello_1
100
AcDbLine
 62
7
  6
CONTINUOUS
 10
140.6773790874
 20
-69.1940705927
 11
140.6781868301
 21
-69.1960956601
  0
LINE
  5
63E
100
AcDbEntity
  8
Livello_1
100
AcDbLine
 62
7
  6
CONTINUOUS
 10
108.578101185
 20
-67.1607526846
 11
108.5835976634
 21
-67.1830482978
  0
LINE
  5
63F
100
AcDbEntity
  8
Livello_1
100
AcDbLine
 62
7
  6
CONTINUOUS
 10
108.5722491773
 20
-67.1353919443
 11
108.578101185
 21
-67.1607526846
  0
LINE
  5
640
100
AcDbEntity
  8
Livello_1
100
AcDbLine
 62
7
  6
CONTINUOUS
 10
108.5683087626
 20
-67.1175252088
 11
108.5722491773
 21
-67.1353919443
  0
LINE
  5
641
100
AcDbEntity
  8
Livello_1
100
AcDbLine
 62
7
  6
CONTINUOUS
 10
94.4650682367
 20
29.2178156593
 11
93.9855826625
 21
33.7288101132
  0
LINE
  5
642
100
AcDbEntity
  8
Livello_1
100
AcDbLine
 62
7
  6
CONTINUOUS
 10
93.9855826625
 20
33.7288101132
 11
93.5557410358
 21
38.2347812673
  0
LINE
  5
643
100
AcDbEntity
  8
Livello_1
100
AcDbLine
 62
7
  6
CONTINUOUS
 10
38.4067691403
 20
-68.2781730693
 11
38.4030042787
 21
-68.2939178875
  0
LINE
  5
644
100
AcDbEntity
  8
Livello_1
100
AcDbLine
 62
7
  6
CONTINUOUS
 10
-39.3555494795
 20
75.7678170037
 11
-39.3426622537
 21
75.7754744369
  0
LINE
  5
645
100
AcDbEntity
  8
Livello_1
100
AcDbLine
 62
7
  6
CONTINUOUS
 10
-39.3772110499
 20
75.7546423602
 11
-39.367293451
 21
75.7602566956
  0
LINE
  5
646
100
AcDbEntity
  8
Livello_1
100
AcDbLine
 62
7
  6
CONTINUOUS
 10
-39.3426622537
 20
75.7754744369
 11
-39.3277765715
 21
75.7837090305
  0
LINE
  5
647
100
AcDbEntity
  8
Livello_1
100
AcDbLine
 62
7
  6
CONTINUOUS
 10
-39.3277765715
 20
75.7837090305
 11
-39.3085919596
 21
75.7937641893
  0
LINE
  5
648
100
AcDbEntity
  8
Livello_1
100
AcDbLine
 62
7
  6
CONTINUOUS
 10
-38.6955339703
 20
75.1885896793
 11
-38.7164279724
 21
75.192218121
  0
LINE
  5
649
100
AcDbEntity
  8
Livello_1
100
AcDbLine
 62
7
  6
CONTINUOUS
 10
-38.9943553836
 20
75.2364724441
 11
-39.021153982
 21
75.2411437898
  0
LINE
  5
64A
100
AcDbEntity
  8
Livello_1
100
AcDbLine
 62
7
  6
CONTINUOUS
 10
-39.021153982
 20
75.2411437898
 11
-39.3147079891
 21
75.2956554609
  0
LINE
  5
64B
100
AcDbEntity
  8
Livello_1
100
AcDbLine
 62
7
  6
CONTINUOUS
 10
-38.6563303016
 20
75.7602566956
 11
-38.9816667308
 21
75.8242067832
  0
LINE
  5
64C
100
AcDbEntity
  8
Livello_1
100
AcDbLine
 62
7
  6
CONTINUOUS
 10
-39.3147079891
 20
75.2956554609
 11
-39.59111875
 21
75.3520933385
  0
LINE
  5
64D
100
AcDbEntity
  8
Livello_1
100
AcDbLine
 62
7
  6
CONTINUOUS
 10
-38.9816667308
 20
75.8242067832
 11
-39.0795180661
 21
75.8469360306
  0
LINE
  5
64E
100
AcDbEntity
  8
Livello_1
100
AcDbLine
 62
7
  6
CONTINUOUS
 10
38.1080424846
 20
75.8091823649
 11
38.0402536027
 21
75.8319116129
  0
LINE
  5
64F
100
AcDbEntity
  8
Livello_1
100
AcDbLine
 62
7
  6
CONTINUOUS
 10
139.268929363
 20
15.9249085169
 11
139.2726277024
 21
15.921328454
  0
LINE
  5
650
100
AcDbEntity
  8
Livello_1
100
AcDbLine
 62
7
  6
CONTINUOUS
 10
139.2912058795
 20
15.9037023223
 11
139.2945075322
 21
15.9003134383
  0
LINE
  5
651
100
AcDbEntity
  8
Livello_1
100
AcDbLine
 62
7
  6
CONTINUOUS
 10
139.2726277024
 20
15.921328454
 11
139.2764871638
 21
15.9172298395
  0
LINE
  5
652
100
AcDbEntity
  8
Livello_1
100
AcDbLine
 62
7
  6
CONTINUOUS
 10
139.2764871638
 20
15.9172298395
 11
139.2805139838
 21
15.9126097065
  0
LINE
  5
653
100
AcDbEntity
  8
Livello_1
100
AcDbLine
 62
7
  6
CONTINUOUS
 10
139.2945075322
 20
15.9003134383
 11
139.2974425638
 21
15.8969187768
  0
LINE
  5
654
100
AcDbEntity
  8
Livello_1
100
AcDbLine
 62
7
  6
CONTINUOUS
 10
139.2974425638
 20
15.8969187768
 11
139.3000091736
 21
15.8935444571
  0
LINE
  5
655
100
AcDbEntity
  8
Livello_1
100
AcDbLine
 62
7
  6
CONTINUOUS
 10
97.0844369507
 20
13.2095628025
 11
107.5450914447
 21
-56.8055736649
  0
LINE
  5
656
100
AcDbEntity
  8
Livello_1
100
AcDbLine
 62
7
  6
CONTINUOUS
 10
107.0277121387
 20
-56.8092334591
 11
108.5683087626
 21
-67.1231112101
  0
LINE
  5
657
100
AcDbEntity
  8
Livello_1
100
AcDbLine
 62
7
  6
CONTINUOUS
 10
96.3509371748
 20
14.6353415512
 11
96.5597380566
 21
13.2132225968
  0
LINE
  5
658
100
AcDbEntity
  8
Livello_1
100
AcDbLine
 62
7
  6
CONTINUOUS
 10
96.702662645
 20
15.7263454468
 11
96.8230506074
 21
14.9005803161
  0
LINE
  5
659
100
AcDbEntity
  8
Livello_1
100
AcDbLine
 62
7
  6
CONTINUOUS
 10
96.1608205054
 20
15.94458475
 11
95.5732717841
 21
20.1820332323
  0
LINE
  5
65A
100
AcDbEntity
  8
Livello_1
100
AcDbLine
 62
7
  6
CONTINUOUS
 10
95.5732717841
 20
20.1820332323
 11
94.9942734597
 21
24.7021147278
  0
LINE
  5
65B
100
AcDbEntity
  8
Livello_1
100
AcDbLine
 62
7
  6
CONTINUOUS
 10
94.9942734597
 20
24.7021147278
 11
94.4650682367
 21
29.2178156593
  0
LINE
  5
65C
100
AcDbEntity
  8
Livello_1
100
AcDbLine
 62
7
  6
CONTINUOUS
 10
93.5557410358
 20
38.2347812673
 11
93.1754657131
 21
42.7354212966
  0
LINE
  5
65D
100
AcDbEntity
  8
Livello_1
100
AcDbLine
 62
7
  6
CONTINUOUS
 10
93.1754657131
 20
42.7354212966
 11
92.8446774088
 21
47.2304312736
  0
LINE
  5
65E
100
AcDbEntity
  8
Livello_1
100
AcDbLine
 62
7
  6
CONTINUOUS
 10
92.8446774088
 20
47.2304312736
 11
92.5593020259
 21
51.7741292956
  0
LINE
  5
65F
100
AcDbEntity
  8
Livello_1
100
AcDbLine
 62
7
  6
CONTINUOUS
 10
92.5593020259
 20
51.7741292956
 11
92.3227482955
 21
56.3219696676
  0
LINE
  5
660
100
AcDbEntity
  8
Livello_1
100
AcDbLine
 62
7
  6
CONTINUOUS
 10
92.3227482955
 20
56.3219696676
 11
92.1350997207
 21
60.8726511638
  0
LINE
  5
661
100
AcDbEntity
  8
Livello_1
100
AcDbLine
 62
7
  6
CONTINUOUS
 10
92.1350997207
 20
60.8726511638
 11
92.0601175843
 21
63.1328146781
  0
LINE
  5
662
100
AcDbEntity
  8
Livello_1
100
AcDbLine
 62
7
  6
CONTINUOUS
 10
92.0601175843
 20
63.1328146781
 11
91.9567043246
 21
67.1134427461
  0
LINE
  5
663
100
AcDbEntity
  8
Livello_1
100
AcDbLine
 62
7
  6
CONTINUOUS
 10
91.9567043246
 20
67.1134427461
 11
91.8927301618
 21
71.0953710041
  0
LINE
  5
664
100
AcDbEntity
  8
Livello_1
100
AcDbLine
 62
7
  6
CONTINUOUS
 10
91.8927301618
 20
71.0953710041
 11
91.8729682819
 21
73.0864916375
  0
LINE
  5
665
100
AcDbEntity
  8
Livello_1
100
AcDbLine
 62
7
  6
CONTINUOUS
 10
91.8729682819
 20
73.0864916375
 11
91.864607534
 21
75.0776122709
  0
LINE
  5
666
100
AcDbEntity
  8
Livello_1
100
AcDbLine
 62
7
  6
CONTINUOUS
 10
91.864607534
 20
75.0776122709
 11
91.863885206
 21
76.0564627381
  0
LINE
  5
667
100
AcDbEntity
  8
Livello_1
100
AcDbLine
 62
7
  6
CONTINUOUS
 10
91.863885206
 20
76.0564627381
 11
91.864607534
 21
77.0338685494
  0
LINE
  5
668
100
AcDbEntity
  8
Livello_1
100
AcDbLine
 62
7
  6
CONTINUOUS
 10
91.8870950976
 20
77.1040329753
 11
91.8738688581
 21
77.0302087552
  0
LINE
  5
669
100
AcDbEntity
  8
Livello_1
100
AcDbLine
 62
7
  6
CONTINUOUS
 10
38.4030042787
 20
-68.2939178875
 11
38.3987165001
 21
-68.3095053622
  0
LINE
  5
66A
100
AcDbEntity
  8
Livello_1
100
AcDbLine
 62
7
  6
CONTINUOUS
 10
38.3987165001
 20
-68.3095053622
 11
38.393906526
 21
-68.3249339414
  0
LINE
  5
66B
100
AcDbEntity
  8
Livello_1
100
AcDbLine
 62
7
  6
CONTINUOUS
 10
-39.3010232948
 20
75.7976622019
 11
-39.2788805315
 21
75.8091823649
  0
LINE
  5
66C
100
AcDbEntity
  8
Livello_1
100
AcDbLine
 62
7
  6
CONTINUOUS
 10
-39.3085919596
 20
75.7937641893
 11
-39.3010232948
 21
75.7976622019
  0
LINE
  5
66D
100
AcDbEntity
  8
Livello_1
100
AcDbLine
 62
7
  6
CONTINUOUS
 10
-37.3758148912
 20
75.0042167556
 11
-37.4730610999
 21
75.0153922778
  0
LINE
  5
66E
100
AcDbEntity
  8
Livello_1
100
AcDbLine
 62
7
  6
CONTINUOUS
 10
-37.4730610999
 20
75.0153922778
 11
-37.7797133165
 21
75.0548795301
  0
LINE
  5
66F
100
AcDbEntity
  8
Livello_1
100
AcDbLine
 62
7
  6
CONTINUOUS
 10
-36.963386623
 20
75.5083087623
 11
-37.3139662269
 21
75.553764574
  0
LINE
  5
670
100
AcDbEntity
  8
Livello_1
100
AcDbLine
 62
7
  6
CONTINUOUS
 10
-37.7797133165
 20
75.0548795301
 11
-38.0938777425
 21
75.0982191976
  0
LINE
  5
671
100
AcDbEntity
  8
Livello_1
100
AcDbLine
 62
7
  6
CONTINUOUS
 10
-37.3139662269
 20
75.553764574
 11
-38.1595614146
 21
75.6756961891
  0
LINE
  5
672
100
AcDbEntity
  8
Livello_1
100
AcDbLine
 62
7
  6
CONTINUOUS
 10
-38.0938777425
 20
75.0982191976
 11
-38.406115961
 21
75.1432924517
  0
LINE
  5
673
100
AcDbEntity
  8
Livello_1
100
AcDbLine
 62
7
  6
CONTINUOUS
 10
-38.406115961
 20
75.1432924517
 11
-38.6955339703
 21
75.1885896793
  0
LINE
  5
674
100
AcDbEntity
  8
Livello_1
100
AcDbLine
 62
7
  6
CONTINUOUS
 10
-38.7164279724
 20
75.192218121
 11
-38.9943553836
 21
75.2364724441
  0
LINE
  5
675
100
AcDbEntity
  8
Livello_1
100
AcDbLine
 62
7
  6
CONTINUOUS
 10
-38.1595614146
 20
75.6756961891
 11
-38.6563303016
 21
75.7602566956
  0
LINE
  5
676
100
AcDbEntity
  8
Livello_1
100
AcDbLine
 62
7
  6
CONTINUOUS
 10
139.3000091736
 20
15.8935444571
 11
139.3022110772
 21
15.8902128354
  0
LINE
  5
677
100
AcDbEntity
  8
Livello_1
100
AcDbLine
 62
7
  6
CONTINUOUS
 10
139.3022110772
 20
15.8902128354
 11
139.304056552
 21
15.8869421022
  0
LINE
  5
678
100
AcDbEntity
  8
Livello_1
100
AcDbLine
 62
7
  6
CONTINUOUS
 10
140.6763471583
 20
-69.1904207141
 11
140.6773790874
 21
-69.1940705927
  0
LINE
  5
679
100
AcDbEntity
  8
Livello_1
100
AcDbLine
 62
7
  6
CONTINUOUS
 10
91.9135332016
 20
77.1956699745
 11
91.8870950976
 21
77.1040329753
  0
LINE
  5
67A
100
AcDbEntity
  8
Livello_1
100
AcDbLine
 62
7
  6
CONTINUOUS
 10
38.393906526
 20
-68.3249339414
 11
38.3885744386
 21
-68.3402023679
  0
LINE
  5
67B
100
AcDbEntity
  8
Livello_1
100
AcDbLine
 62
7
  6
CONTINUOUS
 10
-30.2422711635
 20
74.4323292849
 11
-32.3967068549
 21
74.5653538205
  0
LINE
  5
67C
100
AcDbEntity
  8
Livello_1
100
AcDbLine
 62
7
  6
CONTINUOUS
 10
-30.599582635
 20
74.9722452312
 11
-31.8355615993
 21
75.0518769836
  0
LINE
  5
67D
100
AcDbEntity
  8
Livello_1
100
AcDbLine
 62
7
  6
CONTINUOUS
 10
-32.3967068549
 20
74.5653538205
 11
-34.4275228011
 21
74.7145186751
  0
LINE
  5
67E
100
AcDbEntity
  8
Livello_1
100
AcDbLine
 62
7
  6
CONTINUOUS
 10
-31.8355615993
 20
75.0518769836
 11
-33.7090474249
 21
75.1902919135
  0
LINE
  5
67F
100
AcDbEntity
  8
Livello_1
100
AcDbLine
 62
7
  6
CONTINUOUS
 10
-33.7090474249
 20
75.1902919135
 11
-33.7674400255
 21
75.1948581961
  0
LINE
  5
680
100
AcDbEntity
  8
Livello_1
100
AcDbLine
 62
7
  6
CONTINUOUS
 10
-33.7674400255
 20
75.1948581961
 11
-34.9468401025
 21
75.2956554609
  0
LINE
  5
681
100
AcDbEntity
  8
Livello_1
100
AcDbLine
 62
7
  6
CONTINUOUS
 10
-34.4275228011
 20
74.7145186751
 11
-36.0264793468
 21
74.8574432673
  0
LINE
  5
682
100
AcDbEntity
  8
Livello_1
100
AcDbLine
 62
7
  6
CONTINUOUS
 10
-34.9468401025
 20
75.2956554609
 11
-35.5025096119
 21
75.3490015224
  0
LINE
  5
683
100
AcDbEntity
  8
Livello_1
100
AcDbLine
 62
7
  6
CONTINUOUS
 10
37.991698595
 20
75.8396943486
 11
37.971361463
 21
75.8418099086
  0
LINE
  5
684
100
AcDbEntity
  8
Livello_1
100
AcDbLine
 62
7
  6
CONTINUOUS
 10
-36.0264793468
 20
74.8574432673
 11
-37.3758148912
 21
75.0042167556
  0
LINE
  5
685
100
AcDbEntity
  8
Livello_1
100
AcDbLine
 62
7
  6
CONTINUOUS
 10
-35.5025096119
 20
75.3490015224
 11
-36.963386623
 21
75.5083087623
  0
LINE
  5
686
100
AcDbEntity
  8
Livello_1
100
AcDbLine
 62
7
  6
CONTINUOUS
 10
38.0093733572
 20
75.8373956863
 11
37.991698595
 21
75.8396943486
  0
LINE
  5
687
100
AcDbEntity
  8
Livello_1
100
AcDbLine
 62
7
  6
CONTINUOUS
 10
38.0253876649
 20
75.8348190305
 11
38.0093733572
 21
75.8373956863
  0
LINE
  5
688
100
AcDbEntity
  8
Livello_1
100
AcDbLine
 62
7
  6
CONTINUOUS
 10
38.0402536027
 20
75.8319116129
 11
38.0253876649
 21
75.8348190305
  0
LINE
  5
689
100
AcDbEntity
  8
Livello_1
100
AcDbLine
 62
7
  6
CONTINUOUS
 10
139.304056552
 20
15.8869421022
 11
139.3055572861
 21
15.8837461486
  0
LINE
  5
68A
100
AcDbEntity
  8
Livello_1
100
AcDbLine
 62
7
  6
CONTINUOUS
 10
139.3067271311
 20
15.880634663
 11
139.3099943403
 21
15.8723318824
  0
LINE
  5
68B
100
AcDbEntity
  8
Livello_1
100
AcDbLine
 62
7
  6
CONTINUOUS
 10
140.6479286124
 20
-69.0306344408
 11
140.6519173082
 21
-69.04810577
  0
LINE
  5
68C
100
AcDbEntity
  8
Livello_1
100
AcDbLine
 62
7
  6
CONTINUOUS
 10
140.6750198392
 20
-69.184339299
 11
140.6763471583
 21
-69.1904207141
  0
LINE
  5
68D
100
AcDbEntity
  8
Livello_1
100
AcDbLine
 62
7
  6
CONTINUOUS
 10
140.6519173082
 20
-69.04810577
 11
140.655636283
 21
-69.0660294981
  0
LINE
  5
68E
100
AcDbEntity
  8
Livello_1
100
AcDbLine
 62
7
  6
CONTINUOUS
 10
140.629244401
 20
-68.885783641
 11
140.6322805851
 21
-68.9008762512
  0
LINE
  5
68F
100
AcDbEntity
  8
Livello_1
100
AcDbLine
 62
7
  6
CONTINUOUS
 10
118.5963211257
 20
-21.7971386381
 11
113.3556886692
 21
13.2507836415
  0
LINE
  5
690
100
AcDbEntity
  8
Livello_1
100
AcDbLine
 62
7
  6
CONTINUOUS
 10
123.8331011676
 20
-56.8450609178
 11
118.5963211257
 21
-21.7971386381
  0
LINE
  5
691
100
AcDbEntity
  8
Livello_1
100
AcDbLine
 62
7
  6
CONTINUOUS
 10
126.1093004446
 20
30.5621877904
 11
125.8891349399
 21
32.6446106563
  0
LINE
  5
692
100
AcDbEntity
  8
Livello_1
100
AcDbLine
 62
7
  6
CONTINUOUS
 10
125.8891349399
 20
32.6446106563
 11
125.6786004714
 21
34.7326195239
  0
LINE
  5
693
100
AcDbEntity
  8
Livello_1
100
AcDbLine
 62
7
  6
CONTINUOUS
 10
38.3885744386
 20
-68.3402023679
 11
38.3827196588
 21
-68.355309604
  0
LINE
  5
694
100
AcDbEntity
  8
Livello_1
100
AcDbLine
 62
7
  6
CONTINUOUS
 10
91.9523458758
 20
77.2740178659
 11
91.9135332016
 21
77.1956699745
  0
LINE
  5
695
100
AcDbEntity
  8
Livello_1
100
AcDbLine
 62
7
  6
CONTINUOUS
 10
-39.2788805315
 20
75.8091823649
 11
-39.274295453
 21
75.810909495
  0
LINE
  5
696
100
AcDbEntity
  8
Livello_1
100
AcDbLine
 62
7
  6
CONTINUOUS
 10
-39.274295453
 20
75.810909495
 11
-39.254649303
 21
75.8180855715
  0
LINE
  5
697
100
AcDbEntity
  8
Livello_1
100
AcDbLine
 62
7
  6
CONTINUOUS
 10
-39.254649303
 20
75.8180855715
 11
-39.237953456
 21
75.8237362834
  0
LINE
  5
698
100
AcDbEntity
  8
Livello_1
100
AcDbLine
 62
7
  6
CONTINUOUS
 10
7.8737133675
 20
73.7984144158
 11
6.6734935405
 21
73.7870497918
  0
LINE
  5
699
100
AcDbEntity
  8
Livello_1
100
AcDbLine
 62
7
  6
CONTINUOUS
 10
6.6734935405
 20
73.7870497918
 11
5.465954125
 21
73.7758777887
  0
LINE
  5
69A
100
AcDbEntity
  8
Livello_1
100
AcDbLine
 62
7
  6
CONTINUOUS
 10
5.465954125
 20
73.7758777887
 11
4.2601482967
 21
73.7664393718
  0
LINE
  5
69B
100
AcDbEntity
  8
Livello_1
100
AcDbLine
 62
7
  6
CONTINUOUS
 10
3.9028368252
 20
74.2649418581
 11
2.7214938304
 21
74.2574296492
  0
LINE
  5
69C
100
AcDbEntity
  8
Livello_1
100
AcDbLine
 62
7
  6
CONTINUOUS
 10
6.0095298518
 20
74.2761138612
 11
5.0728151959
 21
74.2705278599
  0
LINE
  5
69D
100
AcDbEntity
  8
Livello_1
100
AcDbLine
 62
7
  6
CONTINUOUS
 10
3.0487692012
 20
73.7608533705
 11
1.839290844
 21
73.7550747483
  0
LINE
  5
69E
100
AcDbEntity
  8
Livello_1
100
AcDbLine
 62
7
  6
CONTINUOUS
 10
5.0728151959
 20
74.2705278599
 11
3.9028368252
 21
74.2649418581
  0
LINE
  5
69F
100
AcDbEntity
  8
Livello_1
100
AcDbLine
 62
7
  6
CONTINUOUS
 10
4.2601482967
 20
73.7664393718
 11
3.0487692012
 21
73.7608533705
  0
LINE
  5
6A0
100
AcDbEntity
  8
Livello_1
100
AcDbLine
 62
7
  6
CONTINUOUS
 10
2.7214938304
 20
74.2574296492
 11
1.6511003817
 21
74.2535772341
  0
LINE
  5
6A1
100
AcDbEntity
  8
Livello_1
100
AcDbLine
 62
7
  6
CONTINUOUS
 10
1.6511003817
 20
74.2535772341
 11
0.5469983033
 21
74.2499174398
  0
LINE
  5
6A2
100
AcDbEntity
  8
Livello_1
100
AcDbLine
 62
7
  6
CONTINUOUS
 10
1.839290844
 20
73.7550747483
 11
0.6259728064
 21
73.7514149541
  0
LINE
  5
6A3
100
AcDbEntity
  8
Livello_1
100
AcDbLine
 62
7
  6
CONTINUOUS
 10
152.1092478477
 20
67.8656989849
 11
152.460973318
 21
67.8656989849
  0
LINE
  5
6A4
100
AcDbEntity
  8
Livello_1
100
AcDbLine
 62
7
  6
CONTINUOUS
 10
0.6259728064
 20
73.7514149541
 11
-1.2212600841
 21
73.7514149541
  0
LINE
  5
6A5
100
AcDbEntity
  8
Livello_1
100
AcDbLine
 62
7
  6
CONTINUOUS
 10
-1.8551749374
 20
73.7533411616
 11
-2.4910034034
 21
73.7533411616
  0
LINE
  5
6A6
100
AcDbEntity
  8
Livello_1
100
AcDbLine
 62
7
  6
CONTINUOUS
 10
0.5469983033
 20
74.2499174398
 11
-1.7028119326
 21
74.2499174398
  0
LINE
  5
6A7
100
AcDbEntity
  8
Livello_1
100
AcDbLine
 62
7
  6
CONTINUOUS
 10
-2.4910034034
 20
73.7533411616
 11
-3.1249308516
 21
73.7550747483
  0
LINE
  5
6A8
100
AcDbEntity
  8
Livello_1
100
AcDbLine
 62
7
  6
CONTINUOUS
 10
-1.2212600841
 20
73.7514149541
 11
-1.8551749374
 21
73.7533411616
  0
LINE
  5
6A9
100
AcDbEntity
  8
Livello_1
100
AcDbLine
 62
7
  6
CONTINUOUS
 10
-3.1249308516
 20
73.7550747483
 11
-3.7625054991
 21
73.7570009553
  0
LINE
  5
6AA
100
AcDbEntity
  8
Livello_1
100
AcDbLine
 62
7
  6
CONTINUOUS
 10
-1.7028119326
 20
74.2499174398
 11
-2.2558260753
 21
74.2516510265
  0
LINE
  5
6AB
100
AcDbEntity
  8
Livello_1
100
AcDbLine
 62
7
  6
CONTINUOUS
 10
-2.2558260753
 20
74.2516510265
 11
-3.894258085
 21
74.2574296492
  0
LINE
  5
6AC
100
AcDbEntity
  8
Livello_1
100
AcDbLine
 62
7
  6
CONTINUOUS
 10
-3.894258085
 20
74.2574296492
 11
-6.3076033288
 21
74.2705278599
  0
LINE
  5
6AD
100
AcDbEntity
  8
Livello_1
100
AcDbLine
 62
7
  6
CONTINUOUS
 10
-4.3964203524
 20
73.7608533705
 11
-5.028601619
 21
73.7645131647
  0
LINE
  5
6AE
100
AcDbEntity
  8
Livello_1
100
AcDbLine
 62
7
  6
CONTINUOUS
 10
-5.6642500591
 20
73.7683655793
 11
-6.2964313257
 21
73.7720253736
  0
LINE
  5
6AF
100
AcDbEntity
  8
Livello_1
100
AcDbLine
 62
7
  6
CONTINUOUS
 10
-8.1887250185
 20
73.7889759988
 11
-8.8187999079
 21
73.792828414
  0
LINE
  5
6B0
100
AcDbEntity
  8
Livello_1
100
AcDbLine
 62
7
  6
CONTINUOUS
 10
-3.7625054991
 20
73.7570009553
 11
-4.3964203524
 21
73.7608533705
  0
LINE
  5
6B1
100
AcDbEntity
  8
Livello_1
100
AcDbLine
 62
7
  6
CONTINUOUS
 10
-5.028601619
 20
73.7645131647
 11
-5.6642500591
 21
73.7683655793
  0
LINE
  5
6B2
100
AcDbEntity
  8
Livello_1
100
AcDbLine
 62
7
  6
CONTINUOUS
 10
-6.3076033288
 20
74.2705278599
 11
-7.1803678988
 21
74.2780400687
  0
LINE
  5
6B3
100
AcDbEntity
  8
Livello_1
100
AcDbLine
 62
7
  6
CONTINUOUS
 10
-6.2964313257
 20
73.7720253736
 11
-8.1887250185
 21
73.7889759988
  0
LINE
  5
6B4
100
AcDbEntity
  8
Livello_1
100
AcDbLine
 62
7
  6
CONTINUOUS
 10
-7.1803678988
 20
74.2780400687
 11
-8.8057016978
 21
74.293064487
  0
LINE
  5
6B5
100
AcDbEntity
  8
Livello_1
100
AcDbLine
 62
7
  6
CONTINUOUS
 10
-9.4452025524
 20
73.8020742095
 11
-10.0716051968
 21
73.8095864189
  0
LINE
  5
6B6
100
AcDbEntity
  8
Livello_1
100
AcDbLine
 62
7
  6
CONTINUOUS
 10
-11.3149596978
 20
73.8284632517
 11
-11.9338625055
 21
73.8359754606
  0
LINE
  5
6B7
100
AcDbEntity
  8
Livello_1
100
AcDbLine
 62
7
  6
CONTINUOUS
 10
-8.8057016978
 20
74.293064487
 11
-10.4196708728
 21
74.3156011141
  0
LINE
  5
6B8
100
AcDbEntity
  8
Livello_1
100
AcDbLine
 62
7
  6
CONTINUOUS
 10
-8.8187999079
 20
73.792828414
 11
-9.4452025524
 21
73.8020742095
  0
LINE
  5
6B9
100
AcDbEntity
  8
Livello_1
100
AcDbLine
 62
7
  6
CONTINUOUS
 10
-10.6943480476
 20
73.8190248353
 11
-11.3149596978
 21
73.8284632517
  0
LINE
  5
6BA
100
AcDbEntity
  8
Livello_1
100
AcDbLine
 62
7
  6
CONTINUOUS
 10
-10.0716051968
 20
73.8095864189
 11
-10.6943480476
 21
73.8190248353
  0
LINE
  5
6BB
100
AcDbEntity
  8
Livello_1
100
AcDbLine
 62
7
  6
CONTINUOUS
 10
-12.5527529411
 20
73.8473400845
 11
-13.1660450503
 21
73.856778501
  0
LINE
  5
6BC
100
AcDbEntity
  8
Livello_1
100
AcDbLine
 62
7
  6
CONTINUOUS
 10
-10.4196708728
 20
74.3156011141
 11
-13.5892451399
 21
74.3645267828
  0
LINE
  5
6BD
100
AcDbEntity
  8
Livello_1
100
AcDbLine
 62
7
  6
CONTINUOUS
 10
-11.9338625055
 20
73.8359754606
 11
-12.5527529411
 21
73.8473400845
  0
LINE
  5
6BE
100
AcDbEntity
  8
Livello_1
100
AcDbLine
 62
7
  6
CONTINUOUS
 10
-13.1660450503
 20
73.856778501
 11
-13.7772429813
 21
73.8679505041
  0
LINE
  5
6BF
100
AcDbEntity
  8
Livello_1
100
AcDbLine
 62
7
  6
CONTINUOUS
 10
-13.7772429813
 20
73.8679505041
 11
-16.8246956993
 21
73.9282407973
  0
LINE
  5
6C0
100
AcDbEntity
  8
Livello_1
100
AcDbLine
 62
7
  6
CONTINUOUS
 10
-13.5892451399
 20
74.3645267828
 11
-16.670406487
 21
74.4284768698
  0
LINE
  5
6C1
100
AcDbEntity
  8
Livello_1
100
AcDbLine
 62
7
  6
CONTINUOUS
 10
-16.670406487
 20
74.4284768698
 11
-18.171499909
 21
74.4643043284
  0
LINE
  5
6C2
100
AcDbEntity
  8
Livello_1
100
AcDbLine
 62
7
  6
CONTINUOUS
 10
-16.8246956993
 20
73.9282407973
 11
-17.0846904196
 21
73.9345161388
  0
LINE
  5
6C3
100
AcDbEntity
  8
Livello_1
100
AcDbLine
 62
7
  6
CONTINUOUS
 10
-17.0846904196
 20
73.9345161388
 11
-19.8135917124
 21
74.0072153026
  0
LINE
  5
6C4
100
AcDbEntity
  8
Livello_1
100
AcDbLine
 62
7
  6
CONTINUOUS
 10
-18.171499909
 20
74.4643043284
 11
-19.638692081
 21
74.5057177883
  0
LINE
  5
6C5
100
AcDbEntity
  8
Livello_1
100
AcDbLine
 62
7
  6
CONTINUOUS
 10
-19.8135917124
 20
74.0072153026
 11
-22.4870129214
 21
74.0884868527
  0
LINE
  5
6C6
100
AcDbEntity
  8
Livello_1
100
AcDbLine
 62
7
  6
CONTINUOUS
 10
-19.638692081
 20
74.5057177883
 11
-21.0739092101
 21
74.5507910425
  0
LINE
  5
6C7
100
AcDbEntity
  8
Livello_1
100
AcDbLine
 62
7
  6
CONTINUOUS
 10
-22.4870129214
 20
74.0884868527
 11
-22.7396591058
 21
74.0966643122
  0
LINE
  5
6C8
100
AcDbEntity
  8
Livello_1
100
AcDbLine
 62
7
  6
CONTINUOUS
 10
-21.0739092101
 20
74.5507910425
 11
-22.4715532052
 21
74.5960569175
  0
LINE
  5
6C9
100
AcDbEntity
  8
Livello_1
100
AcDbLine
 62
7
  6
CONTINUOUS
 10
-22.7396591058
 20
74.0966643122
 11
-25.4926289719
 21
74.2009917711
  0
LINE
  5
6CA
100
AcDbEntity
  8
Livello_1
100
AcDbLine
 62
7
  6
CONTINUOUS
 10
-22.4715532052
 20
74.5960569175
 11
-25.1520755047
 21
74.6975680498
  0
LINE
  5
6CB
100
AcDbEntity
  8
Livello_1
100
AcDbLine
 62
7
  6
CONTINUOUS
 10
-25.4926289719
 20
74.2009917711
 11
-27.5517253039
 21
74.2914925312
  0
LINE
  5
6CC
100
AcDbEntity
  8
Livello_1
100
AcDbLine
 62
7
  6
CONTINUOUS
 10
-25.1520755047
 20
74.6975680498
 11
-28.003825551
 21
74.8273944314
  0
LINE
  5
6CD
100
AcDbEntity
  8
Livello_1
100
AcDbLine
 62
7
  6
CONTINUOUS
 10
-27.5517253039
 20
74.2914925312
 11
-30.2422711635
 21
74.4323292849
  0
LINE
  5
6CE
100
AcDbEntity
  8
Livello_1
100
AcDbLine
 62
7
  6
CONTINUOUS
 10
-28.003825551
 20
74.8273944314
 11
-30.599582635
 21
74.9722452312
  0
LINE
  5
6CF
100
AcDbEntity
  8
Livello_1
100
AcDbLine
 62
7
  6
CONTINUOUS
 10
37.9457201094
 20
75.8439854846
 11
37.9086800191
 21
75.8469360306
  0
LINE
  5
6D0
100
AcDbEntity
  8
Livello_1
100
AcDbLine
 62
7
  6
CONTINUOUS
 10
37.971361463
 20
75.8418099086
 11
37.9457201094
 21
75.8439854846
  0
LINE
  5
6D1
100
AcDbEntity
  8
Livello_1
100
AcDbLine
 62
7
  6
CONTINUOUS
 10
152.1092478477
 20
67.8656989849
 11
135.019935849
 21
71.9305745512
  0
LINE
  5
6D2
100
AcDbEntity
  8
Livello_1
100
AcDbLine
 62
7
  6
CONTINUOUS
 10
152.0661008022
 20
69.8350534741
 11
135.0029852238
 21
73.8926094519
  0
LINE
  5
6D3
100
AcDbEntity
  8
Livello_1
100
AcDbLine
 62
7
  6
CONTINUOUS
 10
152.0775126087
 20
69.8319492346
 11
152.0661008022
 21
69.8350534741
  0
LINE
  5
6D4
100
AcDbEntity
  8
Livello_1
100
AcDbLine
 62
7
  6
CONTINUOUS
 10
152.0890214065
 20
69.8287343633
 11
152.0775126087
 21
69.8319492346
  0
LINE
  5
6D5
100
AcDbEntity
  8
Livello_1
100
AcDbLine
 62
7
  6
CONTINUOUS
 10
152.0989478671
 20
69.8258545968
 11
152.0890214065
 21
69.8287343633
  0
LINE
  5
6D6
100
AcDbEntity
  8
Livello_1
100
AcDbLine
 62
7
  6
CONTINUOUS
 10
152.1078529367
 20
69.8231566576
 11
152.0989478671
 21
69.8258545968
  0
LINE
  5
6D7
100
AcDbEntity
  8
Livello_1
100
AcDbLine
 62
7
  6
CONTINUOUS
 10
152.1160210763
 20
69.8205628816
 11
152.1078529367
 21
69.8231566576
  0
LINE
  5
6D8
100
AcDbEntity
  8
Livello_1
100
AcDbLine
 62
7
  6
CONTINUOUS
 10
152.1236208518
 20
69.8180272312
 11
152.1160210763
 21
69.8205628816
  0
LINE
  5
6D9
100
AcDbEntity
  8
Livello_1
100
AcDbLine
 62
7
  6
CONTINUOUS
 10
152.0875169044
 20
69.8277038009
 11
152.0661008022
 21
69.8350534741
  0
LINE
  5
6DA
100
AcDbEntity
  8
Livello_1
100
AcDbLine
 62
7
  6
CONTINUOUS
 10
152.1117821751
 20
69.8191844694
 11
152.0875169044
 21
69.8277038009
  0
LINE
  5
6DB
100
AcDbEntity
  8
Livello_1
100
AcDbLine
 62
7
  6
CONTINUOUS
 10
152.1307623952
 20
69.8155195661
 11
152.1236208518
 21
69.8180272312
  0
LINE
  5
6DC
100
AcDbEntity
  8
Livello_1
100
AcDbLine
 62
7
  6
CONTINUOUS
 10
152.1315053127
 20
69.8119157604
 11
152.1117821751
 21
69.8191844694
  0
LINE
  5
6DD
100
AcDbEntity
  8
Livello_1
100
AcDbLine
 62
7
  6
CONTINUOUS
 10
152.1375226724
 20
69.8130187212
 11
152.1307623952
 21
69.8155195661
  0
LINE
  5
6DE
100
AcDbEntity
  8
Livello_1
100
AcDbLine
 62
7
  6
CONTINUOUS
 10
152.1439581929
 20
69.8105090282
 11
152.1375226724
 21
69.8130187212
  0
LINE
  5
6DF
100
AcDbEntity
  8
Livello_1
100
AcDbLine
 62
7
  6
CONTINUOUS
 10
152.1486372723
 20
69.8052093041
 11
152.1315053127
 21
69.8119157604
  0
LINE
  5
6E0
100
AcDbEntity
  8
Livello_1
100
AcDbLine
 62
7
  6
CONTINUOUS
 10
152.0701935094
 20
69.8315236972
 11
152.0661008022
 21
69.8331272671
  0
LINE
  5
6E1
100
AcDbEntity
  8
Livello_1
100
AcDbLine
 62
7
  6
CONTINUOUS
 10
134.8153679349
 20
78.3837727708
 11
134.8065120598
 21
78.3873133833
  0
LINE
  5
6E2
100
AcDbEntity
  8
Livello_1
100
AcDbLine
 62
7
  6
CONTINUOUS
 10
152.1501120429
 20
69.8079783799
 11
152.1439581929
 21
69.8105090282
  0
LINE
  5
6E3
100
AcDbEntity
  8
Livello_1
100
AcDbLine
 62
7
  6
CONTINUOUS
 10
152.163973118
 20
69.7987877582
 11
152.1486372723
 21
69.8052093041
  0
LINE
  5
6E4
100
AcDbEntity
  8
Livello_1
100
AcDbLine
 62
7
  6
CONTINUOUS
 10
152.1560180725
 20
69.8054170828
 11
152.1501120429
 21
69.8079783799
  0
LINE
  5
6E5
100
AcDbEntity
  8
Livello_1
100
AcDbLine
 62
7
  6
CONTINUOUS
 10
134.8240840408
 20
78.379967435
 11
134.8153679349
 21
78.3837727708
  0
LINE
  5
6E6
100
AcDbEntity
  8
Livello_1
100
AcDbLine
 62
7
  6
CONTINUOUS
 10
152.1779323676
 20
69.7925070779
 11
152.163973118
 21
69.7987877582
  0
LINE
  5
6E7
100
AcDbEntity
  8
Livello_1
100
AcDbLine
 62
7
  6
CONTINUOUS
 10
152.1617035271
 20
69.8028171275
 11
152.1560180725
 21
69.8054170828
  0
LINE
  5
6E8
100
AcDbEntity
  8
Livello_1
100
AcDbLine
 62
7
  6
CONTINUOUS
 10
134.832655417
 20
78.3759023664
 11
134.8240840408
 21
78.379967435
  0
LINE
  5
6E9
100
AcDbEntity
  8
Livello_1
100
AcDbLine
 62
7
  6
CONTINUOUS
 10
152.1671907756
 20
69.8001717103
 11
152.1617035271
 21
69.8028171275
  0
LINE
  5
6EA
100
AcDbEntity
  8
Livello_1
100
AcDbLine
 62
7
  6
CONTINUOUS
 10
152.190770828
 20
69.7862811336
 11
152.1779323676
 21
69.7925070779
  0
LINE
  5
6EB
100
AcDbEntity
  8
Livello_1
100
AcDbLine
 62
7
  6
CONTINUOUS
 10
152.1724984955
 20
69.7974749013
 11
152.1671907756
 21
69.8001717103
  0
LINE
  5
6EC
100
AcDbEntity
  8
Livello_1
100
AcDbLine
 62
7
  6
CONTINUOUS
 10
134.8410771031
 20
78.3715825545
 11
134.832655417
 21
78.3759023664
  0
LINE
  5
6ED
100
AcDbEntity
  8
Livello_1
100
AcDbLine
 62
7
  6
CONTINUOUS
 10
134.849344138
 20
78.3670129897
 11
134.8410771031
 21
78.3715825545
  0
LINE
  5
6EE
100
AcDbEntity
  8
Livello_1
100
AcDbLine
 62
7
  6
CONTINUOUS
 10
134.8574515606
 20
78.3621986633
 11
134.849344138
 21
78.3670129897
  0
LINE
  5
6EF
100
AcDbEntity
  8
Livello_1
100
AcDbLine
 62
7
  6
CONTINUOUS
 10
134.8653944104
 20
78.3571445647
 11
134.8574515606
 21
78.3621986633
  0
LINE
  5
6F0
100
AcDbEntity
  8
Livello_1
100
AcDbLine
 62
7
  6
CONTINUOUS
 10
134.8731677258
 20
78.3518556843
 11
134.8653944104
 21
78.3571445647
  0
LINE
  5
6F1
100
AcDbEntity
  8
Livello_1
100
AcDbLine
 62
7
  6
CONTINUOUS
 10
139.3055572861
 20
15.8837461486
 11
139.3067271311
 21
15.880634663
  0
LINE
  5
6F2
100
AcDbEntity
  8
Livello_1
100
AcDbLine
 62
7
  6
CONTINUOUS
 10
139.3099943403
 20
15.8723318824
 11
139.3127941877
 21
15.8644800123
  0
LINE
  5
6F3
100
AcDbEntity
  8
Livello_1
100
AcDbLine
 62
7
  6
CONTINUOUS
 10
139.3127941877
 20
15.8644800123
 11
139.3161488205
 21
15.8542456213
  0
LINE
  5
6F4
100
AcDbEntity
  8
Livello_1
100
AcDbLine
 62
7
  6
CONTINUOUS
 10
128.1239207581
 20
14.7877045604
 11
128.1258667968
 21
14.7774139483
  0
LINE
  5
6F5
100
AcDbEntity
  8
Livello_1
100
AcDbLine
 62
7
  6
CONTINUOUS
 10
140.655636283
 20
-69.0660294981
 11
140.6590935081
 21
-69.0844613129
  0
LINE
  5
6F6
100
AcDbEntity
  8
Livello_1
100
AcDbLine
 62
7
  6
CONTINUOUS
 10
140.6732244985
 20
-69.1744911124
 11
140.6750198392
 21
-69.184339299
  0
LINE
  5
6F7
100
AcDbEntity
  8
Livello_1
100
AcDbLine
 62
7
  6
CONTINUOUS
 10
128.1138263367
 20
14.8658779924
 11
128.1164085493
 21
14.8516546474
  0
LINE
  5
6F8
100
AcDbEntity
  8
Livello_1
100
AcDbLine
 62
7
  6
CONTINUOUS
 10
128.1050439258
 20
14.9156047344
 11
128.1076261384
 21
14.9013813888
  0
LINE
  5
6F9
100
AcDbEntity
  8
Livello_1
100
AcDbLine
 62
7
  6
CONTINUOUS
 10
140.6322805851
 20
-68.9008762512
 11
140.635318357
 21
-68.9177872627
  0
LINE
  5
6FA
100
AcDbEntity
  8
Livello_1
100
AcDbLine
 62
7
  6
CONTINUOUS
 10
128.1258667968
 20
14.7774139483
 11
128.1279210681
 21
14.765656321
  0
LINE
  5
6FB
100
AcDbEntity
  8
Livello_1
100
AcDbLine
 62
7
  6
CONTINUOUS
 10
128.1076261384
 20
14.9013813888
 11
128.1138263367
 21
14.8658779924
  0
LINE
  5
6FC
100
AcDbEntity
  8
Livello_1
100
AcDbLine
 62
7
  6
CONTINUOUS
 10
140.672408208
 20
-69.1697066179
 11
140.6732244985
 21
-69.1744911124
  0
LINE
  5
6FD
100
AcDbEntity
  8
Livello_1
100
AcDbLine
 62
7
  6
CONTINUOUS
 10
128.1365942837
 20
14.7112740923
 11
128.1389451758
 21
14.6973654312
  0
LINE
  5
6FE
100
AcDbEntity
  8
Livello_1
100
AcDbLine
 62
7
  6
CONTINUOUS
 10
140.6590935081
 20
-69.0844613129
 11
140.6623072857
 21
-69.1035113739
  0
LINE
  5
6FF
100
AcDbEntity
  8
Livello_1
100
AcDbLine
 62
7
  6
CONTINUOUS
 10
128.1279210681
 20
14.765656321
 11
128.1302528787
 21
14.7513828494
  0
LINE
  5
700
100
AcDbEntity
  8
Livello_1
100
AcDbLine
 62
7
  6
CONTINUOUS
 10
140.635318357
 20
-68.9177872627
 11
140.6385266494
 21
-68.9375808042
  0
LINE
  5
701
100
AcDbEntity
  8
Livello_1
100
AcDbLine
 62
7
  6
CONTINUOUS
 10
140.6047815669
 20
-68.7220560084
 11
140.609794255
 21
-68.7530874587
  0
LINE
  5
702
100
AcDbEntity
  8
Livello_1
100
AcDbLine
 62
7
  6
CONTINUOUS
 10
140.6696928914
 20
-69.1527370973
 11
140.672408208
 21
-69.1697066179
  0
LINE
  5
703
100
AcDbEntity
  8
Livello_1
100
AcDbLine
 62
7
  6
CONTINUOUS
 10
128.1302528787
 20
14.7513828494
 11
128.1365942837
 21
14.7112740923
  0
LINE
  5
704
100
AcDbEntity
  8
Livello_1
100
AcDbLine
 62
7
  6
CONTINUOUS
 10
140.6668054452
 20
-69.1340717801
 11
140.6696928914
 21
-69.1527370973
  0
LINE
  5
705
100
AcDbEntity
  8
Livello_1
100
AcDbLine
 62
7
  6
CONTINUOUS
 10
140.609794255
 20
-68.7530874587
 11
140.6152463415
 21
-68.7890177625
  0
LINE
  5
706
100
AcDbEntity
  8
Livello_1
100
AcDbLine
 62
7
  6
CONTINUOUS
 10
140.6623072857
 20
-69.1035113739
 11
140.665319982
 21
-69.123428166
  0
LINE
  5
707
100
AcDbEntity
  8
Livello_1
100
AcDbLine
 62
7
  6
CONTINUOUS
 10
140.6385266494
 20
-68.9375808042
 11
140.6423426111
 21
-68.9628319387
  0
LINE
  5
708
100
AcDbEntity
  8
Livello_1
100
AcDbLine
 62
7
  6
CONTINUOUS
 10
128.1389451758
 20
14.6973654312
 11
140.6047815669
 21
-68.7220560084
  0
LINE
  5
709
100
AcDbEntity
  8
Livello_1
100
AcDbLine
 62
7
  6
CONTINUOUS
 10
127.9827297564
 20
15.7357838632
 11
128.1050439258
 21
14.9156047344
  0
LINE
  5
70A
100
AcDbEntity
  8
Livello_1
100
AcDbLine
 62
7
  6
CONTINUOUS
 10
140.6152463415
 20
-68.7890177625
 11
140.629244401
 21
-68.885783641
  0
LINE
  5
70B
100
AcDbEntity
  8
Livello_1
100
AcDbLine
 62
7
  6
CONTINUOUS
 10
127.9470949192
 20
16.0029488357
 11
127.6535409127
 21
18.0795930793
  0
LINE
  5
70C
100
AcDbEntity
  8
Livello_1
100
AcDbLine
 62
7
  6
CONTINUOUS
 10
127.9451687122
 20
16.0029488357
 11
127.9696315457
 21
15.8297827867
  0
LINE
  5
70D
100
AcDbEntity
  8
Livello_1
100
AcDbLine
 62
7
  6
CONTINUOUS
 10
140.665319982
 20
-69.123428166
 11
140.6668054452
 21
-69.1340717801
  0
LINE
  5
70E
100
AcDbEntity
  8
Livello_1
100
AcDbLine
 62
7
  6
CONTINUOUS
 10
127.9696315457
 20
15.8297827867
 11
127.9827297564
 21
15.7357838632
  0
LINE
  5
70F
100
AcDbEntity
  8
Livello_1
100
AcDbLine
 62
7
  6
CONTINUOUS
 10
127.6535409127
 20
18.0795930793
 11
127.3696179429
 21
20.1562373236
  0
LINE
  5
710
100
AcDbEntity
  8
Livello_1
100
AcDbLine
 62
7
  6
CONTINUOUS
 10
127.3696179429
 20
20.1562373236
 11
127.0968669757
 21
22.2367339818
  0
LINE
  5
711
100
AcDbEntity
  8
Livello_1
100
AcDbLine
 62
7
  6
CONTINUOUS
 10
128.1185500934
 20
14.8323764753
 11
128.121779214
 21
14.8069827319
  0
LINE
  5
712
100
AcDbEntity
  8
Livello_1
100
AcDbLine
 62
7
  6
CONTINUOUS
 10
127.0968669757
 20
22.2367339818
 11
126.833554425
 21
24.3153044331
  0
LINE
  5
713
100
AcDbEntity
  8
Livello_1
100
AcDbLine
 62
7
  6
CONTINUOUS
 10
126.833554425
 20
24.3153044331
 11
126.5814138773
 21
26.3958010919
  0
LINE
  5
714
100
AcDbEntity
  8
Livello_1
100
AcDbLine
 62
7
  6
CONTINUOUS
 10
128.1173014229
 20
14.842962448
 11
128.1185500934
 21
14.8323764753
  0
LINE
  5
715
100
AcDbEntity
  8
Livello_1
100
AcDbLine
 62
7
  6
CONTINUOUS
 10
128.121779214
 20
14.8069827319
 11
128.1230278845
 21
14.7963967597
  0
LINE
  5
716
100
AcDbEntity
  8
Livello_1
100
AcDbLine
 62
7
  6
CONTINUOUS
 10
126.5814138773
 20
26.3958010919
 11
126.340637953
 21
28.4799575449
  0
LINE
  5
717
100
AcDbEntity
  8
Livello_1
100
AcDbLine
 62
7
  6
CONTINUOUS
 10
126.340637953
 20
28.4799575449
 11
126.1093004446
 21
30.5621877904
  0
LINE
  5
718
100
AcDbEntity
  8
Livello_1
100
AcDbLine
 62
7
  6
CONTINUOUS
 10
140.6435517439
 20
-68.9761747718
 11
140.6461293902
 21
-69.0007973853
  0
LINE
  5
719
100
AcDbEntity
  8
Livello_1
100
AcDbLine
 62
7
  6
CONTINUOUS
 10
128.1164085493
 20
14.8516546474
 11
128.1173014229
 21
14.842962448
  0
LINE
  5
71A
100
AcDbEntity
  8
Livello_1
100
AcDbLine
 62
7
  6
CONTINUOUS
 10
128.1230278845
 20
14.7963967597
 11
128.1239207581
 21
14.7877045604
  0
LINE
  5
71B
100
AcDbEntity
  8
Livello_1
100
AcDbLine
 62
7
  6
CONTINUOUS
 10
125.6786004714
 20
34.7326195239
 11
125.4773117989
 21
36.816775977
  0
LINE
  5
71C
100
AcDbEntity
  8
Livello_1
100
AcDbLine
 62
7
  6
CONTINUOUS
 10
140.6423426111
 20
-68.9628319387
 11
140.6435517439
 21
-68.9761747718
  0
LINE
  5
71D
100
AcDbEntity
  8
Livello_1
100
AcDbLine
 62
7
  6
CONTINUOUS
 10
125.4773117989
 20
36.816775977
 11
125.2891213366
 21
38.9047848446
  0
LINE
  5
71E
100
AcDbEntity
  8
Livello_1
100
AcDbLine
 62
7
  6
CONTINUOUS
 10
140.6461293902
 20
-69.0007973853
 11
140.647179264
 21
-69.0126548496
  0
LINE
  5
71F
100
AcDbEntity
  8
Livello_1
100
AcDbLine
 62
7
  6
CONTINUOUS
 10
125.2891213366
 20
38.9047848446
 11
125.1086520717
 21
40.9927937123
  0
LINE
  5
720
100
AcDbEntity
  8
Livello_1
100
AcDbLine
 62
7
  6
CONTINUOUS
 10
125.1086520717
 20
40.9927937123
 11
124.9373958663
 21
43.0808025799
  0
LINE
  5
721
100
AcDbEntity
  8
Livello_1
100
AcDbLine
 62
7
  6
CONTINUOUS
 10
124.9373958663
 20
43.0808025799
 11
124.7811968065
 21
45.1705450348
  0
LINE
  5
722
100
AcDbEntity
  8
Livello_1
100
AcDbLine
 62
7
  6
CONTINUOUS
 10
124.7811968065
 20
45.1705450348
 11
124.6326698567
 21
47.2624063171
  0
LINE
  5
723
100
AcDbEntity
  8
Livello_1
100
AcDbLine
 62
7
  6
CONTINUOUS
 10
124.6326698567
 20
47.2624063171
 11
124.3824718658
 21
51.1843572911
  0
LINE
  5
724
100
AcDbEntity
  8
Livello_1
100
AcDbLine
 62
7
  6
CONTINUOUS
 10
124.3824718658
 20
51.1843572911
 11
124.1698022202
 21
55.1082344722
  0
LINE
  5
725
100
AcDbEntity
  8
Livello_1
100
AcDbLine
 62
7
  6
CONTINUOUS
 10
124.1698022202
 20
55.1082344722
 11
124.0212916299
 21
58.3737339495
  0
LINE
  5
726
100
AcDbEntity
  8
Livello_1
100
AcDbLine
 62
7
  6
CONTINUOUS
 10
124.0212916299
 20
58.3737339495
 11
123.861990109
 21
62.7124303047
  0
LINE
  5
727
100
AcDbEntity
  8
Livello_1
100
AcDbLine
 62
7
  6
CONTINUOUS
 10
123.861990109
 20
62.7124303047
 11
123.8539042075
 21
62.9635010437
  0
LINE
  5
728
100
AcDbEntity
  8
Livello_1
100
AcDbLine
 62
7
  6
CONTINUOUS
 10
123.8539042075
 20
62.9635010437
 11
123.8253286341
 21
63.9319307848
  0
LINE
  5
729
100
AcDbEntity
  8
Livello_1
100
AcDbLine
 62
7
  6
CONTINUOUS
 10
123.8253286341
 20
63.9319307848
 11
123.7296638305
 21
67.9766485336
  0
LINE
  5
72A
100
AcDbEntity
  8
Livello_1
100
AcDbLine
 62
7
  6
CONTINUOUS
 10
123.7296638305
 20
67.9766485336
 11
123.686516785
 21
70.8189602361
  0
LINE
  5
72B
100
AcDbEntity
  8
Livello_1
100
AcDbLine
 62
7
  6
CONTINUOUS
 10
123.686516785
 20
70.8189602361
 11
123.6676399521
 21
72.7846549311
  0
LINE
  5
72C
100
AcDbEntity
  8
Livello_1
100
AcDbLine
 62
7
  6
CONTINUOUS
 10
123.6676399521
 20
72.7846549311
 11
123.660144075
 21
74.7464972114
  0
LINE
  5
72D
100
AcDbEntity
  8
Livello_1
100
AcDbLine
 62
7
  6
CONTINUOUS
 10
123.660144075
 20
74.7464972114
 11
123.6582178675
 21
76.7160443215
  0
LWPOLYLINE
  5
72E
100
AcDbEntity
  8
0
100
AcDbPolyline
 62
7
  6
CONTINUOUS
 90
13
 70
0
 43
0.3500000006
 10
120.140587738
 20
93.0597534485
 10
120.140587738
 20
94.3454694214
 10
120.3548722229
 20
94.7740474548
 10
120.7834411926
 20
95.2026164246
 10
120.9977256775
 20
95.2026164246
 10
121.4263037109
 20
94.7740474548
 10
121.6405881958
 20
94.3454694214
 10
121.6405881958
 20
93.0597534485
 10
121.4263037109
 20
92.6311844788
 10
120.9977256775
 20
92.202615509
 10
120.7834411926
 20
92.202615509
 10
120.3548722229
 20
92.6311844788
 10
120.140587738
 20
93.0597534485
  0
LINE
  5
72F
100
AcDbEntity
  8
Livello_1
100
AcDbLine
 62
7
  6
CONTINUOUS
 10
123.6639964902
 20
78.6778866019
 11
123.6639964902
 21
79.1293896265
  0
LINE
  5
730
100
AcDbEntity
  8
Livello_1
100
AcDbLine
 62
7
  6
CONTINUOUS
 10
123.6639964902
 20
79.1577048757
 11
123.6639964902
 21
79.1708030864
  0
LINE
  5
731
100
AcDbEntity
  8
Livello_1
100
AcDbLine
 62
7
  6
CONTINUOUS
 10
123.6657137451
 20
79.1783152952
 11
123.6657137451
 21
79.1896799192
  0
LINE
  5
732
100
AcDbEntity
  8
Livello_1
100
AcDbLine
 62
7
  6
CONTINUOUS
 10
123.6582178675
 20
76.7160443215
 11
123.6639964902
 21
78.6778866019
  0
LINE
  5
733
100
AcDbEntity
  8
Livello_1
100
AcDbLine
 62
7
  6
CONTINUOUS
 10
123.6639964902
 20
79.1293896265
 11
123.6657137451
 21
79.1482664593
  0
LWPOLYLINE
  5
734
100
AcDbEntity
  8
0
100
AcDbPolyline
 62
7
  6
CONTINUOUS
 90
3
 70
0
 43
0.3500000006
 10
123.2120107727
 20
92.4883311768
 10
123.1405886536
 20
92.2740466919
 10
122.9977262878
 20
91.9883310242
  0
LINE
  5
735
100
AcDbEntity
  8
Livello_1
100
AcDbLine
 62
7
  6
CONTINUOUS
 10
38.3827196588
 20
-68.355309604
 11
38.3760666794
 21
-68.3699686909
  0
LINE
  5
736
100
AcDbEntity
  8
Livello_1
100
AcDbLine
 62
7
  6
CONTINUOUS
 10
38.3760666794
 20
-68.3699686909
 11
38.3687865549
 21
-68.3846774855
  0
LINE
  5
737
100
AcDbEntity
  8
Livello_1
100
AcDbLine
 62
7
  6
CONTINUOUS
 10
92.0000199135
 20
77.334934773
 11
91.9523458758
 21
77.2740178659
  0
LINE
  5
738
100
AcDbEntity
  8
Livello_1
100
AcDbLine
 62
7
  6
CONTINUOUS
 10
-39.237953456
 20
75.8237362834
 11
-39.222880594
 21
75.8283412209
  0
LINE
  5
739
100
AcDbEntity
  8
Livello_1
100
AcDbLine
 62
7
  6
CONTINUOUS
 10
92.423207678
 20
77.537957037
 11
92.3386471736
 21
77.5267850339
  0
LINE
  5
73A
100
AcDbEntity
  8
Livello_1
100
AcDbLine
 62
7
  6
CONTINUOUS
 10
92.4182885523
 20
77.5483431974
 11
92.4101094678
 21
77.5473954535
  0
LINE
  5
73B
100
AcDbEntity
  8
Livello_1
100
AcDbLine
 62
7
  6
CONTINUOUS
 10
92.4757931399
 20
77.5437356597
 11
92.423207678
 21
77.537957037
  0
LINE
  5
73C
100
AcDbEntity
  8
Livello_1
100
AcDbLine
 62
7
  6
CONTINUOUS
 10
33.7904053425
 20
74.7600516928
 11
33.256696542
 21
74.7145186751
  0
LINE
  5
73D
100
AcDbEntity
  8
Livello_1
100
AcDbLine
 62
7
  6
CONTINUOUS
 10
33.7318154805
 20
75.2912245012
 11
31.9963790442
 21
75.1471448669
  0
LINE
  5
73E
100
AcDbEntity
  8
Livello_1
100
AcDbLine
 62
7
  6
CONTINUOUS
 10
92.9373990846
 20
77.569427882
 11
92.9217257065
 21
77.5681984938
  0
LINE
  5
73F
100
AcDbEntity
  8
Livello_1
100
AcDbLine
 62
7
  6
CONTINUOUS
 10
92.5885612757
 20
77.5544787298
 11
92.571910889
 21
77.5531740761
  0
LINE
  5
740
100
AcDbEntity
  8
Livello_1
100
AcDbLine
 62
7
  6
CONTINUOUS
 10
93.006740991
 20
77.5733541419
 11
92.9875864446
 21
77.5718582881
  0
LINE
  5
741
100
AcDbEntity
  8
Livello_1
100
AcDbLine
 62
7
  6
CONTINUOUS
 10
92.7989451395
 20
77.5633679995
 11
92.7862977716
 21
77.5624198717
  0
LINE
  5
742
100
AcDbEntity
  8
Livello_1
100
AcDbLine
 62
7
  6
CONTINUOUS
 10
92.521299652
 20
77.5522489649
 11
92.4941317331
 21
77.5502162906
  0
LINE
  5
743
100
AcDbEntity
  8
Livello_1
100
AcDbLine
 62
7
  6
CONTINUOUS
 10
92.8521740646
 20
77.5662722868
 11
92.8393745446
 21
77.565320551
  0
LINE
  5
744
100
AcDbEntity
  8
Livello_1
100
AcDbLine
 62
7
  6
CONTINUOUS
 10
92.7109830629
 20
77.560686285
 11
92.6933674119
 21
77.5593827168
  0
LINE
  5
745
100
AcDbEntity
  8
Livello_1
100
AcDbLine
 62
7
  6
CONTINUOUS
 10
33.256696542
 20
74.7145186751
 11
31.2254746581
 21
74.5651011542
  0
LINE
  5
746
100
AcDbEntity
  8
Livello_1
100
AcDbLine
 62
7
  6
CONTINUOUS
 10
92.9572924692
 20
77.5708443375
 11
92.9373990846
 21
77.569427882
  0
LINE
  5
747
100
AcDbEntity
  8
Livello_1
100
AcDbLine
 62
7
  6
CONTINUOUS
 10
92.9573449884
 20
77.5718582881
 11
92.7993959823
 21
77.560686285
  0
LINE
  5
748
100
AcDbEntity
  8
Livello_1
100
AcDbLine
 62
7
  6
CONTINUOUS
 10
31.9963790442
 20
75.1471448669
 11
30.1101999907
 21
75.0146299015
  0
LINE
  5
749
100
AcDbEntity
  8
Livello_1
100
AcDbLine
 62
7
  6
CONTINUOUS
 10
92.6079499632
 20
77.5558355139
 11
92.5885612757
 21
77.5544787298
  0
LINE
  5
74A
100
AcDbEntity
  8
Livello_1
100
AcDbLine
 62
7
  6
CONTINUOUS
 10
92.6933674119
 20
77.5593827168
 11
92.671057266
 21
77.5578727022
  0
LINE
  5
74B
100
AcDbEntity
  8
Livello_1
100
AcDbLine
 62
7
  6
CONTINUOUS
 10
91.977483287
 20
77.0413807583
 11
91.8939411002
 21
77.0357949012
  0
LINE
  5
74C
100
AcDbEntity
  8
Livello_1
100
AcDbLine
 62
7
  6
CONTINUOUS
 10
93.0269709343
 20
77.5747052945
 11
93.006740991
 21
77.5733541419
  0
LINE
  5
74D
100
AcDbEntity
  8
Livello_1
100
AcDbLine
 62
7
  6
CONTINUOUS
 10
92.8688852599
 20
77.5673362804
 11
92.8521740646
 21
77.5662722868
  0
LINE
  5
74E
100
AcDbEntity
  8
Livello_1
100
AcDbLine
 62
7
  6
CONTINUOUS
 10
92.4281383944
 20
77.54896743
 11
92.4182885523
 21
77.5483431974
  0
LINE
  5
74F
100
AcDbEntity
  8
Livello_1
100
AcDbLine
 62
7
  6
CONTINUOUS
 10
30.1101999907
 20
75.0146299015
 11
29.6733729274
 21
74.9872696488
  0
LINE
  5
750
100
AcDbEntity
  8
Livello_1
100
AcDbLine
 62
7
  6
CONTINUOUS
 10
31.2254746581
 20
74.5651011542
 11
29.0675807019
 21
74.4304030774
  0
LINE
  5
751
100
AcDbEntity
  8
Livello_1
100
AcDbLine
 62
7
  6
CONTINUOUS
 10
119.0984833932
 20
78.9413917796
 11
119.0975865992
 21
78.9413368513
  0
LINE
  5
752
100
AcDbEntity
  8
Livello_1
100
AcDbLine
 62
7
  6
CONTINUOUS
 10
92.6526189788
 20
77.5531740761
 11
92.5266450151
 21
77.5454692464
  0
LINE
  5
753
100
AcDbEntity
  8
Livello_1
100
AcDbLine
 62
7
  6
CONTINUOUS
 10
29.6733729274
 20
74.9872696488
 11
29.170409649
 21
74.9565900249
  0
LINE
  5
754
100
AcDbEntity
  8
Livello_1
100
AcDbLine
 62
7
  6
CONTINUOUS
 10
118.4289337032
 20
78.9055643215
 11
118.1147692772
 21
78.8866874887
  0
LINE
  5
755
100
AcDbEntity
  8
Livello_1
100
AcDbLine
 62
7
  6
CONTINUOUS
 10
94.9099414235
 20
77.675295628
 11
94.8408868072
 21
77.6711644974
  0
LINE
  5
756
100
AcDbEntity
  8
Livello_1
100
AcDbLine
 62
7
  6
CONTINUOUS
 10
93.4841782798
 20
77.5982473303
 11
93.128584826
 21
77.5774442899
  0
LINE
  5
757
100
AcDbEntity
  8
Livello_1
100
AcDbLine
 62
7
  6
CONTINUOUS
 10
119.1718718949
 20
78.9450515738
 11
118.7825853805
 21
78.9225149467
  0
LINE
  5
758
100
AcDbEntity
  8
Livello_1
100
AcDbLine
 62
7
  6
CONTINUOUS
 10
92.3141843395
 20
77.0583313841
 11
92.1184972029
 21
77.047159381
  0
LINE
  5
759
100
AcDbEntity
  8
Livello_1
100
AcDbLine
 62
7
  6
CONTINUOUS
 10
118.6396607921
 20
78.9169289455
 11
118.2388170333
 21
78.8941996975
  0
LINE
  5
75A
100
AcDbEntity
  8
Livello_1
100
AcDbLine
 62
7
  6
CONTINUOUS
 10
97.1113149686
 20
77.3066744727
 11
96.5747624743
 21
77.2765706873
  0
LINE
  5
75B
100
AcDbEntity
  8
Livello_1
100
AcDbLine
 62
7
  6
CONTINUOUS
 10
93.2470465803
 20
77.1072570528
 11
92.8802966929
 21
77.0866466333
  0
LINE
  5
75C
100
AcDbEntity
  8
Livello_1
100
AcDbLine
 62
7
  6
CONTINUOUS
 10
120.0748779212
 20
78.9920510356
 11
119.6044980758
 21
78.9658546142
  0
LINE
  5
75D
100
AcDbEntity
  8
Livello_1
100
AcDbLine
 62
7
  6
CONTINUOUS
 10
94.3758041131
 20
77.6471729991
 11
93.9017644734
 21
77.6207839574
  0
LINE
  5
75E
100
AcDbEntity
  8
Livello_1
100
AcDbLine
 62
7
  6
CONTINUOUS
 10
97.4155676703
 20
77.8051220095
 11
96.700736438
 21
77.7656347566
  0
LINE
  5
75F
100
AcDbEntity
  8
Livello_1
100
AcDbLine
 62
7
  6
CONTINUOUS
 10
29.170409649
 20
74.9565900249
 11
26.9664870156
 21
74.8349066402
  0
LINE
  5
760
100
AcDbEntity
  8
Livello_1
100
AcDbLine
 62
7
  6
CONTINUOUS
 10
122.5352389284
 20
79.1218774171
 11
121.8504558971
 21
79.0843163723
  0
LINE
  5
761
100
AcDbEntity
  8
Livello_1
100
AcDbLine
 62
7
  6
CONTINUOUS
 10
97.3177006661
 20
77.3179841472
 11
97.1113149686
 21
77.3066744727
  0
LINE
  5
762
100
AcDbEntity
  8
Livello_1
100
AcDbLine
 62
7
  6
CONTINUOUS
 10
116.2789171552
 20
78.7926885652
 11
115.3495059423
 21
78.7418366889
  0
LINE
  5
763
100
AcDbEntity
  8
Livello_1
100
AcDbLine
 62
7
  6
CONTINUOUS
 10
101.8026372031
 20
78.0356625911
 11
100.7845044874
 21
77.9800216452
  0
LINE
  5
764
100
AcDbEntity
  8
Livello_1
100
AcDbLine
 62
7
  6
CONTINUOUS
 10
100.3029526264
 20
77.9555588106
 11
99.6492409626
 21
77.9198387153
  0
LINE
  5
765
100
AcDbEntity
  8
Livello_1
100
AcDbLine
 62
7
  6
CONTINUOUS
 10
116.4707512668
 20
78.8040531892
 11
115.5735238627
 21
78.7551275199
  0
LINE
  5
766
100
AcDbEntity
  8
Livello_1
100
AcDbLine
 62
7
  6
CONTINUOUS
 10
111.6683309918
 20
78.5519126349
 11
110.4908404122
 21
78.487962548
  0
LINE
  5
767
100
AcDbEntity
  8
Livello_1
100
AcDbLine
 62
7
  6
CONTINUOUS
 10
102.7690602114
 20
77.6001735373
 11
101.7589570543
 21
77.5454692464
  0
LINE
  5
768
100
AcDbEntity
  8
Livello_1
100
AcDbLine
 62
7
  6
CONTINUOUS
 10
121.210955042
 20
79.0504151213
 11
120.620379855
 21
79.0184400778
  0
LINE
  5
769
100
AcDbEntity
  8
Livello_1
100
AcDbLine
 62
7
  6
CONTINUOUS
 10
104.1811960194
 20
78.157894179
 11
103.9559892075
 21
78.1456754854
  0
LINE
  5
76A
100
AcDbEntity
  8
Livello_1
100
AcDbLine
 62
7
  6
CONTINUOUS
 10
105.9931461475
 20
78.2546988265
 11
104.9474081531
 21
78.1982609484
  0
LINE
  5
76B
100
AcDbEntity
  8
Livello_1
100
AcDbLine
 62
7
  6
CONTINUOUS
 10
93.9017644734
 20
77.6207839574
 11
93.4841782798
 21
77.5982473303
  0
LINE
  5
76C
100
AcDbEntity
  8
Livello_1
100
AcDbLine
 62
7
  6
CONTINUOUS
 10
97.942177103
 20
77.8315110512
 11
97.2443121643
 21
77.7939500064
  0
LINE
  5
76D
100
AcDbEntity
  8
Livello_1
100
AcDbLine
 62
7
  6
CONTINUOUS
 10
100.788356902
 20
77.4984697847
 11
99.8439216629
 21
77.4478105287
  0
LINE
  5
76E
100
AcDbEntity
  8
Livello_1
100
AcDbLine
 62
7
  6
CONTINUOUS
 10
123.1541130612
 20
79.1538524606
 11
122.3152497412
 21
79.1087792064
  0
LINE
  5
76F
100
AcDbEntity
  8
Livello_1
100
AcDbLine
 62
7
  6
CONTINUOUS
 10
122.3152497412
 20
79.1087792064
 11
121.5401438857
 21
79.0673657465
  0
LINE
  5
770
100
AcDbEntity
  8
Livello_1
100
AcDbLine
 62
7
  6
CONTINUOUS
 10
106.0045266566
 20
78.2546988265
 11
104.8815477175
 21
78.1946011541
  0
LINE
  5
771
100
AcDbEntity
  8
Livello_1
100
AcDbLine
 62
7
  6
CONTINUOUS
 10
96.700736438
 20
77.7656347566
 11
96.0311867475
 21
77.7298072986
  0
LINE
  5
772
100
AcDbEntity
  8
Livello_1
100
AcDbLine
 62
7
  6
CONTINUOUS
 10
94.6880579317
 20
77.1806455568
 11
94.1575648154
 21
77.152330307
  0
LINE
  5
773
100
AcDbEntity
  8
Livello_1
100
AcDbLine
 62
7
  6
CONTINUOUS
 10
123.6639964902
 20
79.1802415028
 11
123.2745010231
 21
79.1594384624
  0
LINE
  5
774
100
AcDbEntity
  8
Livello_1
100
AcDbLine
 62
7
  6
CONTINUOUS
 10
119.0975865992
 20
78.9413368513
 11
118.6396607921
 21
78.9169289455
  0
LINE
  5
775
100
AcDbEntity
  8
Livello_1
100
AcDbLine
 62
7
  6
CONTINUOUS
 10
108.3633443458
 20
78.3789392068
 11
107.1650507258
 21
78.3149891193
  0
LINE
  5
776
100
AcDbEntity
  8
Livello_1
100
AcDbLine
 62
7
  6
CONTINUOUS
 10
95.99535929
 20
77.7298072986
 11
95.4309805238
 21
77.6997584626
  0
LINE
  5
777
100
AcDbEntity
  8
Livello_1
100
AcDbLine
 62
7
  6
CONTINUOUS
 10
100.7845044874
 20
77.9800216452
 11
99.868384497
 21
77.9310959765
  0
LINE
  5
778
100
AcDbEntity
  8
Livello_1
100
AcDbLine
 62
7
  6
CONTINUOUS
 10
121.5401438857
 20
79.0673657465
 11
120.8328405306
 21
79.0298047012
  0
LINE
  5
779
100
AcDbEntity
  8
Livello_1
100
AcDbLine
 62
7
  6
CONTINUOUS
 10
117.2005912478
 20
78.8416142345
 11
116.2789171552
 21
78.7926885652
  0
LINE
  5
77A
100
AcDbEntity
  8
Livello_1
100
AcDbLine
 62
7
  6
CONTINUOUS
 10
113.1825226245
 20
78.6308871402
 11
112.0144704608
 21
78.5688632602
  0
LINE
  5
77B
100
AcDbEntity
  8
Livello_1
100
AcDbLine
 62
7
  6
CONTINUOUS
 10
112.8722106131
 20
78.6158627219
 11
111.6683309918
 21
78.5519126349
  0
LINE
  5
77C
100
AcDbEntity
  8
Livello_1
100
AcDbLine
 62
7
  6
CONTINUOUS
 10
99.0012059283
 20
77.8879489293
 11
98.1848792348
 21
77.8446092619
  0
LINE
  5
77D
100
AcDbEntity
  8
Livello_1
100
AcDbLine
 62
7
  6
CONTINUOUS
 10
98.6853079156
 20
77.8709983041
 11
97.942177103
 21
77.8315110512
  0
LINE
  5
77E
100
AcDbEntity
  8
Livello_1
100
AcDbLine
 62
7
  6
CONTINUOUS
 10
106.0459242302
 20
77.7694871718
 11
104.9059946943
 21
77.709196879
  0
LINE
  5
77F
100
AcDbEntity
  8
Livello_1
100
AcDbLine
 62
7
  6
CONTINUOUS
 10
93.6760129669
 20
77.1297936799
 11
93.3250037546
 21
77.1112197257
  0
LINE
  5
780
100
AcDbEntity
  8
Livello_1
100
AcDbLine
 62
7
  6
CONTINUOUS
 10
121.8504558971
 20
79.0843163723
 11
121.210955042
 21
79.0504151213
  0
LINE
  5
781
100
AcDbEntity
  8
Livello_1
100
AcDbLine
 62
7
  6
CONTINUOUS
 10
103.9559892075
 20
78.1456754854
 11
102.994811718
 21
78.0948236091
  0
LINE
  5
782
100
AcDbEntity
  8
Livello_1
100
AcDbLine
 62
7
  6
CONTINUOUS
 10
107.0691255975
 20
78.3111367047
 11
106.0987052397
 21
78.259780579
  0
LINE
  5
783
100
AcDbEntity
  8
Livello_1
100
AcDbLine
 62
7
  6
CONTINUOUS
 10
99.8439216629
 20
77.4478105287
 11
98.9524728815
 21
77.4008110675
  0
LINE
  5
784
100
AcDbEntity
  8
Livello_1
100
AcDbLine
 62
7
  6
CONTINUOUS
 10
109.3189358339
 20
78.4278648755
 11
108.1751538834
 21
78.3675745828
  0
LINE
  5
785
100
AcDbEntity
  8
Livello_1
100
AcDbLine
 62
7
  6
CONTINUOUS
 10
112.0144704608
 20
78.5688632602
 11
110.6438921265
 21
78.4965352745
  0
LINE
  5
786
100
AcDbEntity
  8
Livello_1
100
AcDbLine
 62
7
  6
CONTINUOUS
 10
102.065609271
 20
78.0478241473
 11
101.1739678687
 21
78.0008246856
  0
LINE
  5
787
100
AcDbEntity
  8
Livello_1
100
AcDbLine
 62
7
  6
CONTINUOUS
 10
119.0362347585
 20
78.4412792946
 11
117.4233343612
 21
78.3564971238
  0
LINE
  5
788
100
AcDbEntity
  8
Livello_1
100
AcDbLine
 62
7
  6
CONTINUOUS
 10
99.6492409626
 20
77.9198387153
 11
99.4715857737
 21
77.9104855564
  0
LINE
  5
789
100
AcDbEntity
  8
Livello_1
100
AcDbLine
 62
7
  6
CONTINUOUS
 10
104.9474081531
 20
78.1982609484
 11
104.1811960194
 21
78.157894179
  0
LINE
  5
78A
100
AcDbEntity
  8
Livello_1
100
AcDbLine
 62
7
  6
CONTINUOUS
 10
113.83513077
 20
78.1710049845
 11
112.307831847
 21
78.0909711939
  0
LINE
  5
78B
100
AcDbEntity
  8
Livello_1
100
AcDbLine
 62
7
  6
CONTINUOUS
 10
111.221884405
 20
78.0368873278
 11
109.7082223479
 21
77.9574850181
  0
LINE
  5
78C
100
AcDbEntity
  8
Livello_1
100
AcDbLine
 62
7
  6
CONTINUOUS
 10
97.2443121643
 20
77.7939500064
 11
96.5972991009
 21
77.7600487553
  0
LINE
  5
78D
100
AcDbEntity
  8
Livello_1
100
AcDbLine
 62
7
  6
CONTINUOUS
 10
120.1877536747
 20
78.9978296577
 11
119.6120102846
 21
78.9675882009
  0
LINE
  5
78E
100
AcDbEntity
  8
Livello_1
100
AcDbLine
 62
7
  6
CONTINUOUS
 10
116.3559654529
 20
78.3016982883
 11
114.9883581684
 21
78.2302359919
  0
LINE
  5
78F
100
AcDbEntity
  8
Livello_1
100
AcDbLine
 62
7
  6
CONTINUOUS
 10
108.4498310576
 20
77.8935349312
 11
107.2272672244
 21
77.8295848442
  0
LINE
  5
790
100
AcDbEntity
  8
Livello_1
100
AcDbLine
 62
7
  6
CONTINUOUS
 10
98.1097571463
 20
77.3593976071
 11
97.3177006661
 21
77.3179841472
  0
LINE
  5
791
100
AcDbEntity
  8
Livello_1
100
AcDbLine
 62
7
  6
CONTINUOUS
 10
92.5680584739
 20
77.0716222151
 11
92.3141843395
 21
77.0583313841
  0
LINE
  5
792
100
AcDbEntity
  8
Livello_1
100
AcDbLine
 62
7
  6
CONTINUOUS
 10
114.3696442414
 20
78.6929110196
 11
113.1825226245
 21
78.6308871402
  0
LINE
  5
793
100
AcDbEntity
  8
Livello_1
100
AcDbLine
 62
7
  6
CONTINUOUS
 10
103.8544871045
 20
78.1411451789
 11
102.7521095862
 21
78.0834589851
  0
LINE
  5
794
100
AcDbEntity
  8
Livello_1
100
AcDbLine
 62
7
  6
CONTINUOUS
 10
122.1571081143
 20
78.6027645113
 11
120.6748915245
 21
78.5255235927
  0
LINE
  5
795
100
AcDbEntity
  8
Livello_1
100
AcDbLine
 62
7
  6
CONTINUOUS
 10
104.8815477175
 20
78.1946011541
 11
103.8544871045
 21
78.1411451789
  0
LINE
  5
796
100
AcDbEntity
  8
Livello_1
100
AcDbLine
 62
7
  6
CONTINUOUS
 10
29.0675807019
 20
74.4304030774
 11
26.3531550252
 21
74.2887893235
  0
LINE
  5
797
100
AcDbEntity
  8
Livello_1
100
AcDbLine
 62
7
  6
CONTINUOUS
 10
95.2674455159
 20
77.2106943927
 11
94.6880579317
 21
77.1806455568
  0
LINE
  5
798
100
AcDbEntity
  8
Livello_1
100
AcDbLine
 62
7
  6
CONTINUOUS
 10
104.9059946943
 20
77.709196879
 11
103.8205768279
 21
77.6527590009
  0
LINE
  5
799
100
AcDbEntity
  8
Livello_1
100
AcDbLine
 62
7
  6
CONTINUOUS
 10
101.1739678687
 20
78.0008246856
 11
100.3029526264
 21
77.9555588106
  0
LINE
  5
79A
100
AcDbEntity
  8
Livello_1
100
AcDbLine
 62
7
  6
CONTINUOUS
 10
107.1650507258
 20
78.3149891193
 11
106.0045266566
 21
78.2546988265
  0
LINE
  5
79B
100
AcDbEntity
  8
Livello_1
100
AcDbLine
 62
7
  6
CONTINUOUS
 10
118.2388170333
 20
78.8941996975
 11
117.5288322144
 21
78.8573274512
  0
LINE
  5
79C
100
AcDbEntity
  8
Livello_1
100
AcDbLine
 62
7
  6
CONTINUOUS
 10
115.5735238627
 20
78.7551275199
 11
114.3696442414
 21
78.6929110196
  0
LINE
  5
79D
100
AcDbEntity
  8
Livello_1
100
AcDbLine
 62
7
  6
CONTINUOUS
 10
109.5972728019
 20
78.4428892938
 11
108.3633443458
 21
78.3789392068
  0
LINE
  5
79E
100
AcDbEntity
  8
Livello_1
100
AcDbLine
 62
7
  6
CONTINUOUS
 10
94.8408868072
 20
77.6711644974
 11
94.3758041131
 21
77.6471729991
  0
LINE
  5
79F
100
AcDbEntity
  8
Livello_1
100
AcDbLine
 62
7
  6
CONTINUOUS
 10
123.6657137451
 20
79.1802415028
 11
123.1541130612
 21
79.1538524606
  0
LINE
  5
7A0
100
AcDbEntity
  8
Livello_1
100
AcDbLine
 62
7
  6
CONTINUOUS
 10
114.9883581684
 20
78.2302359919
 11
113.83513077
 21
78.1710049845
  0
LINE
  5
7A1
100
AcDbEntity
  8
Livello_1
100
AcDbLine
 62
7
  6
CONTINUOUS
 10
117.4233343612
 20
78.3564971238
 11
116.3559654529
 21
78.3016982883
  0
LINE
  5
7A2
100
AcDbEntity
  8
Livello_1
100
AcDbLine
 62
7
  6
CONTINUOUS
 10
120.6748915245
 20
78.5255235927
 11
119.0362347585
 21
78.4412792946
  0
LINE
  5
7A3
100
AcDbEntity
  8
Livello_1
100
AcDbLine
 62
7
  6
CONTINUOUS
 10
98.1848792348
 20
77.8446092619
 11
97.4155676703
 21
77.8051220095
  0
LINE
  5
7A4
100
AcDbEntity
  8
Livello_1
100
AcDbLine
 62
7
  6
CONTINUOUS
 10
92.7993959823
 20
77.560686285
 11
92.6526189788
 21
77.5531740761
  0
LINE
  5
7A5
100
AcDbEntity
  8
Livello_1
100
AcDbLine
 62
7
  6
CONTINUOUS
 10
110.6438921265
 20
78.4965352745
 11
109.5972728019
 21
78.4428892938
  0
LINE
  5
7A6
100
AcDbEntity
  8
Livello_1
100
AcDbLine
 62
7
  6
CONTINUOUS
 10
110.4908404122
 20
78.487962548
 11
109.3189358339
 21
78.4278648755
  0
LINE
  5
7A7
100
AcDbEntity
  8
Livello_1
100
AcDbLine
 62
7
  6
CONTINUOUS
 10
115.3495059423
 20
78.7418366889
 11
114.1024792755
 21
78.6778866019
  0
LINE
  5
7A8
100
AcDbEntity
  8
Livello_1
100
AcDbLine
 62
7
  6
CONTINUOUS
 10
108.1751538834
 20
78.3675745828
 11
107.0691255975
 21
78.3111367047
  0
LINE
  5
7A9
100
AcDbEntity
  8
Livello_1
100
AcDbLine
 62
7
  6
CONTINUOUS
 10
119.6120102846
 20
78.9675882009
 11
119.0984833932
 21
78.9413917796
  0
LINE
  5
7AA
100
AcDbEntity
  8
Livello_1
100
AcDbLine
 62
7
  6
CONTINUOUS
 10
93.3250037546
 20
77.1112197257
 11
93.2470465803
 21
77.1072570528
  0
LINE
  5
7AB
100
AcDbEntity
  8
Livello_1
100
AcDbLine
 62
7
  6
CONTINUOUS
 10
109.7082223479
 20
77.9574850181
 11
108.4498310576
 21
77.8935349312
  0
LINE
  5
7AC
100
AcDbEntity
  8
Livello_1
100
AcDbLine
 62
7
  6
CONTINUOUS
 10
107.2272672244
 20
77.8295848442
 11
106.0459242302
 21
77.7694871718
  0
LINE
  5
7AD
100
AcDbEntity
  8
Livello_1
100
AcDbLine
 62
7
  6
CONTINUOUS
 10
123.2745010231
 20
79.1594384624
 11
122.5352389284
 21
79.1218774171
  0
LINE
  5
7AE
100
AcDbEntity
  8
Livello_1
100
AcDbLine
 62
7
  6
CONTINUOUS
 10
117.3585402545
 20
78.8491264433
 11
116.4707512668
 21
78.8040531892
  0
LINE
  5
7AF
100
AcDbEntity
  8
Livello_1
100
AcDbLine
 62
7
  6
CONTINUOUS
 10
95.8994341617
 20
77.2426694362
 11
95.2674455159
 21
77.2106943927
  0
LINE
  5
7B0
100
AcDbEntity
  8
Livello_1
100
AcDbLine
 62
7
  6
CONTINUOUS
 10
102.994811718
 20
78.0948236091
 11
102.065609271
 21
78.0478241473
  0
LINE
  5
7B1
100
AcDbEntity
  8
Livello_1
100
AcDbLine
 62
7
  6
CONTINUOUS
 10
102.7521095862
 20
78.0834589851
 11
101.8026372031
 21
78.0356625911
  0
LINE
  5
7B2
100
AcDbEntity
  8
Livello_1
100
AcDbLine
 62
7
  6
CONTINUOUS
 10
114.1024792755
 20
78.6778866019
 11
112.8722106131
 21
78.6158627219
  0
LINE
  5
7B3
100
AcDbEntity
  8
Livello_1
100
AcDbLine
 62
7
  6
CONTINUOUS
 10
96.5747624743
 20
77.2765706873
 11
95.8994341617
 21
77.2426694362
  0
LINE
  5
7B4
100
AcDbEntity
  8
Livello_1
100
AcDbLine
 62
7
  6
CONTINUOUS
 10
96.5972991009
 20
77.7600487553
 11
95.99535929
 21
77.7298072986
  0
LINE
  5
7B5
100
AcDbEntity
  8
Livello_1
100
AcDbLine
 62
7
  6
CONTINUOUS
 10
99.6021330914
 20
77.9180883404
 11
99.0012059283
 21
77.8879489293
  0
LINE
  5
7B6
100
AcDbEntity
  8
Livello_1
100
AcDbLine
 62
7
  6
CONTINUOUS
 10
99.4715857737
 20
77.9104855564
 11
98.6853079156
 21
77.8709983041
  0
LINE
  5
7B7
100
AcDbEntity
  8
Livello_1
100
AcDbLine
 62
7
  6
CONTINUOUS
 10
103.8205768279
 20
77.6527590009
 11
102.7690602114
 21
77.6001735373
  0
LINE
  5
7B8
100
AcDbEntity
  8
Livello_1
100
AcDbLine
 62
7
  6
CONTINUOUS
 10
118.1147692772
 20
78.8866874887
 11
117.3353622265
 21
78.8477817567
  0
LINE
  5
7B9
100
AcDbEntity
  8
Livello_1
100
AcDbLine
 62
7
  6
CONTINUOUS
 10
112.307831847
 20
78.0909711939
 11
111.221884405
 21
78.0368873278
  0
LINE
  5
7BA
100
AcDbEntity
  8
Livello_1
100
AcDbLine
 62
7
  6
CONTINUOUS
 10
123.6639964902
 20
78.6778866019
 11
122.1571081143
 21
78.6027645113
  0
LINE
  5
7BB
100
AcDbEntity
  8
Livello_1
100
AcDbLine
 62
7
  6
CONTINUOUS
 10
120.8328405306
 20
79.0298047012
 11
120.1877536747
 21
78.9978296577
  0
LINE
  5
7BC
100
AcDbEntity
  8
Livello_1
100
AcDbLine
 62
7
  6
CONTINUOUS
 10
92.7862977716
 20
77.5624198717
 11
92.7656742473
 21
77.5614042853
  0
LINE
  5
7BD
100
AcDbEntity
  8
Livello_1
100
AcDbLine
 62
7
  6
CONTINUOUS
 10
92.8164604199
 20
77.5642305165
 11
92.7989451395
 21
77.5633679995
  0
LINE
  5
7BE
100
AcDbEntity
  8
Livello_1
100
AcDbLine
 62
7
  6
CONTINUOUS
 10
26.9664870156
 20
74.8349066402
 11
26.7876409678
 21
74.8260846605
  0
LINE
  5
7BF
100
AcDbEntity
  8
Livello_1
100
AcDbLine
 62
7
  6
CONTINUOUS
 10
98.9524728815
 20
77.4008110675
 11
98.1097571463
 21
77.3593976071
  0
LINE
  5
7C0
100
AcDbEntity
  8
Livello_1
100
AcDbLine
 62
7
  6
CONTINUOUS
 10
92.8393745446
 20
77.565320551
 11
92.8216931325
 21
77.5644541448
  0
LINE
  5
7C1
100
AcDbEntity
  8
Livello_1
100
AcDbLine
 62
7
  6
CONTINUOUS
 10
99.868384497
 20
77.9310959765
 11
99.6021330914
 21
77.9180883404
  0
LINE
  5
7C2
100
AcDbEntity
  8
Livello_1
100
AcDbLine
 62
7
  6
CONTINUOUS
 10
101.7589570543
 20
77.5454692464
 11
100.788356902
 21
77.4984697847
  0
LINE
  5
7C3
100
AcDbEntity
  8
Livello_1
100
AcDbLine
 62
7
  6
CONTINUOUS
 10
120.620379855
 20
79.0184400778
 11
120.0748779212
 21
78.9920510356
  0
LINE
  5
7C4
100
AcDbEntity
  8
Livello_1
100
AcDbLine
 62
7
  6
CONTINUOUS
 10
92.8802966929
 20
77.0866466333
 11
92.5680584739
 21
77.0716222151
  0
LINE
  5
7C5
100
AcDbEntity
  8
Livello_1
100
AcDbLine
 62
7
  6
CONTINUOUS
 10
92.9732294316
 20
77.5716113304
 11
92.9572924692
 21
77.5708443375
  0
LINE
  5
7C6
100
AcDbEntity
  8
Livello_1
100
AcDbLine
 62
7
  6
CONTINUOUS
 10
106.0987052397
 20
78.259780579
 11
105.9931461475
 21
78.2546988265
  0
LINE
  5
7C7
100
AcDbEntity
  8
Livello_1
100
AcDbLine
 62
7
  6
CONTINUOUS
 10
117.5288322144
 20
78.8573274512
 11
117.3585402545
 21
78.8491264433
  0
LINE
  5
7C8
100
AcDbEntity
  8
Livello_1
100
AcDbLine
 62
7
  6
CONTINUOUS
 10
119.6044980758
 20
78.9658546142
 11
119.1718718949
 21
78.9450515738
  0
LINE
  5
7C9
100
AcDbEntity
  8
Livello_1
100
AcDbLine
 62
7
  6
CONTINUOUS
 10
118.7825853805
 20
78.9225149467
 11
118.4289337032
 21
78.9055643215
  0
LINE
  5
7CA
100
AcDbEntity
  8
Livello_1
100
AcDbLine
 62
7
  6
CONTINUOUS
 10
95.4309805238
 20
77.6997584626
 11
94.9099414235
 21
77.675295628
  0
LINE
  5
7CB
100
AcDbEntity
  8
Livello_1
100
AcDbLine
 62
7
  6
CONTINUOUS
 10
94.1575648154
 20
77.152330307
 11
93.6760129669
 21
77.1297936799
  0
LINE
  5
7CC
100
AcDbEntity
  8
Livello_1
100
AcDbLine
 62
7
  6
CONTINUOUS
 10
92.671057266
 20
77.5578727022
 11
92.6541231101
 21
77.5570827534
  0
LINE
  5
7CD
100
AcDbEntity
  8
Livello_1
100
AcDbLine
 62
7
  6
CONTINUOUS
 10
92.624190674
 20
77.5565869121
 11
92.6079499632
 21
77.5558355139
  0
LINE
  5
7CE
100
AcDbEntity
  8
Livello_1
100
AcDbLine
 62
7
  6
CONTINUOUS
 10
117.3353622265
 20
78.8477817567
 11
117.2005912478
 21
78.8416142345
  0
LINE
  5
7CF
100
AcDbEntity
  8
Livello_1
100
AcDbLine
 62
7
  6
CONTINUOUS
 10
26.7876409678
 20
74.8260846605
 11
23.9793112502
 21
74.6975680498
  0
LINE
  5
7D0
100
AcDbEntity
  8
Livello_1
100
AcDbLine
 62
7
  6
CONTINUOUS
 10
93.0444000797
 20
77.5754618197
 11
93.0269709343
 21
77.5747052945
  0
LINE
  5
7D1
100
AcDbEntity
  8
Livello_1
100
AcDbLine
 62
7
  6
CONTINUOUS
 10
26.3531550252
 20
74.2887893235
 11
24.3218041968
 21
74.2009917711
  0
LINE
  5
7D2
100
AcDbEntity
  8
Livello_1
100
AcDbLine
 62
7
  6
CONTINUOUS
 10
92.4941317331
 20
77.5502162906
 11
92.4794942164
 21
77.5495855986
  0
LINE
  5
7D3
100
AcDbEntity
  8
Livello_1
100
AcDbLine
 62
7
  6
CONTINUOUS
 10
92.8216931325
 20
77.5644541448
 11
92.8164604199
 21
77.5642305165
  0
LINE
  5
7D4
100
AcDbEntity
  8
Livello_1
100
AcDbLine
 62
7
  6
CONTINUOUS
 10
92.1184972029
 20
77.047159381
 11
91.977483287
 21
77.0413807583
  0
LINE
  5
7D5
100
AcDbEntity
  8
Livello_1
100
AcDbLine
 62
7
  6
CONTINUOUS
 10
92.5365212738
 20
77.552869227
 11
92.521299652
 21
77.5522489649
  0
LINE
  5
7D6
100
AcDbEntity
  8
Livello_1
100
AcDbLine
 62
7
  6
CONTINUOUS
 10
23.9793112502
 20
74.6975680498
 11
21.3007272481
 21
74.59413071
  0
LINE
  5
7D7
100
AcDbEntity
  8
Livello_1
100
AcDbLine
 62
7
  6
CONTINUOUS
 10
24.3218041968
 20
74.2009917711
 11
21.5395769653
 21
74.0956282242
  0
LINE
  5
7D8
100
AcDbEntity
  8
Livello_1
100
AcDbLine
 62
7
  6
CONTINUOUS
 10
92.8862846777
 20
77.5679433547
 11
92.8688852599
 21
77.5673362804
  0
LINE
  5
7D9
100
AcDbEntity
  8
Livello_1
100
AcDbLine
 62
7
  6
CONTINUOUS
 10
92.5266450151
 20
77.5454692464
 11
92.4757931399
 21
77.5437356597
  0
LINE
  5
7DA
100
AcDbEntity
  8
Livello_1
100
AcDbLine
 62
7
  6
CONTINUOUS
 10
93.128584826
 20
77.5774442899
 11
92.9573449884
 21
77.5718582881
  0
LINE
  5
7DB
100
AcDbEntity
  8
Livello_1
100
AcDbLine
 62
7
  6
CONTINUOUS
 10
21.5395769653
 20
74.0956282242
 11
20.7472195344
 21
74.0699335209
  0
LINE
  5
7DC
100
AcDbEntity
  8
Livello_1
100
AcDbLine
 62
7
  6
CONTINUOUS
 10
19.8994113689
 20
74.5507910425
 11
18.4678540341
 21
74.5057177883
  0
LINE
  5
7DD
100
AcDbEntity
  8
Livello_1
100
AcDbLine
 62
7
  6
CONTINUOUS
 10
21.3007272481
 20
74.59413071
 11
19.8994113689
 21
74.5507910425
  0
LINE
  5
7DE
100
AcDbEntity
  8
Livello_1
100
AcDbLine
 62
7
  6
CONTINUOUS
 10
20.7472195344
 20
74.0699335209
 11
18.6408274578
 21
74.0072153026
  0
LINE
  5
7DF
100
AcDbEntity
  8
Livello_1
100
AcDbLine
 62
7
  6
CONTINUOUS
 10
18.4678540341
 20
74.5057177883
 11
16.9987356545
 21
74.4643043284
  0
LINE
  5
7E0
100
AcDbEntity
  8
Livello_1
100
AcDbLine
 62
7
  6
CONTINUOUS
 10
18.6408274578
 20
74.0072153026
 11
15.6538707053
 21
73.9282407973
  0
LINE
  5
7E1
100
AcDbEntity
  8
Livello_1
100
AcDbLine
 62
7
  6
CONTINUOUS
 10
92.7656742473
 20
77.5614042853
 11
92.7447579614
 21
77.5608624212
  0
LINE
  5
7E2
100
AcDbEntity
  8
Livello_1
100
AcDbLine
 62
7
  6
CONTINUOUS
 10
92.4407900195
 20
77.5492732511
 11
92.4281383944
 21
77.54896743
  0
LINE
  5
7E3
100
AcDbEntity
  8
Livello_1
100
AcDbLine
 62
7
  6
CONTINUOUS
 10
16.9987356545
 20
74.4643043284
 11
15.49956844
 21
74.4284768698
  0
LINE
  5
7E4
100
AcDbEntity
  8
Livello_1
100
AcDbLine
 62
7
  6
CONTINUOUS
 10
15.49956844
 20
74.4284768698
 11
12.4184070929
 21
74.3645267828
  0
LINE
  5
7E5
100
AcDbEntity
  8
Livello_1
100
AcDbLine
 62
7
  6
CONTINUOUS
 10
15.6538707053
 20
73.9282407973
 11
12.6064049344
 21
73.866024297
  0
LINE
  5
7E6
100
AcDbEntity
  8
Livello_1
100
AcDbLine
 62
7
  6
CONTINUOUS
 10
92.9875864446
 20
77.5718582881
 11
92.9732294316
 21
77.5716113304
  0
LINE
  5
7E7
100
AcDbEntity
  8
Livello_1
100
AcDbLine
 62
7
  6
CONTINUOUS
 10
92.6541231101
 20
77.5570827534
 11
92.624190674
 21
77.5565869121
  0
LINE
  5
7E8
100
AcDbEntity
  8
Livello_1
100
AcDbLine
 62
7
  6
CONTINUOUS
 10
12.4184070929
 20
74.3645267828
 11
10.7874872921
 21
74.3383303615
  0
LINE
  5
7E9
100
AcDbEntity
  8
Livello_1
100
AcDbLine
 62
7
  6
CONTINUOUS
 10
12.6064049344
 20
73.866024297
 11
10.2570097759
 21
73.8284632517
  0
LINE
  5
7EA
100
AcDbEntity
  8
Livello_1
100
AcDbLine
 62
7
  6
CONTINUOUS
 10
92.4794942164
 20
77.5495855986
 11
92.4636206427
 21
77.5493366594
  0
LINE
  5
7EB
100
AcDbEntity
  8
Livello_1
100
AcDbLine
 62
7
  6
CONTINUOUS
 10
93.0609749464
 20
77.5757107032
 11
93.0444000797
 21
77.5754618197
  0
LINE
  5
7EC
100
AcDbEntity
  8
Livello_1
100
AcDbLine
 62
7
  6
CONTINUOUS
 10
92.5551480273
 20
77.5531435514
 11
92.5365212738
 21
77.552869227
  0
LINE
  5
7ED
100
AcDbEntity
  8
Livello_1
100
AcDbLine
 62
7
  6
CONTINUOUS
 10
10.7874872921
 20
74.3383303615
 11
6.9566175725
 21
74.286365612
  0
LINE
  5
7EE
100
AcDbEntity
  8
Livello_1
100
AcDbLine
 62
7
  6
CONTINUOUS
 10
9.0700936669
 20
73.8134388335
 11
7.8737133675
 21
73.7984144158
  0
LINE
  5
7EF
100
AcDbEntity
  8
Livello_1
100
AcDbLine
 62
7
  6
CONTINUOUS
 10
10.2570097759
 20
73.8284632517
 11
9.0700936669
 21
73.8134388335
  0
LINE
  5
7F0
100
AcDbEntity
  8
Livello_1
100
AcDbLine
 62
7
  6
CONTINUOUS
 10
92.9068993916
 20
77.5681812164
 11
92.8862846777
 21
77.5679433547
  0
LINE
  5
7F1
100
AcDbEntity
  8
Livello_1
100
AcDbLine
 62
7
  6
CONTINUOUS
 10
6.9566175725
 20
74.286365612
 11
6.0095298518
 21
74.2761138612
  0
LINE
  5
7F2
100
AcDbEntity
  8
Livello_1
100
AcDbLine
 62
7
  6
CONTINUOUS
 10
92.7447579614
 20
77.5608624212
 11
92.7203551864
 21
77.5606899875
  0
LINE
  5
7F3
100
AcDbEntity
  8
Livello_1
100
AcDbLine
 62
7
  6
CONTINUOUS
 10
92.4636206427
 20
77.5493366594
 11
92.4407900195
 21
77.5492732511
  0
LINE
  5
7F4
100
AcDbEntity
  8
Livello_1
100
AcDbLine
 62
7
  6
CONTINUOUS
 10
92.571910889
 20
77.5531740761
 11
92.5551480273
 21
77.5531435514
  0
LINE
  5
7F5
100
AcDbEntity
  8
Livello_1
100
AcDbLine
 62
7
  6
CONTINUOUS
 10
92.9217257065
 20
77.5681984938
 11
92.9068993916
 21
77.5681812164
  0
LINE
  5
7F6
100
AcDbEntity
  8
Livello_1
100
AcDbLine
 62
7
  6
CONTINUOUS
 10
92.7203551864
 20
77.5606899875
 11
92.7109830629
 21
77.560686285
  0
LINE
  5
7F7
100
AcDbEntity
  8
Livello_1
100
AcDbLine
 62
7
  6
CONTINUOUS
 10
-39.0795180661
 20
75.8469360306
 11
37.9086800191
 21
75.8469360306
  0
LINE
  5
7F8
100
AcDbEntity
  8
Livello_1
100
AcDbLine
 62
7
  6
CONTINUOUS
 10
91.8927301618
 20
77.035794757
 11
91.8815736878
 21
77.035794757
  0
LINE
  5
7F9
100
AcDbEntity
  8
Livello_1
100
AcDbLine
 62
7
  6
CONTINUOUS
 10
91.8939411002
 20
77.0357949012
 11
91.8927301618
 21
77.035794757
  0
LINE
  5
7FA
100
AcDbEntity
  8
Livello_1
100
AcDbLine
 62
7
  6
CONTINUOUS
 10
92.4101094678
 20
77.5473954535
 11
92.3912326356
 21
77.5473954535
  0
LINE
  5
7FB
100
AcDbEntity
  8
Livello_1
100
AcDbLine
 62
7
  6
CONTINUOUS
 10
96.0311867475
 20
77.7298072986
 11
96.0103837077
 21
77.7298072986
  0
LINE
  5
7FC
100
AcDbEntity
  8
Livello_1
100
AcDbLine
 62
7
  6
CONTINUOUS
 10
135.0029852238
 20
77.8935349312
 11
134.7113574243
 21
77.8935349312
  0
LINE
  5
7FD
100
AcDbEntity
  8
Livello_1
100
AcDbLine
 62
7
  6
CONTINUOUS
 10
134.8478538109
 20
77.5399769478
 11
135.0010590167
 21
77.5398832446
  0
LINE
  5
7FE
100
AcDbEntity
  8
Livello_1
100
AcDbLine
 62
7
  6
CONTINUOUS
 10
134.805987287
 20
77.5402186535
 11
134.8478538109
 21
77.5399769478
  0
LINE
  5
7FF
100
AcDbEntity
  8
Livello_1
100
AcDbLine
 62
7
  6
CONTINUOUS
 10
134.7693514496
 20
77.5406134592
 11
134.805987287
 21
77.5402186535
  0
LINE
  5
800
100
AcDbEntity
  8
Livello_1
100
AcDbLine
 62
7
  6
CONTINUOUS
 10
134.7373112756
 20
77.5411492953
 11
134.7693514496
 21
77.5406134592
  0
LINE
  5
801
100
AcDbEntity
  8
Livello_1
100
AcDbLine
 62
7
  6
CONTINUOUS
 10
134.7094312173
 20
77.5418094522
 11
134.7373112756
 21
77.5411492953
  0
LINE
  5
802
100
AcDbEntity
  8
Livello_1
100
AcDbLine
 62
7
  6
CONTINUOUS
 10
123.6620702826
 20
78.4729381297
 11
134.7113574243
 21
77.8935349312
  0
LINE
  5
803
100
AcDbEntity
  8
Livello_1
100
AcDbLine
 62
7
  6
CONTINUOUS
 10
123.6639964902
 20
78.9883912413
 11
134.7113574243
 21
78.4070618352
  0
LINE
  5
804
100
AcDbEntity
  8
Livello_1
100
AcDbLine
 62
7
  6
CONTINUOUS
 10
134.7213381388
 20
78.4064429272
 11
134.7113574243
 21
78.4070618352
  0
LINE
  5
805
100
AcDbEntity
  8
Livello_1
100
AcDbLine
 62
7
  6
CONTINUOUS
 10
134.7312286927
 20
78.4055093922
 11
134.7213381388
 21
78.4064429272
  0
LINE
  5
806
100
AcDbEntity
  8
Livello_1
100
AcDbLine
 62
7
  6
CONTINUOUS
 10
134.7410241258
 20
78.4042662205
 11
134.7312286927
 21
78.4055093922
  0
LINE
  5
807
100
AcDbEntity
  8
Livello_1
100
AcDbLine
 62
7
  6
CONTINUOUS
 10
134.7507194773
 20
78.4027184028
 11
134.7410241258
 21
78.4042662205
  0
LINE
  5
808
100
AcDbEntity
  8
Livello_1
100
AcDbLine
 62
7
  6
CONTINUOUS
 10
134.7603097859
 20
78.400870929
 11
134.7507194773
 21
78.4027184028
  0
LINE
  5
809
100
AcDbEntity
  8
Livello_1
100
AcDbLine
 62
7
  6
CONTINUOUS
 10
134.7697900912
 20
78.3987287897
 11
134.7603097859
 21
78.400870929
  0
LINE
  5
80A
100
AcDbEntity
  8
Livello_1
100
AcDbLine
 62
7
  6
CONTINUOUS
 10
134.7791554322
 20
78.3962969749
 11
134.7697900912
 21
78.3987287897
  0
LINE
  5
80B
100
AcDbEntity
  8
Livello_1
100
AcDbLine
 62
7
  6
CONTINUOUS
 10
134.7884008477
 20
78.3935804756
 11
134.7791554322
 21
78.3962969749
  0
LINE
  5
80C
100
AcDbEntity
  8
Livello_1
100
AcDbLine
 62
7
  6
CONTINUOUS
 10
134.7975213773
 20
78.3905842814
 11
134.7884008477
 21
78.3935804756
  0
LINE
  5
80D
100
AcDbEntity
  8
Livello_1
100
AcDbLine
 62
7
  6
CONTINUOUS
 10
134.8065120598
 20
78.3873133833
 11
134.7975213773
 21
78.3905842814
  0
LINE
  5
80E
100
AcDbEntity
  8
Livello_1
100
AcDbLine
 62
7
  6
CONTINUOUS
 10
152.1882074599
 20
69.7890060895
 11
152.1826363495
 21
69.7919064275
  0
LINE
  5
80F
100
AcDbEntity
  8
Livello_1
100
AcDbLine
 62
7
  6
CONTINUOUS
 10
152.2026598563
 20
69.7800534061
 11
152.190770828
 21
69.7862811336
  0
LINE
  5
810
100
AcDbEntity
  8
Livello_1
100
AcDbLine
 62
7
  6
CONTINUOUS
 10
152.1776425026
 20
69.7947214125
 11
152.1724984955
 21
69.7974749013
  0
LINE
  5
811
100
AcDbEntity
  8
Livello_1
100
AcDbLine
 62
7
  6
CONTINUOUS
 10
152.1934549799
 20
69.7861356854
 11
152.1882074599
 21
69.7890060895
  0
LINE
  5
812
100
AcDbEntity
  8
Livello_1
100
AcDbLine
 62
7
  6
CONTINUOUS
 10
152.1826363495
 20
69.7919064275
 11
152.1776425026
 21
69.7947214125
  0
LINE
  5
813
100
AcDbEntity
  8
Livello_1
100
AcDbLine
 62
7
  6
CONTINUOUS
 10
152.2137221121
 20
69.7737841188
 11
152.2026598563
 21
69.7800534061
  0
LINE
  5
814
100
AcDbEntity
  8
Livello_1
100
AcDbLine
 62
7
  6
CONTINUOUS
 10
152.1960265682
 20
69.7846745656
 11
152.1934549799
 21
69.7861356854
  0
LINE
  5
815
100
AcDbEntity
  8
Livello_1
100
AcDbLine
 62
7
  6
CONTINUOUS
 10
152.1985815551
 20
69.7831857319
 11
152.1960265682
 21
69.7846745656
  0
LINE
  5
816
100
AcDbEntity
  8
Livello_1
100
AcDbLine
 62
7
  6
CONTINUOUS
 10
152.2036903035
 20
69.7800968003
 11
152.1985815551
 21
69.7831857319
  0
LINE
  5
817
100
AcDbEntity
  8
Livello_1
100
AcDbLine
 62
7
  6
CONTINUOUS
 10
152.2240498083
 20
69.7674435929
 11
152.2137221121
 21
69.7737841188
  0
LINE
  5
818
100
AcDbEntity
  8
Livello_1
100
AcDbLine
 62
7
  6
CONTINUOUS
 10
152.2089734824
 20
69.7767511511
 11
152.2036903035
 21
69.7800968003
  0
LINE
  5
819
100
AcDbEntity
  8
Livello_1
100
AcDbLine
 62
7
  6
CONTINUOUS
 10
152.226470556
 20
69.7658773953
 11
152.2240498083
 21
69.7674435929
  0
LINE
  5
81A
100
AcDbEntity
  8
Livello_1
100
AcDbLine
 62
7
  6
CONTINUOUS
 10
152.2146113924
 20
69.7730295947
 11
152.2089734824
 21
69.7767511511
  0
LINE
  5
81B
100
AcDbEntity
  8
Livello_1
100
AcDbLine
 62
7
  6
CONTINUOUS
 10
152.2396925153
 20
69.7570102435
 11
152.226470556
 21
69.7658773953
  0
LINE
  5
81C
100
AcDbEntity
  8
Livello_1
100
AcDbLine
 62
7
  6
CONTINUOUS
 10
152.2560248512
 20
69.7447143455
 11
152.2335052777
 21
69.759931384
  0
LINE
  5
81D
100
AcDbEntity
  8
Livello_1
100
AcDbLine
 62
7
  6
CONTINUOUS
 10
152.252521706
 20
69.7478708612
 11
152.2396925153
 21
69.7570102435
  0
LINE
  5
81E
100
AcDbEntity
  8
Livello_1
100
AcDbLine
 62
7
  6
CONTINUOUS
 10
134.8807665468
 20
78.3463370133
 11
134.8731677258
 21
78.3518556843
  0
LINE
  5
81F
100
AcDbEntity
  8
Livello_1
100
AcDbLine
 62
7
  6
CONTINUOUS
 10
152.2649699451
 20
69.7384557857
 11
152.252521706
 21
69.7478708612
  0
LINE
  5
820
100
AcDbEntity
  8
Livello_1
100
AcDbLine
 62
7
  6
CONTINUOUS
 10
134.8881859124
 20
78.3405935407
 11
134.8807665468
 21
78.3463370133
  0
LINE
  5
821
100
AcDbEntity
  8
Livello_1
100
AcDbLine
 62
7
  6
CONTINUOUS
 10
152.2770480408
 20
69.7287611081
 11
152.2649699451
 21
69.7384557857
  0
LINE
  5
822
100
AcDbEntity
  8
Livello_1
100
AcDbLine
 62
7
  6
CONTINUOUS
 10
152.0744613017
 20
69.8280884814
 11
152.0701935094
 21
69.8315236972
  0
LINE
  5
823
100
AcDbEntity
  8
Livello_1
100
AcDbLine
 62
7
  6
CONTINUOUS
 10
134.895420861
 20
78.334630258
 11
134.8881859124
 21
78.3405935407
  0
LINE
  5
824
100
AcDbEntity
  8
Livello_1
100
AcDbLine
 62
7
  6
CONTINUOUS
 10
152.2887658572
 20
69.7187824564
 11
152.2770480408
 21
69.7287611081
  0
LINE
  5
825
100
AcDbEntity
  8
Livello_1
100
AcDbLine
 62
7
  6
CONTINUOUS
 10
134.9024664325
 20
78.3284521552
 11
134.895420861
 21
78.334630258
  0
LINE
  5
826
100
AcDbEntity
  8
Livello_1
100
AcDbLine
 62
7
  6
CONTINUOUS
 10
152.3001323578
 20
69.7085149836
 11
152.2887658572
 21
69.7187824564
  0
LINE
  5
827
100
AcDbEntity
  8
Livello_1
100
AcDbLine
 62
7
  6
CONTINUOUS
 10
134.909317666
 20
78.3220642224
 11
134.9024664325
 21
78.3284521552
  0
LINE
  5
828
100
AcDbEntity
  8
Livello_1
100
AcDbLine
 62
7
  6
CONTINUOUS
 10
152.3111556427
 20
69.6979533614
 11
152.3001323578
 21
69.7085149836
  0
LINE
  5
829
100
AcDbEntity
  8
Livello_1
100
AcDbLine
 62
7
  6
CONTINUOUS
 10
134.9159696003
 20
78.31547145
 11
134.909317666
 21
78.3220642224
  0
LINE
  5
82A
100
AcDbEntity
  8
Livello_1
100
AcDbLine
 62
7
  6
CONTINUOUS
 10
152.3218429814
 20
69.6870917697
 11
152.3111556427
 21
69.6979533614
  0
LINE
  5
82B
100
AcDbEntity
  8
Livello_1
100
AcDbLine
 62
7
  6
CONTINUOUS
 10
134.9224172744
 20
78.3086788282
 11
134.9159696003
 21
78.31547145
  0
LINE
  5
82C
100
AcDbEntity
  8
Livello_1
100
AcDbLine
 62
7
  6
CONTINUOUS
 10
152.3322008321
 20
69.6759238993
 11
152.3218429814
 21
69.6870917697
  0
LINE
  5
82D
100
AcDbEntity
  8
Livello_1
100
AcDbLine
 62
7
  6
CONTINUOUS
 10
134.9286557279
 20
78.3016913479
 11
134.9224172744
 21
78.3086788282
  0
LINE
  5
82E
100
AcDbEntity
  8
Livello_1
100
AcDbLine
 62
7
  6
CONTINUOUS
 10
152.3422348658
 20
69.6644429492
 11
152.3322008321
 21
69.6759238993
  0
LINE
  5
82F
100
AcDbEntity
  8
Livello_1
100
AcDbLine
 62
7
  6
CONTINUOUS
 10
134.9346799995
 20
78.2945139987
 11
134.9286557279
 21
78.3016913479
  0
LINE
  5
830
100
AcDbEntity
  8
Livello_1
100
AcDbLine
 62
7
  6
CONTINUOUS
 10
152.3550532843
 20
69.6488523956
 11
152.3422348658
 21
69.6644429492
  0
LINE
  5
831
100
AcDbEntity
  8
Livello_1
100
AcDbLine
 62
7
  6
CONTINUOUS
 10
134.9404851289
 20
78.2871517716
 11
134.9346799995
 21
78.2945139987
  0
LINE
  5
832
100
AcDbEntity
  8
Livello_1
100
AcDbLine
 62
7
  6
CONTINUOUS
 10
134.9460661549
 20
78.2796096566
 11
134.9404851289
 21
78.2871517716
  0
LINE
  5
833
100
AcDbEntity
  8
Livello_1
100
AcDbLine
 62
7
  6
CONTINUOUS
 10
134.9514181165
 20
78.2718926443
 11
134.9460661549
 21
78.2796096566
  0
LINE
  5
834
100
AcDbEntity
  8
Livello_1
100
AcDbLine
 62
7
  6
CONTINUOUS
 10
134.9565360527
 20
78.2640057246
 11
134.9514181165
 21
78.2718926443
  0
LINE
  5
835
100
AcDbEntity
  8
Livello_1
100
AcDbLine
 62
7
  6
CONTINUOUS
 10
134.9614150034
 20
78.2559538876
 11
134.9565360527
 21
78.2640057246
  0
LINE
  5
836
100
AcDbEntity
  8
Livello_1
100
AcDbLine
 62
7
  6
CONTINUOUS
 10
134.966050007
 20
78.2477421249
 11
134.9614150034
 21
78.2559538876
  0
LINE
  5
837
100
AcDbEntity
  8
Livello_1
100
AcDbLine
 62
7
  6
CONTINUOUS
 10
134.9704361026
 20
78.2393754255
 11
134.966050007
 21
78.2477421249
  0
LWPOLYLINE
  5
838
100
AcDbEntity
  8
0
100
AcDbPolyline
 62
7
  6
CONTINUOUS
 90
10
 70
0
 43
0.3500000006
 10
123.1405886536
 20
92.7026156616
 10
123.2120107727
 20
92.5597532959
 10
123.2120107727
 20
92.4883311768
 10
123.0691574707
 20
92.345468811
 10
122.9977262878
 20
92.345468811
 10
122.9263041687
 20
92.4168999939
 10
122.9263041687
 20
92.4883311768
 10
122.9977262878
 20
92.6311844788
 10
123.0691574707
 20
92.7026156616
 10
123.1405886536
 20
92.7026156616
  0
LINE
  5
839
100
AcDbEntity
  8
Livello_1
100
AcDbLine
 62
7
  6
CONTINUOUS
 10
134.7126385874
 20
78.4044943791
 11
134.7113574243
 21
78.4070618352
  0
LINE
  5
83A
100
AcDbEntity
  8
Livello_1
100
AcDbLine
 62
7
  6
CONTINUOUS
 10
134.9745683301
 20
78.2308587803
 11
134.9704361026
 21
78.2393754255
  0
LINE
  5
83B
100
AcDbEntity
  8
Livello_1
100
AcDbLine
 62
7
  6
CONTINUOUS
 10
134.9784417279
 20
78.22219718
 11
134.9745683301
 21
78.2308587803
  0
LINE
  5
83C
100
AcDbEntity
  8
Livello_1
100
AcDbLine
 62
7
  6
CONTINUOUS
 10
134.982051335
 20
78.213395614
 11
134.9784417279
 21
78.22219718
  0
LINE
  5
83D
100
AcDbEntity
  8
Livello_1
100
AcDbLine
 62
7
  6
CONTINUOUS
 10
134.7137083993
 20
78.4017454582
 11
134.7126385874
 21
78.4044943791
  0
LINE
  5
83E
100
AcDbEntity
  8
Livello_1
100
AcDbLine
 62
7
  6
CONTINUOUS
 10
134.9853921913
 20
78.2044590734
 11
134.982051335
 21
78.213395614
  0
LINE
  5
83F
100
AcDbEntity
  8
Livello_1
100
AcDbLine
 62
7
  6
CONTINUOUS
 10
134.9884593354
 20
78.1953925482
 11
134.9853921913
 21
78.2044590734
  0
LINE
  5
840
100
AcDbEntity
  8
Livello_1
100
AcDbLine
 62
7
  6
CONTINUOUS
 10
134.9912478071
 20
78.1862010289
 11
134.9884593354
 21
78.1953925482
  0
LINE
  5
841
100
AcDbEntity
  8
Livello_1
100
AcDbLine
 62
7
  6
CONTINUOUS
 10
134.9937526444
 20
78.1768895062
 11
134.9912478071
 21
78.1862010289
  0
LINE
  5
842
100
AcDbEntity
  8
Livello_1
100
AcDbLine
 62
7
  6
CONTINUOUS
 10
134.7145012666
 20
78.3986446018
 11
134.7137083993
 21
78.4017454582
  0
LINE
  5
843
100
AcDbEntity
  8
Livello_1
100
AcDbLine
 62
7
  6
CONTINUOUS
 10
151.845463775
 20
-68.0186676616
 11
151.8478615045
 21
-68.0317032611
  0
LINE
  5
844
100
AcDbEntity
  8
Livello_1
100
AcDbLine
 62
7
  6
CONTINUOUS
 10
123.6657137451
 20
79.1482664593
 11
123.6639964902
 21
79.1577048757
  0
LINE
  5
845
100
AcDbEntity
  8
Livello_1
100
AcDbLine
 62
7
  6
CONTINUOUS
 10
151.8428475923
 20
-68.0035335354
 11
151.845463775
 21
-68.0186676616
  0
LINE
  5
846
100
AcDbEntity
  8
Livello_1
100
AcDbLine
 62
7
  6
CONTINUOUS
 10
151.8399620566
 20
-67.985882913
 11
151.8428475923
 21
-68.0035335354
  0
LINE
  5
847
100
AcDbEntity
  8
Livello_1
100
AcDbLine
 62
7
  6
CONTINUOUS
 10
139.4653475714
 20
14.81097743
 11
139.464852031
 21
14.8140936021
  0
LINE
  5
848
100
AcDbEntity
  8
Livello_1
100
AcDbLine
 62
7
  6
CONTINUOUS
 10
151.8367222107
 20
-67.9650675251
 11
151.8399620566
 21
-67.985882913
  0
LINE
  5
849
100
AcDbEntity
  8
Livello_1
100
AcDbLine
 62
7
  6
CONTINUOUS
 10
139.521289908
 20
14.4490772915
 11
139.4925894176
 21
14.6336801975
  0
LINE
  5
84A
100
AcDbEntity
  8
Livello_1
100
AcDbLine
 62
7
  6
CONTINUOUS
 10
151.8535969797
 20
-68.069762038
 11
151.8572999204
 21
-68.0937271405
  0
LINE
  5
84B
100
AcDbEntity
  8
Livello_1
100
AcDbLine
 62
7
  6
CONTINUOUS
 10
139.6039242048
 20
13.8846985112
 11
139.587166201
 21
13.9939144732
  0
LINE
  5
84C
100
AcDbEntity
  8
Livello_1
100
AcDbLine
 62
7
  6
CONTINUOUS
 10
139.4667782386
 20
14.8158271888
 11
139.4515612
 21
14.9156047344
  0
LINE
  5
84D
100
AcDbEntity
  8
Livello_1
100
AcDbLine
 62
7
  6
CONTINUOUS
 10
139.4925894176
 20
14.6336801975
 11
139.4833935609
 21
14.6943334377
  0
LINE
  5
84E
100
AcDbEntity
  8
Livello_1
100
AcDbLine
 62
7
  6
CONTINUOUS
 10
151.8478615045
 20
-68.0317032611
 11
151.8535969797
 21
-68.069762038
  0
LINE
  5
84F
100
AcDbEntity
  8
Livello_1
100
AcDbLine
 62
7
  6
CONTINUOUS
 10
151.535623286
 20
-67.9282659212
 11
139.2974646085
 21
13.9525010128
  0
LINE
  5
850
100
AcDbEntity
  8
Livello_1
100
AcDbLine
 62
7
  6
CONTINUOUS
 10
151.825324878
 20
-67.8868524613
 11
139.587166201
 21
13.9939144732
  0
LINE
  5
851
100
AcDbEntity
  8
Livello_1
100
AcDbLine
 62
7
  6
CONTINUOUS
 10
151.5862995771
 20
-66.3011984946
 11
139.6039242048
 21
13.8846985112
  0
LINE
  5
852
100
AcDbEntity
  8
Livello_1
100
AcDbLine
 62
7
  6
CONTINUOUS
 10
151.8329643714
 20
-67.9399041238
 11
151.8367222107
 21
-67.9650675251
  0
LINE
  5
853
100
AcDbEntity
  8
Livello_1
100
AcDbLine
 62
7
  6
CONTINUOUS
 10
139.2991981952
 20
13.9525010128
 11
139.2316050405
 21
14.4057376241
  0
LINE
  5
854
100
AcDbEntity
  8
Livello_1
100
AcDbLine
 62
7
  6
CONTINUOUS
 10
139.4833935609
 20
14.6943334377
 11
139.4789795586
 21
14.7244737912
  0
LINE
  5
855
100
AcDbEntity
  8
Livello_1
100
AcDbLine
 62
7
  6
CONTINUOUS
 10
139.521289908
 20
14.4490772915
 11
139.587166201
 21
13.9939144732
  0
LINE
  5
856
100
AcDbEntity
  8
Livello_1
100
AcDbLine
 62
7
  6
CONTINUOUS
 10
139.4515612
 20
14.9156047344
 11
139.3161488205
 21
15.8542456213
  0
LINE
  5
857
100
AcDbEntity
  8
Livello_1
100
AcDbLine
 62
7
  6
CONTINUOUS
 10
151.825324878
 20
-67.8868524613
 11
151.8329643714
 21
-67.9399041238
  0
LINE
  5
858
100
AcDbEntity
  8
Livello_1
100
AcDbLine
 62
7
  6
CONTINUOUS
 10
139.2316050405
 20
14.4057376241
 11
139.1901748568
 21
14.6954392236
  0
LINE
  5
859
100
AcDbEntity
  8
Livello_1
100
AcDbLine
 62
7
  6
CONTINUOUS
 10
139.587166201
 20
13.9939144732
 11
139.1223723563
 21
17.257487743
  0
LINE
  5
85A
100
AcDbEntity
  8
Livello_1
100
AcDbLine
 62
7
  6
CONTINUOUS
 10
139.4789795586
 20
14.7244737912
 11
139.4747220608
 21
14.7544837238
  0
LINE
  5
85B
100
AcDbEntity
  8
Livello_1
100
AcDbLine
 62
7
  6
CONTINUOUS
 10
138.7075547492
 20
20.2330185915
 11
139.3161488205
 21
15.8542456213
  0
LINE
  5
85C
100
AcDbEntity
  8
Livello_1
100
AcDbLine
 62
7
  6
CONTINUOUS
 10
138.3932361006
 20
20.3708270811
 11
138.9983246002
 21
16.0029488357
  0
LINE
  5
85D
100
AcDbEntity
  8
Livello_1
100
AcDbLine
 62
7
  6
CONTINUOUS
 10
139.4747220608
 20
14.7544837238
 11
139.470646482
 21
14.7843585552
  0
LINE
  5
85E
100
AcDbEntity
  8
Livello_1
100
AcDbLine
 62
7
  6
CONTINUOUS
 10
139.470646482
 20
14.7843585552
 11
139.4667782386
 21
14.8140936021
  0
LINE
  5
85F
100
AcDbEntity
  8
Livello_1
100
AcDbLine
 62
7
  6
CONTINUOUS
 10
138.145006863
 20
24.6180200068
 11
138.7075547492
 21
20.2330185915
  0
LINE
  5
860
100
AcDbEntity
  8
Livello_1
100
AcDbLine
 62
7
  6
CONTINUOUS
 10
137.8340114133
 20
24.7449464074
 11
138.3932361006
 21
20.3708270811
  0
LINE
  5
861
100
AcDbEntity
  8
Livello_1
100
AcDbLine
 62
7
  6
CONTINUOUS
 10
137.6285464366
 20
29.0087444482
 11
138.145006863
 21
24.6180200068
  0
LINE
  5
862
100
AcDbEntity
  8
Livello_1
100
AcDbLine
 62
7
  6
CONTINUOUS
 10
137.3206745453
 20
29.1248140303
 11
137.8340114133
 21
24.7449464074
  0
LINE
  5
863
100
AcDbEntity
  8
Livello_1
100
AcDbLine
 62
7
  6
CONTINUOUS
 10
151.5508950421
 20
-68.1155621946
 11
151.5487214962
 21
-68.0956533481
  0
LINE
  5
864
100
AcDbEntity
  8
Livello_1
100
AcDbLine
 62
7
  6
CONTINUOUS
 10
151.859496212
 20
-68.1117453412
 11
151.8592965301
 21
-68.1099064759
  0
LINE
  5
865
100
AcDbEntity
  8
Livello_1
100
AcDbLine
 62
7
  6
CONTINUOUS
 10
137.1582147461
 20
33.4046864975
 11
137.6285464366
 21
29.0087444482
  0
LINE
  5
866
100
AcDbEntity
  8
Livello_1
100
AcDbLine
 62
7
  6
CONTINUOUS
 10
136.8532495048
 20
33.509937168
 11
137.3206745453
 21
29.1248140303
  0
LINE
  5
867
100
AcDbEntity
  8
Livello_1
100
AcDbLine
 62
7
  6
CONTINUOUS
 10
151.8596876294
 20
-68.1135858217
 11
151.859496212
 21
-68.1117453412
  0
LINE
  5
868
100
AcDbEntity
  8
Livello_1
100
AcDbLine
 62
7
  6
CONTINUOUS
 10
135.0018486947
 20
78.128706495
 11
135.0008364389
 21
78.1385431821
  0
LINE
  5
869
100
AcDbEntity
  8
Livello_1
100
AcDbLine
 62
7
  6
CONTINUOUS
 10
139.4655047223
 20
14.8094202438
 11
139.4653475714
 21
14.81097743
  0
LINE
  5
86A
100
AcDbEntity
  8
Livello_1
100
AcDbLine
 62
7
  6
CONTINUOUS
 10
151.859869738
 20
-68.1154261122
 11
151.8596876294
 21
-68.1135858217
  0
LINE
  5
86B
100
AcDbEntity
  8
Livello_1
100
AcDbLine
 62
7
  6
CONTINUOUS
 10
151.5687269376
 20
-68.400626791
 11
151.5675983284
 21
-68.3890147414
  0
LINE
  5
86C
100
AcDbEntity
  8
Livello_1
100
AcDbLine
 62
7
  6
CONTINUOUS
 10
136.7340530674
 20
37.8053407352
 11
137.1582147461
 21
33.4046864975
  0
LINE
  5
86D
100
AcDbEntity
  8
Livello_1
100
AcDbLine
 62
7
  6
CONTINUOUS
 10
136.4317602988
 20
37.899823035
 11
136.8532495048
 21
33.509937168
  0
LINE
  5
86E
100
AcDbEntity
  8
Livello_1
100
AcDbLine
 62
7
  6
CONTINUOUS
 10
151.541093784
 20
-67.9861367265
 11
151.535623286
 21
-67.9282659212
  0
LINE
  5
86F
100
AcDbEntity
  8
Livello_1
100
AcDbLine
 62
7
  6
CONTINUOUS
 10
151.860041493
 20
-68.1172644075
 11
151.859869738
 21
-68.1154261122
  0
LINE
  5
870
100
AcDbEntity
  8
Livello_1
100
AcDbLine
 62
7
  6
CONTINUOUS
 10
152.2712699941
 20
-68.3538124644
 11
152.2710492689
 21
-68.3514536966
  0
LINE
  5
871
100
AcDbEntity
  8
Livello_1
100
AcDbLine
 62
7
  6
CONTINUOUS
 10
151.5529430866
 20
-68.1378466113
 11
151.5508950421
 21
-68.1155621946
  0
LINE
  5
872
100
AcDbEntity
  8
Livello_1
100
AcDbLine
 62
7
  6
CONTINUOUS
 10
151.8602018495
 20
-68.1190989037
 11
151.860041493
 21
-68.1172644075
  0
LINE
  5
873
100
AcDbEntity
  8
Livello_1
100
AcDbLine
 62
7
  6
CONTINUOUS
 10
151.5440346345
 20
-68.0200680213
 11
151.541093784
 21
-67.9861367265
  0
LINE
  5
874
100
AcDbEntity
  8
Livello_1
100
AcDbLine
 62
7
  6
CONTINUOUS
 10
136.3561026768
 20
42.2102017424
 11
136.7340530674
 21
37.8053407352
  0
LINE
  5
875
100
AcDbEntity
  8
Livello_1
100
AcDbLine
 62
7
  6
CONTINUOUS
 10
136.0562309343
 20
42.2939788495
 11
136.4317602988
 21
37.899823035
  0
LINE
  5
876
100
AcDbEntity
  8
Livello_1
100
AcDbLine
 62
7
  6
CONTINUOUS
 10
151.5600861196
 20
-68.2310657315
 11
151.5581494171
 21
-68.2074173615
  0
LINE
  5
877
100
AcDbEntity
  8
Livello_1
100
AcDbLine
 62
7
  6
CONTINUOUS
 10
151.8603497624
 20
-68.1209277956
 11
151.8602018495
 21
-68.1190989037
  0
LINE
  5
878
100
AcDbEntity
  8
Livello_1
100
AcDbLine
 62
7
  6
CONTINUOUS
 10
151.5550370978
 20
-68.1645758291
 11
151.5529430866
 21
-68.1378466113
  0
LINE
  5
879
100
AcDbEntity
  8
Livello_1
100
AcDbLine
 62
7
  6
CONTINUOUS
 10
152.2714506737
 20
-68.3561702291
 11
152.2712699941
 21
-68.3538124644
  0
LINE
  5
87A
100
AcDbEntity
  8
Livello_1
100
AcDbLine
 62
7
  6
CONTINUOUS
 10
151.5461751156
 20
-68.0484472325
 11
151.5440346345
 21
-68.0200680213
  0
LINE
  5
87B
100
AcDbEntity
  8
Livello_1
100
AcDbLine
 62
7
  6
CONTINUOUS
 10
136.0244048499
 20
46.6187641002
 11
136.3561026768
 21
42.2102017424
  0
LINE
  5
87C
100
AcDbEntity
  8
Livello_1
100
AcDbLine
 62
7
  6
CONTINUOUS
 10
135.7266854195
 20
46.6919118278
 11
136.0562309343
 21
42.2939788495
  0
LINE
  5
87D
100
AcDbEntity
  8
Livello_1
100
AcDbLine
 62
7
  6
CONTINUOUS
 10
134.7165364771
 20
78.3758654391
 11
134.7159000575
 21
78.3844168947
  0
LINE
  5
87E
100
AcDbEntity
  8
Livello_1
100
AcDbLine
 62
7
  6
CONTINUOUS
 10
151.8604841866
 20
-68.1227492782
 11
151.8603497624
 21
-68.1209277956
  0
LINE
  5
87F
100
AcDbEntity
  8
Livello_1
100
AcDbLine
 62
7
  6
CONTINUOUS
 10
151.5581494171
 20
-68.2074173615
 11
151.5550370978
 21
-68.1645758291
  0
LINE
  5
880
100
AcDbEntity
  8
Livello_1
100
AcDbLine
 62
7
  6
CONTINUOUS
 10
151.5665706806
 20
-68.3397448669
 11
151.5656721214
 21
-68.326990862
  0
LINE
  5
881
100
AcDbEntity
  8
Livello_1
100
AcDbLine
 62
7
  6
CONTINUOUS
 10
135.0025475513
 20
78.1187797455
 11
135.0018486947
 21
78.128706495
  0
LINE
  5
882
100
AcDbEntity
  8
Livello_1
100
AcDbLine
 62
7
  6
CONTINUOUS
 10
134.7188696331
 20
78.3355995393
 11
134.7178580686
 21
78.3505807309
  0
LINE
  5
883
100
AcDbEntity
  8
Livello_1
100
AcDbLine
 62
7
  6
CONTINUOUS
 10
135.7390008625
 20
51.0305223904
 11
136.0244048499
 21
46.6187641002
  0
LINE
  5
884
100
AcDbEntity
  8
Livello_1
100
AcDbLine
 62
7
  6
CONTINUOUS
 10
135.4431477614
 20
51.0931291863
 11
135.7266854195
 21
46.6919118278
  0
LINE
  5
885
100
AcDbEntity
  8
Livello_1
100
AcDbLine
 62
7
  6
CONTINUOUS
 10
139.4656017382
 20
14.8078638319
 11
139.4655047223
 21
14.8094202438
  0
LINE
  5
886
100
AcDbEntity
  8
Livello_1
100
AcDbLine
 62
7
  6
CONTINUOUS
 10
140.647179264
 20
-69.0126548496
 11
140.6477491968
 21
-69.022292818
  0
LINE
  5
887
100
AcDbEntity
  8
Livello_1
100
AcDbLine
 62
7
  6
CONTINUOUS
 10
135.4999319905
 20
55.4449711935
 11
135.7390008625
 21
51.0305223904
  0
LINE
  5
888
100
AcDbEntity
  8
Livello_1
100
AcDbLine
 62
7
  6
CONTINUOUS
 10
135.2056419669
 20
55.4971381414
 11
135.4431477614
 21
51.0931291863
  0
LINE
  5
889
100
AcDbEntity
  8
Livello_1
100
AcDbLine
 62
7
  6
CONTINUOUS
 10
134.7178580686
 20
78.3505807309
 11
134.7165364771
 21
78.3758654391
  0
LINE
  5
88A
100
AcDbEntity
  8
Livello_1
100
AcDbLine
 62
7
  6
CONTINUOUS
 10
135.3072395094
 20
59.8616050906
 11
135.4999319905
 21
55.4449711935
  0
LINE
  5
88B
100
AcDbEntity
  8
Livello_1
100
AcDbLine
 62
7
  6
CONTINUOUS
 10
135.0141920444
 20
59.9034459105
 11
135.2056419669
 21
55.4971381414
  0
LINE
  5
88C
100
AcDbEntity
  8
Livello_1
100
AcDbLine
 62
7
  6
CONTINUOUS
 10
134.7152098394
 20
78.3901112099
 11
134.7150200633
 21
78.3948588694
  0
LINE
  5
88D
100
AcDbEntity
  8
Livello_1
100
AcDbLine
 62
7
  6
CONTINUOUS
 10
135.0029280481
 20
78.1087679253
 11
135.0025475513
 21
78.1187797455
  0
LINE
  5
88E
100
AcDbEntity
  8
Livello_1
100
AcDbLine
 62
7
  6
CONTINUOUS
 10
134.8688220007
 20
64.3115597089
 11
135.0141920444
 21
59.9034459105
  0
LINE
  5
88F
100
AcDbEntity
  8
Livello_1
100
AcDbLine
 62
7
  6
CONTINUOUS
 10
135.1609646956
 20
64.2799186634
 11
135.3072395094
 21
59.8616050906
  0
LINE
  5
890
100
AcDbEntity
  8
Livello_1
100
AcDbLine
 62
7
  6
CONTINUOUS
 10
134.7695558435
 20
68.7209867547
 11
134.8688220007
 21
64.3115597089
  0
LINE
  5
891
100
AcDbEntity
  8
Livello_1
100
AcDbLine
 62
7
  6
CONTINUOUS
 10
135.0611488249
 20
68.6994064925
 11
135.1609646956
 21
64.2799186634
  0
LINE
  5
892
100
AcDbEntity
  8
Livello_1
100
AcDbLine
 62
7
  6
CONTINUOUS
 10
140.6477491968
 20
-69.022292818
 11
140.6479286124
 21
-69.0306344408
  0
LINE
  5
893
100
AcDbEntity
  8
Livello_1
100
AcDbLine
 62
7
  6
CONTINUOUS
 10
134.7164175798
 20
73.1312342637
 11
134.7695558435
 21
68.7209867547
  0
LINE
  5
894
100
AcDbEntity
  8
Livello_1
100
AcDbLine
 62
7
  6
CONTINUOUS
 10
135.0078331736
 20
73.119563159
 11
135.0611488249
 21
68.6994064925
  0
LINE
  5
895
100
AcDbEntity
  8
Livello_1
100
AcDbLine
 62
7
  6
CONTINUOUS
 10
135.0141572269
 20
73.0460412814
 11
135.0029852238
 21
73.9941205842
  0
LINE
  5
896
100
AcDbEntity
  8
Livello_1
100
AcDbLine
 62
7
  6
CONTINUOUS
 10
135.0029852238
 20
78.0986760237
 11
135.0029280481
 21
78.1087679253
  0
LINE
  5
897
100
AcDbEntity
  8
Livello_1
100
AcDbLine
 62
7
  6
CONTINUOUS
 10
139.4656161977
 20
14.8047537577
 11
139.4656017382
 21
14.8078638319
  0
LINE
  5
898
100
AcDbEntity
  8
Livello_1
100
AcDbLine
 62
7
  6
CONTINUOUS
 10
135.0124236402
 20
73.1947444957
 11
134.9991328092
 21
76.6952412811
  0
LINE
  5
899
100
AcDbEntity
  8
Livello_1
100
AcDbLine
 62
7
  6
CONTINUOUS
 10
134.7094312173
 20
77.5418094522
 11
134.7164175798
 21
73.1312342637
  0
LINE
  5
89A
100
AcDbEntity
  8
Livello_1
100
AcDbLine
 62
7
  6
CONTINUOUS
 10
135.0010590167
 20
77.5398832446
 11
135.0078331736
 21
73.119563159
  0
LINE
  5
89B
100
AcDbEntity
  8
Livello_1
100
AcDbLine
 62
7
  6
CONTINUOUS
 10
135.0029852238
 20
78.0986760237
 11
135.0029852238
 21
77.8935349312
  0
LINE
  5
89C
100
AcDbEntity
  8
Livello_1
100
AcDbLine
 62
7
  6
CONTINUOUS
 10
134.7188051868
 20
78.2220362491
 11
134.7188696331
 21
78.3355995393
  0
LINE
  5
89D
100
AcDbEntity
  8
Livello_1
100
AcDbLine
 62
7
  6
CONTINUOUS
 10
134.7169093506
 20
78.1156743616
 11
134.7169434261
 21
78.1474090721
  0
LINE
  5
89E
100
AcDbEntity
  8
Livello_1
100
AcDbLine
 62
7
  6
CONTINUOUS
 10
135.0029852238
 20
77.8935349312
 11
135.0010590167
 21
77.537957037
  0
LINE
  5
89F
100
AcDbEntity
  8
Livello_1
100
AcDbLine
 62
7
  6
CONTINUOUS
 10
134.7113574243
 20
77.8935349312
 11
134.7094312173
 21
77.5418094522
  0
LINE
  5
8A0
100
AcDbEntity
  8
Livello_1
100
AcDbLine
 62
7
  6
CONTINUOUS
 10
134.7166625659
 20
78.0830180141
 11
134.7169093506
 21
78.1156743616
  0
LINE
  5
8A1
100
AcDbEntity
  8
Livello_1
100
AcDbLine
 62
7
  6
CONTINUOUS
 10
134.7184942059
 20
78.1951730865
 11
134.7188051868
 21
78.2220362491
  0
LINE
  5
8A2
100
AcDbEntity
  8
Livello_1
100
AcDbLine
 62
7
  6
CONTINUOUS
 10
134.7161137686
 20
78.0537668498
 11
134.7166625659
 21
78.0830180141
  0
LINE
  5
8A3
100
AcDbEntity
  8
Livello_1
100
AcDbLine
 62
7
  6
CONTINUOUS
 10
134.7122530094
 20
77.917741919
 11
134.7143142543
 21
78.0010805324
  0
LINE
  5
8A4
100
AcDbEntity
  8
Livello_1
100
AcDbLine
 62
7
  6
CONTINUOUS
 10
134.7178800156
 20
78.1706145781
 11
134.7184942059
 21
78.1951730865
  0
LINE
  5
8A5
100
AcDbEntity
  8
Livello_1
100
AcDbLine
 62
7
  6
CONTINUOUS
 10
134.7152098394
 20
78.0252875203
 11
134.7161137686
 21
78.0537668498
  0
LINE
  5
8A6
100
AcDbEntity
  8
Livello_1
100
AcDbLine
 62
7
  6
CONTINUOUS
 10
134.7143142543
 20
78.0010805324
 11
134.7152098394
 21
78.0252875203
  0
LINE
  5
8A7
100
AcDbEntity
  8
Livello_1
100
AcDbLine
 62
7
  6
CONTINUOUS
 10
134.7113574243
 20
77.8935349312
 11
134.7122530094
 21
77.917741919
  0
LINE
  5
8A8
100
AcDbEntity
  8
Livello_1
100
AcDbLine
 62
7
  6
CONTINUOUS
 10
134.7169434261
 20
78.1474090721
 11
134.7178800156
 21
78.1706145781
  0
LINE
  5
8A9
100
AcDbEntity
  8
Livello_1
100
AcDbLine
 62
7
  6
CONTINUOUS
 10
38.3687865549
 20
-68.3846774855
 11
38.3627073622
 21
-68.3961011748
  0
LINE
  5
8AA
100
AcDbEntity
  8
Livello_1
100
AcDbLine
 62
7
  6
CONTINUOUS
 10
38.3627073622
 20
-68.3961011748
 11
38.3544169979
 21
-68.4106396646
  0
LWPOLYLINE
  5
8AB
100
AcDbEntity
  8
0
100
AcDbPolyline
 62
7
  6
CONTINUOUS
 90
10
 70
0
 43
0.3500000006
 10
118.8548717651
 20
95.2026164246
 10
118.2120183105
 20
94.5597539063
 10
117.7834402771
 20
93.7026159668
 10
117.7834402771
 20
92.6311844788
 10
118.2120183105
 20
92.202615509
 10
118.8548717651
 20
92.202615509
 10
119.2834407349
 20
92.6311844788
 10
119.2834407349
 20
93.4883314819
 10
118.8548717651
 20
93.9169004517
 10
117.9263026428
 20
93.9169004517
  0
LINE
  5
8AC
100
AcDbEntity
  8
Livello_1
100
AcDbLine
 62
7
  6
CONTINUOUS
 10
-32.8493928714
 20
-56.5798256452
 11
-32.8757819126
 21
-56.6062146874
  0
LWPOLYLINE
  5
8AD
100
AcDbEntity
  8
0
100
AcDbPolyline
 62
7
  6
CONTINUOUS
 90
10
 70
0
 43
0.3500000006
 10
125.2834425659
 20
95.2026164246
 10
124.6405891113
 20
94.5597539063
 10
124.2120110779
 20
93.7026159668
 10
124.2120110779
 20
92.6311844788
 10
124.6405891113
 20
92.202615509
 10
125.2834425659
 20
92.202615509
 10
125.7120115356
 20
92.6311844788
 10
125.7120115356
 20
93.4883314819
 10
125.2834425659
 20
93.9169004517
 10
124.3548734436
 20
93.9169004517
  0
LINE
  5
8AE
100
AcDbEntity
  8
Livello_1
100
AcDbLine
 62
7
  6
CONTINUOUS
 10
31.7049573242
 20
11.6443231421
 11
31.689726827
 21
11.6292987239
  0
LINE
  5
8AF
100
AcDbEntity
  8
Livello_1
100
AcDbLine
 62
7
  6
CONTINUOUS
 10
92.0807072925
 20
77.4093606798
 11
92.0000199135
 21
77.334934773
  0
LINE
  5
8B0
100
AcDbEntity
  8
Livello_1
100
AcDbLine
 62
7
  6
CONTINUOUS
 10
92.1109694595
 20
77.432786111
 11
92.0807072925
 21
77.4093606798
  0
LINE
  5
8B1
100
AcDbEntity
  8
Livello_1
100
AcDbLine
 62
7
  6
CONTINUOUS
 10
38.0966778606
 20
75.2862170439
 11
37.9331428532
 21
75.256168208
  0
LINE
  5
8B2
100
AcDbEntity
  8
Livello_1
100
AcDbLine
 62
7
  6
CONTINUOUS
 10
37.771341432
 20
75.2280455797
 11
37.6114662184
 21
75.1997303299
  0
LINE
  5
8B3
100
AcDbEntity
  8
Livello_1
100
AcDbLine
 62
7
  6
CONTINUOUS
 10
37.4552507984
 20
75.1771937028
 11
37.3048140012
 21
75.1508046611
  0
LINE
  5
8B4
100
AcDbEntity
  8
Livello_1
100
AcDbLine
 62
7
  6
CONTINUOUS
 10
37.4702752161
 20
75.7585231089
 11
36.9867971606
 21
75.6756961891
  0
LINE
  5
8B5
100
AcDbEntity
  8
Livello_1
100
AcDbLine
 62
7
  6
CONTINUOUS
 10
37.903704017
 20
75.2505960509
 11
37.771341432
 21
75.2280455797
  0
LINE
  5
8B6
100
AcDbEntity
  8
Livello_1
100
AcDbLine
 62
7
  6
CONTINUOUS
 10
36.9867971606
 20
75.6756961891
 11
36.1965642279
 21
75.5606624303
  0
LINE
  5
8B7
100
AcDbEntity
  8
Livello_1
100
AcDbLine
 62
7
  6
CONTINUOUS
 10
37.6114662184
 20
75.1997303299
 11
37.4552507984
 21
75.1771937028
  0
LINE
  5
8B8
100
AcDbEntity
  8
Livello_1
100
AcDbLine
 62
7
  6
CONTINUOUS
 10
37.1561243869
 20
75.1321204486
 11
36.2192882205
 21
75.0066076769
  0
LINE
  5
8B9
100
AcDbEntity
  8
Livello_1
100
AcDbLine
 62
7
  6
CONTINUOUS
 10
36.1965642279
 20
75.5606624303
 11
36.0801313401
 21
75.5458698076
  0
LINE
  5
8BA
100
AcDbEntity
  8
Livello_1
100
AcDbLine
 62
7
  6
CONTINUOUS
 10
37.3048140012
 20
75.1508046611
 11
37.1561243869
 21
75.1321204486
  0
LINE
  5
8BB
100
AcDbEntity
  8
Livello_1
100
AcDbLine
 62
7
  6
CONTINUOUS
 10
36.0801313401
 20
75.5458698076
 11
35.4347414314
 21
75.4652629424
  0
LINE
  5
8BC
100
AcDbEntity
  8
Livello_1
100
AcDbLine
 62
7
  6
CONTINUOUS
 10
36.2192882205
 20
75.0066076769
 11
35.3541437736
 21
74.9082951442
  0
LINE
  5
8BD
100
AcDbEntity
  8
Livello_1
100
AcDbLine
 62
7
  6
CONTINUOUS
 10
35.4347414314
 20
75.4652629424
 11
34.1446781505
 21
75.3295567114
  0
LINE
  5
8BE
100
AcDbEntity
  8
Livello_1
100
AcDbLine
 62
7
  6
CONTINUOUS
 10
35.3541437736
 20
74.9082951442
 11
33.7904053425
 21
74.7600516928
  0
LINE
  5
8BF
100
AcDbEntity
  8
Livello_1
100
AcDbLine
 62
7
  6
CONTINUOUS
 10
34.1446781505
 20
75.3295567114
 11
33.7318154805
 21
75.2912245012
  0
LINE
  5
8C0
100
AcDbEntity
  8
Livello_1
100
AcDbLine
 62
7
  6
CONTINUOUS
 10
-39.1485746951
 20
75.8420423807
 11
-39.1284721274
 21
75.8438656771
  0
LINE
  5
8C1
100
AcDbEntity
  8
Livello_1
100
AcDbLine
 62
7
  6
CONTINUOUS
 10
-39.1284721274
 20
75.8438656771
 11
-39.1044765285
 21
75.8455244225
  0
LINE
  5
8C2
100
AcDbEntity
  8
Livello_1
100
AcDbLine
 62
7
  6
CONTINUOUS
 10
-39.1044765285
 20
75.8455244225
 11
-39.0795180661
 21
75.8469360306
  0
LINE
  5
8C3
100
AcDbEntity
  8
Livello_1
100
AcDbLine
 62
7
  6
CONTINUOUS
 10
152.0790538431
 20
69.8222609502
 11
152.0744613017
 21
69.8280884814
  0
LINE
  5
8C4
100
AcDbEntity
  8
Livello_1
100
AcDbLine
 62
7
  6
CONTINUOUS
 10
152.3644740771
 20
69.6368920272
 11
152.3550532843
 21
69.6488523956
  0
LINE
  5
8C5
100
AcDbEntity
  8
Livello_1
100
AcDbLine
 62
7
  6
CONTINUOUS
 10
152.3733632954
 20
69.6249011356
 11
152.3644740771
 21
69.6368920272
  0
LINE
  5
8C6
100
AcDbEntity
  8
Livello_1
100
AcDbLine
 62
7
  6
CONTINUOUS
 10
152.381673386
 20
69.6129619229
 11
152.3733632954
 21
69.6249011356
  0
LINE
  5
8C7
100
AcDbEntity
  8
Livello_1
100
AcDbLine
 62
7
  6
CONTINUOUS
 10
152.389373235
 20
69.6011416747
 11
152.381673386
 21
69.6129619229
  0
LINE
  5
8C8
100
AcDbEntity
  8
Livello_1
100
AcDbLine
 62
7
  6
CONTINUOUS
 10
152.3964451947
 20
69.5894943379
 11
152.389373235
 21
69.6011416747
  0
LINE
  5
8C9
100
AcDbEntity
  8
Livello_1
100
AcDbLine
 62
7
  6
CONTINUOUS
 10
152.4028823931
 20
69.5780622176
 11
152.3964451947
 21
69.5894943379
  0
LINE
  5
8CA
100
AcDbEntity
  8
Livello_1
100
AcDbLine
 62
7
  6
CONTINUOUS
 10
152.0840237124
 20
69.8132663713
 11
152.0790538431
 21
69.8222609502
  0
LINE
  5
8CB
100
AcDbEntity
  8
Livello_1
100
AcDbLine
 62
7
  6
CONTINUOUS
 10
152.4086863829
 20
69.5668776301
 11
152.4028823931
 21
69.5780622176
  0
LINE
  5
8CC
100
AcDbEntity
  8
Livello_1
100
AcDbLine
 62
7
  6
CONTINUOUS
 10
152.4138651579
 20
69.555964414
 11
152.4086863829
 21
69.5668776301
  0
LINE
  5
8CD
100
AcDbEntity
  8
Livello_1
100
AcDbLine
 62
7
  6
CONTINUOUS
 10
152.4184314897
 20
69.5453392743
 11
152.4138651579
 21
69.555964414
  0
LINE
  5
8CE
100
AcDbEntity
  8
Livello_1
100
AcDbLine
 62
7
  6
CONTINUOUS
 10
152.0893484909
 20
69.8001924571
 11
152.0840237124
 21
69.8132663713
  0
LINE
  5
8CF
100
AcDbEntity
  8
Livello_1
100
AcDbLine
 62
7
  6
CONTINUOUS
 10
152.4224015534
 20
69.5350129481
 11
152.4184314897
 21
69.5453392743
  0
LINE
  5
8D0
100
AcDbEntity
  8
Livello_1
100
AcDbLine
 62
7
  6
CONTINUOUS
 10
134.9959688873
 20
78.1674629693
 11
134.9937526444
 21
78.1768895062
  0
LINE
  5
8D1
100
AcDbEntity
  8
Livello_1
100
AcDbLine
 62
7
  6
CONTINUOUS
 10
134.9978915747
 20
78.1579264095
 11
134.9959688873
 21
78.1674629693
  0
LINE
  5
8D2
100
AcDbEntity
  8
Livello_1
100
AcDbLine
 62
7
  6
CONTINUOUS
 10
134.9995157456
 20
78.1482848167
 11
134.9978915747
 21
78.1579264095
  0
LINE
  5
8D3
100
AcDbEntity
  8
Livello_1
100
AcDbLine
 62
7
  6
CONTINUOUS
 10
134.7150200633
 20
78.3948588694
 11
134.7145012666
 21
78.3986446018
  0
LINE
  5
8D4
100
AcDbEntity
  8
Livello_1
100
AcDbLine
 62
7
  6
CONTINUOUS
 10
135.0008364389
 20
78.1385431821
 11
134.9995157456
 21
78.1482848167
  0
LINE
  5
8D5
100
AcDbEntity
  8
Livello_1
100
AcDbLine
 62
7
  6
CONTINUOUS
 10
151.8582107332
 20
-68.1007995371
 11
151.8572999204
 21
-68.0937271405
  0
LINE
  5
8D6
100
AcDbEntity
  8
Livello_1
100
AcDbLine
 62
7
  6
CONTINUOUS
 10
151.8586583502
 20
-68.1044176155
 11
151.8582107332
 21
-68.1007995371
  0
LINE
  5
8D7
100
AcDbEntity
  8
Livello_1
100
AcDbLine
 62
7
  6
CONTINUOUS
 10
134.7159000575
 20
78.3844168947
 11
134.7152098394
 21
78.3901112099
  0
LINE
  5
8D8
100
AcDbEntity
  8
Livello_1
100
AcDbLine
 62
7
  6
CONTINUOUS
 10
151.8590896294
 20
-68.1080710296
 11
151.8586583502
 21
-68.1044176155
  0
LINE
  5
8D9
100
AcDbEntity
  8
Livello_1
100
AcDbLine
 62
7
  6
CONTINUOUS
 10
151.8592965301
 20
-68.1099064759
 11
151.8590896294
 21
-68.1080710296
  0
LINE
  5
8DA
100
AcDbEntity
  8
Livello_1
100
AcDbLine
 62
7
  6
CONTINUOUS
 10
152.1249326839
 20
69.5632656304
 11
152.1191366194
 21
69.6260848302
  0
LINE
  5
8DB
100
AcDbEntity
  8
Livello_1
100
AcDbLine
 62
7
  6
CONTINUOUS
 10
152.2661079544
 20
-68.2229287276
 11
152.2654632671
 21
-68.2141151057
  0
LINE
  5
8DC
100
AcDbEntity
  8
Livello_1
100
AcDbLine
 62
7
  6
CONTINUOUS
 10
152.1302359887
 20
69.4881265162
 11
152.1249326839
 21
69.5632656304
  0
LINE
  5
8DD
100
AcDbEntity
  8
Livello_1
100
AcDbLine
 62
7
  6
CONTINUOUS
 10
151.8606040776
 20
-68.1245615468
 11
151.8604841866
 21
-68.1227492782
  0
LINE
  5
8DE
100
AcDbEntity
  8
Livello_1
100
AcDbLine
 62
7
  6
CONTINUOUS
 10
152.2666750475
 20
-68.2317406564
 11
152.2661079544
 21
-68.2229287276
  0
LINE
  5
8DF
100
AcDbEntity
  8
Livello_1
100
AcDbLine
 62
7
  6
CONTINUOUS
 10
151.5656721214
 20
-68.326990862
 11
151.5634860233
 21
-68.2923723565
  0
LINE
  5
8E0
100
AcDbEntity
  8
Livello_1
100
AcDbLine
 62
7
  6
CONTINUOUS
 10
151.5477057017
 20
-68.0733157941
 11
151.5461751156
 21
-68.0484472325
  0
LINE
  5
8E1
100
AcDbEntity
  8
Livello_1
100
AcDbLine
 62
7
  6
CONTINUOUS
 10
151.5693095472
 20
-68.410370755
 11
151.5687269376
 21
-68.400626791
  0
LINE
  5
8E2
100
AcDbEntity
  8
Livello_1
100
AcDbLine
 62
7
  6
CONTINUOUS
 10
152.2715913907
 20
-68.3585279944
 11
152.2714506737
 21
-68.3561702291
  0
LINE
  5
8E3
100
AcDbEntity
  8
Livello_1
100
AcDbLine
 62
7
  6
CONTINUOUS
 10
151.860708391
 20
-68.1263627969
 11
151.8606040776
 21
-68.1245615468
  0
LINE
  5
8E4
100
AcDbEntity
  8
Livello_1
100
AcDbLine
 62
7
  6
CONTINUOUS
 10
152.2671727294
 20
-68.2405446843
 11
152.2666750475
 21
-68.2317406564
  0
LINE
  5
8E5
100
AcDbEntity
  8
Livello_1
100
AcDbLine
 62
7
  6
CONTINUOUS
 10
151.5634860233
 20
-68.2923723565
 11
151.5600861196
 21
-68.2310657315
  0
LINE
  5
8E6
100
AcDbEntity
  8
Livello_1
100
AcDbLine
 62
7
  6
CONTINUOUS
 10
152.2676091826
 20
-68.249334605
 11
152.2671727294
 21
-68.2405446843
  0
LINE
  5
8E7
100
AcDbEntity
  8
Livello_1
100
AcDbLine
 62
7
  6
CONTINUOUS
 10
151.860796081
 20
-68.1281512239
 11
151.860708391
 21
-68.1263627969
  0
LINE
  5
8E8
100
AcDbEntity
  8
Livello_1
100
AcDbLine
 62
7
  6
CONTINUOUS
 10
151.5487214962
 20
-68.0956533481
 11
151.5477057017
 21
-68.0733157941
  0
LINE
  5
8E9
100
AcDbEntity
  8
Livello_1
100
AcDbLine
 62
7
  6
CONTINUOUS
 10
152.2679925903
 20
-68.2581042097
 11
152.2676091826
 21
-68.249334605
  0
LINE
  5
8EA
100
AcDbEntity
  8
Livello_1
100
AcDbLine
 62
7
  6
CONTINUOUS
 10
151.5671889869
 20
-68.3539441591
 11
151.5665706806
 21
-68.3397448669
  0
LINE
  5
8EB
100
AcDbEntity
  8
Livello_1
100
AcDbLine
 62
7
  6
CONTINUOUS
 10
152.2716922298
 20
-68.3608867621
 11
152.2715913907
 21
-68.3585279944
  0
LINE
  5
8EC
100
AcDbEntity
  8
Livello_1
100
AcDbLine
 62
7
  6
CONTINUOUS
 10
152.2710492689
 20
-68.3514536966
 11
152.2707093139
 21
-68.3433172568
  0
LINE
  5
8ED
100
AcDbEntity
  8
Livello_1
100
AcDbLine
 62
7
  6
CONTINUOUS
 10
151.8608661037
 20
-68.1299250221
 11
151.860796081
 21
-68.1281512239
  0
LINE
  5
8EE
100
AcDbEntity
  8
Livello_1
100
AcDbLine
 62
7
  6
CONTINUOUS
 10
152.268632998
 20
-68.2755576433
 11
152.2679925903
 21
-68.2581042097
  0
LINE
  5
8EF
100
AcDbEntity
  8
Livello_1
100
AcDbLine
 62
7
  6
CONTINUOUS
 10
152.2707093139
 20
-68.3433172568
 11
152.2701321098
 21
-68.3267847917
  0
LINE
  5
8F0
100
AcDbEntity
  8
Livello_1
100
AcDbLine
 62
7
  6
CONTINUOUS
 10
151.8609174129
 20
-68.1316823876
 11
151.8608661037
 21
-68.1299250221
  0
LINE
  5
8F1
100
AcDbEntity
  8
Livello_1
100
AcDbLine
 62
7
  6
CONTINUOUS
 10
152.2701321098
 20
-68.3267847917
 11
152.268632998
 21
-68.2755576433
  0
LINE
  5
8F2
100
AcDbEntity
  8
Livello_1
100
AcDbLine
 62
7
  6
CONTINUOUS
 10
152.2717532738
 20
-68.363247537
 11
152.2716922298
 21
-68.3608867621
  0
LINE
  5
8F3
100
AcDbEntity
  8
Livello_1
100
AcDbLine
 62
7
  6
CONTINUOUS
 10
151.5695124855
 20
-68.4195777859
 11
151.5693095472
 21
-68.410370755
  0
LINE
  5
8F4
100
AcDbEntity
  8
Livello_1
100
AcDbLine
 62
7
  6
CONTINUOUS
 10
151.5675203438
 20
-68.3698893188
 11
151.5671889869
 21
-68.3539441591
  0
LINE
  5
8F5
100
AcDbEntity
  8
Livello_1
100
AcDbLine
 62
7
  6
CONTINUOUS
 10
151.8609489653
 20
-68.1334215153
 11
151.8609174129
 21
-68.1316823876
  0
LINE
  5
8F6
100
AcDbEntity
  8
Livello_1
100
AcDbLine
 62
7
  6
CONTINUOUS
 10
140.68375607
 20
-69.0154174017
 11
140.6799036554
 21
-69.2167060796
  0
LINE
  5
8F7
100
AcDbEntity
  8
Livello_1
100
AcDbLine
 62
7
  6
CONTINUOUS
 10
139.4653916963
 20
14.8016400421
 11
139.4656161977
 21
14.8047537577
  0
LINE
  5
8F8
100
AcDbEntity
  8
Livello_1
100
AcDbLine
 62
7
  6
CONTINUOUS
 10
38.3544169979
 20
-68.4106396646
 11
38.345644134
 21
-68.4249198494
  0
LINE
  5
8F9
100
AcDbEntity
  8
Livello_1
100
AcDbLine
 62
7
  6
CONTINUOUS
 10
5.4666960853
 20
-67.97425917
 11
5.4628072687
 21
-67.979285036
  0
LINE
  5
8FA
100
AcDbEntity
  8
Livello_1
100
AcDbLine
 62
7
  6
CONTINUOUS
 10
-32.7684921608
 20
-56.4632900952
 11
-32.8549788727
 21
-56.5441908074
  0
LINE
  5
8FB
100
AcDbEntity
  8
Livello_1
100
AcDbLine
 62
7
  6
CONTINUOUS
 10
31.5957279063
 20
11.4958125481
 11
31.6841408258
 21
11.5728608457
  0
LINE
  5
8FC
100
AcDbEntity
  8
Livello_1
100
AcDbLine
 62
7
  6
CONTINUOUS
 10
31.689726827
 20
11.6292987239
 11
31.6766286169
 21
11.6179340999
  0
LINE
  5
8FD
100
AcDbEntity
  8
Livello_1
100
AcDbLine
 62
7
  6
CONTINUOUS
 10
92.2219190055
 20
77.4909575753
 11
92.1109694595
 21
77.432786111
  0
LWPOLYLINE
  5
8FE
100
AcDbEntity
  8
0
100
AcDbPolyline
 62
7
  6
CONTINUOUS
 90
10
 70
0
 43
0.3500000006
 10
-57.9303766022
 20
5.2371647873
 10
-57.8089680634
 20
5.2978690567
 10
-57.7482637939
 20
5.2978690567
 10
-57.626859787
 20
5.1764627838
 10
-57.626859787
 20
5.1157585144
 10
-57.6875595245
 20
5.055054245
 10
-57.7482637939
 20
5.055054245
 10
-57.8696723328
 20
5.1157585144
 10
-57.9303766022
 20
5.1764627838
 10
-57.9303766022
 20
5.2371647873
  0
LINE
  5
8FF
100
AcDbEntity
  8
Livello_1
100
AcDbLine
 62
7
  6
CONTINUOUS
 10
37.9086800191
 20
75.8469360306
 11
37.8069762687
 21
75.8242067832
  0
LINE
  5
900
100
AcDbEntity
  8
Livello_1
100
AcDbLine
 62
7
  6
CONTINUOUS
 10
38.4183544954
 20
75.3520933385
 11
38.2584792818
 21
75.3164585013
  0
LINE
  5
901
100
AcDbEntity
  8
Livello_1
100
AcDbLine
 62
7
  6
CONTINUOUS
 10
37.8069762687
 20
75.8242067832
 11
37.7035389315
 21
75.8035963631
  0
LINE
  5
902
100
AcDbEntity
  8
Livello_1
100
AcDbLine
 62
7
  6
CONTINUOUS
 10
37.7035389315
 20
75.8035963631
 11
37.4702752161
 21
75.7585231089
  0
LINE
  5
903
100
AcDbEntity
  8
Livello_1
100
AcDbLine
 62
7
  6
CONTINUOUS
 10
37.9331428532
 20
75.256168208
 11
37.903704017
 21
75.2505960509
  0
LINE
  5
904
100
AcDbEntity
  8
Livello_1
100
AcDbLine
 62
7
  6
CONTINUOUS
 10
38.2584792818
 20
75.3164585013
 11
38.0966778606
 21
75.2862170439
  0
LINE
  5
905
100
AcDbEntity
  8
Livello_1
100
AcDbLine
 62
7
  6
CONTINUOUS
 10
-39.1829554032
 20
75.8374976141
 11
-39.1664766079
 21
75.8399392206
  0
LINE
  5
906
100
AcDbEntity
  8
Livello_1
100
AcDbLine
 62
7
  6
CONTINUOUS
 10
-39.1664766079
 20
75.8399392206
 11
-39.1485746951
 21
75.8420423807
  0
LINE
  5
907
100
AcDbEntity
  8
Livello_1
100
AcDbLine
 62
7
  6
CONTINUOUS
 10
152.4257937938
 20
69.5249912024
 11
152.4224015534
 21
69.5350129481
  0
LINE
  5
908
100
AcDbEntity
  8
Livello_1
100
AcDbLine
 62
7
  6
CONTINUOUS
 10
152.0949472279
 20
69.7820481337
 11
152.0893484909
 21
69.8001924571
  0
LINE
  5
909
100
AcDbEntity
  8
Livello_1
100
AcDbLine
 62
7
  6
CONTINUOUS
 10
152.4339218125
 20
69.4955979232
 11
152.4309244826
 21
69.5058646222
  0
LINE
  5
90A
100
AcDbEntity
  8
Livello_1
100
AcDbLine
 62
7
  6
CONTINUOUS
 10
152.4286279913
 20
69.5152756802
 11
152.4257937938
 21
69.5249912024
  0
LINE
  5
90B
100
AcDbEntity
  8
Livello_1
100
AcDbLine
 62
7
  6
CONTINUOUS
 10
152.4367113419
 20
69.48448422
 11
152.4339218125
 21
69.4955979232
  0
LINE
  5
90C
100
AcDbEntity
  8
Livello_1
100
AcDbLine
 62
7
  6
CONTINUOUS
 10
152.4309244826
 20
69.5058646222
 11
152.4286279913
 21
69.5152756802
  0
LINE
  5
90D
100
AcDbEntity
  8
Livello_1
100
AcDbLine
 62
7
  6
CONTINUOUS
 10
152.1006901414
 20
69.7578223756
 11
152.0949472279
 21
69.7820481337
  0
LINE
  5
90E
100
AcDbEntity
  8
Livello_1
100
AcDbLine
 62
7
  6
CONTINUOUS
 10
152.4393133212
 20
69.4723411118
 11
152.4367113419
 21
69.48448422
  0
LINE
  5
90F
100
AcDbEntity
  8
Livello_1
100
AcDbLine
 62
7
  6
CONTINUOUS
 10
152.1064058139
 20
69.7265481997
 11
152.1006901414
 21
69.7578223756
  0
LINE
  5
910
100
AcDbEntity
  8
Livello_1
100
AcDbLine
 62
7
  6
CONTINUOUS
 10
152.4417671561
 20
69.4588588044
 11
152.4393133212
 21
69.4723411118
  0
LINE
  5
911
100
AcDbEntity
  8
Livello_1
100
AcDbLine
 62
7
  6
CONTINUOUS
 10
152.4441604443
 20
69.4434087341
 11
152.4417671561
 21
69.4588588044
  0
LINE
  5
912
100
AcDbEntity
  8
Livello_1
100
AcDbLine
 62
7
  6
CONTINUOUS
 10
152.1118891584
 20
69.6873679101
 11
152.1064058139
 21
69.7265481997
  0
LINE
  5
913
100
AcDbEntity
  8
Livello_1
100
AcDbLine
 62
7
  6
CONTINUOUS
 10
152.4467547008
 20
69.4242115498
 11
152.4441604443
 21
69.4434087341
  0
LINE
  5
914
100
AcDbEntity
  8
Livello_1
100
AcDbLine
 62
7
  6
CONTINUOUS
 10
152.4478751078
 20
69.4155254936
 11
152.4467547008
 21
69.4242115498
  0
LINE
  5
915
100
AcDbEntity
  8
Livello_1
100
AcDbLine
 62
7
  6
CONTINUOUS
 10
152.1191366194
 20
69.6260848302
 11
152.1118891584
 21
69.6873679101
  0
LINE
  5
916
100
AcDbEntity
  8
Livello_1
100
AcDbLine
 62
7
  6
CONTINUOUS
 10
152.1347799761
 20
69.4007202466
 11
152.1302359887
 21
69.4881265162
  0
LINE
  5
917
100
AcDbEntity
  8
Livello_1
100
AcDbLine
 62
7
  6
CONTINUOUS
 10
152.460973318
 20
69.3065021519
 11
152.4553873167
 21
69.4155254936
  0
LINE
  5
918
100
AcDbEntity
  8
Livello_1
100
AcDbLine
 62
7
  6
CONTINUOUS
 10
152.1383042377
 20
69.301719848
 11
152.1347799761
 21
69.4007202466
  0
LINE
  5
919
100
AcDbEntity
  8
Livello_1
100
AcDbLine
 62
7
  6
CONTINUOUS
 10
152.139489304
 20
69.2539166889
 11
152.1383042377
 21
69.301719848
  0
LINE
  5
91A
100
AcDbEntity
  8
Livello_1
100
AcDbLine
 62
7
  6
CONTINUOUS
 10
152.1400812657
 20
69.2225525291
 11
152.139489304
 21
69.2539166889
  0
LINE
  5
91B
100
AcDbEntity
  8
Livello_1
100
AcDbLine
 62
7
  6
CONTINUOUS
 10
152.141744662
 20
69.0818264017
 11
152.1400812657
 21
69.2225525291
  0
LINE
  5
91C
100
AcDbEntity
  8
Livello_1
100
AcDbLine
 62
7
  6
CONTINUOUS
 10
152.2717746065
 20
-68.3656113209
 11
152.2717532738
 21
-68.363247537
  0
LINE
  5
91D
100
AcDbEntity
  8
Livello_1
100
AcDbLine
 62
7
  6
CONTINUOUS
 10
151.8609597146
 20
-68.1351406004
 11
151.8609489653
 21
-68.1334215153
  0
LINE
  5
91E
100
AcDbEntity
  8
Livello_1
100
AcDbLine
 62
7
  6
CONTINUOUS
 10
151.5675983284
 20
-68.3890147414
 11
151.5675203438
 21
-68.3698893188
  0
LINE
  5
91F
100
AcDbEntity
  8
Livello_1
100
AcDbLine
 62
7
  6
CONTINUOUS
 10
152.1092478477
 20
-62.8286317172
 11
152.1097223558
 21
-63.0069640943
  0
LINE
  5
920
100
AcDbEntity
  8
Livello_1
100
AcDbLine
 62
7
  6
CONTINUOUS
 10
151.5695232158
 20
-68.4263922378
 11
151.5695124855
 21
-68.4195777859
  0
LINE
  5
921
100
AcDbEntity
  8
Livello_1
100
AcDbLine
 62
7
  6
CONTINUOUS
 10
152.1419143264
 20
68.9326754819
 11
152.141744662
 21
69.0818264017
  0
LINE
  5
922
100
AcDbEntity
  8
Livello_1
100
AcDbLine
 62
7
  6
CONTINUOUS
 10
152.1092478477
 20
67.8656989849
 11
152.1092478477
 21
-62.8268981305
  0
LINE
  5
923
100
AcDbEntity
  8
Livello_1
100
AcDbLine
 62
7
  6
CONTINUOUS
 10
152.2654632671
 20
-64.7623513687
 11
152.2654632671
 21
-68.2141151057
  0
LINE
  5
924
100
AcDbEntity
  8
Livello_1
100
AcDbLine
 62
7
  6
CONTINUOUS
 10
152.460973318
 20
69.3084283595
 11
152.460973318
 21
-64.3297251769
  0
LINE
  5
925
100
AcDbEntity
  8
Livello_1
100
AcDbLine
 62
7
  6
CONTINUOUS
 10
152.460973318
 20
-64.3599666337
 11
152.460973318
 21
-68.201016895
  0
LINE
  5
926
100
AcDbEntity
  8
Livello_1
100
AcDbLine
 62
7
  6
CONTINUOUS
 10
152.1097223558
 20
-63.0069640943
 11
152.1085984991
 21
-63.1886980186
  0
LINE
  5
927
100
AcDbEntity
  8
Livello_1
100
AcDbLine
 62
7
  6
CONTINUOUS
 10
152.2717563113
 20
-68.3679791181
 11
152.2717746065
 21
-68.3656113209
  0
LINE
  5
928
100
AcDbEntity
  8
Livello_1
100
AcDbLine
 62
7
  6
CONTINUOUS
 10
152.1405253189
 20
68.7779235176
 11
152.1419143264
 21
68.9326754819
  0
LINE
  5
929
100
AcDbEntity
  8
Livello_1
100
AcDbLine
 62
7
  6
CONTINUOUS
 10
152.1085984991
 20
-63.1886980186
 11
152.1058626263
 21
-63.3715770355
  0
LINE
  5
92A
100
AcDbEntity
  8
Livello_1
100
AcDbLine
 62
7
  6
CONTINUOUS
 10
151.8607961781
 20
-68.1452440709
 11
151.8609597146
 21
-68.1351406004
  0
LINE
  5
92B
100
AcDbEntity
  8
Livello_1
100
AcDbLine
 62
7
  6
CONTINUOUS
 10
152.1375630964
 20
68.6200018197
 11
152.1405253189
 21
68.7779235176
  0
LINE
  5
92C
100
AcDbEntity
  8
Livello_1
100
AcDbLine
 62
7
  6
CONTINUOUS
 10
151.5694123901
 20
-68.4313402612
 11
151.5695232158
 21
-68.4263922378
  0
LINE
  5
92D
100
AcDbEntity
  8
Livello_1
100
AcDbLine
 62
7
  6
CONTINUOUS
 10
152.1058626263
 20
-63.3715770355
 11
152.1015470962
 21
-63.5529019791
  0
LINE
  5
92E
100
AcDbEntity
  8
Livello_1
100
AcDbLine
 62
7
  6
CONTINUOUS
 10
152.2716984723
 20
-68.3703519314
 11
152.2717563113
 21
-68.3679791181
  0
LINE
  5
92F
100
AcDbEntity
  8
Livello_1
100
AcDbLine
 62
7
  6
CONTINUOUS
 10
152.1320248788
 20
68.418633423
 11
152.1375630964
 21
68.6200018197
  0
LINE
  5
930
100
AcDbEntity
  8
Livello_1
100
AcDbLine
 62
7
  6
CONTINUOUS
 10
152.1015470962
 20
-63.5529019791
 11
152.0998094313
 21
-63.6112498007
  0
LINE
  5
931
100
AcDbEntity
  8
Livello_1
100
AcDbLine
 62
7
  6
CONTINUOUS
 10
152.0998094313
 20
-63.6112498007
 11
152.09663804
 21
-63.707920848
  0
LINE
  5
932
100
AcDbEntity
  8
Livello_1
100
AcDbLine
 62
7
  6
CONTINUOUS
 10
152.1276055873
 20
68.287628902
 11
152.1320248788
 21
68.418633423
  0
LINE
  5
933
100
AcDbEntity
  8
Livello_1
100
AcDbLine
 62
7
  6
CONTINUOUS
 10
152.1192182885
 20
68.0770311081
 11
152.1276055873
 21
68.287628902
  0
LINE
  5
934
100
AcDbEntity
  8
Livello_1
100
AcDbLine
 62
7
  6
CONTINUOUS
 10
152.09663804
 20
-63.707920848
 11
152.0900090556
 21
-63.8748302439
  0
LINE
  5
935
100
AcDbEntity
  8
Livello_1
100
AcDbLine
 62
7
  6
CONTINUOUS
 10
152.2716011725
 20
-68.3727307646
 11
152.2716984723
 21
-68.3703519314
  0
LINE
  5
936
100
AcDbEntity
  8
Livello_1
100
AcDbLine
 62
7
  6
CONTINUOUS
 10
152.4603219109
 20
-64.3445289131
 11
152.460973318
 21
-64.3297251769
  0
LINE
  5
937
100
AcDbEntity
  8
Livello_1
100
AcDbLine
 62
7
  6
CONTINUOUS
 10
152.1092478477
 20
67.8656989849
 11
152.1192182885
 21
68.0770311081
  0
LINE
  5
938
100
AcDbEntity
  8
Livello_1
100
AcDbLine
 62
7
  6
CONTINUOUS
 10
139.4649264819
 20
14.7985155783
 11
139.4653916963
 21
14.8016400421
  0
LINE
  5
939
100
AcDbEntity
  8
Livello_1
100
AcDbLine
 62
7
  6
CONTINUOUS
 10
139.4642163551
 20
14.7953734789
 11
139.4649264819
 21
14.7985155783
  0
LINE
  5
93A
100
AcDbEntity
  8
Livello_1
100
AcDbLine
 62
7
  6
CONTINUOUS
 10
38.345644134
 20
-68.4249198494
 11
38.3364442799
 21
-68.4388553808
  0
LINE
  5
93B
100
AcDbEntity
  8
Livello_1
100
AcDbLine
 62
7
  6
CONTINUOUS
 10
38.3364442799
 20
-68.4388553808
 11
38.3268747601
 21
-68.4523679056
  0
LINE
  5
93C
100
AcDbEntity
  8
Livello_1
100
AcDbLine
 62
7
  6
CONTINUOUS
 10
-6.6350568014
 20
-67.9624686521
 11
-6.6310681187
 21
-67.9582667426
  0
LINE
  5
93D
100
AcDbEntity
  8
Livello_1
100
AcDbLine
 62
7
  6
CONTINUOUS
 10
-39.2045692489
 20
13.2126771307
 11
-39.224368862
 21
13.2037806875
  0
LINE
  5
93E
100
AcDbEntity
  8
Livello_1
100
AcDbLine
 62
7
  6
CONTINUOUS
 10
-39.0756656515
 20
13.2677307745
 11
-39.0954652646
 21
13.2588343313
  0
LINE
  5
93F
100
AcDbEntity
  8
Livello_1
100
AcDbLine
 62
7
  6
CONTINUOUS
 10
-39.2985055023
 20
13.1750383278
 11
-39.3447283428
 21
13.1549092393
  0
LINE
  5
940
100
AcDbEntity
  8
Livello_1
100
AcDbLine
 62
7
  6
CONTINUOUS
 10
-39.3447283428
 20
13.1549092393
 11
-39.3711458656
 21
13.1434903948
  0
LINE
  5
941
100
AcDbEntity
  8
Livello_1
100
AcDbLine
 62
7
  6
CONTINUOUS
 10
-39.1812172246
 20
13.2227248698
 11
-39.2045692489
 21
13.2126771307
  0
LINE
  5
942
100
AcDbEntity
  8
Livello_1
100
AcDbLine
 62
7
  6
CONTINUOUS
 10
-39.0954652646
 20
13.2588343313
 11
-39.118817289
 21
13.2487865922
  0
LINE
  5
943
100
AcDbEntity
  8
Livello_1
100
AcDbLine
 62
7
  6
CONTINUOUS
 10
92.3386471736
 20
77.5267850339
 11
92.2219190055
 21
77.4909575753
  0
LINE
  5
944
100
AcDbEntity
  8
Livello_1
100
AcDbLine
 62
7
  6
CONTINUOUS
 10
-39.1956244745
 20
75.8351335386
 11
-39.1829554032
 21
75.8374976141
  0
LINE
  5
945
100
AcDbEntity
  8
Livello_1
100
AcDbLine
 62
7
  6
CONTINUOUS
 10
151.8603089475
 20
-68.1552670774
 11
151.8607961781
 21
-68.1452440709
  0
LINE
  5
946
100
AcDbEntity
  8
Livello_1
100
AcDbLine
 62
7
  6
CONTINUOUS
 10
152.0900090556
 20
-63.8748302439
 11
152.0825861333
 21
-64.0246747213
  0
LINE
  5
947
100
AcDbEntity
  8
Livello_1
100
AcDbLine
 62
7
  6
CONTINUOUS
 10
152.271464496
 20
-68.3751166199
 11
152.2716011725
 21
-68.3727307646
  0
LINE
  5
948
100
AcDbEntity
  8
Livello_1
100
AcDbLine
 62
7
  6
CONTINUOUS
 10
152.4590734156
 20
-64.3656180002
 11
152.4603219109
 21
-64.3445289131
  0
LINE
  5
949
100
AcDbEntity
  8
Livello_1
100
AcDbLine
 62
7
  6
CONTINUOUS
 10
152.0825861333
 20
-64.0246747213
 11
152.0745580959
 21
-64.1573472481
  0
LINE
  5
94A
100
AcDbEntity
  8
Livello_1
100
AcDbLine
 62
7
  6
CONTINUOUS
 10
152.460973318
 20
-68.201016895
 11
152.4606575655
 21
-68.20548515
  0
LINE
  5
94B
100
AcDbEntity
  8
Livello_1
100
AcDbLine
 62
7
  6
CONTINUOUS
 10
152.0745580959
 20
-64.1573472481
 11
152.0661008022
 21
-64.2732872988
  0
LINE
  5
94C
100
AcDbEntity
  8
Livello_1
100
AcDbLine
 62
7
  6
CONTINUOUS
 10
152.2712885257
 20
-68.3775105012
 11
152.271464496
 21
-68.3751166199
  0
LINE
  5
94D
100
AcDbEntity
  8
Livello_1
100
AcDbLine
 62
7
  6
CONTINUOUS
 10
152.0661008022
 20
-64.2732872988
 11
152.0585967016
 21
-64.3737504487
  0
LINE
  5
94E
100
AcDbEntity
  8
Livello_1
100
AcDbLine
 62
7
  6
CONTINUOUS
 10
152.4575083641
 20
-64.3854406228
 11
152.4590734156
 21
-64.3656180002
  0
LINE
  5
94F
100
AcDbEntity
  8
Livello_1
100
AcDbLine
 62
7
  6
CONTINUOUS
 10
151.8595030917
 20
-68.1652047269
 11
151.8603089475
 21
-68.1552670774
  0
LINE
  5
950
100
AcDbEntity
  8
Livello_1
100
AcDbLine
 62
7
  6
CONTINUOUS
 10
152.4606575655
 20
-68.20548515
 11
152.4600926494
 21
-68.2121963146
  0
LINE
  5
951
100
AcDbEntity
  8
Livello_1
100
AcDbLine
 62
7
  6
CONTINUOUS
 10
152.0585967016
 20
-64.3737504487
 11
152.0500740367
 21
-64.4715151861
  0
LINE
  5
952
100
AcDbEntity
  8
Livello_1
100
AcDbLine
 62
7
  6
CONTINUOUS
 10
152.2710733464
 20
-68.3799134112
 11
152.2712885257
 21
-68.3775105012
  0
LINE
  5
953
100
AcDbEntity
  8
Livello_1
100
AcDbLine
 62
7
  6
CONTINUOUS
 10
151.5690478477
 20
-68.4351142237
 11
151.5694123901
 21
-68.4313402612
  0
LINE
  5
954
100
AcDbEntity
  8
Livello_1
100
AcDbLine
 62
7
  6
CONTINUOUS
 10
152.4556196763
 20
-64.4043202774
 11
152.4575083641
 21
-64.3854406228
  0
LINE
  5
955
100
AcDbEntity
  8
Livello_1
100
AcDbLine
 62
7
  6
CONTINUOUS
 10
152.4600926494
 20
-68.2121963146
 11
152.4594460799
 21
-68.2185406942
  0
LINE
  5
956
100
AcDbEntity
  8
Livello_1
100
AcDbLine
 62
7
  6
CONTINUOUS
 10
152.0500740367
 20
-64.4715151861
 11
152.0417416573
 21
-64.5516443332
  0
LINE
  5
957
100
AcDbEntity
  8
Livello_1
100
AcDbLine
 62
7
  6
CONTINUOUS
 10
152.270819041
 20
-68.3823263542
 11
152.2710733464
 21
-68.3799134112
  0
LINE
  5
958
100
AcDbEntity
  8
Livello_1
100
AcDbLine
 62
7
  6
CONTINUOUS
 10
139.4632547659
 20
14.7922072278
 11
139.4642163551
 21
14.7953734789
  0
LINE
  5
959
100
AcDbEntity
  8
Livello_1
100
AcDbLine
 62
7
  6
CONTINUOUS
 10
38.3268747601
 20
-68.4523679056
 11
38.3169931079
 21
-68.4653883894
  0
LINE
  5
95A
100
AcDbEntity
  8
Livello_1
100
AcDbLine
 62
7
  6
CONTINUOUS
 10
-39.2769043028
 20
13.1840822902
 11
-39.2985055023
 21
13.1750383278
  0
LINE
  5
95B
100
AcDbEntity
  8
Livello_1
100
AcDbLine
 62
7
  6
CONTINUOUS
 10
-39.118817289
 20
13.2487865922
 11
-39.1812172246
 21
13.2227248698
  0
LINE
  5
95C
100
AcDbEntity
  8
Livello_1
100
AcDbLine
 62
7
  6
CONTINUOUS
 10
-39.3711458656
 20
13.1434903948
 11
-39.59111875
 21
13.0533438864
  0
LINE
  5
95D
100
AcDbEntity
  8
Livello_1
100
AcDbLine
 62
7
  6
CONTINUOUS
 10
-39.2579796655
 20
13.1916192082
 11
-39.2769043028
 21
13.1840822902
  0
LINE
  5
95E
100
AcDbEntity
  8
Livello_1
100
AcDbLine
 62
7
  6
CONTINUOUS
 10
-39.2406475207
 20
13.1981097334
 11
-39.2579796655
 21
13.1916192082
  0
LINE
  5
95F
100
AcDbEntity
  8
Livello_1
100
AcDbLine
 62
7
  6
CONTINUOUS
 10
-39.222880594
 20
75.8283412209
 11
-39.2088710485
 21
75.8321038057
  0
LINE
  5
960
100
AcDbEntity
  8
Livello_1
100
AcDbLine
 62
7
  6
CONTINUOUS
 10
-39.2088710485
 20
75.8321038057
 11
-39.1956244745
 21
75.8351335386
  0
LINE
  5
961
100
AcDbEntity
  8
Livello_1
100
AcDbLine
 62
7
  6
CONTINUOUS
 10
151.8583836796
 20
-68.1750521283
 11
151.8595030917
 21
-68.1652047269
  0
LINE
  5
962
100
AcDbEntity
  8
Livello_1
100
AcDbLine
 62
7
  6
CONTINUOUS
 10
152.4594460799
 20
-68.2185406942
 11
152.458714775
 21
-68.2245963381
  0
LINE
  5
963
100
AcDbEntity
  8
Livello_1
100
AcDbLine
 62
7
  6
CONTINUOUS
 10
152.2705256924
 20
-68.3847503321
 11
152.270819041
 21
-68.3823263542
  0
LINE
  5
964
100
AcDbEntity
  8
Livello_1
100
AcDbLine
 62
7
  6
CONTINUOUS
 10
152.4533958575
 20
-64.4225106678
 11
152.4556196763
 21
-64.4043202774
  0
LINE
  5
965
100
AcDbEntity
  8
Livello_1
100
AcDbLine
 62
7
  6
CONTINUOUS
 10
152.0417416573
 20
-64.5516443332
 11
152.0335022414
 21
-64.6177226984
  0
LINE
  5
966
100
AcDbEntity
  8
Livello_1
100
AcDbLine
 62
7
  6
CONTINUOUS
 10
152.2701933854
 20
-68.3871863491
 11
152.2705256924
 21
-68.3847503321
  0
LINE
  5
967
100
AcDbEntity
  8
Livello_1
100
AcDbLine
 62
7
  6
CONTINUOUS
 10
152.458714775
 20
-68.2245963381
 11
152.4578956452
 21
-68.2304221198
  0
LINE
  5
968
100
AcDbEntity
  8
Livello_1
100
AcDbLine
 62
7
  6
CONTINUOUS
 10
152.4508210908
 20
-64.440219803
 11
152.4533958575
 21
-64.4225106678
  0
LINE
  5
969
100
AcDbEntity
  8
Livello_1
100
AcDbLine
 62
7
  6
CONTINUOUS
 10
151.8569557807
 20
-68.1848043889
 11
151.8583836796
 21
-68.1750521283
  0
LINE
  5
96A
100
AcDbEntity
  8
Livello_1
100
AcDbLine
 62
7
  6
CONTINUOUS
 10
152.0335022414
 20
-64.6177226984
 11
152.0253156858
 21
-64.6722936746
  0
LINE
  5
96B
100
AcDbEntity
  8
Livello_1
100
AcDbLine
 62
7
  6
CONTINUOUS
 10
152.2698222035
 20
-68.3896354086
 11
152.2701933854
 21
-68.3871863491
  0
LINE
  5
96C
100
AcDbEntity
  8
Livello_1
100
AcDbLine
 62
7
  6
CONTINUOUS
 10
152.4578956452
 20
-68.2304221198
 11
152.4569854718
 21
-68.2360641588
  0
LINE
  5
96D
100
AcDbEntity
  8
Livello_1
100
AcDbLine
 62
7
  6
CONTINUOUS
 10
152.2694122296
 20
-68.3920985126
 11
152.2698222035
 21
-68.3896354086
  0
LINE
  5
96E
100
AcDbEntity
  8
Livello_1
100
AcDbLine
 62
7
  6
CONTINUOUS
 10
152.4478751078
 20
-64.4576253515
 11
152.4508210908
 21
-64.440219803
  0
LINE
  5
96F
100
AcDbEntity
  8
Livello_1
100
AcDbLine
 62
7
  6
CONTINUOUS
 10
139.4620329471
 20
14.7890108155
 11
139.4632547659
 21
14.7922072278
  0
LINE
  5
970
100
AcDbEntity
  8
Livello_1
100
AcDbLine
 62
7
  6
CONTINUOUS
 10
139.4605400773
 20
14.7857788541
 11
139.4620329471
 21
14.7890108155
  0
LINE
  5
971
100
AcDbEntity
  8
Livello_1
100
AcDbLine
 62
7
  6
CONTINUOUS
 10
38.3169931079
 20
-68.4653883894
 11
38.3068556351
 21
-68.4778578879
  0
LINE
  5
972
100
AcDbEntity
  8
Livello_1
100
AcDbLine
 62
7
  6
CONTINUOUS
 10
38.3068556351
 20
-68.4778578879
 11
38.2965162417
 21
-68.4897278167
  0
LINE
  5
973
100
AcDbEntity
  8
Livello_1
100
AcDbLine
 62
7
  6
CONTINUOUS
 10
38.0835796505
 20
14.1574459921
 11
37.902901397
 21
14.0651806559
  0
LINE
  5
974
100
AcDbEntity
  8
Livello_1
100
AcDbLine
 62
7
  6
CONTINUOUS
 10
38.420280703
 20
14.324833419
 11
38.250967073
 21
14.2402729125
  0
LINE
  5
975
100
AcDbEntity
  8
Livello_1
100
AcDbLine
 62
7
  6
CONTINUOUS
 10
38.250967073
 20
14.2402729125
 11
38.0835796505
 21
14.1574459921
  0
LINE
  5
976
100
AcDbEntity
  8
Livello_1
100
AcDbLine
 62
7
  6
CONTINUOUS
 10
-39.224368862
 20
13.2037806875
 11
-39.2406475207
 21
13.1981097334
  0
LINE
  5
977
100
AcDbEntity
  8
Livello_1
100
AcDbLine
 62
7
  6
CONTINUOUS
 10
151.8552244633
 20
-68.1944566174
 11
151.8569557807
 21
-68.1848043889
  0
LINE
  5
978
100
AcDbEntity
  8
Livello_1
100
AcDbLine
 62
7
  6
CONTINUOUS
 10
152.0253156858
 20
-64.6722936746
 11
152.0117501237
 21
-64.7472356972
  0
LINE
  5
979
100
AcDbEntity
  8
Livello_1
100
AcDbLine
 62
7
  6
CONTINUOUS
 10
152.2689635474
 20
-68.3945766657
 11
152.2694122296
 21
-68.3920985126
  0
LINE
  5
97A
100
AcDbEntity
  8
Livello_1
100
AcDbLine
 62
7
  6
CONTINUOUS
 10
152.4569854718
 20
-68.2360641588
 11
152.4559808241
 21
-68.2415597302
  0
LINE
  5
97B
100
AcDbEntity
  8
Livello_1
100
AcDbLine
 62
7
  6
CONTINUOUS
 10
152.2684762408
 20
-68.39707087
 11
152.2689635474
 21
-68.3945766657
  0
LINE
  5
97C
100
AcDbEntity
  8
Livello_1
100
AcDbLine
 62
7
  6
CONTINUOUS
 10
152.4477930871
 20
-64.458033518
 11
152.4478751078
 21
-64.4576253515
  0
LINE
  5
97D
100
AcDbEntity
  8
Livello_1
100
AcDbLine
 62
7
  6
CONTINUOUS
 10
151.5683639628
 20
-68.4385137294
 11
151.5690478477
 21
-68.4351142237
  0
LINE
  5
97E
100
AcDbEntity
  8
Livello_1
100
AcDbLine
 62
7
  6
CONTINUOUS
 10
152.4559808241
 20
-68.2415597302
 11
152.4548780053
 21
-68.2469397781
  0
LINE
  5
97F
100
AcDbEntity
  8
Livello_1
100
AcDbLine
 62
7
  6
CONTINUOUS
 10
152.443796206
 20
-64.4771656953
 11
152.4477930871
 21
-64.458033518
  0
LINE
  5
980
100
AcDbEntity
  8
Livello_1
100
AcDbLine
 62
7
  6
CONTINUOUS
 10
152.2679503934
 20
-68.3995821295
 11
152.2684762408
 21
-68.39707087
  0
LINE
  5
981
100
AcDbEntity
  8
Livello_1
100
AcDbLine
 62
7
  6
CONTINUOUS
 10
151.8531947963
 20
-68.2040039206
 11
151.8552244633
 21
-68.1944566174
  0
LINE
  5
982
100
AcDbEntity
  8
Livello_1
100
AcDbLine
 62
7
  6
CONTINUOUS
 10
152.0117501237
 20
-64.7472356972
 11
152.0042667235
 21
-64.7815122165
  0
LINE
  5
983
100
AcDbEntity
  8
Livello_1
100
AcDbLine
 62
7
  6
CONTINUOUS
 10
152.2673860888
 20
-68.4021114472
 11
152.2679503934
 21
-68.3995821295
  0
LINE
  5
984
100
AcDbEntity
  8
Livello_1
100
AcDbLine
 62
7
  6
CONTINUOUS
 10
152.4548780053
 20
-68.2469397781
 11
152.4536730069
 21
-68.2522306028
  0
LINE
  5
985
100
AcDbEntity
  8
Livello_1
100
AcDbLine
 62
7
  6
CONTINUOUS
 10
152.4401128273
 20
-64.4932246859
 11
152.443796206
 21
-64.4771656953
  0
LINE
  5
986
100
AcDbEntity
  8
Livello_1
100
AcDbLine
 62
7
  6
CONTINUOUS
 10
139.4587634703
 20
14.7825066663
 11
139.4605400773
 21
14.7857788541
  0
LINE
  5
987
100
AcDbEntity
  8
Livello_1
100
AcDbLine
 62
7
  6
CONTINUOUS
 10
139.4566887754
 20
14.7791903603
 11
139.4587634703
 21
14.7825066663
  0
LINE
  5
988
100
AcDbEntity
  8
Livello_1
100
AcDbLine
 62
7
  6
CONTINUOUS
 10
38.2965162417
 20
-68.4897278167
 11
38.2860254852
 21
-68.5009597751
  0
LINE
  5
989
100
AcDbEntity
  8
Livello_1
100
AcDbLine
 62
7
  6
CONTINUOUS
 10
152.2667834106
 20
-68.4046598262
 11
152.2673860888
 21
-68.4021114472
  0
LINE
  5
98A
100
AcDbEntity
  8
Livello_1
100
AcDbLine
 62
7
  6
CONTINUOUS
 10
151.8508718491
 20
-68.2134414071
 11
151.8531947963
 21
-68.2040039206
  0
LINE
  5
98B
100
AcDbEntity
  8
Livello_1
100
AcDbLine
 62
7
  6
CONTINUOUS
 10
152.2661424421
 20
-68.4072282701
 11
152.2667834106
 21
-68.4046598262
  0
LINE
  5
98C
100
AcDbEntity
  8
Livello_1
100
AcDbLine
 62
7
  6
CONTINUOUS
 10
152.4536730069
 20
-68.2522306028
 11
152.4523614713
 21
-68.2574550309
  0
LINE
  5
98D
100
AcDbEntity
  8
Livello_1
100
AcDbLine
 62
7
  6
CONTINUOUS
 10
152.4365025645
 20
-64.5073950891
 11
152.4401128273
 21
-64.4932246859
  0
LINE
  5
98E
100
AcDbEntity
  8
Livello_1
100
AcDbLine
 62
7
  6
CONTINUOUS
 10
152.2654632671
 20
-68.4098177818
 11
152.2661424421
 21
-68.4072282701
  0
LINE
  5
98F
100
AcDbEntity
  8
Livello_1
100
AcDbLine
 62
7
  6
CONTINUOUS
 10
152.0042667235
 20
-64.7815122165
 11
151.9968286259
 21
-64.8090397567
  0
LINE
  5
990
100
AcDbEntity
  8
Livello_1
100
AcDbLine
 62
7
  6
CONTINUOUS
 10
152.4523614713
 20
-68.2574550309
 11
152.4509386618
 21
-68.2626332571
  0
LINE
  5
991
100
AcDbEntity
  8
Livello_1
100
AcDbLine
 62
7
  6
CONTINUOUS
 10
151.8482606903
 20
-68.2227641848
 11
151.8508718491
 21
-68.2134414071
  0
LINE
  5
992
100
AcDbEntity
  8
Livello_1
100
AcDbLine
 62
7
  6
CONTINUOUS
 10
152.4328541262
 20
-64.5202294441
 11
152.4365025645
 21
-64.5073950891
  0
LINE
  5
993
100
AcDbEntity
  8
Livello_1
100
AcDbLine
 62
7
  6
CONTINUOUS
 10
139.4543001884
 20
14.7758268734
 11
139.4566887754
 21
14.7791903603
  0
LINE
  5
994
100
AcDbEntity
  8
Livello_1
100
AcDbLine
 62
7
  6
CONTINUOUS
 10
139.4515806697
 20
14.772414009
 11
139.4543001884
 21
14.7758268734
  0
LINE
  5
995
100
AcDbEntity
  8
Livello_1
100
AcDbLine
 62
7
  6
CONTINUOUS
 10
139.4485121601
 20
14.768950454
 11
139.4515806697
 21
14.772414009
  0
LINE
  5
996
100
AcDbEntity
  8
Livello_1
100
AcDbLine
 62
7
  6
CONTINUOUS
 10
38.2860254852
 20
-68.5009597751
 11
38.2754299071
 21
-68.5115250278
  0
LINE
  5
997
100
AcDbEntity
  8
Livello_1
100
AcDbLine
 62
7
  6
CONTINUOUS
 10
38.2754299071
 20
-68.5115250278
 11
38.2640038322
 21
-68.5223248853
  0
LINE
  5
998
100
AcDbEntity
  8
Livello_1
100
AcDbLine
 62
7
  6
CONTINUOUS
 10
5.4628072687
 20
-67.979285036
 11
5.454984803
 21
-67.9853071476
  0
LINE
  5
999
100
AcDbEntity
  8
Livello_1
100
AcDbLine
 62
7
  6
CONTINUOUS
 10
152.4509386618
 20
-68.2626332571
 11
152.4493994318
 21
-68.2677834636
  0
LINE
  5
99A
100
AcDbEntity
  8
Livello_1
100
AcDbLine
 62
7
  6
CONTINUOUS
 10
152.4459489003
 20
-68.2780651927
 11
152.4456105926
 21
-68.2791588254
  0
LINE
  5
99B
100
AcDbEntity
  8
Livello_1
100
AcDbLine
 62
7
  6
CONTINUOUS
 10
151.8453663889
 20
-68.2319673609
 11
151.8482606903
 21
-68.2227641848
  0
LINE
  5
99C
100
AcDbEntity
  8
Livello_1
100
AcDbLine
 62
7
  6
CONTINUOUS
 10
152.4291045403
 20
-64.5320409965
 11
152.4328541262
 21
-64.5202294441
  0
LINE
  5
99D
100
AcDbEntity
  8
Livello_1
100
AcDbLine
 62
7
  6
CONTINUOUS
 10
151.567278945
 20
-68.4418813201
 11
151.5683639628
 21
-68.4385137294
  0
LINE
  5
99E
100
AcDbEntity
  8
Livello_1
100
AcDbLine
 62
7
  6
CONTINUOUS
 10
152.4456105926
 20
-68.2791588254
 11
152.4439703302
 21
-68.2842376213
  0
LINE
  5
99F
100
AcDbEntity
  8
Livello_1
100
AcDbLine
 62
7
  6
CONTINUOUS
 10
152.4493994318
 20
-68.2677834636
 11
152.4477381949
 21
-68.2729222896
  0
LINE
  5
9A0
100
AcDbEntity
  8
Livello_1
100
AcDbLine
 62
7
  6
CONTINUOUS
 10
151.9968286259
 20
-64.8090397567
 11
151.9896536409
 21
-64.8303897303
  0
LINE
  5
9A1
100
AcDbEntity
  8
Livello_1
100
AcDbLine
 62
7
  6
CONTINUOUS
 10
152.4439703302
 20
-68.2842376213
 11
152.442320595
 21
-68.2889878519
  0
LINE
  5
9A2
100
AcDbEntity
  8
Livello_1
100
AcDbLine
 62
7
  6
CONTINUOUS
 10
152.4477381949
 20
-68.2729222896
 11
152.4459489003
 21
-68.2780651927
  0
LINE
  5
9A3
100
AcDbEntity
  8
Livello_1
100
AcDbLine
 62
7
  6
CONTINUOUS
 10
151.8421940137
 20
-68.2410460447
 11
151.8453663889
 21
-68.2319673609
  0
LINE
  5
9A4
100
AcDbEntity
  8
Livello_1
100
AcDbLine
 62
7
  6
CONTINUOUS
 10
152.4252132836
 20
-64.5430293705
 11
152.4291045403
 21
-64.5320409965
  0
LINE
  5
9A5
100
AcDbEntity
  8
Livello_1
100
AcDbLine
 62
7
  6
CONTINUOUS
 10
139.4450758003
 20
14.7654357864
 11
139.4485121601
 21
14.768950454
  0
LINE
  5
9A6
100
AcDbEntity
  8
Livello_1
100
AcDbLine
 62
7
  6
CONTINUOUS
 10
139.4412521452
 20
14.7618704729
 11
139.4450758003
 21
14.7654357864
  0
LINE
  5
9A7
100
AcDbEntity
  8
Livello_1
100
AcDbLine
 62
7
  6
CONTINUOUS
 10
38.2640038322
 20
-68.5223248853
 11
38.2521321218
 21
-68.5327926203
  0
LINE
  5
9A8
100
AcDbEntity
  8
Livello_1
100
AcDbLine
 62
7
  6
CONTINUOUS
 10
139.4370213807
 20
14.7582558654
 11
139.4412521452
 21
14.7618704729
  0
LINE
  5
9A9
100
AcDbEntity
  8
Livello_1
100
AcDbLine
 62
7
  6
CONTINUOUS
 10
96.3509371748
 20
14.6353415512
 11
96.8249768144
 21
14.9005803161
  0
LINE
  5
9AA
100
AcDbEntity
  8
Livello_1
100
AcDbLine
 62
7
  6
CONTINUOUS
 10
152.442320595
 20
-68.2889878519
 11
152.4406517129
 21
-68.2934539016
  0
LINE
  5
9AB
100
AcDbEntity
  8
Livello_1
100
AcDbLine
 62
7
  6
CONTINUOUS
 10
151.8387486338
 20
-68.2499953423
 11
151.8421940137
 21
-68.2410460447
  0
LINE
  5
9AC
100
AcDbEntity
  8
Livello_1
100
AcDbLine
 62
7
  6
CONTINUOUS
 10
152.4211515778
 20
-64.5533321876
 11
152.4252132836
 21
-64.5430293705
  0
LINE
  5
9AD
100
AcDbEntity
  8
Livello_1
100
AcDbLine
 62
7
  6
CONTINUOUS
 10
152.4406517129
 20
-68.2934539016
 11
152.4389572179
 21
-68.2976676279
  0
LINE
  5
9AE
100
AcDbEntity
  8
Livello_1
100
AcDbLine
 62
7
  6
CONTINUOUS
 10
151.5665474167
 20
-68.4436342525
 11
151.567278945
 21
-68.4418813201
  0
LINE
  5
9AF
100
AcDbEntity
  8
Livello_1
100
AcDbLine
 62
7
  6
CONTINUOUS
 10
151.8350353184
 20
-68.2588103631
 11
151.8387486338
 21
-68.2499953423
  0
LINE
  5
9B0
100
AcDbEntity
  8
Livello_1
100
AcDbLine
 62
7
  6
CONTINUOUS
 10
151.9896536409
 20
-64.8303897303
 11
151.9829084156
 21
-64.8463133161
  0
LINE
  5
9B1
100
AcDbEntity
  8
Livello_1
100
AcDbLine
 62
7
  6
CONTINUOUS
 10
152.4389572179
 20
-68.2976676279
 11
152.4372326131
 21
-68.3016530907
  0
LINE
  5
9B2
100
AcDbEntity
  8
Livello_1
100
AcDbLine
 62
7
  6
CONTINUOUS
 10
152.4168971917
 20
-64.5630498251
 11
152.4211515778
 21
-64.5533321876
  0
LINE
  5
9B3
100
AcDbEntity
  8
Livello_1
100
AcDbLine
 62
7
  6
CONTINUOUS
 10
38.2521321218
 20
-68.5327926203
 11
38.2398262378
 21
-68.5429130968
  0
LINE
  5
9B4
100
AcDbEntity
  8
Livello_1
100
AcDbLine
 62
7
  6
CONTINUOUS
 10
139.4323635384
 20
14.7545941891
 11
139.4370213807
 21
14.7582558654
  0
LINE
  5
9B5
100
AcDbEntity
  8
Livello_1
100
AcDbLine
 62
7
  6
CONTINUOUS
 10
38.2398262378
 20
-68.5429130968
 11
38.2270990759
 21
-68.5526708454
  0
LINE
  5
9B6
100
AcDbEntity
  8
Livello_1
100
AcDbLine
 62
7
  6
CONTINUOUS
 10
139.4272587088
 20
14.7508885244
 11
139.4323635384
 21
14.7545941891
  0
LINE
  5
9B7
100
AcDbEntity
  8
Livello_1
100
AcDbLine
 62
7
  6
CONTINUOUS
 10
139.4216872532
 20
14.7471427923
 11
139.4272587088
 21
14.7508885244
  0
LINE
  5
9B8
100
AcDbEntity
  8
Livello_1
100
AcDbLine
 62
7
  6
CONTINUOUS
 10
139.4156300167
 20
14.7433617305
 11
139.4216872532
 21
14.7471427923
  0
LINE
  5
9B9
100
AcDbEntity
  8
Livello_1
100
AcDbLine
 62
7
  6
CONTINUOUS
 10
5.454984803
 20
-67.9853071476
 11
5.4528559148
 21
-67.9866334993
  0
LINE
  5
9BA
100
AcDbEntity
  8
Livello_1
100
AcDbLine
 62
7
  6
CONTINUOUS
 10
139.4090685368
 20
14.739550869
 11
139.4156300167
 21
14.7433617305
  0
LINE
  5
9BB
100
AcDbEntity
  8
Livello_1
100
AcDbLine
 62
7
  6
CONTINUOUS
 10
151.8310591356
 20
-68.2674862143
 11
151.8350353184
 21
-68.2588103631
  0
LINE
  5
9BC
100
AcDbEntity
  8
Livello_1
100
AcDbLine
 62
7
  6
CONTINUOUS
 10
152.4372326131
 20
-68.3016530907
 11
152.4354746623
 21
-68.30542921
  0
LINE
  5
9BD
100
AcDbEntity
  8
Livello_1
100
AcDbLine
 62
7
  6
CONTINUOUS
 10
151.5656721214
 20
-68.4454526195
 11
151.5665474167
 21
-68.4436342525
  0
LINE
  5
9BE
100
AcDbEntity
  8
Livello_1
100
AcDbLine
 62
7
  6
CONTINUOUS
 10
152.4124316062
 20
-64.5722586392
 11
152.4168971917
 21
-64.5630498251
  0
LINE
  5
9BF
100
AcDbEntity
  8
Livello_1
100
AcDbLine
 62
7
  6
CONTINUOUS
 10
151.826825155
 20
-68.2760180042
 11
151.8310591356
 21
-68.2674862143
  0
LINE
  5
9C0
100
AcDbEntity
  8
Livello_1
100
AcDbLine
 62
7
  6
CONTINUOUS
 10
152.4354746623
 20
-68.30542921
 11
152.4336809542
 21
-68.3090113527
  0
LINE
  5
9C1
100
AcDbEntity
  8
Livello_1
100
AcDbLine
 62
7
  6
CONTINUOUS
 10
152.3985265411
 20
-64.5978063077
 11
152.4028018548
 21
-64.5893779406
  0
LINE
  5
9C2
100
AcDbEntity
  8
Livello_1
100
AcDbLine
 62
7
  6
CONTINUOUS
 10
152.3901310483
 20
-64.6138090558
 11
152.3985265411
 21
-64.5978063077
  0
LINE
  5
9C3
100
AcDbEntity
  8
Livello_1
100
AcDbLine
 62
7
  6
CONTINUOUS
 10
152.4077383343
 20
-64.5810185959
 11
152.4124316062
 21
-64.5722586392
  0
LINE
  5
9C4
100
AcDbEntity
  8
Livello_1
100
AcDbLine
 62
7
  6
CONTINUOUS
 10
38.2270990759
 20
-68.5526708454
 11
38.2139650152
 21
-68.5620501812
  0
LINE
  5
9C5
100
AcDbEntity
  8
Livello_1
100
AcDbLine
 62
7
  6
CONTINUOUS
 10
38.2139650152
 20
-68.5620501812
 11
38.2004399436
 21
-68.5710353348
  0
LINE
  5
9C6
100
AcDbEntity
  8
Livello_1
100
AcDbLine
 62
7
  6
CONTINUOUS
 10
139.4019852479
 20
14.7357164985
 11
139.4090685368
 21
14.739550869
  0
LINE
  5
9C7
100
AcDbEntity
  8
Livello_1
100
AcDbLine
 62
7
  6
CONTINUOUS
 10
139.3970495311
 20
14.7331928893
 11
139.4019852479
 21
14.7357164985
  0
LINE
  5
9C8
100
AcDbEntity
  8
Livello_1
100
AcDbLine
 62
7
  6
CONTINUOUS
 10
139.3899687358
 20
14.7301731947
 11
139.3970495311
 21
14.7331928893
  0
LINE
  5
9C9
100
AcDbEntity
  8
Livello_1
100
AcDbLine
 62
7
  6
CONTINUOUS
 10
139.3823906556
 20
14.7272026909
 11
139.3899687358
 21
14.7301731947
  0
LINE
  5
9CA
100
AcDbEntity
  8
Livello_1
100
AcDbLine
 62
7
  6
CONTINUOUS
 10
139.3743115508
 20
14.7242938908
 11
139.3823906556
 21
14.7272026909
  0
LINE
  5
9CB
100
AcDbEntity
  8
Livello_1
100
AcDbLine
 62
7
  6
CONTINUOUS
 10
139.3657315164
 20
14.7214601066
 11
139.3743115508
 21
14.7242938908
  0
LINE
  5
9CC
100
AcDbEntity
  8
Livello_1
100
AcDbLine
 62
7
  6
CONTINUOUS
 10
139.3566548823
 20
14.7187153235
 11
139.3657315164
 21
14.7214601066
  0
LINE
  5
9CD
100
AcDbEntity
  8
Livello_1
100
AcDbLine
 62
7
  6
CONTINUOUS
 10
151.8223384453
 20
-68.28440084
 11
151.826825155
 21
-68.2760180042
  0
LINE
  5
9CE
100
AcDbEntity
  8
Livello_1
100
AcDbLine
 62
7
  6
CONTINUOUS
 10
152.4336809542
 20
-68.3090113527
 11
152.4318496205
 21
-68.312412332
  0
LINE
  5
9CF
100
AcDbEntity
  8
Livello_1
100
AcDbLine
 62
7
  6
CONTINUOUS
 10
151.9829084156
 20
-64.8463133161
 11
151.9766992671
 21
-64.857665153
  0
LINE
  5
9D0
100
AcDbEntity
  8
Livello_1
100
AcDbLine
 62
7
  6
CONTINUOUS
 10
152.3822655246
 20
-64.6280422951
 11
152.3901310483
 21
-64.6138090558
  0
LINE
  5
9D1
100
AcDbEntity
  8
Livello_1
100
AcDbLine
 62
7
  6
CONTINUOUS
 10
151.8176040752
 20
-68.2926298304
 11
151.8223384453
 21
-68.28440084
  0
LINE
  5
9D2
100
AcDbEntity
  8
Livello_1
100
AcDbLine
 62
7
  6
CONTINUOUS
 10
152.4318496205
 20
-68.312412332
 11
152.4299791449
 21
-68.3156430601
  0
LINE
  5
9D3
100
AcDbEntity
  8
Livello_1
100
AcDbLine
 62
7
  6
CONTINUOUS
 10
152.3747305941
 20
-64.6409196255
 11
152.3822655246
 21
-64.6280422951
  0
LINE
  5
9D4
100
AcDbEntity
  8
Livello_1
100
AcDbLine
 62
7
  6
CONTINUOUS
 10
152.4028018548
 20
-64.5893779406
 11
152.4077383343
 21
-64.5810185959
  0
LINE
  5
9D5
100
AcDbEntity
  8
Livello_1
100
AcDbLine
 62
7
  6
CONTINUOUS
 10
151.8126271143
 20
-68.3007000827
 11
151.8176040752
 21
-68.2926298304
  0
LINE
  5
9D6
100
AcDbEntity
  8
Livello_1
100
AcDbLine
 62
7
  6
CONTINUOUS
 10
152.3674166486
 20
-64.6526770289
 11
152.3747305941
 21
-64.6409196255
  0
LINE
  5
9D7
100
AcDbEntity
  8
Livello_1
100
AcDbLine
 62
7
  6
CONTINUOUS
 10
38.2004399436
 20
-68.5710353348
 11
38.1865412658
 21
-68.5796105927
  0
LINE
  5
9D8
100
AcDbEntity
  8
Livello_1
100
AcDbLine
 62
7
  6
CONTINUOUS
 10
-6.6310681187
 20
-67.9582667426
 11
-6.6101752048
 21
-67.9480456257
  0
LINE
  5
9D9
100
AcDbEntity
  8
Livello_1
100
AcDbLine
 62
7
  6
CONTINUOUS
 10
152.4299791449
 20
-68.3156430601
 11
152.4280682273
 21
-68.3187129866
  0
LINE
  5
9DA
100
AcDbEntity
  8
Livello_1
100
AcDbLine
 62
7
  6
CONTINUOUS
 10
151.8074126308
 20
-68.3086067052
 11
151.8126271143
 21
-68.3007000827
  0
LINE
  5
9DB
100
AcDbEntity
  8
Livello_1
100
AcDbLine
 62
7
  6
CONTINUOUS
 10
152.3602563114
 20
-64.6634670434
 11
152.3674166486
 21
-64.6526770289
  0
LINE
  5
9DC
100
AcDbEntity
  8
Livello_1
100
AcDbLine
 62
7
  6
CONTINUOUS
 10
152.4280682273
 20
-68.3187129866
 11
152.4261156862
 21
-68.3216304044
  0
LINE
  5
9DD
100
AcDbEntity
  8
Livello_1
100
AcDbLine
 62
7
  6
CONTINUOUS
 10
151.8019656943
 20
-68.3163448056
 11
151.8074126308
 21
-68.3086067052
  0
LINE
  5
9DE
100
AcDbEntity
  8
Livello_1
100
AcDbLine
 62
7
  6
CONTINUOUS
 10
152.3532048298
 20
-64.6733972573
 11
152.3602563114
 21
-64.6634670434
  0
LINE
  5
9DF
100
AcDbEntity
  8
Livello_1
100
AcDbLine
 62
7
  6
CONTINUOUS
 10
152.4261156862
 20
-68.3216304044
 11
152.424120383
 21
-68.3244026634
  0
LINE
  5
9E0
100
AcDbEntity
  8
Livello_1
100
AcDbLine
 62
7
  6
CONTINUOUS
 10
151.9766992671
 20
-64.857665153
 11
151.9710666501
 21
-64.8653210644
  0
LINE
  5
9E1
100
AcDbEntity
  8
Livello_1
100
AcDbLine
 62
7
  6
CONTINUOUS
 10
38.1865412658
 20
-68.5796105927
 11
38.1722878792
 21
-68.5877604382
  0
LINE
  5
9E2
100
AcDbEntity
  8
Livello_1
100
AcDbLine
 62
7
  6
CONTINUOUS
 10
38.1722878792
 20
-68.5877604382
 11
38.1577001304
 21
-68.5954697026
  0
LINE
  5
9E3
100
AcDbEntity
  8
Livello_1
100
AcDbLine
 62
7
  6
CONTINUOUS
 10
151.7962913729
 20
-68.3239094916
 11
151.8019656943
 21
-68.3163448056
  0
LINE
  5
9E4
100
AcDbEntity
  8
Livello_1
100
AcDbLine
 62
7
  6
CONTINUOUS
 10
152.346230628
 20
-64.6825485918
 11
152.3532048298
 21
-64.6733972573
  0
LINE
  5
9E5
100
AcDbEntity
  8
Livello_1
100
AcDbLine
 62
7
  6
CONTINUOUS
 10
152.424120383
 20
-68.3244026634
 11
152.422081168
 21
-68.3270363212
  0
LINE
  5
9E6
100
AcDbEntity
  8
Livello_1
100
AcDbLine
 62
7
  6
CONTINUOUS
 10
151.7903947358
 20
-68.3312958715
 11
151.7962913729
 21
-68.3239094916
  0
LINE
  5
9E7
100
AcDbEntity
  8
Livello_1
100
AcDbLine
 62
7
  6
CONTINUOUS
 10
152.3393102378
 20
-64.690984929
 11
152.346230628
 21
-64.6825485918
  0
LINE
  5
9E8
100
AcDbEntity
  8
Livello_1
100
AcDbLine
 62
7
  6
CONTINUOUS
 10
152.422081168
 20
-68.3270363212
 11
152.419996836
 21
-68.3295372557
  0
LINE
  5
9E9
100
AcDbEntity
  8
Livello_1
100
AcDbLine
 62
7
  6
CONTINUOUS
 10
151.7842808527
 20
-68.3384990531
 11
151.7903947358
 21
-68.3312958715
  0
LINE
  5
9EA
100
AcDbEntity
  8
Livello_1
100
AcDbLine
 62
7
  6
CONTINUOUS
 10
38.1577001304
 20
-68.5954697026
 11
38.1427997392
 21
-68.6027237119
  0
LINE
  5
9EB
100
AcDbEntity
  8
Livello_1
100
AcDbLine
 62
7
  6
CONTINUOUS
 10
38.1427997392
 20
-68.6027237119
 11
38.127609701
 21
-68.6095084307
  0
LINE
  5
9EC
100
AcDbEntity
  8
Livello_1
100
AcDbLine
 62
7
  6
CONTINUOUS
 10
-6.6101752048
 20
-67.9480456257
 11
-6.588069922
 21
-67.9400726448
  0
LINE
  5
9ED
100
AcDbEntity
  8
Livello_1
100
AcDbLine
 62
7
  6
CONTINUOUS
 10
5.4528559148
 20
-67.9866334993
 11
5.4305072943
 21
-67.9946838314
  0
LINE
  5
9EE
100
AcDbEntity
  8
Livello_1
100
AcDbLine
 62
7
  6
CONTINUOUS
 10
152.3324253406
 20
-64.6987585677
 11
152.3393102378
 21
-64.690984929
  0
LINE
  5
9EF
100
AcDbEntity
  8
Livello_1
100
AcDbLine
 62
7
  6
CONTINUOUS
 10
152.419996836
 20
-68.3295372557
 11
152.4178660903
 21
-68.3319107439
  0
LINE
  5
9F0
100
AcDbEntity
  8
Livello_1
100
AcDbLine
 62
7
  6
CONTINUOUS
 10
151.7779547918
 20
-68.3455141441
 11
151.7842808527
 21
-68.3384990531
  0
LINE
  5
9F1
100
AcDbEntity
  8
Livello_1
100
AcDbLine
 62
7
  6
CONTINUOUS
 10
151.771421622
 20
-68.3523362522
 11
151.7779547918
 21
-68.3455141441
  0
LINE
  5
9F2
100
AcDbEntity
  8
Livello_1
100
AcDbLine
 62
7
  6
CONTINUOUS
 10
152.3255609379
 20
-64.7059134906
 11
152.3324253406
 21
-64.6987585677
  0
LINE
  5
9F3
100
AcDbEntity
  8
Livello_1
100
AcDbLine
 62
7
  6
CONTINUOUS
 10
152.4178660903
 20
-68.3319107439
 11
152.4156875201
 21
-68.3341615204
  0
LINE
  5
9F4
100
AcDbEntity
  8
Livello_1
100
AcDbLine
 62
7
  6
CONTINUOUS
 10
152.3151895029
 20
-64.7160602658
 11
152.3255609379
 21
-64.7059134906
  0
LINE
  5
9F5
100
AcDbEntity
  8
Livello_1
100
AcDbLine
 62
7
  6
CONTINUOUS
 10
38.127609701
 20
-68.6095084307
 11
38.1121541602
 21
-68.6158106004
  0
LINE
  5
9F6
100
AcDbEntity
  8
Livello_1
100
AcDbLine
 62
7
  6
CONTINUOUS
 10
38.1121541602
 20
-68.6158106004
 11
38.0964582635
 21
-68.6216178691
  0
LINE
  5
9F7
100
AcDbEntity
  8
Livello_1
100
AcDbLine
 62
7
  6
CONTINUOUS
 10
5.4305072943
 20
-67.9946838314
 11
5.4007353233
 21
-68.0045469111
  0
LINE
  5
9F8
100
AcDbEntity
  8
Livello_1
100
AcDbLine
 62
7
  6
CONTINUOUS
 10
-6.5464530455
 20
-67.9340480362
 11
-6.5334858088
 21
-67.9297647192
  0
LINE
  5
9F9
100
AcDbEntity
  8
Livello_1
100
AcDbLine
 62
7
  6
CONTINUOUS
 10
-6.588069922
 20
-67.9400726448
 11
-6.5803418038
 21
-67.9377078305
  0
LINE
  5
9FA
100
AcDbEntity
  8
Livello_1
100
AcDbLine
 62
7
  6
CONTINUOUS
 10
151.7646864122
 20
-68.3589604863
 11
151.771421622
 21
-68.3523362522
  0
LINE
  5
9FB
100
AcDbEntity
  8
Livello_1
100
AcDbLine
 62
7
  6
CONTINUOUS
 10
152.4156875201
 20
-68.3341615204
 11
152.4134595761
 21
-68.33629382
  0
LINE
  5
9FC
100
AcDbEntity
  8
Livello_1
100
AcDbLine
 62
7
  6
CONTINUOUS
 10
151.9710666501
 20
-64.8653210644
 11
151.9659787375
 21
-64.8700985815
  0
LINE
  5
9FD
100
AcDbEntity
  8
Livello_1
100
AcDbLine
 62
7
  6
CONTINUOUS
 10
152.3038141662
 20
-64.7266260088
 11
152.3151895029
 21
-64.7160602658
  0
LINE
  5
9FE
100
AcDbEntity
  8
Livello_1
100
AcDbLine
 62
7
  6
CONTINUOUS
 10
151.757754232
 20
-68.365381953
 11
151.7646864122
 21
-68.3589604863
  0
LINE
  5
9FF
100
AcDbEntity
  8
Livello_1
100
AcDbLine
 62
7
  6
CONTINUOUS
 10
152.2911510159
 20
-64.7378451911
 11
152.3038141662
 21
-64.7266260088
  0
LINE
  5
A00
100
AcDbEntity
  8
Livello_1
100
AcDbLine
 62
7
  6
CONTINUOUS
 10
152.4134595761
 20
-68.33629382
 11
152.4111805561
 21
-68.338311407
  0
LINE
  5
A01
100
AcDbEntity
  8
Livello_1
100
AcDbLine
 62
7
  6
CONTINUOUS
 10
151.7506301495
 20
-68.3715957611
 11
151.757754232
 21
-68.365381953
  0
LINE
  5
A02
100
AcDbEntity
  8
Livello_1
100
AcDbLine
 62
7
  6
CONTINUOUS
 10
152.2766638883
 20
-64.7501609661
 11
152.2911510159
 21
-64.7378451911
  0
LINE
  5
A03
100
AcDbEntity
  8
Livello_1
100
AcDbLine
 62
7
  6
CONTINUOUS
 10
152.2590566885
 20
-64.7646461887
 11
152.2766638883
 21
-64.7501609661
  0
LINE
  5
A04
100
AcDbEntity
  8
Livello_1
100
AcDbLine
 62
7
  6
CONTINUOUS
 10
151.7433192338
 20
-68.3775970183
 11
151.7506301495
 21
-68.3715957611
  0
LINE
  5
A05
100
AcDbEntity
  8
Livello_1
100
AcDbLine
 62
7
  6
CONTINUOUS
 10
152.2201973937
 20
-64.7962526198
 11
152.2382048167
 21
-64.7815245395
  0
LINE
  5
A06
100
AcDbEntity
  8
Livello_1
100
AcDbLine
 62
7
  6
CONTINUOUS
 10
152.2382048167
 20
-64.7815245395
 11
152.2590566885
 21
-64.7646461887
  0
LINE
  5
A07
100
AcDbEntity
  8
Livello_1
100
AcDbLine
 62
7
  6
CONTINUOUS
 10
38.0964582635
 20
-68.6216178691
 11
38.0805479934
 21
-68.626918902
  0
LINE
  5
A08
100
AcDbEntity
  8
Livello_1
100
AcDbLine
 62
7
  6
CONTINUOUS
 10
38.0805479934
 20
-68.626918902
 11
38.075525927
 21
-68.6284731523
  0
LINE
  5
A09
100
AcDbEntity
  8
Livello_1
100
AcDbLine
 62
7
  6
CONTINUOUS
 10
152.4111805561
 20
-68.338311407
 11
152.4088485931
 21
-68.3402175988
  0
LINE
  5
A0A
100
AcDbEntity
  8
Livello_1
100
AcDbLine
 62
7
  6
CONTINUOUS
 10
151.7358265541
 20
-68.3833808325
 11
151.7433192338
 21
-68.3775970183
  0
LINE
  5
A0B
100
AcDbEntity
  8
Livello_1
100
AcDbLine
 62
7
  6
CONTINUOUS
 10
152.4088485931
 20
-68.3402175988
 11
152.4064616485
 21
-68.3420152802
  0
LINE
  5
A0C
100
AcDbEntity
  8
Livello_1
100
AcDbLine
 62
7
  6
CONTINUOUS
 10
151.7281571791
 20
-68.3889423113
 11
151.7358265541
 21
-68.3833808325
  0
LINE
  5
A0D
100
AcDbEntity
  8
Livello_1
100
AcDbLine
 62
7
  6
CONTINUOUS
 10
151.720316178
 20
-68.394276563
 11
151.7281571791
 21
-68.3889423113
  0
LINE
  5
A0E
100
AcDbEntity
  8
Livello_1
100
AcDbLine
 62
7
  6
CONTINUOUS
 10
151.7123086192
 20
-68.3993786949
 11
151.720316178
 21
-68.394276563
  0
LINE
  5
A0F
100
AcDbEntity
  8
Livello_1
100
AcDbLine
 62
7
  6
CONTINUOUS
 10
151.7041395721
 20
-68.4042438157
 11
151.7123086192
 21
-68.3993786949
  0
LINE
  5
A10
100
AcDbEntity
  8
Livello_1
100
AcDbLine
 62
7
  6
CONTINUOUS
 10
152.1903588934
 20
-64.8103696394
 11
152.1801644672
 21
-64.8163165822
  0
LINE
  5
A11
100
AcDbEntity
  8
Livello_1
100
AcDbLine
 62
7
  6
CONTINUOUS
 10
152.1995810707
 20
-64.8050726366
 11
152.1903588934
 21
-64.8103696394
  0
LINE
  5
A12
100
AcDbEntity
  8
Livello_1
100
AcDbLine
 62
7
  6
CONTINUOUS
 10
152.1801644672
 20
-64.8163165822
 11
152.1711780823
 21
-64.8214606057
  0
LINE
  5
A13
100
AcDbEntity
  8
Livello_1
100
AcDbLine
 62
7
  6
CONTINUOUS
 10
151.6958141053
 20
-68.4088670331
 11
151.7041395721
 21
-68.4042438157
  0
LINE
  5
A14
100
AcDbEntity
  8
Livello_1
100
AcDbLine
 62
7
  6
CONTINUOUS
 10
151.9659787375
 20
-64.8700985815
 11
151.9613203329
 21
-64.8726761017
  0
LINE
  5
A15
100
AcDbEntity
  8
Livello_1
100
AcDbLine
 62
7
  6
CONTINUOUS
 10
152.2071391811
 20
-64.8009091341
 11
152.1995810707
 21
-64.8050726366
  0
LINE
  5
A16
100
AcDbEntity
  8
Livello_1
100
AcDbLine
 62
7
  6
CONTINUOUS
 10
152.1711780823
 20
-64.8214606057
 11
152.1637034145
 21
-64.8255571546
  0
LINE
  5
A17
100
AcDbEntity
  8
Livello_1
100
AcDbLine
 62
7
  6
CONTINUOUS
 10
152.2138989817
 20
-64.7973899695
 11
152.2071391811
 21
-64.8009091341
  0
LINE
  5
A18
100
AcDbEntity
  8
Livello_1
100
AcDbLine
 62
7
  6
CONTINUOUS
 10
152.1637034145
 20
-64.8255571546
 11
152.1569737451
 21
-64.8290390965
  0
LINE
  5
A19
100
AcDbEntity
  8
Livello_1
100
AcDbLine
 62
7
  6
CONTINUOUS
 10
151.6873372884
 20
-68.4132434545
 11
151.6958141053
 21
-68.4088670331
  0
LINE
  5
A1A
100
AcDbEntity
  8
Livello_1
100
AcDbLine
 62
7
  6
CONTINUOUS
 10
152.2201973937
 20
-64.7943264122
 11
152.2138989817
 21
-64.7973899695
  0
LINE
  5
A1B
100
AcDbEntity
  8
Livello_1
100
AcDbLine
 62
7
  6
CONTINUOUS
 10
152.1569737451
 20
-64.8290390965
 11
152.1506783579
 21
-64.8320800778
  0
LINE
  5
A1C
100
AcDbEntity
  8
Livello_1
100
AcDbLine
 62
7
  6
CONTINUOUS
 10
151.6787141896
 20
-68.4173681879
 11
151.6873372884
 21
-68.4132434545
  0
LINE
  5
A1D
100
AcDbEntity
  8
Livello_1
100
AcDbLine
 62
7
  6
CONTINUOUS
 10
152.4521519356
 20
-68.2052824874
 11
152.4534611091
 21
-68.2046766893
  0
LINE
  5
A1E
100
AcDbEntity
  8
Livello_1
100
AcDbLine
 62
7
  6
CONTINUOUS
 10
151.6699498779
 20
-68.4212363419
 11
151.6787141896
 21
-68.4173681879
  0
LINE
  5
A1F
100
AcDbEntity
  8
Livello_1
100
AcDbLine
 62
7
  6
CONTINUOUS
 10
152.1506783579
 20
-64.8320800778
 11
152.1427835904
 21
-64.8354022262
  0
LINE
  5
A20
100
AcDbEntity
  8
Livello_1
100
AcDbLine
 62
7
  6
CONTINUOUS
 10
151.6610494227
 20
-68.4248430234
 11
151.6699498779
 21
-68.4212363419
  0
LINE
  5
A21
100
AcDbEntity
  8
Livello_1
100
AcDbLine
 62
7
  6
CONTINUOUS
 10
152.1427835904
 20
-64.8354022262
 11
152.1344041951
 21
-64.8386935249
  0
LINE
  5
A22
100
AcDbEntity
  8
Livello_1
100
AcDbLine
 62
7
  6
CONTINUOUS
 10
151.6520178924
 20
-68.4281833414
 11
151.6610494227
 21
-68.4248430234
  0
LINE
  5
A23
100
AcDbEntity
  8
Livello_1
100
AcDbLine
 62
7
  6
CONTINUOUS
 10
152.1344041951
 20
-64.8386935249
 11
152.1255085224
 21
-64.8419556437
  0
LINE
  5
A24
100
AcDbEntity
  8
Livello_1
100
AcDbLine
 62
7
  6
CONTINUOUS
 10
152.4507804703
 20
-68.2057547279
 11
152.4521519356
 21
-68.2052824874
  0
LINE
  5
A25
100
AcDbEntity
  8
Livello_1
100
AcDbLine
 62
7
  6
CONTINUOUS
 10
152.1255085224
 20
-64.8419556437
 11
152.1160589821
 21
-64.8451915468
  0
LINE
  5
A26
100
AcDbEntity
  8
Livello_1
100
AcDbLine
 62
7
  6
CONTINUOUS
 10
151.6428603558
 20
-68.4312524025
 11
151.6520178924
 21
-68.4281833414
  0
LINE
  5
A27
100
AcDbEntity
  8
Livello_1
100
AcDbLine
 62
7
  6
CONTINUOUS
 10
152.1160589821
 20
-64.8451915468
 11
152.1060093287
 21
-64.8484061691
  0
LINE
  5
A28
100
AcDbEntity
  8
Livello_1
100
AcDbLine
 62
7
  6
CONTINUOUS
 10
152.4384244417
 20
-68.2071958736
 11
152.440362899
 21
-68.2066028968
  0
LINE
  5
A29
100
AcDbEntity
  8
Livello_1
100
AcDbLine
 62
7
  6
CONTINUOUS
 10
151.6335818826
 20
-68.434045316
 11
151.6428603558
 21
-68.4312524025
  0
LINE
  5
A2A
100
AcDbEntity
  8
Livello_1
100
AcDbLine
 62
7
  6
CONTINUOUS
 10
152.1060093287
 20
-64.8484061691
 11
152.0953001129
 21
-64.8516075069
  0
LINE
  5
A2B
100
AcDbEntity
  8
Livello_1
100
AcDbLine
 62
7
  6
CONTINUOUS
 10
38.075525927
 20
-68.6284731523
 11
38.0593840475
 21
-68.6330915845
  0
ENDSEC
  0
SECTION
  2
OBJECTS
  0
DICTIONARY
  5
C
100
AcDbDictionary
280
0
281
1
  3
ACAD_GROUP
350
D
  3
ACAD_MLINESTYLE
350
17
  3
ACAD_LAYOUT
350
1A
  3
ACAD_PLOTSETTINGS
350
19
  3
ACAD_PLOTSTYLENAME
350
E
  0
DICTIONARY
  5
D
102
{ACAD_REACTORS
330
C
102
}
100
AcDbDictionary
280
0
281
1
  0
ACDBDICTIONARYWDFLT
  5
E
102
{ACAD_REACTORS
330
C
102
}
100
AcDbDictionary
281
1
  3
Normal
350
F
100
AcDbDictionaryWithDefault
340
F
  0
DICTIONARY
  5
17
102
{ACAD_REACTORS
330
C
102
}
100
AcDbDictionary
280
0
281
1
  3
Standard
350
18
  0
DICTIONARY
  5
19
102
{ACAD_REACTORS
330
C
102
}
100
AcDbDictionary
281
1
  0
DICTIONARY
  5
1A
102
{ACAD_REACTORS
330
C
102
}
100
AcDbDictionary
281
1
  3
Model
350
A2C
  3
Layout1
350
A2D
  0
ACDBPLACEHOLDER
  5
F
102
{ACAD_REACTORS
330
E
102
}
  0
MLINESTYLE
  5
18
102
{ACAD_REACTORS
330
17
102
}
100
AcDbMlineStyle
  2
STANDARD
 70
0
  3

 62
256
 51
90.0
 52
90.0
 71
2
 49
0.5
 62
256
  6
BYLAYER
 49
-0.5
 62
256
  6
BYLAYER
  0
LAYOUT
  5
A2C
102
{ACAD_REACTORS
330
1A
102
}
100
AcDbPlotSettings
  1

  2
none_device
  4
ISO_A4_(297.00_x_210.00_MM)
  6

 40
0.0
 41
0.0
 42
0.0
 43
0.0
 44
297.0
 45
210.0
 46
0.0
 47
0.0
 48
0.0
 49
0.0
140
0.0
141
0.0
142
1.0
143
1.0
 70
1024
 72
1
 73
0
 74
0
  7

 75
0
147
1.0
148
0.0
149
0.0
100
AcDbLayout
  1
Model
 70
0
 71
0
 10
0.0
 20
0.0
 11
297.0
 21
210.0
 12
0.0
 22
0.0
 32
0.0
 14
0.0
 24
0.0
 34
0.0
 15
0.0
 25
0.0
 35
0.0
146
0.0
 13
0.0
 23
0.0
 33
0.0
 16
1.0
 26
0.0
 36
0.0
 17
0.0
 27
1.0
 37
0.0
 76
0
330
201
345
0
346
0
  0
LAYOUT
  5
A2D
102
{ACAD_REACTORS
330
1A
102
}
100
AcDbPlotSettings
  1

  2
none_device
  4
ISO_A4_(297.00_x_210.00_MM)
  6

 40
0.0
 41
0.0
 42
0.0
 43
0.0
 44
297.0
 45
210.0
 46
0.0
 47
0.0
 48
0.0
 49
0.0
140
0.0
141
0.0
142
1.0
143
1.0
 70
0
 72
1
 73
0
 74
0
  7

 75
0
147
1.0
148
0.0
149
0.0
100
AcDbLayout
  1
Layout1
 70
0
 71
1
 10
0.0
 20
0.0
 11
297.0
 21
210.0
 12
0.0
 22
0.0
 32
0.0
 14
0.0
 24
0.0
 34
0.0
 15
0.0
 25
0.0
 35
0.0
146
0.0
 13
0.0
 23
0.0
 33
0.0
 16
1.0
 26
0.0
 36
0.0
 17
0.0
 27
1.0
 37
0.0
 76
0
330
202
345
0
346
0
  0
ENDSEC
  0
EOF
