  0
SECTION
  2
HEADER
  9
$ACADVER
  1
AC1024
  9
$DWGCODEPAGE
  3
ANSI_1252
  9
$EXTMAX
 10
297.0
 20
210.0
 30
0.0
  9
$EXTMIN
 10
0.0
 20
0.0
 30
0.0
  9
$LIMMIN
 10
0.0
 20
0.0
  9
$LIMMAX
 10
297.0
 20
210.0
  9
$VIEWCTR
 10
148.5
 20
105.0
  9
$VIEWSIZE
 40
210.0
  9
$CLAYER
  8
0
  9
$LTSCALE
 40
16.335
  9
$CELTYPE
  6
BYLAYER
  9
$DIMSCALE
 40
1.0
  9
$DIMASZ
 40
3.0
  9
$DIMEXO
 40
0.5
  9
$DIMDLI
 40
11.286
  9
$DIMEXE
 40
1.5
  9
$DIMCEN
 40
2.673
  9
$DIMLFAC
 40
1.0
  9
$DIMBLK
  1
_FILLED
  9
$DIMALT
 70
0
  9
$DIMALTF
 40
0.0393700787
  9
$DIMTXT
 40
3.0
  9
$DIMTOL
 70
1
  9
$DIMLIM
 70
0
  9
$DIMTFAC
 40
1.0
  9
$DIMTP
 40
0.01
  9
$DIMTM
 40
0.01
  9
$DIMGAP
 40
0.625
  9
$DIMDSEP
 70
44
  9
$AUNITS
 70
0
  9
$PDMODE
 70
3
  9
$PDSIZE
 40
3.0
  9
$HANDSEED
  5
343
  9
$TILEMODE
 70
1
  9
$MEASUREMENT
 70
1
  9
$INSUNITS
 70
4
  0
ENDSEC
  0
SECTION
  2
CLASSES
  0
CLASS
  1
ACDBDICTIONARYWDFLT
  2
AcDbDictionaryWithDefault
  3
AutoCAD 2000
 90
0
 91
1
280
0
281
0
  0
CLASS
  1
ACDBPLACEHOLDER
  2
AcDbPlaceHolder
  3
AutoCAD 2000
 90
0
 91
1
280
0
281
0
  0
CLASS
  1
LAYOUT
  2
AcDbLayout
  3
AutoCAD 2000
 90
0
 91
0
280
0
281
0
  0
ENDSEC
  0
SECTION
  2
TABLES
  0
TABLE
  2
VPORT
  5
8
100
AcDbSymbolTable
 70
2
  0
VPORT
  5
1F4
100
AcDbSymbolTableRecord
100
AcDbViewportTableRecord
  2
*ACTIVE
 70
0
 10
0.0
 20
0.0
 11
1.0
 21
1.0
 12
148.5
 22
105.0
 13
0.0
 23
0.0
 14
1.0
 24
1.0
 15
0.0
 25
0.0
 16
0.0
 26
0.0
 36
1.0
 17
0.0
 27
0.0
 37
0.0
 40
210.0
 41
1.4142857143
 42
50.0
 43
0.0
 44
0.0
 50
0.0
 51
0.0
 71
0
 72
100
 73
1
 74
1
 75
0
 76
0
 77
0
 78
0
  0
ENDTAB
  0
TABLE
  2
LTYPE
  5
5
100
AcDbSymbolTable
 70
6
  0
LTYPE
  5
14
100
AcDbSymbolTableRecord
100
AcDbLinetypeTableRecord
  2
BYBLOCK
 70
0
  3

 72
65
 73
0
 40
0.0
  0
LTYPE
  5
15
100
AcDbSymbolTableRecord
100
AcDbLinetypeTableRecord
  2
BYLAYER
 70
0
  3

 72
65
 73
0
 40
0.0
  0
LTYPE
  5
16
100
AcDbSymbolTableRecord
100
AcDbLinetypeTableRecord
  2
CONTINUOUS
 70
64
  3
Solid line
 72
65
 73
0
 40
0.0
  0
LTYPE
  5
1F5
100
AcDbSymbolTableRecord
100
AcDbLinetypeTableRecord
  2
CENTER
 70
64
  3
____ _ ____ _ ____ _ ____ _ ____ _ ____ _ ____
 72
65
 73
4
 40
0.6
 49
0.375
 74
0
 49
-0.075
 74
0
 49
0.075
 74
0
 49
-0.075
 74
0
  0
LTYPE
  5
1F6
100
AcDbSymbolTableRecord
100
AcDbLinetypeTableRecord
  2
HIDDEN
 70
64
  3
- - - - - - - - - - - - - - - - - - - -
 72
65
 73
2
 40
0.2
 49
0.1
 74
0
 49
-0.1
 74
0
  0
LTYPE
  5
1F7
100
AcDbSymbolTableRecord
100
AcDbLinetypeTableRecord
  2
PHANTOM
 70
64
  3
_____ _ _ _____ _ _ _____ _ _ _____
 72
65
 73
6
 40
0.8
 49
0.45
 74
0
 49
-0.05
 74
0
 49
0.1
 74
0
 49
-0.05
 74
0
 49
0.1
 74
0
 49
-0.05
 74
0
  0
LTYPE
  5
1F8
100
AcDbSymbolTableRecord
100
AcDbLinetypeTableRecord
  2
DOT
 70
64
  3
. . . . . . . . . . . . . . . . . . . .
 72
65
 73
2
 40
0.2
 49
0.1
 74
0
 49
-0.1
 74
0
  0
LTYPE
  5
1F9
100
AcDbSymbolTableRecord
100
AcDbLinetypeTableRecord
  2
DASHED
 70
64
  3
- - - - - - - - - - - - - - - - - - - -
 72
65
 73
2
 40
0.2
 49
0.1
 74
0
 49
-0.1
 74
0
  0
ENDTAB
  0
TABLE
  2
LAYER
  5
2
100
AcDbSymbolTable
 70
36
  0
LAYER
  5
10
100
AcDbSymbolTableRecord
100
AcDbLayerTableRecord
  2
0
 70
0
 62
7
  6
CONTINUOUS
370
-3
390
F
  0
LAYER
  5
1FA
100
AcDbSymbolTableRecord
100
AcDbLayerTableRecord
  2
DEFAULT_1
 70
0
 62
7
  6
CENTER
370
-3
390
F
  0
LAYER
  5
1FB
100
AcDbSymbolTableRecord
100
AcDbLayerTableRecord
  2
DEFAULT_2
 70
0
 62
7
  6
HIDDEN
370
-3
390
F
  0
LAYER
  5
1FC
100
AcDbSymbolTableRecord
100
AcDbLayerTableRecord
  2
DEFAULT_3
 70
0
 62
7
  6
PHANTOM
370
-3
390
F
  0
LAYER
  5
1FD
100
AcDbSymbolTableRecord
100
AcDbLayerTableRecord
  2
LIVELLO_1
 70
0
 62
7
  6
CONTINUOUS
370
-3
390
F
  0
LAYER
  5
1FE
100
AcDbSymbolTableRecord
100
AcDbLayerTableRecord
  2
SNAPLINE
 70
0
 62
7
  6
CONTINUOUS
370
-3
390
F
  0
ENDTAB
  0
TABLE
  2
STYLE
  5
3
100
AcDbSymbolTable
 70
1
  0
STYLE
  5
11
100
AcDbSymbolTableRecord
100
AcDbTextStyleTableRecord
  2
STANDARD
 70
0
 40
0.0
 41
0.8
 50
0.0
 71
0
 42
0.2
  3
txt
  4

  0
STYLE
  5
1FF
100
AcDbSymbolTableRecord
100
AcDbTextStyleTableRecord
  2
TEXTSTYLE_1
 70
0
 40
0.0
 41
0.8
 50
0.0
 71
0
 42
0.2
  3
gdt
  4

  0
ENDTAB
  0
TABLE
  2
VIEW
  5
6
100
AcDbSymbolTable
 70
0
  0
ENDTAB
  0
TABLE
  2
UCS
  5
7
100
AcDbSymbolTable
 70
0
  0
ENDTAB
  0
TABLE
  2
APPID
  5
9
100
AcDbSymbolTable
 70
1
  0
APPID
  5
200
100
AcDbSymbolTableRecord
100
AcDbRegAppTableRecord
  2
ACAD
 70
0
  0
ENDTAB
  0
TABLE
  2
BLOCK_RECORD
  5
1
100
AcDbSymbolTable
 70
0
  0
BLOCK_RECORD
  5
201
100
AcDbSymbolTableRecord
100
AcDbBlockTableRecord
  2
*Model_Space
  0
BLOCK_RECORD
  5
202
100
AcDbSymbolTableRecord
100
AcDbBlockTableRecord
  2
*Paper_Space
  0
BLOCK_RECORD
  5
203
100
AcDbSymbolTableRecord
100
AcDbBlockTableRecord
  2
_FILLED
  0
BLOCK_RECORD
  5
204
100
AcDbSymbolTableRecord
100
AcDbBlockTableRecord
  2
*D0
  0
BLOCK_RECORD
  5
205
100
AcDbSymbolTableRecord
100
AcDbBlockTableRecord
  2
*D1
  0
BLOCK_RECORD
  5
206
100
AcDbSymbolTableRecord
100
AcDbBlockTableRecord
  2
*D2
  0
ENDTAB
  0
TABLE
  2
DIMSTYLE
  5
A
100
AcDbSymbolTable
 70
1
100
AcDbDimStyleTable
 71
0
  0
DIMSTYLE
105
207
100
AcDbSymbolTableRecord
100
AcDbDimStyleTableRecord
  2
STANDARD
 70
0
  3

  4

 40
1.0
 41
3.0
 42
0.5
 43
0.38
 44
1.5
 45
0.0
 46
0.0
 47
0.01
 48
0.01
140
3.0
141
0.09
142
0.0
143
25.4
144
1.0
145
0.0
146
1.0
147
0.625
 71
1
 72
0
 73
0
 74
0
 75
0
 76
0
 77
1
 78
8
 79
2
170
0
171
1
172
0
173
0
174
0
175
0
176
0
177
0
178
0
270
2
179
2
271
2
272
2
273
2
274
2
275
0
280
0
281
0
282
0
283
1
284
8
285
0
286
0
287
3
288
0
340
11
278
44
341
203
342
203
343
203
344
203
  0
DIMSTYLE
105
208
100
AcDbSymbolTableRecord
100
AcDbDimStyleTableRecord
  2
DIMSTYLE_1
 70
0
  3

  4

 40
1.0
 41
3.0
 42
0.5
 43
0.38
 44
1.5
 45
0.0
 46
0.0
 47
0.0
 48
0.0
140
3.0
141
0.09
142
0.0
143
25.4
144
1.0
145
0.0
146
1.0
147
0.75
 71
0
 72
0
 73
0
 74
0
 75
0
 76
0
 77
1
 78
8
 79
2
170
0
171
1
172
0
173
0
174
0
175
0
176
0
177
0
178
0
270
2
179
2
271
1
272
1
273
2
274
2
275
0
280
0
281
0
282
0
283
1
284
8
285
0
286
0
287
3
288
0
340
11
278
44
341
203
342
203
343
203
344
203
  0
DIMSTYLE
105
209
100
AcDbSymbolTableRecord
100
AcDbDimStyleTableRecord
  2
DIMSTYLE_2
 70
0
  3

  4

 40
1.0
 41
3.0
 42
0.5
 43
0.38
 44
1.5
 45
0.0
 46
0.0
 47
0.0
 48
0.0
140
3.0
141
0.09
142
0.0
143
25.4
144
1.0
145
0.0
146
1.0
147
0.75
 71
0
 72
0
 73
0
 74
0
 75
0
 76
0
 77
1
 78
8
 79
2
170
0
171
1
172
0
173
0
174
0
175
0
176
0
177
0
178
0
270
2
179
2
271
2
272
2
273
2
274
2
275
0
280
0
281
0
282
0
283
1
284
8
285
0
286
0
287
3
288
0
340
11
278
44
341
203
342
203
343
203
344
203
  0
ENDTAB
  0
ENDSEC
  0
SECTION
  2
BLOCKS
  0
BLOCK
  5
20
100
AcDbEntity
  8
0
100
AcDbBlockBegin
  2
*Model_Space
 70
0
 10
0.0
 20
0.0
 30
0.0
  3
*Model_Space
  1

  0
ENDBLK
  5
21
100
AcDbEntity
  8
0
100
AcDbBlockEnd
  0
BLOCK
  5
1C
100
AcDbEntity
  8
0
100
AcDbBlockBegin
  2
*Paper_Space
 70
0
 10
0.0
 20
0.0
 30
0.0
  3
*Paper_Space
  1

  0
ENDBLK
  5
1D
100
AcDbEntity
  8
0
100
AcDbBlockEnd
  0
BLOCK
  5
20A
100
AcDbEntity
  8
0
100
AcDbBlockBegin
  2
_FILLED
 70
64
 10
0.0
 20
0.0
  3
_FILLED
  1

  0
SOLID
  5
20B
100
AcDbEntity
  8
0
  6
BYBLOCK
 62
0
100
AcDbTrace
 10
0.0
 20
0.0
 11
-1.0
 21
0.3166666667
 12
-1.0
 22
-0.3166666667
 13
-1.0
 23
-0.3166666667
  0
ENDBLK
  5
20C
100
AcDbEntity
  8
0
  6
BYBLOCK
 62
0
100
AcDbBlockEnd
  0
BLOCK
  5
20D
100
AcDbEntity
  8
0
100
AcDbBlockBegin
 62
7
  6
CONTINUOUS
  2
*D0
 70
65
 10
0.0
 20
0.0
  3
*D0
  1

  0
MTEXT
  5
20E
100
AcDbEntity
  8
0
100
AcDbMText
 62
7
  6
CONTINUOUS
  7
STANDARD
 71
2
 72
1
 10
-118.3796456065
 20
22.4632302847
 30
0.0
 11
0.0
 21
1.0
 31
0.0
 73
2
 44
0.9
  1
{\ftxt;\W0.0001;\H0.0001;\~}{\ftxt;\W3.7142857143;\H3.0; }{\ftxt;\W0.0001;\H0.0001;\~}
 40
3.0
 41
16.7142857143
  0
LINE
  5
20F
100
AcDbEntity
  8
0
100
AcDbLine
 62
7
  6
CONTINUOUS
 10
-95.5751005882
 20
122.8201471482
 11
-116.1296456065
 21
122.8201471482
  0
LINE
  5
210
100
AcDbEntity
  8
0
100
AcDbLine
 62
7
  6
CONTINUOUS
 10
-67.8424324202
 20
-77.8936865787
 11
-116.1296456065
 21
-77.8936865787
  0
LINE
  5
211
100
AcDbEntity
  8
0
100
AcDbLine
 62
7
  6
CONTINUOUS
 10
-114.6296456065
 20
122.8201471482
 11
-114.6296456065
 21
22.4632302847
  0
LINE
  5
212
100
AcDbEntity
  8
0
100
AcDbLine
 62
7
  6
CONTINUOUS
 10
-114.6296456065
 20
-77.8936865787
 11
-114.6296456065
 21
22.4632302847
  0
INSERT
  5
213
100
AcDbEntity
  8
0
100
AcDbBlockReference
 62
7
  6
CONTINUOUS
  2
_FILLED
 10
-114.6296456065
 20
122.8201471482
 41
3.0
 42
3.0
 43
3.0
 50
90.0
  0
INSERT
  5
214
100
AcDbEntity
  8
0
100
AcDbBlockReference
 62
7
  6
CONTINUOUS
  2
_FILLED
 10
-114.6296456065
 20
-77.8936865787
 41
3.0
 42
3.0
 43
3.0
 50
270.0
  0
ENDBLK
  5
215
100
AcDbEntity
  8
0
  6
BYBLOCK
 62
0
100
AcDbBlockEnd
  0
BLOCK
  5
216
100
AcDbEntity
  8
0
100
AcDbBlockBegin
 62
7
  6
CONTINUOUS
  2
*D1
 70
65
 10
0.0
 20
0.0
  3
*D1
  1

  0
MTEXT
  5
217
100
AcDbEntity
  8
0
100
AcDbMText
 62
7
  6
CONTINUOUS
  7
STANDARD
 71
2
 72
1
 10
116.1988273823
 20
-90.7463756593
 30
0.0
 11
1.0
 21
0.0
 31
0.0
 73
2
 44
0.9
  1
{\ftxt;\W0.0001;\H0.0001;\~}{\ftxt;\W1.4285714286;\H3.0; }{\ftxt;\W0.0001;\H0.0001;\~}
 40
3.0
 41
6.4285714286
  0
LINE
  5
218
100
AcDbEntity
  8
0
100
AcDbLine
 62
7
  6
CONTINUOUS
 10
89.7020896057
 20
-78.094841159
 11
89.7020896057
 21
-95.9963756593
  0
LINE
  5
219
100
AcDbEntity
  8
0
100
AcDbLine
 62
7
  6
CONTINUOUS
 10
142.6955651589
 20
-78.1104949664
 11
142.6955651589
 21
-95.9963756593
  0
LINE
  5
21A
100
AcDbEntity
  8
0
100
AcDbLine
 62
7
  6
CONTINUOUS
 10
89.7020896057
 20
-94.4963756593
 11
116.1988273823
 21
-94.4963756593
  0
LINE
  5
21B
100
AcDbEntity
  8
0
100
AcDbLine
 62
7
  6
CONTINUOUS
 10
142.6955651589
 20
-94.4963756593
 11
116.1988273823
 21
-94.4963756593
  0
INSERT
  5
21C
100
AcDbEntity
  8
0
100
AcDbBlockReference
 62
7
  6
CONTINUOUS
  2
_FILLED
 10
89.7020896057
 20
-94.4963756593
 41
3.0
 42
3.0
 43
3.0
 50
180.0
  0
INSERT
  5
21D
100
AcDbEntity
  8
0
100
AcDbBlockReference
 62
7
  6
CONTINUOUS
  2
_FILLED
 10
142.6955651589
 20
-94.4963756593
 41
3.0
 42
3.0
 43
3.0
  0
ENDBLK
  5
21E
100
AcDbEntity
  8
0
  6
BYBLOCK
 62
0
100
AcDbBlockEnd
  0
BLOCK
  5
21F
100
AcDbEntity
  8
0
100
AcDbBlockBegin
 62
7
  6
CONTINUOUS
  2
*D2
 70
65
 10
0.0
 20
0.0
  3
*D2
  1

  0
MTEXT
  5
220
100
AcDbEntity
  8
0
100
AcDbMText
 62
7
  6
CONTINUOUS
  7
STANDARD
 71
2
 72
1
 10
-48.676680945
 20
-91.7279831359
 30
0.0
 11
1.0
 21
0.0
 31
0.0
 73
2
 44
0.9
  1
{\ftxt;\W0.0001;\H0.0001;\~}{\ftxt;\W2.9285714286;\H3.0; }{\ftxt;\W0.0001;\H0.0001;\~}
 40
3.0
 41
13.1785714286
  0
LINE
  5
221
100
AcDbEntity
  8
0
100
AcDbLine
 62
7
  6
CONTINUOUS
 10
-95.0751005882
 20
-50.6599422263
 11
-95.0751005882
 21
-96.9779831359
  0
LINE
  5
222
100
AcDbEntity
  8
0
100
AcDbLine
 62
7
  6
CONTINUOUS
 10
-2.2782613017
 20
-50.6599422263
 11
-2.2782613017
 21
-96.9779831359
  0
LINE
  5
223
100
AcDbEntity
  8
0
100
AcDbLine
 62
7
  6
CONTINUOUS
 10
-95.0751005882
 20
-95.4779831359
 11
-48.676680945
 21
-95.4779831359
  0
LINE
  5
224
100
AcDbEntity
  8
0
100
AcDbLine
 62
7
  6
CONTINUOUS
 10
-2.2782613017
 20
-95.4779831359
 11
-48.676680945
 21
-95.4779831359
  0
INSERT
  5
225
100
AcDbEntity
  8
0
100
AcDbBlockReference
 62
7
  6
CONTINUOUS
  2
_FILLED
 10
-95.0751005882
 20
-95.4779831359
 41
3.0
 42
3.0
 43
3.0
 50
180.0
  0
INSERT
  5
226
100
AcDbEntity
  8
0
100
AcDbBlockReference
 62
7
  6
CONTINUOUS
  2
_FILLED
 10
-2.2782613017
 20
-95.4779831359
 41
3.0
 42
3.0
 43
3.0
  0
ENDBLK
  5
227
100
AcDbEntity
  8
0
  6
BYBLOCK
 62
0
100
AcDbBlockEnd
  0
ENDSEC
  0
SECTION
  2
ENTITIES
  0
DIMENSION
  5
228
100
AcDbEntity
  8
0
100
AcDbDimension
 62
7
  6
CONTINUOUS
  2
*D0
 10
-114.6296456065
 20
-77.8936865787
 11
-114.6296456065
 21
22.034660302
 70
160
 71
2
 72
2
 41
0.9
 42
200.7138337269
  1
{\ftxt;\W0.0001;\H0.0001;\~}{\ftxt;\W3.7142857143;\H3.0; }{\ftxt;\W0.0001;\H0.0001;\~}
  3
DIMSTYLE_1
100
AcDbAlignedDimension
 13
-95.0751005882
 23
122.8201471482
 14
-67.3424324202
 24
-77.8936865787
 50
270.0
100
AcDbRotatedDimension
  0
DIMENSION
  5
229
100
AcDbEntity
  8
0
100
AcDbDimension
 62
7
  6
CONTINUOUS
  2
*D1
 10
142.6955651589
 20
-94.4963756593
 11
115.770256485
 21
-94.4963756593
 70
160
 71
2
 72
2
 41
0.9
 42
52.9934755532
  1
{\ftxt;\W0.0001;\H0.0001;\~}{\ftxt;\W1.4285714286;\H3.0; }{\ftxt;\W0.0001;\H0.0001;\~}
  3
DIMSTYLE_1
100
AcDbAlignedDimension
 13
89.7020896057
 23
-77.594841159
 14
142.6955651589
 24
-77.6104949664
100
AcDbRotatedDimension
  0
DIMENSION
  5
22A
100
AcDbEntity
  8
0
100
AcDbDimension
 62
7
  6
CONTINUOUS
  2
*D2
 10
-2.2782613017
 20
-95.4779831359
 11
-49.1052538147
 21
-95.4779831359
 70
160
 71
2
 72
2
 41
0.9
 42
92.7968392865
  1
{\ftxt;\W0.0001;\H0.0001;\~}{\ftxt;\W2.9285714286;\H3.0; }{\ftxt;\W0.0001;\H0.0001;\~}
  3
DIMSTYLE_2
100
AcDbAlignedDimension
 13
-95.0751005882
 23
-50.1599422263
 14
-2.2782613017
 24
-50.1599422263
100
AcDbRotatedDimension
  0
LINE
  5
22B
100
AcDbEntity
  8
LIVELLO_1
100
AcDbLine
 62
7
  6
CONTINUOUS
 10
-94.9877642574
 20
-52.3634614283
 11
-95.0751005882
 21
-50.1599422263
  0
LWPOLYLINE
  5
22C
100
AcDbEntity
  8
0
100
AcDbPolyline
 62
7
  6
CONTINUOUS
 90
7
 70
0
 43
0.3500000006
 10
-115.3796418457
 20
18.3918026276
 10
-115.3796418457
 20
16.8918021698
 10
-117.5225048218
 20
18.3918026276
 10
-117.9510737915
 20
18.3918026276
 10
-118.3796427612
 20
17.963229126
 10
-118.3796427612
 20
17.3203734055
 10
-117.7367893066
 20
16.8918021698
  0
LINE
  5
22D
100
AcDbEntity
  8
LIVELLO_1
100
AcDbLine
 62
7
  6
CONTINUOUS
 10
-95.0751005882
 20
-50.1599422263
 11
-95.0751005882
 21
122.8201471482
  0
LWPOLYLINE
  5
22E
100
AcDbEntity
  8
0
100
AcDbPolyline
 62
7
  6
CONTINUOUS
 90
4
 70
0
 43
0.3500000006
 10
-46.6409686432
 20
-94.2994127655
 10
-46.6409686432
 20
-93.4422702942
 10
-46.2123951416
 20
-93.0136967926
 10
-45.5695371552
 20
-93.0136967926
  0
LINE
  5
22F
100
AcDbEntity
  8
LIVELLO_1
100
AcDbLine
 62
7
  6
CONTINUOUS
 10
-25.6283181634
 20
-77.5452974524
 11
-27.8075699546
 21
-77.8063501638
  0
LINE
  5
230
100
AcDbEntity
  8
LIVELLO_1
100
AcDbLine
 62
7
  6
CONTINUOUS
 10
-27.8075699546
 20
-77.8063501638
 11
-30.0109481715
 21
-77.8936865787
  0
LWPOLYLINE
  5
231
100
AcDbEntity
  8
0
100
AcDbPolyline
 62
7
  6
CONTINUOUS
 90
7
 70
0
 43
0.3500000006
 10
-49.2123960571
 20
-94.7279817352
 10
-50.7123965149
 20
-94.7279817352
 10
-49.2123960571
 20
-92.5851278229
 10
-49.2123960571
 20
-92.1565543213
 10
-49.6409650269
 20
-91.7279853516
 10
-50.2838230133
 20
-91.7279853516
 10
-50.7123965149
 20
-92.3708388062
  0
LWPOLYLINE
  5
232
100
AcDbEntity
  8
0
100
AcDbPolyline
 62
7
  6
CONTINUOUS
 90
8
 70
0
 43
0.3500000006
 10
114.0559670105
 20
-93.7463762512
 10
114.9131140137
 20
-93.7463762512
 10
115.3416829834
 20
-93.3178027496
 10
115.3416829834
 20
-92.4606602783
 10
114.9131140137
 20
-92.0320913086
 10
114.0559670105
 20
-92.0320913086
 10
114.0559670105
 20
-90.7463753357
 10
115.3416829834
 20
-90.7463753357
  0
LWPOLYLINE
  5
233
100
AcDbEntity
  8
0
100
AcDbPolyline
 62
7
  6
CONTINUOUS
 90
6
 70
0
 43
0.3500000006
 10
116.1988299866
 20
-93.7463762512
 10
117.2702524109
 20
-93.7463762512
 10
117.4845459595
 20
-93.5320917664
 10
117.4845459595
 20
-92.4606602783
 10
117.055967926
 20
-92.0320913086
 10
116.6273989563
 20
-92.0320913086
  0
LINE
  5
234
100
AcDbEntity
  8
LIVELLO_1
100
AcDbLine
 62
7
  6
CONTINUOUS
 10
-30.0109481715
 20
-77.8936865787
 11
-67.3424324202
 21
-77.8936865787
  0
LINE
  5
235
100
AcDbEntity
  8
LIVELLO_1
100
AcDbLine
 62
7
  6
CONTINUOUS
 10
142.6955651589
 20
-77.6104949664
 11
92.2956409252
 21
-77.6104949664
  0
LINE
  5
236
100
AcDbEntity
  8
LIVELLO_1
100
AcDbLine
 62
7
  6
CONTINUOUS
 10
135.4325541596
 20
-77.594841159
 11
89.7020896057
 21
-77.594841159
  0
LINE
  5
237
100
AcDbEntity
  8
LIVELLO_1
100
AcDbLine
 62
7
  6
CONTINUOUS
 10
85.2549851487
 20
-58.4722919931
 11
89.2573791601
 21
-58.4722919931
  0
LINE
  5
238
100
AcDbEntity
  8
LIVELLO_1
100
AcDbLine
 62
7
  6
CONTINUOUS
 10
104.1551790917
 20
-74.0371575931
 11
126.1457410965
 21
-74.240479209
  0
LINE
  5
239
100
AcDbEntity
  8
LIVELLO_1
100
AcDbLine
 62
7
  6
CONTINUOUS
 10
-67.3424324202
 20
-77.8936865787
 11
-69.5458105084
 21
-77.8063501638
  0
LINE
  5
23A
100
AcDbEntity
  8
LIVELLO_1
100
AcDbLine
 62
7
  6
CONTINUOUS
 10
-69.5458105084
 20
-77.8063501638
 11
-71.7250618076
 21
-77.5452974716
  0
LINE
  5
23B
100
AcDbEntity
  8
LIVELLO_1
100
AcDbLine
 62
7
  6
CONTINUOUS
 10
-71.7250618076
 20
-77.5452974716
 11
-73.8724112536
 21
-77.1120764619
  0
LINE
  5
23C
100
AcDbEntity
  8
0
100
AcDbLine
 62
7
  6
CONTINUOUS
 10
-78.034609919
 20
-75.737494831
 11
-73.8724112536
 21
-77.1120764619
  0
LWPOLYLINE
  5
23D
100
AcDbEntity
  8
0
100
AcDbPolyline
 62
7
  6
CONTINUOUS
 90
3
 70
0
 43
0.3500000006
 10
-115.6653575134
 20
24.6775155945
 10
-115.4510730286
 20
24.6060889435
 10
-115.1653573608
 20
24.4632311096
  0
LINE
  5
23E
100
AcDbEntity
  8
LIVELLO_1
100
AcDbLine
 62
7
  6
CONTINUOUS
 10
-78.034609919
 20
-75.737494831
 11
-80.0282701735
 21
-74.8022938411
  0
LINE
  5
23F
100
AcDbEntity
  8
LIVELLO_1
100
AcDbLine
 62
7
  6
CONTINUOUS
 10
-80.0282701735
 20
-74.8022938411
 11
-81.9478920691
 21
-73.7078076653
  0
LINE
  5
240
100
AcDbEntity
  8
LIVELLO_1
100
AcDbLine
 62
7
  6
CONTINUOUS
 10
-81.9478920691
 20
-73.7078076653
 11
-83.7807986955
 21
-72.4602784854
  0
LWPOLYLINE
  5
241
100
AcDbEntity
  8
0
100
AcDbPolyline
 62
7
  6
CONTINUOUS
 90
13
 70
0
 43
0.3500000006
 10
-46.2123951416
 20
-93.0136967926
 10
-46.4981108093
 20
-92.7994123077
 10
-46.4981108093
 20
-92.1565543213
 10
-46.2123951416
 20
-91.7279853516
 10
-45.5695371552
 20
-91.7279853516
 10
-45.2838260193
 20
-92.1565543213
 10
-45.2838260193
 20
-92.7994123077
 10
-45.5695371552
 20
-93.0136967926
 10
-45.1409681854
 20
-93.4422702942
 10
-45.1409681854
 20
-94.2994127655
 10
-45.5695371552
 20
-94.7279817352
 10
-46.2123951416
 20
-94.7279817352
 10
-46.6409686432
 20
-94.2994127655
  0
LINE
  5
242
100
AcDbEntity
  8
LIVELLO_1
100
AcDbLine
 62
7
  6
CONTINUOUS
 10
-83.7807986955
 20
-72.4602784854
 11
-85.5140195431
 21
-71.0675031447
  0
LINE
  5
243
100
AcDbEntity
  8
LIVELLO_1
100
AcDbLine
 62
7
  6
CONTINUOUS
 10
-85.5140195431
 20
-71.0675031447
 11
-87.1346978175
 21
-69.5388276199
  0
LINE
  5
244
100
AcDbEntity
  8
LIVELLO_1
100
AcDbLine
 62
7
  6
CONTINUOUS
 10
-87.1346978175
 20
-69.5388276199
 11
-88.249021102
 21
-68.3324244817
  0
LINE
  5
245
100
AcDbEntity
  8
LIVELLO_1
100
AcDbLine
 62
7
  6
CONTINUOUS
 10
-88.249021102
 20
-68.3324244817
 11
-89.6417642656
 21
-66.5991458136
  0
LINE
  5
246
100
AcDbEntity
  8
LIVELLO_1
100
AcDbLine
 62
7
  6
CONTINUOUS
 10
-89.6417642656
 20
-66.5991458136
 11
-90.889268688
 21
-64.7661713837
  0
LINE
  5
247
100
AcDbEntity
  8
LIVELLO_1
100
AcDbLine
 62
7
  6
CONTINUOUS
 10
-90.889268688
 20
-64.7661713837
 11
-91.9837366159
 21
-62.8464713351
  0
LWPOLYLINE
  5
248
100
AcDbEntity
  8
0
100
AcDbPolyline
 62
7
  6
CONTINUOUS
 90
10
 70
0
 43
0.3500000006
 10
-47.7123955994
 20
-94.2279815826
 10
-47.6409644165
 20
-94.3708394165
 10
-47.6409644165
 20
-94.4422705994
 10
-47.7838222504
 20
-94.5851239014
 10
-47.8552534332
 20
-94.5851239014
 10
-47.9266800842
 20
-94.5136972504
 10
-47.9266800842
 20
-94.4422705994
 10
-47.8552534332
 20
-94.2994127655
 10
-47.7838222504
 20
-94.2279815826
 10
-47.7123955994
 20
-94.2279815826
  0
LINE
  5
249
100
AcDbEntity
  8
LIVELLO_1
100
AcDbLine
 62
7
  6
CONTINUOUS
 10
-91.9837366159
 20
-62.8464713351
 11
-92.9189248894
 21
-60.8527223316
  0
LINE
  5
24A
100
AcDbEntity
  8
LIVELLO_1
100
AcDbLine
 62
7
  6
CONTINUOUS
 10
-92.9189248894
 20
-60.8527223316
 11
-93.6900322711
 21
-58.796959667
  0
LINE
  5
24B
100
AcDbEntity
  8
LIVELLO_1
100
AcDbLine
 62
7
  6
CONTINUOUS
 10
-93.6900322711
 20
-58.796959667
 11
-94.2934935795
 21
-56.690314025
  0
LINE
  5
24C
100
AcDbEntity
  8
LIVELLO_1
100
AcDbLine
 62
7
  6
CONTINUOUS
 10
-94.2934935795
 20
-56.690314025
 11
-94.7267123196
 21
-54.5428438239
  0
LINE
  5
24D
100
AcDbEntity
  8
LIVELLO_1
100
AcDbLine
 62
7
  6
CONTINUOUS
 10
-94.7267123196
 20
-54.5428438239
 11
-94.9877642574
 21
-52.3634614283
  0
LINE
  5
24E
100
AcDbEntity
  8
LIVELLO_1
100
AcDbLine
 62
7
  6
CONTINUOUS
 10
-2.2782613017
 20
122.8201471482
 11
-2.2782613017
 21
-50.1599422263
  0
LINE
  5
24F
100
AcDbEntity
  8
LIVELLO_1
100
AcDbLine
 62
7
  6
CONTINUOUS
 10
-2.2782613017
 20
-50.1599422263
 11
-2.3655976305
 21
-52.3634597935
  0
LINE
  5
250
100
AcDbEntity
  8
LIVELLO_1
100
AcDbLine
 62
7
  6
CONTINUOUS
 10
-23.480967905
 20
-77.1120763807
 11
-25.6283181634
 21
-77.5452974524
  0
LINE
  5
251
100
AcDbEntity
  8
LIVELLO_1
100
AcDbLine
 62
7
  6
CONTINUOUS
 10
81.4749463601
 20
-47.3545308506
 11
85.2549851487
 21
-47.3545308506
  0
LINE
  5
252
100
AcDbEntity
  8
LIVELLO_1
100
AcDbLine
 62
7
  6
CONTINUOUS
 10
84.8102747031
 20
-39.1273876049
 11
81.4749463601
 21
-39.1273876049
  0
LINE
  5
253
100
AcDbEntity
  8
LIVELLO_1
100
AcDbLine
 62
7
  6
CONTINUOUS
 10
88.8126687145
 20
-31.5673100277
 11
84.8102747031
 21
-31.5673100277
  0
LINE
  5
254
100
AcDbEntity
  8
LIVELLO_1
100
AcDbLine
 62
7
  6
CONTINUOUS
 10
-2.3655976305
 20
-52.3634597935
 11
-2.6266495708
 21
-54.5428407047
  0
LWPOLYLINE
  5
255
100
AcDbEntity
  8
0
100
AcDbPolyline
 62
7
  6
CONTINUOUS
 90
3
 70
0
 43
0.3500000006
 10
-47.6409644165
 20
-94.4422705994
 10
-47.7123955994
 20
-94.6565550842
 10
-47.8552534332
 20
-94.942270752
  0
LINE
  5
256
100
AcDbEntity
  8
LIVELLO_1
100
AcDbLine
 62
7
  6
CONTINUOUS
 10
-2.6266495708
 20
-54.5428407047
 11
-3.0598683321
 21
-56.6903096089
  0
LINE
  5
257
100
AcDbEntity
  8
LIVELLO_1
100
AcDbLine
 62
7
  6
CONTINUOUS
 10
89.2573791601
 20
-6.4411698447
 11
85.2549851487
 21
-6.4411698447
  0
LINE
  5
258
100
AcDbEntity
  8
LIVELLO_1
100
AcDbLine
 62
7
  6
CONTINUOUS
 10
126.1457410965
 20
-74.240479209
 11
127.9332991592
 21
-77.5322259281
  0
LINE
  5
259
100
AcDbEntity
  8
LIVELLO_1
100
AcDbLine
 62
7
  6
CONTINUOUS
 10
-3.0598683321
 20
-56.6903096089
 11
-3.6633297041
 21
-58.7969541723
  0
LINE
  5
25A
100
AcDbEntity
  8
LIVELLO_1
100
AcDbLine
 62
7
  6
CONTINUOUS
 10
-3.6633297041
 20
-58.7969541723
 11
-4.4344372173
 21
-60.8527160044
  0
LWPOLYLINE
  5
25B
100
AcDbEntity
  8
0
100
AcDbPolyline
 62
7
  6
CONTINUOUS
 90
13
 70
0
 43
0.3500000006
 10
-116.2367888489
 20
19.2489450989
 10
-117.5225048218
 20
19.2489450989
 10
-117.9510737915
 20
19.4632295837
 10
-118.3796427612
 20
19.8918030853
 10
-118.3796427612
 20
20.1060875702
 10
-117.9510737915
 20
20.5346610718
 10
-117.5225048218
 20
20.7489455566
 10
-116.2367888489
 20
20.7489455566
 10
-115.8082198792
 20
20.5346610718
 10
-115.3796418457
 20
20.1060875702
 10
-115.3796418457
 20
19.8918030853
 10
-115.8082198792
 20
19.4632295837
 10
-116.2367888489
 20
19.2489450989
  0
LWPOLYLINE
  5
25C
100
AcDbEntity
  8
0
100
AcDbPolyline
 62
7
  6
CONTINUOUS
 90
13
 70
0
 43
0.3500000006
 10
-116.2367888489
 20
21.606088028
 10
-117.5225048218
 20
21.606088028
 10
-117.9510737915
 20
21.8203725128
 10
-118.3796427612
 20
22.2489460144
 10
-118.3796427612
 20
22.4632304993
 10
-117.9510737915
 20
22.891799469
 10
-117.5225048218
 20
23.1060884857
 10
-116.2367888489
 20
23.1060884857
 10
-115.8082198792
 20
22.891799469
 10
-115.3796418457
 20
22.4632304993
 10
-115.3796418457
 20
22.2489460144
 10
-115.8082198792
 20
21.8203725128
 10
-116.2367888489
 20
21.606088028
  0
LWPOLYLINE
  5
25D
100
AcDbEntity
  8
0
100
AcDbPolyline
 62
7
  6
CONTINUOUS
 90
4
 70
0
 43
0.3500000006
 10
-117.7367893066
 20
25.6775158997
 10
-118.3796427612
 20
25.6775158997
 10
-118.3796427612
 20
27.1775163574
 10
-115.3796418457
 20
26.3203738861
  0
LINE
  5
25E
100
AcDbEntity
  8
LIVELLO_1
100
AcDbLine
 62
7
  6
CONTINUOUS
 10
81.4749463601
 20
-39.1273876049
 11
81.4749463601
 21
-47.3545308506
  0
LINE
  5
25F
100
AcDbEntity
  8
LIVELLO_1
100
AcDbLine
 62
7
  6
CONTINUOUS
 10
85.2549851487
 20
-6.4411698447
 11
85.2549851487
 21
-58.4722919931
  0
LINE
  5
260
100
AcDbEntity
  8
LIVELLO_1
100
AcDbLine
 62
7
  6
CONTINUOUS
 10
-4.4344372173
 20
-60.8527160044
 11
-5.3696257173
 21
-62.8464644371
  0
LINE
  5
261
100
AcDbEntity
  8
LIVELLO_1
100
AcDbLine
 62
7
  6
CONTINUOUS
 10
89.7020896057
 20
-77.594841159
 11
89.7020896057
 21
115.2600695709
  0
LINE
  5
262
100
AcDbEntity
  8
LIVELLO_1
100
AcDbLine
 62
7
  6
CONTINUOUS
 10
92.2956409252
 20
-77.6104949664
 11
92.2956409252
 21
122.5248594122
  0
LINE
  5
263
100
AcDbEntity
  8
LIVELLO_1
100
AcDbLine
 62
7
  6
CONTINUOUS
 10
93.9268388404
 20
113.1841612102
 11
93.9268388404
 21
-77.4854423895
  0
LINE
  5
264
100
AcDbEntity
  8
LIVELLO_1
100
AcDbLine
 62
7
  6
CONTINUOUS
 10
-5.3696257173
 20
-62.8464644371
 11
-6.4640939946
 21
-64.7661641811
  0
LINE
  5
265
100
AcDbEntity
  8
LIVELLO_1
100
AcDbLine
 62
7
  6
CONTINUOUS
 10
116.0203010933
 20
56.3197250505
 11
115.5867329743
 21
56.3501489813
  0
LINE
  5
266
100
AcDbEntity
  8
LIVELLO_1
100
AcDbLine
 62
7
  6
CONTINUOUS
 10
116.4517436413
 20
56.2690850123
 11
116.0203010933
 21
56.3197250505
  0
LINE
  5
267
100
AcDbEntity
  8
LIVELLO_1
100
AcDbLine
 62
7
  6
CONTINUOUS
 10
116.8808147012
 20
56.1982594496
 11
116.4517436413
 21
56.2690850123
  0
LINE
  5
268
100
AcDbEntity
  8
LIVELLO_1
100
AcDbLine
 62
7
  6
CONTINUOUS
 10
117.3072334503
 20
56.1072631185
 11
116.8808147012
 21
56.1982594496
  0
LINE
  5
269
100
AcDbEntity
  8
LIVELLO_1
100
AcDbLine
 62
7
  6
CONTINUOUS
 10
117.7306808236
 20
55.9961003478
 11
117.3072334503
 21
56.1072631185
  0
LINE
  5
26A
100
AcDbEntity
  8
LIVELLO_1
100
AcDbLine
 62
7
  6
CONTINUOUS
 10
118.1507966273
 20
55.8647710328
 11
117.7306808236
 21
55.9961003478
  0
LINE
  5
26B
100
AcDbEntity
  8
LIVELLO_1
100
AcDbLine
 62
7
  6
CONTINUOUS
 10
118.5671772033
 20
55.7132771469
 11
118.1507966273
 21
55.8647710328
  0
LINE
  5
26C
100
AcDbEntity
  8
LIVELLO_1
100
AcDbLine
 62
7
  6
CONTINUOUS
 10
118.9793737561
 20
55.5416296715
 11
118.5671772033
 21
55.7132771469
  0
LINE
  5
26D
100
AcDbEntity
  8
LIVELLO_1
100
AcDbLine
 62
7
  6
CONTINUOUS
 10
119.3868914383
 20
55.3498558123
 11
118.9793737561
 21
55.5416296715
  0
LINE
  5
26E
100
AcDbEntity
  8
LIVELLO_1
100
AcDbLine
 62
7
  6
CONTINUOUS
 10
119.7891892924
 20
55.1380063592
 11
119.3868914383
 21
55.3498558123
  0
LINE
  5
26F
100
AcDbEntity
  8
LIVELLO_1
100
AcDbLine
 62
7
  6
CONTINUOUS
 10
120.1856811131
 20
54.906163017
 11
119.7891892924
 21
55.1380063592
  0
LINE
  5
270
100
AcDbEntity
  8
LIVELLO_1
100
AcDbLine
 62
7
  6
CONTINUOUS
 10
120.5757372955
 20
54.6544455213
 11
120.1856811131
 21
54.906163017
  0
LINE
  5
271
100
AcDbEntity
  8
LIVELLO_1
100
AcDbLine
 62
7
  6
CONTINUOUS
 10
120.9586876973
 20
54.3830183319
 11
120.5757372955
 21
54.6544455213
  0
LINE
  5
272
100
AcDbEntity
  8
LIVELLO_1
100
AcDbLine
 62
7
  6
CONTINUOUS
 10
121.3338255119
 20
54.0920967068
 11
120.9586876973
 21
54.3830183319
  0
LINE
  5
273
100
AcDbEntity
  8
LIVELLO_1
100
AcDbLine
 62
7
  6
CONTINUOUS
 10
121.7004121267
 20
53.7819519426
 11
121.3338255119
 21
54.0920967068
  0
LINE
  5
274
100
AcDbEntity
  8
LIVELLO_1
100
AcDbLine
 62
7
  6
CONTINUOUS
 10
122.0576828893
 20
53.4529155862
 11
121.7004121267
 21
53.7819519426
  0
LINE
  5
275
100
AcDbEntity
  8
LIVELLO_1
100
AcDbLine
 62
7
  6
CONTINUOUS
 10
122.4048536747
 20
53.1053824523
 11
122.0576828893
 21
53.4529155862
  0
LINE
  5
276
100
AcDbEntity
  8
LIVELLO_1
100
AcDbLine
 62
7
  6
CONTINUOUS
 10
122.7411281133
 20
52.7398122958
 11
122.4048536747
 21
53.1053824523
  0
LINE
  5
277
100
AcDbEntity
  8
LIVELLO_1
100
AcDbLine
 62
7
  6
CONTINUOUS
 10
123.0657052874
 20
52.3567300446
 11
122.7411281133
 21
52.7398122958
  0
LINE
  5
278
100
AcDbEntity
  8
LIVELLO_1
100
AcDbLine
 62
7
  6
CONTINUOUS
 10
123.3777876965
 20
51.956724542
 11
123.0657052874
 21
52.3567300446
  0
LINE
  5
279
100
AcDbEntity
  8
LIVELLO_1
100
AcDbLine
 62
7
  6
CONTINUOUS
 10
123.6765892586
 20
51.5404458111
 11
123.3777876965
 21
51.956724542
  0
LINE
  5
27A
100
AcDbEntity
  8
LIVELLO_1
100
AcDbLine
 62
7
  6
CONTINUOUS
 10
102.3763373088
 20
93.9486555915
 11
102.3763373088
 21
-77.5809661929
  0
LINE
  5
27B
100
AcDbEntity
  8
LIVELLO_1
100
AcDbLine
 62
7
  6
CONTINUOUS
 10
104.1551790917
 20
92.2671164539
 11
104.1551790917
 21
-74.0371575931
  0
LINE
  5
27C
100
AcDbEntity
  8
LIVELLO_1
100
AcDbLine
 62
7
  6
CONTINUOUS
 10
104.1653301926
 20
43.9095013861
 11
104.1551790917
 21
43.3489674258
  0
LINE
  5
27D
100
AcDbEntity
  8
LIVELLO_1
100
AcDbLine
 62
7
  6
CONTINUOUS
 10
104.2262145377
 20
93.745228732
 11
104.1551790917
 21
92.2671164539
  0
LINE
  5
27E
100
AcDbEntity
  8
LIVELLO_1
100
AcDbLine
 62
7
  6
CONTINUOUS
 10
102.4496806504
 20
95.3418845982
 11
102.3763373088
 21
93.9486555915
  0
LINE
  5
27F
100
AcDbEntity
  8
LIVELLO_1
100
AcDbLine
 62
7
  6
CONTINUOUS
 10
104.1957206646
 20
44.467132179
 11
104.1653301926
 21
43.9095013861
  0
LINE
  5
280
100
AcDbEntity
  8
LIVELLO_1
100
AcDbLine
 62
7
  6
CONTINUOUS
 10
104.4378980519
 20
95.1955272317
 11
104.2262145377
 21
93.745228732
  0
LINE
  5
281
100
AcDbEntity
  8
LIVELLO_1
100
AcDbLine
 62
7
  6
CONTINUOUS
 10
102.6685612088
 20
96.7120470586
 11
102.4496806504
 21
95.3418845982
  0
LINE
  5
282
100
AcDbEntity
  8
LIVELLO_1
100
AcDbLine
 62
7
  6
CONTINUOUS
 10
104.7870283192
 20
96.6040396191
 11
104.4378980519
 21
95.1955272317
  0
LINE
  5
283
100
AcDbEntity
  8
LIVELLO_1
100
AcDbLine
 62
7
  6
CONTINUOUS
 10
103.0309053394
 20
98.0493570738
 11
102.6685612088
 21
96.7120470586
  0
LWPOLYLINE
  5
284
100
AcDbEntity
  8
0
100
AcDbPolyline
 62
7
  6
CONTINUOUS
 90
10
 70
0
 43
0.3500000006
 10
-115.8796419983
 20
24.6060889435
 10
-115.7367886963
 20
24.6775155945
 10
-115.6653575134
 20
24.6775155945
 10
-115.5225042114
 20
24.5346577606
 10
-115.5225042114
 20
24.4632311096
 10
-115.5939353943
 20
24.3917999268
 10
-115.6653575134
 20
24.3917999268
 10
-115.8082198792
 20
24.4632311096
 10
-115.8796419983
 20
24.5346577606
 10
-115.8796419983
 20
24.6060889435
  0
LINE
  5
285
100
AcDbEntity
  8
LIVELLO_1
100
AcDbLine
 62
7
  6
CONTINUOUS
 10
113.4209328292
 20
56.1982676188
 11
112.9943774102
 21
56.1072800463
  0
LINE
  5
286
100
AcDbEntity
  8
LIVELLO_1
100
AcDbLine
 62
7
  6
CONTINUOUS
 10
113.8501612665
 20
56.2690880861
 11
113.4209328292
 21
56.1982676188
  0
LINE
  5
287
100
AcDbEntity
  8
LIVELLO_1
100
AcDbLine
 62
7
  6
CONTINUOUS
 10
114.2817826215
 20
56.3197257348
 11
113.8501612665
 21
56.2690880861
  0
LINE
  5
288
100
AcDbEntity
  8
LIVELLO_1
100
AcDbLine
 62
7
  6
CONTINUOUS
 10
114.7155515838
 20
56.3501489813
 11
114.2817826215
 21
56.3197257348
  0
LINE
  5
289
100
AcDbEntity
  8
LIVELLO_1
100
AcDbLine
 62
7
  6
CONTINUOUS
 10
115.1512539669
 20
56.3603056464
 11
114.7155515838
 21
56.3501489813
  0
LINE
  5
28A
100
AcDbEntity
  8
LIVELLO_1
100
AcDbLine
 62
7
  6
CONTINUOUS
 10
115.5867329743
 20
56.3501489813
 11
115.1512539669
 21
56.3603056464
  0
LINE
  5
28B
100
AcDbEntity
  8
LIVELLO_1
100
AcDbLine
 62
7
  6
CONTINUOUS
 10
123.9613431115
 20
51.1086008958
 11
123.6765892586
 21
51.5404458111
  0
LINE
  5
28C
100
AcDbEntity
  8
LIVELLO_1
100
AcDbLine
 62
7
  6
CONTINUOUS
 10
124.2313089821
 20
50.661948415
 11
123.9613431115
 21
51.1086008958
  0
LINE
  5
28D
100
AcDbEntity
  8
LIVELLO_1
100
AcDbLine
 62
7
  6
CONTINUOUS
 10
124.4857798975
 20
50.2012919955
 11
124.2313089821
 21
50.661948415
  0
LINE
  5
28E
100
AcDbEntity
  8
LIVELLO_1
100
AcDbLine
 62
7
  6
CONTINUOUS
 10
124.4912039802
 20
50.1909968296
 11
124.4857798975
 21
50.2012919955
  0
LINE
  5
28F
100
AcDbEntity
  8
LIVELLO_1
100
AcDbLine
 62
7
  6
CONTINUOUS
 10
124.7290491374
 20
49.7171064699
 11
124.4912039802
 21
50.1909968296
  0
LINE
  5
290
100
AcDbEntity
  8
LIVELLO_1
100
AcDbLine
 62
7
  6
CONTINUOUS
 10
124.9499773529
 20
49.2312595195
 11
124.7290491374
 21
49.7171064699
  0
LINE
  5
291
100
AcDbEntity
  8
LIVELLO_1
100
AcDbLine
 62
7
  6
CONTINUOUS
 10
125.1534524151
 20
48.7343539431
 11
124.9499773529
 21
49.2312595195
  0
LINE
  5
292
100
AcDbEntity
  8
LIVELLO_1
100
AcDbLine
 62
7
  6
CONTINUOUS
 10
125.3389893862
 20
48.2272925623
 11
125.1534524151
 21
48.7343539431
  0
LINE
  5
293
100
AcDbEntity
  8
LIVELLO_1
100
AcDbLine
 62
7
  6
CONTINUOUS
 10
104.2462390689
 20
45.0211828293
 11
104.1957206646
 21
44.467132179
  0
LINE
  5
294
100
AcDbEntity
  8
LIVELLO_1
100
AcDbLine
 62
7
  6
CONTINUOUS
 10
104.3167474186
 20
45.5709375628
 11
104.2462390689
 21
45.0211828293
  0
LINE
  5
295
100
AcDbEntity
  8
LIVELLO_1
100
AcDbLine
 62
7
  6
CONTINUOUS
 10
104.4070766733
 20
46.1156431901
 11
104.3167474186
 21
45.5709375628
  0
LINE
  5
296
100
AcDbEntity
  8
LIVELLO_1
100
AcDbLine
 62
7
  6
CONTINUOUS
 10
104.5170223581
 20
46.6545113261
 11
104.4070766733
 21
46.1156431901
  0
LINE
  5
297
100
AcDbEntity
  8
LIVELLO_1
100
AcDbLine
 62
7
  6
CONTINUOUS
 10
105.2685390102
 20
97.9551899238
 11
104.7870283192
 21
96.6040396191
  0
LINE
  5
298
100
AcDbEntity
  8
LIVELLO_1
100
AcDbLine
 62
7
  6
CONTINUOUS
 10
103.5337068903
 20
99.342306613
 11
103.0309053394
 21
98.0493570738
  0
LINE
  5
299
100
AcDbEntity
  8
LIVELLO_1
100
AcDbLine
 62
7
  6
CONTINUOUS
 10
105.8750552785
 20
99.2323741881
 11
105.2685390102
 21
97.9551899238
  0
LINE
  5
29A
100
AcDbEntity
  8
LIVELLO_1
100
AcDbLine
 62
7
  6
CONTINUOUS
 10
104.1724431807
 20
100.5778108371
 11
103.5337068903
 21
99.342306613
  0
LINE
  5
29B
100
AcDbEntity
  8
LIVELLO_1
100
AcDbLine
 62
7
  6
CONTINUOUS
 10
106.1129621672
 20
99.6551300274
 11
105.8750552785
 21
99.2323741881
  0
LINE
  5
29C
100
AcDbEntity
  8
LIVELLO_1
100
AcDbLine
 62
7
  6
CONTINUOUS
 10
106.8684741876
 20
100.8018373361
 11
106.1129621672
 21
99.6551300274
  0
LINE
  5
29D
100
AcDbEntity
  8
LIVELLO_1
100
AcDbLine
 62
7
  6
CONTINUOUS
 10
104.9405780792
 20
101.7416064198
 11
104.1724431807
 21
100.5778108371
  0
LINE
  5
29E
100
AcDbEntity
  8
LIVELLO_1
100
AcDbLine
 62
7
  6
CONTINUOUS
 10
-6.4640939946
 20
-64.7661641811
 11
-7.7115989106
 21
-66.5991385662
  0
LINE
  5
29F
100
AcDbEntity
  8
LIVELLO_1
100
AcDbLine
 62
7
  6
CONTINUOUS
 10
105.8292669551
 20
102.8188976765
 11
104.9405780792
 21
101.7416064198
  0
LINE
  5
2A0
100
AcDbEntity
  8
LIVELLO_1
100
AcDbLine
 62
7
  6
CONTINUOUS
 10
112.9943774102
 20
56.1072800463
 11
112.5708132285
 21
55.996130589
  0
LINE
  5
2A1
100
AcDbEntity
  8
LIVELLO_1
100
AcDbLine
 62
7
  6
CONTINUOUS
 10
125.5061548978
 20
47.710975025
 11
125.3389893862
 21
48.2272925623
  0
LINE
  5
2A2
100
AcDbEntity
  8
LIVELLO_1
100
AcDbLine
 62
7
  6
CONTINUOUS
 10
125.6545663861
 20
47.1862903643
 11
125.5061548978
 21
47.710975025
  0
LINE
  5
2A3
100
AcDbEntity
  8
LIVELLO_1
100
AcDbLine
 62
7
  6
CONTINUOUS
 10
125.7838903765
 20
46.6541102744
 11
125.6545663861
 21
47.1862903643
  0
LINE
  5
2A4
100
AcDbEntity
  8
LIVELLO_1
100
AcDbLine
 62
7
  6
CONTINUOUS
 10
125.8938399394
 20
46.1152832353
 11
125.7838903765
 21
46.6541102744
  0
LINE
  5
2A5
100
AcDbEntity
  8
LIVELLO_1
100
AcDbLine
 62
7
  6
CONTINUOUS
 10
125.9841714657
 20
45.5706295405
 11
125.8938399394
 21
46.1152832353
  0
LINE
  5
2A6
100
AcDbEntity
  8
LIVELLO_1
100
AcDbLine
 62
7
  6
CONTINUOUS
 10
126.0546809117
 20
45.0209372641
 11
125.9841714657
 21
45.5706295405
  0
LINE
  5
2A7
100
AcDbEntity
  8
LIVELLO_1
100
AcDbLine
 62
7
  6
CONTINUOUS
 10
126.1051996498
 20
44.4669591546
 11
126.0546809117
 21
45.0209372641
  0
LINE
  5
2A8
100
AcDbEntity
  8
LIVELLO_1
100
AcDbLine
 62
7
  6
CONTINUOUS
 10
126.1355900778
 20
43.9094104331
 11
126.1051996498
 21
44.4669591546
  0
LINE
  5
2A9
100
AcDbEntity
  8
LIVELLO_1
100
AcDbLine
 62
7
  6
CONTINUOUS
 10
127.9471879374
 20
93.9486555915
 11
127.8738446019
 21
95.3418813771
  0
LINE
  5
2AA
100
AcDbEntity
  8
LIVELLO_1
100
AcDbLine
 62
7
  6
CONTINUOUS
 10
126.1457410965
 20
92.2671164539
 11
126.0747071976
 21
93.7449912699
  0
LINE
  5
2AB
100
AcDbEntity
  8
LIVELLO_1
100
AcDbLine
 62
7
  6
CONTINUOUS
 10
126.1457410965
 20
43.3489674258
 11
126.1355900778
 21
43.9094104331
  0
LINE
  5
2AC
100
AcDbEntity
  8
LIVELLO_1
100
AcDbLine
 62
7
  6
CONTINUOUS
 10
126.1457410965
 20
-74.240479209
 11
126.1457410965
 21
92.2671164539
  0
LINE
  5
2AD
100
AcDbEntity
  8
LIVELLO_1
100
AcDbLine
 62
7
  6
CONTINUOUS
 10
127.9471879374
 20
-77.8171963818
 11
127.9471879374
 21
93.9486555915
  0
LINE
  5
2AE
100
AcDbEntity
  8
LIVELLO_1
100
AcDbLine
 62
7
  6
CONTINUOUS
 10
104.6463404328
 20
47.1867215111
 11
104.5170223581
 21
46.6545113261
  0
LINE
  5
2AF
100
AcDbEntity
  8
LIVELLO_1
100
AcDbLine
 62
7
  6
CONTINUOUS
 10
104.7947435533
 20
47.7114252576
 11
104.6463404328
 21
47.1867215111
  0
LINE
  5
2B0
100
AcDbEntity
  8
LIVELLO_1
100
AcDbLine
 62
7
  6
CONTINUOUS
 10
104.9618978678
 20
48.2277510342
 11
104.7947435533
 21
47.7114252576
  0
LINE
  5
2B1
100
AcDbEntity
  8
LIVELLO_1
100
AcDbLine
 62
7
  6
CONTINUOUS
 10
105.1474204943
 20
48.734810151
 11
104.9618978678
 21
48.2277510342
  0
LINE
  5
2B2
100
AcDbEntity
  8
LIVELLO_1
100
AcDbLine
 62
7
  6
CONTINUOUS
 10
107.7173588555
 20
101.8334425674
 11
106.8684741876
 21
100.8018373361
  0
LINE
  5
2B3
100
AcDbEntity
  8
LIVELLO_1
100
AcDbLine
 62
7
  6
CONTINUOUS
 10
106.4905766076
 20
103.4887120727
 11
105.8292669551
 21
102.8188976765
  0
LINE
  5
2B4
100
AcDbEntity
  8
LIVELLO_1
100
AcDbLine
 62
7
  6
CONTINUOUS
 10
108.6447373215
 20
102.7392594039
 11
107.7173588555
 21
101.8334425674
  0
LINE
  5
2B5
100
AcDbEntity
  8
LIVELLO_1
100
AcDbLine
 62
7
  6
CONTINUOUS
 10
107.5504564732
 20
104.3857747828
 11
106.4905766076
 21
103.4887120727
  0
LINE
  5
2B6
100
AcDbEntity
  8
LIVELLO_1
100
AcDbLine
 62
7
  6
CONTINUOUS
 10
109.6360123543
 20
103.511770427
 11
108.6447373215
 21
102.7392594039
  0
LINE
  5
2B7
100
AcDbEntity
  8
LIVELLO_1
100
AcDbLine
 62
7
  6
CONTINUOUS
 10
108.6922838805
 20
105.1591245332
 11
107.5504564732
 21
104.3857747828
  0
LINE
  5
2B8
100
AcDbEntity
  8
LIVELLO_1
100
AcDbLine
 62
7
  6
CONTINUOUS
 10
122.5837888932
 20
101.8327548242
 11
121.6563585188
 21
102.7387946512
  0
LINE
  5
2B9
100
AcDbEntity
  8
LIVELLO_1
100
AcDbLine
 62
7
  6
CONTINUOUS
 10
125.382945437
 20
101.7415955131
 11
124.4942552849
 21
102.8188872403
  0
LINE
  5
2BA
100
AcDbEntity
  8
LIVELLO_1
100
AcDbLine
 62
7
  6
CONTINUOUS
 10
123.4327326411
 20
100.8009102999
 11
122.5837888932
 21
101.8327548242
  0
LINE
  5
2BB
100
AcDbEntity
  8
LIVELLO_1
100
AcDbLine
 62
7
  6
CONTINUOUS
 10
126.1510812038
 20
100.5778001064
 11
125.382945437
 21
101.7415955131
  0
LINE
  5
2BC
100
AcDbEntity
  8
LIVELLO_1
100
AcDbLine
 62
7
  6
CONTINUOUS
 10
124.1882873015
 20
99.6539742818
 11
123.4327326411
 21
100.8009102999
  0
LINE
  5
2BD
100
AcDbEntity
  8
LIVELLO_1
100
AcDbLine
 62
7
  6
CONTINUOUS
 10
124.4257927981
 20
99.2319054716
 11
124.1882873015
 21
99.6539742818
  0
LINE
  5
2BE
100
AcDbEntity
  8
LIVELLO_1
100
AcDbLine
 62
7
  6
CONTINUOUS
 10
126.7898180116
 20
99.3422967653
 11
126.1510812038
 21
100.5778001064
  0
LINE
  5
2BF
100
AcDbEntity
  8
LIVELLO_1
100
AcDbLine
 62
7
  6
CONTINUOUS
 10
125.0323531142
 20
97.9546686662
 11
124.4257927981
 21
99.2319054716
  0
LINE
  5
2C0
100
AcDbEntity
  8
LIVELLO_1
100
AcDbLine
 62
7
  6
CONTINUOUS
 10
127.2926198166
 20
98.0493488159
 11
126.7898180116
 21
99.3422967653
  0
LINE
  5
2C1
100
AcDbEntity
  8
LIVELLO_1
100
AcDbLine
 62
7
  6
CONTINUOUS
 10
125.5138867651
 20
96.6035364081
 11
125.0323531142
 21
97.9546686662
  0
LINE
  5
2C2
100
AcDbEntity
  8
LIVELLO_1
100
AcDbLine
 62
7
  6
CONTINUOUS
 10
127.6549640349
 20
96.7120410425
 11
127.2926198166
 21
98.0493488159
  0
LINE
  5
2C3
100
AcDbEntity
  8
LIVELLO_1
100
AcDbLine
 62
7
  6
CONTINUOUS
 10
125.8630243898
 20
95.1951192069
 11
125.5138867651
 21
96.6035364081
  0
LINE
  5
2C4
100
AcDbEntity
  8
LIVELLO_1
100
AcDbLine
 62
7
  6
CONTINUOUS
 10
127.8738446019
 20
95.3418813771
 11
127.6549640349
 21
96.7120410425
  0
LINE
  5
2C5
100
AcDbEntity
  8
LIVELLO_1
100
AcDbLine
 62
7
  6
CONTINUOUS
 10
126.0747071976
 20
93.7449912699
 11
125.8630243898
 21
95.1951192069
  0
LINE
  5
2C6
100
AcDbEntity
  8
LIVELLO_1
100
AcDbLine
 62
7
  6
CONTINUOUS
 10
133.3566457988
 20
95.030902932
 11
133.2799025336
 21
96.7012190688
  0
LINE
  5
2C7
100
AcDbEntity
  8
LIVELLO_1
100
AcDbLine
 62
7
  6
CONTINUOUS
 10
135.3543821892
 20
96.8670256912
 11
135.4325541596
 21
95.0899604791
  0
LINE
  5
2C8
100
AcDbEntity
  8
LIVELLO_1
100
AcDbLine
 62
7
  6
CONTINUOUS
 10
133.3566457988
 20
-77.1519095553
 11
133.3566457988
 21
95.030902932
  0
LINE
  5
2C9
100
AcDbEntity
  8
LIVELLO_1
100
AcDbLine
 62
7
  6
CONTINUOUS
 10
135.4325541596
 20
95.0899604791
 11
135.4325541596
 21
-77.594841159
  0
LINE
  5
2CA
100
AcDbEntity
  8
LIVELLO_1
100
AcDbLine
 62
7
  6
CONTINUOUS
 10
105.350877827
 20
49.2317034809
 11
105.1474204943
 21
48.734810151
  0
LINE
  5
2CB
100
AcDbEntity
  8
LIVELLO_1
100
AcDbLine
 62
7
  6
CONTINUOUS
 10
105.5717847892
 20
49.7175289059
 11
105.350877827
 21
49.2317034809
  0
LINE
  5
2CC
100
AcDbEntity
  8
LIVELLO_1
100
AcDbLine
 62
7
  6
CONTINUOUS
 10
105.8096051556
 20
50.1913893335
 11
105.5717847892
 21
49.7175289059
  0
LINE
  5
2CD
100
AcDbEntity
  8
LIVELLO_1
100
AcDbLine
 62
7
  6
CONTINUOUS
 10
105.8154947004
 20
50.2025673727
 11
105.8096051556
 21
50.1913893335
  0
LINE
  5
2CE
100
AcDbEntity
  8
LIVELLO_1
100
AcDbLine
 62
7
  6
CONTINUOUS
 10
106.0699629151
 20
50.6631530894
 11
105.8154947004
 21
50.2025673727
  0
LINE
  5
2CF
100
AcDbEntity
  8
LIVELLO_1
100
AcDbLine
 62
7
  6
CONTINUOUS
 10
-7.7115989106
 20
-66.5991385662
 11
-9.1043427268
 21
-68.3324174285
  0
LINE
  5
2D0
100
AcDbEntity
  8
LIVELLO_1
100
AcDbLine
 62
7
  6
CONTINUOUS
 10
110.6777803106
 20
104.1464108366
 11
109.6360123543
 21
103.511770427
  0
LINE
  5
2D1
100
AcDbEntity
  8
LIVELLO_1
100
AcDbLine
 62
7
  6
CONTINUOUS
 10
109.9015629123
 20
105.8007307093
 11
108.6922838805
 21
105.1591245332
  0
LINE
  5
2D2
100
AcDbEntity
  8
LIVELLO_1
100
AcDbLine
 62
7
  6
CONTINUOUS
 10
111.7584878546
 20
104.6409533487
 11
110.6777803106
 21
104.1464108366
  0
LINE
  5
2D3
100
AcDbEntity
  8
LIVELLO_1
100
AcDbLine
 62
7
  6
CONTINUOUS
 10
111.1646063513
 20
106.3048557675
 11
109.9015629123
 21
105.8007307093
  0
LINE
  5
2D4
100
AcDbEntity
  8
LIVELLO_1
100
AcDbLine
 62
7
  6
CONTINUOUS
 10
112.8687633071
 20
104.9946516618
 11
111.7584878546
 21
104.6409533487
  0
LINE
  5
2D5
100
AcDbEntity
  8
LIVELLO_1
100
AcDbLine
 62
7
  6
CONTINUOUS
 10
118.5427890416
 20
104.6408981129
 11
117.4327800888
 21
104.9946391043
  0
LINE
  5
2D6
100
AcDbEntity
  8
LIVELLO_1
100
AcDbLine
 62
7
  6
CONTINUOUS
 10
120.4219414594
 20
105.8007300669
 11
119.1588954756
 21
106.3048554977
  0
LINE
  5
2D7
100
AcDbEntity
  8
LIVELLO_1
100
AcDbLine
 62
7
  6
CONTINUOUS
 10
119.6233503524
 20
104.1462691688
 11
118.5427890416
 21
104.6408981129
  0
LINE
  5
2D8
100
AcDbEntity
  8
LIVELLO_1
100
AcDbLine
 62
7
  6
CONTINUOUS
 10
121.6312233745
 20
105.1591233714
 11
120.4219414594
 21
105.8007300669
  0
LINE
  5
2D9
100
AcDbEntity
  8
LIVELLO_1
100
AcDbLine
 62
7
  6
CONTINUOUS
 10
120.6650675995
 20
103.5114916159
 11
119.6233503524
 21
104.1462691688
  0
LINE
  5
2DA
100
AcDbEntity
  8
LIVELLO_1
100
AcDbLine
 62
7
  6
CONTINUOUS
 10
122.7730537836
 20
104.385773028
 11
121.6312233745
 21
105.1591233714
  0
LINE
  5
2DB
100
AcDbEntity
  8
LIVELLO_1
100
AcDbLine
 62
7
  6
CONTINUOUS
 10
121.6563585188
 20
102.7387946512
 11
120.6650675995
 21
103.5114916159
  0
LINE
  5
2DC
100
AcDbEntity
  8
LIVELLO_1
100
AcDbLine
 62
7
  6
CONTINUOUS
 10
127.3957612627
 20
108.4518883102
 11
126.0962364604
 21
109.5293275216
  0
LINE
  5
2DD
100
AcDbEntity
  8
LIVELLO_1
100
AcDbLine
 62
7
  6
CONTINUOUS
 10
123.8329365672
 20
103.4887097713
 11
122.7730537836
 21
104.385773028
  0
LINE
  5
2DE
100
AcDbEntity
  8
LIVELLO_1
100
AcDbLine
 62
7
  6
CONTINUOUS
 10
127.4298942552
 20
108.4207570824
 11
127.3957612627
 21
108.4518883102
  0
LINE
  5
2DF
100
AcDbEntity
  8
LIVELLO_1
100
AcDbLine
 62
7
  6
CONTINUOUS
 10
128.3279729496
 20
110.4254532868
 11
129.3710752555
 21
109.4703321729
  0
LINE
  5
2E0
100
AcDbEntity
  8
LIVELLO_1
100
AcDbLine
 62
7
  6
CONTINUOUS
 10
128.6245891239
 20
107.2229746548
 11
127.4298942552
 21
108.4207570824
  0
LINE
  5
2E1
100
AcDbEntity
  8
LIVELLO_1
100
AcDbLine
 62
7
  6
CONTINUOUS
 10
124.4942552849
 20
102.8188872403
 11
123.8329365672
 21
103.4887097713
  0
LINE
  5
2E2
100
AcDbEntity
  8
LIVELLO_1
100
AcDbLine
 62
7
  6
CONTINUOUS
 10
129.3710752555
 20
109.4703321729
 11
130.5979376607
 21
108.1554897315
  0
LINE
  5
2E3
100
AcDbEntity
  8
LIVELLO_1
100
AcDbLine
 62
7
  6
CONTINUOUS
 10
129.7019598663
 20
105.9233504429
 11
128.6245891239
 21
107.2229746548
  0
LINE
  5
2E4
100
AcDbEntity
  8
LIVELLO_1
100
AcDbLine
 62
7
  6
CONTINUOUS
 10
130.5979376607
 20
108.1554897315
 11
131.701808188
 21
106.7413758986
  0
LINE
  5
2E5
100
AcDbEntity
  8
LIVELLO_1
100
AcDbLine
 62
7
  6
CONTINUOUS
 10
130.6522693493
 20
104.5349385956
 11
129.7019598663
 21
105.9233504429
  0
LINE
  5
2E6
100
AcDbEntity
  8
LIVELLO_1
100
AcDbLine
 62
7
  6
CONTINUOUS
 10
131.701808188
 20
106.7413758986
 11
132.6737215088
 21
105.2408312345
  0
LINE
  5
2E7
100
AcDbEntity
  8
LIVELLO_1
100
AcDbLine
 62
7
  6
CONTINUOUS
 10
131.4676004916
 20
103.070952165
 11
130.6522693493
 21
104.5349385956
  0
LINE
  5
2E8
100
AcDbEntity
  8
LIVELLO_1
100
AcDbLine
 62
7
  6
CONTINUOUS
 10
132.6737215088
 20
105.2408312345
 11
133.5064335374
 21
103.6666932727
  0
LINE
  5
2E9
100
AcDbEntity
  8
LIVELLO_1
100
AcDbLine
 62
7
  6
CONTINUOUS
 10
132.1418580181
 20
101.5442108269
 11
131.4676004916
 21
103.070952165
  0
LINE
  5
2EA
100
AcDbEntity
  8
LIVELLO_1
100
AcDbLine
 62
7
  6
CONTINUOUS
 10
133.5064335374
 20
103.6666932727
 11
134.1943776151
 21
102.0313196073
  0
LINE
  5
2EB
100
AcDbEntity
  8
LIVELLO_1
100
AcDbLine
 62
7
  6
CONTINUOUS
 10
132.6705882335
 20
99.9666874207
 11
132.1418580181
 21
101.5442108269
  0
LINE
  5
2EC
100
AcDbEntity
  8
LIVELLO_1
100
AcDbLine
 62
7
  6
CONTINUOUS
 10
134.1943776151
 20
102.0313196073
 11
134.7334727104
 21
100.3462065892
  0
LINE
  5
2ED
100
AcDbEntity
  8
LIVELLO_1
100
AcDbLine
 62
7
  6
CONTINUOUS
 10
133.0506652493
 20
98.3491940379
 11
132.6705882335
 21
99.9666874207
  0
LINE
  5
2EE
100
AcDbEntity
  8
LIVELLO_1
100
AcDbLine
 62
7
  6
CONTINUOUS
 10
134.7334727104
 20
100.3462065892
 11
135.1208265071
 21
98.6217317841
  0
LINE
  5
2EF
100
AcDbEntity
  8
LIVELLO_1
100
AcDbLine
 62
7
  6
CONTINUOUS
 10
133.2799025336
 20
96.7012190688
 11
133.0506652493
 21
98.3491940379
  0
LINE
  5
2F0
100
AcDbEntity
  8
LIVELLO_1
100
AcDbLine
 62
7
  6
CONTINUOUS
 10
135.1208265071
 20
98.6217317841
 11
135.3543821892
 21
96.8670256912
  0
LINE
  5
2F1
100
AcDbEntity
  8
LIVELLO_1
100
AcDbLine
 62
7
  6
CONTINUOUS
 10
142.6140167034
 20
96.9207993405
 11
142.6955651589
 21
94.7912929441
  0
LINE
  5
2F2
100
AcDbEntity
  8
LIVELLO_1
100
AcDbLine
 62
7
  6
CONTINUOUS
 10
142.6955651589
 20
94.7912929441
 11
142.6955651589
 21
-77.6104949664
  0
LINE
  5
2F3
100
AcDbEntity
  8
LIVELLO_1
100
AcDbLine
 62
7
  6
CONTINUOUS
 10
106.3399214617
 20
51.1097281015
 11
106.0699629151
 21
50.6631530894
  0
LINE
  5
2F4
100
AcDbEntity
  8
LIVELLO_1
100
AcDbLine
 62
7
  6
CONTINUOUS
 10
106.6246638916
 20
51.5414902324
 11
106.3399214617
 21
51.1097281015
  0
LINE
  5
2F5
100
AcDbEntity
  8
LIVELLO_1
100
AcDbLine
 62
7
  6
CONTINUOUS
 10
106.9234506407
 20
51.9576823805
 11
106.6246638916
 21
51.5414902324
  0
LINE
  5
2F6
100
AcDbEntity
  8
LIVELLO_1
100
AcDbLine
 62
7
  6
CONTINUOUS
 10
107.2355157382
 20
52.3575990464
 11
106.9234506407
 21
51.9576823805
  0
LWPOLYLINE
  5
2F7
100
AcDbEntity
  8
0
100
AcDbPolyline
 62
7
  6
CONTINUOUS
 90
10
 70
0
 43
0.3500000006
 10
-52.6409659424
 20
-94.7279817352
 10
-51.7838234711
 20
-93.8708392639
 10
-51.5695389862
 20
-93.0136967926
 10
-51.5695389862
 20
-92.1565543213
 10
-51.9981079559
 20
-91.7279853516
 10
-52.6409659424
 20
-91.7279853516
 10
-53.069539444
 20
-92.1565543213
 10
-53.069539444
 20
-93.0136967926
 10
-52.6409659424
 20
-93.4422702942
 10
-51.7123968201
 20
-93.4422702942
  0
LINE
  5
2F8
100
AcDbEntity
  8
LIVELLO_1
100
AcDbLine
 62
7
  6
CONTINUOUS
 10
116.51905711
 20
106.8866397888
 11
115.1617491335
 21
106.9599938121
  0
LINE
  5
2F9
100
AcDbEntity
  8
LIVELLO_1
100
AcDbLine
 62
7
  6
CONTINUOUS
 10
116.3005203319
 20
105.2073144458
 11
115.1512539669
 21
105.2784546746
  0
LINE
  5
2FA
100
AcDbEntity
  8
LIVELLO_1
100
AcDbLine
 62
7
  6
CONTINUOUS
 10
117.8543944055
 20
106.6676610309
 11
116.51905711
 21
106.8866397888
  0
LINE
  5
2FB
100
AcDbEntity
  8
LIVELLO_1
100
AcDbLine
 62
7
  6
CONTINUOUS
 10
117.4327800888
 20
104.9946391043
 11
116.3005203319
 21
105.2073144458
  0
LINE
  5
2FC
100
AcDbEntity
  8
LIVELLO_1
100
AcDbLine
 62
7
  6
CONTINUOUS
 10
120.1401854664
 20
112.498092054
 11
118.5229111658
 21
112.8781774336
  0
LINE
  5
2FD
100
AcDbEntity
  8
LIVELLO_1
100
AcDbLine
 62
7
  6
CONTINUOUS
 10
119.1588954756
 20
106.3048554977
 11
117.8543944055
 21
106.6676610309
  0
LINE
  5
2FE
100
AcDbEntity
  8
LIVELLO_1
100
AcDbLine
 62
7
  6
CONTINUOUS
 10
120.5186824001
 20
114.5609880633
 11
122.2037971527
 21
114.021892915
  0
LINE
  5
2FF
100
AcDbEntity
  8
LIVELLO_1
100
AcDbLine
 62
7
  6
CONTINUOUS
 10
121.7175187001
 20
111.9693453388
 11
120.1401854664
 21
112.498092054
  0
LINE
  5
300
100
AcDbEntity
  8
LIVELLO_1
100
AcDbLine
 62
7
  6
CONTINUOUS
 10
122.2037971527
 20
114.021892915
 11
123.8391724947
 21
113.3339487969
  0
LINE
  5
301
100
AcDbEntity
  8
LIVELLO_1
100
AcDbLine
 62
7
  6
CONTINUOUS
 10
123.2440963628
 20
111.2950608361
 11
121.7175187001
 21
111.9693453388
  0
LINE
  5
302
100
AcDbEntity
  8
LIVELLO_1
100
AcDbLine
 62
7
  6
CONTINUOUS
 10
123.8391724947
 20
113.3339487969
 11
125.4133119995
 21
112.5012367769
  0
LINE
  5
303
100
AcDbEntity
  8
LIVELLO_1
100
AcDbLine
 62
7
  6
CONTINUOUS
 10
124.7079430286
 20
110.4796903132
 11
123.2440963628
 21
111.2950608361
  0
LINE
  5
304
100
AcDbEntity
  8
LIVELLO_1
100
AcDbLine
 62
7
  6
CONTINUOUS
 10
125.4133119995
 20
112.5012367769
 11
126.9138580104
 21
111.5293235615
  0
LINE
  5
305
100
AcDbEntity
  8
LIVELLO_1
100
AcDbLine
 62
7
  6
CONTINUOUS
 10
129.1224958636
 20
118.6116259529
 11
130.9158178996
 21
117.4430332704
  0
LINE
  5
306
100
AcDbEntity
  8
LIVELLO_1
100
AcDbLine
 62
7
  6
CONTINUOUS
 10
126.0962364604
 20
109.5293275216
 11
124.7079430286
 21
110.4796903132
  0
LINE
  5
307
100
AcDbEntity
  8
LIVELLO_1
100
AcDbLine
 62
7
  6
CONTINUOUS
 10
130.9158178996
 20
117.4430332704
 11
132.6193133901
 21
116.1367706215
  0
LINE
  5
308
100
AcDbEntity
  8
LIVELLO_1
100
AcDbLine
 62
7
  6
CONTINUOUS
 10
126.9138580104
 20
111.5293235615
 11
128.3279729496
 21
110.4254532868
  0
LINE
  5
309
100
AcDbEntity
  8
LIVELLO_1
100
AcDbLine
 62
7
  6
CONTINUOUS
 10
132.6193133901
 20
116.1367706215
 11
134.2213174188
 21
114.7008910907
  0
LINE
  5
30A
100
AcDbEntity
  8
LIVELLO_1
100
AcDbLine
 62
7
  6
CONTINUOUS
 10
134.2213174188
 20
114.7008910907
 11
134.8718397887
 21
114.050339005
  0
LINE
  5
30B
100
AcDbEntity
  8
LIVELLO_1
100
AcDbLine
 62
7
  6
CONTINUOUS
 10
134.8718397887
 20
114.050339005
 11
136.307656867
 21
112.4482580941
  0
LINE
  5
30C
100
AcDbEntity
  8
LIVELLO_1
100
AcDbLine
 62
7
  6
CONTINUOUS
 10
136.307656867
 20
112.4482580941
 11
137.6138679136
 21
110.7446732575
  0
LINE
  5
30D
100
AcDbEntity
  8
LIVELLO_1
100
AcDbLine
 62
7
  6
CONTINUOUS
 10
137.6138679136
 20
110.7446732575
 11
138.7824191886
 21
108.9512481904
  0
LINE
  5
30E
100
AcDbEntity
  8
LIVELLO_1
100
AcDbLine
 62
7
  6
CONTINUOUS
 10
138.7824191886
 20
108.9512481904
 11
139.8066199082
 21
107.0796512714
  0
LINE
  5
30F
100
AcDbEntity
  8
LIVELLO_1
100
AcDbLine
 62
7
  6
CONTINUOUS
 10
139.8066199082
 20
107.0796512714
 11
140.6811216369
 21
105.1412215417
  0
LINE
  5
310
100
AcDbEntity
  8
LIVELLO_1
100
AcDbLine
 62
7
  6
CONTINUOUS
 10
140.6811216369
 20
105.1412215417
 11
141.4018050652
 21
103.1466887244
  0
LINE
  5
311
100
AcDbEntity
  8
LIVELLO_1
100
AcDbLine
 62
7
  6
CONTINUOUS
 10
141.4018050652
 20
103.1466887244
 11
141.9655954197
 21
101.1059648495
  0
LINE
  5
312
100
AcDbEntity
  8
LIVELLO_1
100
AcDbLine
 62
7
  6
CONTINUOUS
 10
141.9655954197
 20
101.1059648495
 11
142.3702319299
 21
99.0280142467
  0
LINE
  5
313
100
AcDbEntity
  8
LIVELLO_1
100
AcDbLine
 62
7
  6
CONTINUOUS
 10
142.3702319299
 20
99.0280142467
 11
142.6140167034
 21
96.9207993405
  0
LINE
  5
314
100
AcDbEntity
  8
LIVELLO_1
100
AcDbLine
 62
7
  6
CONTINUOUS
 10
107.5600741673
 20
52.7405917398
 11
107.2355157382
 21
52.3575990464
  0
LINE
  5
315
100
AcDbEntity
  8
LIVELLO_1
100
AcDbLine
 62
7
  6
CONTINUOUS
 10
107.896329649
 20
53.1060730974
 11
107.5600741673
 21
52.7405917398
  0
LINE
  5
316
100
AcDbEntity
  8
LIVELLO_1
100
AcDbLine
 62
7
  6
CONTINUOUS
 10
-9.1043427268
 20
-68.3324174285
 11
-10.2186715397
 21
-69.5388258934
  0
LINE
  5
317
100
AcDbEntity
  8
LIVELLO_1
100
AcDbLine
 62
7
  6
CONTINUOUS
 10
108.2434826237
 20
53.4535195854
 11
107.896329649
 21
53.1060730974
  0
LINE
  5
318
100
AcDbEntity
  8
LIVELLO_1
100
AcDbLine
 62
7
  6
CONTINUOUS
 10
108.6007381961
 20
53.7824727217
 11
108.2434826237
 21
53.4535195854
  0
LINE
  5
319
100
AcDbEntity
  8
LIVELLO_1
100
AcDbLine
 62
7
  6
CONTINUOUS
 10
112.4691054316
 20
106.6676610965
 11
111.1646063513
 21
106.3048557675
  0
LINE
  5
31A
100
AcDbEntity
  8
LIVELLO_1
100
AcDbLine
 62
7
  6
CONTINUOUS
 10
114.0014289847
 20
105.2073144458
 11
112.8687633071
 21
104.9946516618
  0
LINE
  5
31B
100
AcDbEntity
  8
LIVELLO_1
100
AcDbLine
 62
7
  6
CONTINUOUS
 10
113.8044414858
 20
106.8866397888
 11
112.4691054316
 21
106.6676610965
  0
LINE
  5
31C
100
AcDbEntity
  8
LIVELLO_1
100
AcDbLine
 62
7
  6
CONTINUOUS
 10
115.1512539669
 20
105.2784546746
 11
114.0014289847
 21
105.2073144458
  0
LINE
  5
31D
100
AcDbEntity
  8
LIVELLO_1
100
AcDbLine
 62
7
  6
CONTINUOUS
 10
115.1617491335
 20
106.9599938121
 11
113.8044414858
 21
106.8866397888
  0
LINE
  5
31E
100
AcDbEntity
  8
LIVELLO_1
100
AcDbLine
 62
7
  6
CONTINUOUS
 10
115.2051528716
 20
113.1841612102
 11
93.9268388404
 21
113.1841612102
  0
LINE
  5
31F
100
AcDbEntity
  8
LIVELLO_1
100
AcDbLine
 62
7
  6
CONTINUOUS
 10
89.7020896057
 20
115.2600695709
 11
115.2624315758
 21
115.2600695709
  0
LINE
  5
320
100
AcDbEntity
  8
LIVELLO_1
100
AcDbLine
 62
7
  6
CONTINUOUS
 10
115.2624315758
 20
115.2600695709
 11
117.0394981937
 21
115.1818975985
  0
LINE
  5
321
100
AcDbEntity
  8
LIVELLO_1
100
AcDbLine
 62
7
  6
CONTINUOUS
 10
116.8751862718
 20
113.1074176237
 11
115.2051528716
 21
113.1841612102
  0
LINE
  5
322
100
AcDbEntity
  8
LIVELLO_1
100
AcDbLine
 62
7
  6
CONTINUOUS
 10
117.0394981937
 20
115.1818975985
 11
118.7942058861
 21
114.9483418993
  0
LINE
  5
323
100
AcDbEntity
  8
LIVELLO_1
100
AcDbLine
 62
7
  6
CONTINUOUS
 10
118.5229111658
 20
112.8781774336
 11
116.8751862718
 21
113.1074176237
  0
LINE
  5
324
100
AcDbEntity
  8
LIVELLO_1
100
AcDbLine
 62
7
  6
CONTINUOUS
 10
119.2000326052
 20
122.1995243175
 11
121.2777901925
 21
121.794882958
  0
LINE
  5
325
100
AcDbEntity
  8
LIVELLO_1
100
AcDbLine
 62
7
  6
CONTINUOUS
 10
118.7942058861
 20
114.9483418993
 11
120.5186824001
 21
114.5609880633
  0
LINE
  5
326
100
AcDbEntity
  8
LIVELLO_1
100
AcDbLine
 62
7
  6
CONTINUOUS
 10
121.2777901925
 20
121.794882958
 11
123.3183418599
 21
121.2310829851
  0
LINE
  5
327
100
AcDbEntity
  8
LIVELLO_1
100
AcDbLine
 62
7
  6
CONTINUOUS
 10
123.3183418599
 20
121.2310829851
 11
125.3127219675
 21
120.5103837066
  0
LINE
  5
328
100
AcDbEntity
  8
LIVELLO_1
100
AcDbLine
 62
7
  6
CONTINUOUS
 10
125.3127219675
 20
120.5103837066
 11
127.2510170438
 21
119.6358586176
  0
LINE
  5
329
100
AcDbEntity
  8
LIVELLO_1
100
AcDbLine
 62
7
  6
CONTINUOUS
 10
127.2510170438
 20
119.6358586176
 11
129.1224958636
 21
118.6116259529
  0
LINE
  5
32A
100
AcDbEntity
  8
LIVELLO_1
100
AcDbLine
 62
7
  6
CONTINUOUS
 10
-10.2186715397
 20
-69.5388258934
 11
-11.839351238
 21
-71.067501639
  0
LINE
  5
32B
100
AcDbEntity
  8
LIVELLO_1
100
AcDbLine
 62
7
  6
CONTINUOUS
 10
108.9673138024
 20
54.0925388147
 11
108.6007381961
 21
53.7824727217
  0
LINE
  5
32C
100
AcDbEntity
  8
LIVELLO_1
100
AcDbLine
 62
7
  6
CONTINUOUS
 10
109.3424464116
 20
54.3833872651
 11
108.9673138024
 21
54.0925388147
  0
LINE
  5
32D
100
AcDbEntity
  8
LIVELLO_1
100
AcDbLine
 62
7
  6
CONTINUOUS
 10
109.7253990619
 20
54.654747537
 11
109.3424464116
 21
54.3833872651
  0
LINE
  5
32E
100
AcDbEntity
  8
LIVELLO_1
100
AcDbLine
 62
7
  6
CONTINUOUS
 10
110.1154666028
 20
54.9064049285
 11
109.7253990619
 21
54.654747537
  0
LINE
  5
32F
100
AcDbEntity
  8
LIVELLO_1
100
AcDbLine
 62
7
  6
CONTINUOUS
 10
92.2956409252
 20
122.5248594122
 11
114.9637640479
 21
122.5248594122
  0
LINE
  5
330
100
AcDbEntity
  8
LIVELLO_1
100
AcDbLine
 62
7
  6
CONTINUOUS
 10
-95.0751005882
 20
122.8201471482
 11
-2.2782613017
 21
122.8201471482
  0
LINE
  5
331
100
AcDbEntity
  8
LIVELLO_1
100
AcDbLine
 62
7
  6
CONTINUOUS
 10
114.9637640479
 20
122.5248594122
 11
117.0930326463
 21
122.4433107711
  0
LINE
  5
332
100
AcDbEntity
  8
LIVELLO_1
100
AcDbLine
 62
7
  6
CONTINUOUS
 10
117.0930326463
 20
122.4433107711
 11
119.2000326052
 21
122.1995243175
  0
LINE
  5
333
100
AcDbEntity
  8
LIVELLO_1
100
AcDbLine
 62
7
  6
CONTINUOUS
 10
110.5119805227
 20
55.1381953317
 11
110.1154666028
 21
54.9064049285
  0
LINE
  5
334
100
AcDbEntity
  8
LIVELLO_1
100
AcDbLine
 62
7
  6
CONTINUOUS
 10
110.9143127996
 20
55.3499991587
 11
110.5119805227
 21
55.1381953317
  0
LINE
  5
335
100
AcDbEntity
  8
LIVELLO_1
100
AcDbLine
 62
7
  6
CONTINUOUS
 10
111.3218787431
 20
55.541734653
 11
110.9143127996
 21
55.3499991587
  0
LINE
  5
336
100
AcDbEntity
  8
LIVELLO_1
100
AcDbLine
 62
7
  6
CONTINUOUS
 10
111.7341388203
 20
55.7133507869
 11
111.3218787431
 21
55.541734653
  0
LINE
  5
337
100
AcDbEntity
  8
LIVELLO_1
100
AcDbLine
 62
7
  6
CONTINUOUS
 10
-11.839351238
 20
-71.067501639
 11
-13.5725735923
 21
-72.4602772626
  0
LINE
  5
338
100
AcDbEntity
  8
LIVELLO_1
100
AcDbLine
 62
7
  6
CONTINUOUS
 10
112.1505995102
 20
55.8648199464
 11
111.7341388203
 21
55.7133507869
  0
LINE
  5
339
100
AcDbEntity
  8
LIVELLO_1
100
AcDbLine
 62
7
  6
CONTINUOUS
 10
112.5708132285
 20
55.996130589
 11
112.1505995102
 21
55.8648199464
  0
LINE
  5
33A
100
AcDbEntity
  8
LIVELLO_1
100
AcDbLine
 62
7
  6
CONTINUOUS
 10
104.1551790917
 20
-74.0371575931
 11
102.4145692394
 21
-77.2926159402
  0
LINE
  5
33B
100
AcDbEntity
  8
LIVELLO_1
100
AcDbLine
 62
7
  6
CONTINUOUS
 10
-13.5725735923
 20
-72.4602772626
 11
-15.4054817617
 21
-73.7078067456
  0
LINE
  5
33C
100
AcDbEntity
  8
LIVELLO_1
100
AcDbLine
 62
7
  6
CONTINUOUS
 10
-15.4054817617
 20
-73.7078067456
 11
-17.3251051781
 21
-74.8022932088
  0
LINE
  5
33D
100
AcDbEntity
  8
LIVELLO_1
100
AcDbLine
 62
7
  6
CONTINUOUS
 10
-17.3251051781
 20
-74.8022932088
 11
-19.3187668697
 21
-75.7374944433
  0
LINE
  5
33E
100
AcDbEntity
  8
LIVELLO_1
100
AcDbLine
 62
7
  6
CONTINUOUS
 10
-19.3187668697
 20
-75.7374944433
 11
-21.3744313585
 21
-76.508610218
  0
LINE
  5
33F
100
AcDbEntity
  8
LIVELLO_1
100
AcDbLine
 62
7
  6
CONTINUOUS
 10
-21.3744313585
 20
-76.508610218
 11
-23.480967905
 21
-77.1120763807
  0
LWPOLYLINE
  5
340
100
AcDbEntity
  8
0
100
AcDbPolyline
 62
7
  6
CONTINUOUS
 90
5
 70
0
 43
0.3500000006
 10
117.055967926
 20
-92.0320913086
 10
117.4131147766
 20
-91.8178022919
 10
117.4131147766
 20
-91.1749488373
 10
117.055967926
 20
-90.7463753357
 10
116.1988299866
 20
-90.7463753357
  0
ENDSEC
  0
SECTION
  2
OBJECTS
  0
DICTIONARY
  5
C
100
AcDbDictionary
280
0
281
1
  3
ACAD_GROUP
350
D
  3
ACAD_MLINESTYLE
350
17
  3
ACAD_LAYOUT
350
1A
  3
ACAD_PLOTSETTINGS
350
19
  3
ACAD_PLOTSTYLENAME
350
E
  0
DICTIONARY
  5
D
102
{ACAD_REACTORS
330
C
102
}
100
AcDbDictionary
280
0
281
1
  0
ACDBDICTIONARYWDFLT
  5
E
102
{ACAD_REACTORS
330
C
102
}
100
AcDbDictionary
281
1
  3
Normal
350
F
100
AcDbDictionaryWithDefault
340
F
  0
DICTIONARY
  5
17
102
{ACAD_REACTORS
330
C
102
}
100
AcDbDictionary
280
0
281
1
  3
Standard
350
18
  0
DICTIONARY
  5
19
102
{ACAD_REACTORS
330
C
102
}
100
AcDbDictionary
281
1
  0
DICTIONARY
  5
1A
102
{ACAD_REACTORS
330
C
102
}
100
AcDbDictionary
281
1
  3
Model
350
341
  3
Layout1
350
342
  0
ACDBPLACEHOLDER
  5
F
102
{ACAD_REACTORS
330
E
102
}
  0
MLINESTYLE
  5
18
102
{ACAD_REACTORS
330
17
102
}
100
AcDbMlineStyle
  2
STANDARD
 70
0
  3

 62
256
 51
90.0
 52
90.0
 71
2
 49
0.5
 62
256
  6
BYLAYER
 49
-0.5
 62
256
  6
BYLAYER
  0
LAYOUT
  5
341
102
{ACAD_REACTORS
330
1A
102
}
100
AcDbPlotSettings
  1

  2
none_device
  4
ISO_A4_(297.00_x_210.00_MM)
  6

 40
0.0
 41
0.0
 42
0.0
 43
0.0
 44
297.0
 45
210.0
 46
0.0
 47
0.0
 48
0.0
 49
0.0
140
0.0
141
0.0
142
1.0
143
1.0
 70
1024
 72
1
 73
0
 74
0
  7

 75
0
147
1.0
148
0.0
149
0.0
100
AcDbLayout
  1
Model
 70
0
 71
0
 10
0.0
 20
0.0
 11
297.0
 21
210.0
 12
0.0
 22
0.0
 32
0.0
 14
0.0
 24
0.0
 34
0.0
 15
0.0
 25
0.0
 35
0.0
146
0.0
 13
0.0
 23
0.0
 33
0.0
 16
1.0
 26
0.0
 36
0.0
 17
0.0
 27
1.0
 37
0.0
 76
0
330
201
345
0
346
0
  0
LAYOUT
  5
342
102
{ACAD_REACTORS
330
1A
102
}
100
AcDbPlotSettings
  1

  2
none_device
  4
ISO_A4_(297.00_x_210.00_MM)
  6

 40
0.0
 41
0.0
 42
0.0
 43
0.0
 44
297.0
 45
210.0
 46
0.0
 47
0.0
 48
0.0
 49
0.0
140
0.0
141
0.0
142
1.0
143
1.0
 70
0
 72
1
 73
0
 74
0
  7

 75
0
147
1.0
148
0.0
149
0.0
100
AcDbLayout
  1
Layout1
 70
0
 71
1
 10
0.0
 20
0.0
 11
297.0
 21
210.0
 12
0.0
 22
0.0
 32
0.0
 14
0.0
 24
0.0
 34
0.0
 15
0.0
 25
0.0
 35
0.0
146
0.0
 13
0.0
 23
0.0
 33
0.0
 16
1.0
 26
0.0
 36
0.0
 17
0.0
 27
1.0
 37
0.0
 76
0
330
202
345
0
346
0
  0
ENDSEC
  0
EOF
