  0
SECTION
  2
HEADER
  9
$ACADVER
  1
AC1024
  9
$DWGCODEPAGE
  3
ANSI_1252
  9
$EXTMAX
 10
297.0
 20
210.0
 30
0.0
  9
$EXTMIN
 10
0.0
 20
0.0
 30
0.0
  9
$LIMMIN
 10
0.0
 20
0.0
  9
$LIMMAX
 10
297.0
 20
210.0
  9
$VIEWCTR
 10
148.5
 20
105.0
  9
$VIEWSIZE
 40
210.0
  9
$CLAYER
  8
0
  9
$LTSCALE
 40
16.335
  9
$CELTYPE
  6
BYLAYER
  9
$DIMSCALE
 40
1.0
  9
$DIMASZ
 40
3.0
  9
$DIMEXO
 40
0.5
  9
$DIMDLI
 40
11.286
  9
$DIMEXE
 40
1.5
  9
$DIMCEN
 40
2.673
  9
$DIMLFAC
 40
1.0
  9
$DIMBLK
  1
_FILLED
  9
$DIMALT
 70
0
  9
$DIMALTF
 40
0.0393700787
  9
$DIMTXT
 40
3.0
  9
$DIMTOL
 70
1
  9
$DIMLIM
 70
0
  9
$DIMTFAC
 40
1.0
  9
$DIMTP
 40
0.01
  9
$DIMTM
 40
0.01
  9
$DIMGAP
 40
0.625
  9
$DIMDSEP
 70
44
  9
$AUNITS
 70
0
  9
$PDMODE
 70
3
  9
$PDSIZE
 40
3.0
  9
$HANDSEED
  5
4E6
  9
$TILEMODE
 70
1
  9
$MEASUREMENT
 70
1
  9
$INSUNITS
 70
4
  0
ENDSEC
  0
SECTION
  2
CLASSES
  0
CLASS
  1
ACDBDICTIONARYWDFLT
  2
AcDbDictionaryWithDefault
  3
AutoCAD 2000
 90
0
 91
1
280
0
281
0
  0
CLASS
  1
ACDBPLACEHOLDER
  2
AcDbPlaceHolder
  3
AutoCAD 2000
 90
0
 91
1
280
0
281
0
  0
CLASS
  1
LAYOUT
  2
AcDbLayout
  3
AutoCAD 2000
 90
0
 91
0
280
0
281
0
  0
ENDSEC
  0
SECTION
  2
TABLES
  0
TABLE
  2
VPORT
  5
8
100
AcDbSymbolTable
 70
2
  0
VPORT
  5
1F4
100
AcDbSymbolTableRecord
100
AcDbViewportTableRecord
  2
*ACTIVE
 70
0
 10
0.0
 20
0.0
 11
1.0
 21
1.0
 12
148.5
 22
105.0
 13
0.0
 23
0.0
 14
1.0
 24
1.0
 15
0.0
 25
0.0
 16
0.0
 26
0.0
 36
1.0
 17
0.0
 27
0.0
 37
0.0
 40
210.0
 41
1.4142857143
 42
50.0
 43
0.0
 44
0.0
 50
0.0
 51
0.0
 71
0
 72
100
 73
1
 74
1
 75
0
 76
0
 77
0
 78
0
  0
ENDTAB
  0
TABLE
  2
LTYPE
  5
5
100
AcDbSymbolTable
 70
6
  0
LTYPE
  5
14
100
AcDbSymbolTableRecord
100
AcDbLinetypeTableRecord
  2
BYBLOCK
 70
0
  3

 72
65
 73
0
 40
0.0
  0
LTYPE
  5
15
100
AcDbSymbolTableRecord
100
AcDbLinetypeTableRecord
  2
BYLAYER
 70
0
  3

 72
65
 73
0
 40
0.0
  0
LTYPE
  5
16
100
AcDbSymbolTableRecord
100
AcDbLinetypeTableRecord
  2
CONTINUOUS
 70
64
  3
Solid line
 72
65
 73
0
 40
0.0
  0
LTYPE
  5
1F5
100
AcDbSymbolTableRecord
100
AcDbLinetypeTableRecord
  2
CENTER
 70
64
  3
____ _ ____ _ ____ _ ____ _ ____ _ ____ _ ____
 72
65
 73
4
 40
0.6
 49
0.375
 74
0
 49
-0.075
 74
0
 49
0.075
 74
0
 49
-0.075
 74
0
  0
LTYPE
  5
1F6
100
AcDbSymbolTableRecord
100
AcDbLinetypeTableRecord
  2
HIDDEN
 70
64
  3
- - - - - - - - - - - - - - - - - - - -
 72
65
 73
2
 40
0.2
 49
0.1
 74
0
 49
-0.1
 74
0
  0
LTYPE
  5
1F7
100
AcDbSymbolTableRecord
100
AcDbLinetypeTableRecord
  2
PHANTOM
 70
64
  3
_____ _ _ _____ _ _ _____ _ _ _____
 72
65
 73
6
 40
0.8
 49
0.45
 74
0
 49
-0.05
 74
0
 49
0.1
 74
0
 49
-0.05
 74
0
 49
0.1
 74
0
 49
-0.05
 74
0
  0
LTYPE
  5
1F8
100
AcDbSymbolTableRecord
100
AcDbLinetypeTableRecord
  2
DOT
 70
64
  3
. . . . . . . . . . . . . . . . . . . .
 72
65
 73
2
 40
0.2
 49
0.1
 74
0
 49
-0.1
 74
0
  0
LTYPE
  5
1F9
100
AcDbSymbolTableRecord
100
AcDbLinetypeTableRecord
  2
DASHED
 70
64
  3
- - - - - - - - - - - - - - - - - - - -
 72
65
 73
2
 40
0.2
 49
0.1
 74
0
 49
-0.1
 74
0
  0
ENDTAB
  0
TABLE
  2
LAYER
  5
2
100
AcDbSymbolTable
 70
36
  0
LAYER
  5
10
100
AcDbSymbolTableRecord
100
AcDbLayerTableRecord
  2
0
 70
0
 62
7
  6
CONTINUOUS
370
-3
390
F
  0
LAYER
  5
1FA
100
AcDbSymbolTableRecord
100
AcDbLayerTableRecord
  2
DEFAULT_1
 70
0
 62
7
  6
CENTER
370
-3
390
F
  0
LAYER
  5
1FB
100
AcDbSymbolTableRecord
100
AcDbLayerTableRecord
  2
DEFAULT_2
 70
0
 62
7
  6
HIDDEN
370
-3
390
F
  0
LAYER
  5
1FC
100
AcDbSymbolTableRecord
100
AcDbLayerTableRecord
  2
DEFAULT_3
 70
0
 62
7
  6
PHANTOM
370
-3
390
F
  0
LAYER
  5
1FD
100
AcDbSymbolTableRecord
100
AcDbLayerTableRecord
  2
Livello_1
 70
0
 62
7
  6
CONTINUOUS
370
-3
390
F
  0
LAYER
  5
1FE
100
AcDbSymbolTableRecord
100
AcDbLayerTableRecord
  2
SNAPLINE
 70
0
 62
7
  6
CONTINUOUS
370
-3
390
F
  0
ENDTAB
  0
TABLE
  2
STYLE
  5
3
100
AcDbSymbolTable
 70
1
  0
STYLE
  5
11
100
AcDbSymbolTableRecord
100
AcDbTextStyleTableRecord
  2
STANDARD
 70
0
 40
0.0
 41
0.8
 50
0.0
 71
0
 42
0.2
  3
txt
  4

  0
STYLE
  5
1FF
100
AcDbSymbolTableRecord
100
AcDbTextStyleTableRecord
  2
TEXTSTYLE_1
 70
0
 40
0.0
 41
0.8
 50
0.0
 71
0
 42
0.2
  3
gdt
  4

  0
ENDTAB
  0
TABLE
  2
VIEW
  5
6
100
AcDbSymbolTable
 70
0
  0
ENDTAB
  0
TABLE
  2
UCS
  5
7
100
AcDbSymbolTable
 70
0
  0
ENDTAB
  0
TABLE
  2
APPID
  5
9
100
AcDbSymbolTable
 70
1
  0
APPID
  5
200
100
AcDbSymbolTableRecord
100
AcDbRegAppTableRecord
  2
ACAD
 70
0
  0
ENDTAB
  0
TABLE
  2
BLOCK_RECORD
  5
1
100
AcDbSymbolTable
 70
0
  0
BLOCK_RECORD
  5
201
100
AcDbSymbolTableRecord
100
AcDbBlockTableRecord
  2
*Model_Space
  0
BLOCK_RECORD
  5
202
100
AcDbSymbolTableRecord
100
AcDbBlockTableRecord
  2
*Paper_Space
  0
BLOCK_RECORD
  5
203
100
AcDbSymbolTableRecord
100
AcDbBlockTableRecord
  2
_FILLED
  0
BLOCK_RECORD
  5
204
100
AcDbSymbolTableRecord
100
AcDbBlockTableRecord
  2
*D0
  0
BLOCK_RECORD
  5
205
100
AcDbSymbolTableRecord
100
AcDbBlockTableRecord
  2
*D1
  0
BLOCK_RECORD
  5
206
100
AcDbSymbolTableRecord
100
AcDbBlockTableRecord
  2
*D2
  0
ENDTAB
  0
TABLE
  2
DIMSTYLE
  5
A
100
AcDbSymbolTable
 70
1
100
AcDbDimStyleTable
 71
0
  0
DIMSTYLE
105
207
100
AcDbSymbolTableRecord
100
AcDbDimStyleTableRecord
  2
STANDARD
 70
0
  3

  4

 40
1.0
 41
3.0
 42
0.5
 43
0.38
 44
1.5
 45
0.0
 46
0.0
 47
0.01
 48
0.01
140
3.0
141
0.09
142
0.0
143
25.4
144
1.0
145
0.0
146
1.0
147
0.625
 71
1
 72
0
 73
0
 74
0
 75
0
 76
0
 77
1
 78
8
 79
2
170
0
171
1
172
0
173
0
174
0
175
0
176
0
177
0
178
0
270
2
179
2
271
2
272
2
273
2
274
2
275
0
280
0
281
0
282
0
283
1
284
8
285
0
286
0
287
3
288
0
340
11
278
44
341
203
342
203
343
203
344
203
  0
DIMSTYLE
105
208
100
AcDbSymbolTableRecord
100
AcDbDimStyleTableRecord
  2
DIMSTYLE_1
 70
0
  3

  4

 40
1.0
 41
3.0
 42
0.5
 43
0.38
 44
1.5
 45
0.0
 46
0.0
 47
0.0
 48
0.0
140
3.0
141
0.09
142
0.0
143
25.4
144
1.0
145
0.0
146
1.0
147
0.75
 71
0
 72
0
 73
0
 74
0
 75
0
 76
0
 77
1
 78
8
 79
2
170
0
171
1
172
0
173
0
174
0
175
0
176
0
177
0
178
0
270
2
179
2
271
2
272
2
273
2
274
2
275
0
280
0
281
0
282
0
283
1
284
8
285
0
286
0
287
3
288
0
340
11
278
44
341
203
342
203
343
203
344
203
  0
DIMSTYLE
105
209
100
AcDbSymbolTableRecord
100
AcDbDimStyleTableRecord
  2
DIMSTYLE_2
 70
0
  3

  4

 40
1.0
 41
3.0
 42
0.5
 43
0.38
 44
1.5
 45
0.0
 46
0.0
 47
0.0
 48
0.0
140
3.0
141
0.09
142
0.0
143
25.4
144
1.0
145
0.0
146
1.0
147
0.75
 71
0
 72
0
 73
0
 74
0
 75
0
 76
0
 77
1
 78
8
 79
2
170
0
171
1
172
0
173
0
174
0
175
0
176
0
177
0
178
0
270
2
179
2
271
1
272
1
273
2
274
2
275
0
280
0
281
0
282
0
283
1
284
8
285
0
286
0
287
3
288
0
340
11
278
44
341
203
342
203
343
203
344
203
  0
ENDTAB
  0
ENDSEC
  0
SECTION
  2
BLOCKS
  0
BLOCK
  5
20
100
AcDbEntity
  8
0
100
AcDbBlockBegin
  2
*Model_Space
 70
0
 10
0.0
 20
0.0
 30
0.0
  3
*Model_Space
  1

  0
ENDBLK
  5
21
100
AcDbEntity
  8
0
100
AcDbBlockEnd
  0
BLOCK
  5
1C
100
AcDbEntity
  8
0
100
AcDbBlockBegin
  2
*Paper_Space
 70
0
 10
0.0
 20
0.0
 30
0.0
  3
*Paper_Space
  1

  0
ENDBLK
  5
1D
100
AcDbEntity
  8
0
100
AcDbBlockEnd
  0
BLOCK
  5
20A
100
AcDbEntity
  8
0
100
AcDbBlockBegin
  2
_FILLED
 70
64
 10
0.0
 20
0.0
  3
_FILLED
  1

  0
SOLID
  5
20B
100
AcDbEntity
  8
0
  6
BYBLOCK
 62
0
100
AcDbTrace
 10
0.0
 20
0.0
 11
-1.0
 21
0.3166666667
 12
-1.0
 22
-0.3166666667
 13
-1.0
 23
-0.3166666667
  0
ENDBLK
  5
20C
100
AcDbEntity
  8
0
  6
BYBLOCK
 62
0
100
AcDbBlockEnd
  0
BLOCK
  5
20D
100
AcDbEntity
  8
0
100
AcDbBlockBegin
 62
7
  6
CONTINUOUS
  2
*D0
 70
65
 10
0.0
 20
0.0
  3
*D0
  1

  0
MTEXT
  5
20E
100
AcDbEntity
  8
0
100
AcDbMText
 62
7
  6
CONTINUOUS
  7
STANDARD
 71
2
 72
1
 10
-0.7183511449
 20
-83.182091029
 30
0.0
 11
1.0
 21
0.0
 31
0.0
 73
2
 44
0.9
  1
{\ftxt;\W0.0001;\H0.0001;\~}{\ftxt;\W1.4285714286;\H3.0; }{\ftxt;\W0.0001;\H0.0001;\~}
 40
3.0
 41
6.4285714286
  0
LINE
  5
20F
100
AcDbEntity
  8
0
100
AcDbLine
 62
7
  6
CONTINUOUS
 10
-18.2187329842
 20
-70.5847118195
 11
-18.2187329842
 21
-88.432091029
  0
LINE
  5
210
100
AcDbEntity
  8
0
100
AcDbLine
 62
7
  6
CONTINUOUS
 10
16.7820306945
 20
-70.5847118195
 11
16.7820306945
 21
-88.432091029
  0
LINE
  5
211
100
AcDbEntity
  8
0
100
AcDbLine
 62
7
  6
CONTINUOUS
 10
-18.2187329842
 20
-86.932091029
 11
-0.7183511449
 21
-86.932091029
  0
LINE
  5
212
100
AcDbEntity
  8
0
100
AcDbLine
 62
7
  6
CONTINUOUS
 10
16.7820306945
 20
-86.932091029
 11
-0.7183511449
 21
-86.932091029
  0
INSERT
  5
213
100
AcDbEntity
  8
0
100
AcDbBlockReference
 62
7
  6
CONTINUOUS
  2
_FILLED
 10
-18.2187329842
 20
-86.932091029
 41
3.0
 42
3.0
 43
3.0
 50
180.0
  0
INSERT
  5
214
100
AcDbEntity
  8
0
100
AcDbBlockReference
 62
7
  6
CONTINUOUS
  2
_FILLED
 10
16.7820306945
 20
-86.932091029
 41
3.0
 42
3.0
 43
3.0
  0
ENDBLK
  5
215
100
AcDbEntity
  8
0
  6
BYBLOCK
 62
0
100
AcDbBlockEnd
  0
BLOCK
  5
216
100
AcDbEntity
  8
0
100
AcDbBlockBegin
 62
7
  6
CONTINUOUS
  2
*D1
 70
65
 10
0.0
 20
0.0
  3
*D1
  1

  0
MTEXT
  5
217
100
AcDbEntity
  8
0
100
AcDbMText
 62
7
  6
CONTINUOUS
  7
STANDARD
 71
2
 72
1
 10
73.3251317142
 20
-83.4195343008
 30
0.0
 11
1.0
 21
0.0
 31
0.0
 73
2
 44
0.9
  1
{\ftxt;\W0.0001;\H0.0001;\~}{\ftxt;\W2.9285714286;\H3.0; }{\ftxt;\W0.0001;\H0.0001;\~}
 40
3.0
 41
13.1785714286
  0
LINE
  5
218
100
AcDbEntity
  8
0
100
AcDbLine
 62
7
  6
CONTINUOUS
 10
51.9759939807
 20
-71.2083523464
 11
51.9759939807
 21
-88.6695343008
  0
LINE
  5
219
100
AcDbEntity
  8
0
100
AcDbLine
 62
7
  6
CONTINUOUS
 10
94.6742694477
 20
-68.5350104463
 11
94.6742694477
 21
-88.6695343008
  0
LINE
  5
21A
100
AcDbEntity
  8
0
100
AcDbLine
 62
7
  6
CONTINUOUS
 10
51.9759939807
 20
-87.1695343008
 11
73.3251317142
 21
-87.1695343008
  0
LINE
  5
21B
100
AcDbEntity
  8
0
100
AcDbLine
 62
7
  6
CONTINUOUS
 10
94.6742694477
 20
-87.1695343008
 11
73.3251317142
 21
-87.1695343008
  0
INSERT
  5
21C
100
AcDbEntity
  8
0
100
AcDbBlockReference
 62
7
  6
CONTINUOUS
  2
_FILLED
 10
51.9759939807
 20
-87.1695343008
 41
3.0
 42
3.0
 43
3.0
 50
180.0
  0
INSERT
  5
21D
100
AcDbEntity
  8
0
100
AcDbBlockReference
 62
7
  6
CONTINUOUS
  2
_FILLED
 10
94.6742694477
 20
-87.1695343008
 41
3.0
 42
3.0
 43
3.0
  0
ENDBLK
  5
21E
100
AcDbEntity
  8
0
  6
BYBLOCK
 62
0
100
AcDbBlockEnd
  0
BLOCK
  5
21F
100
AcDbEntity
  8
0
100
AcDbBlockBegin
 62
7
  6
CONTINUOUS
  2
*D2
 70
65
 10
0.0
 20
0.0
  3
*D2
  1

  0
MTEXT
  5
220
100
AcDbEntity
  8
0
100
AcDbMText
 62
7
  6
CONTINUOUS
  7
STANDARD
 71
2
 72
1
 10
105.1651055409
 20
7.146581475
 30
0.0
 11
0.0
 21
1.0
 31
0.0
 73
2
 44
0.9
  1
{\ftxt;\W0.0001;\H0.0001;\~}{\ftxt;\W3.3571428571;\H3.0; }{\ftxt;\W0.0001;\H0.0001;\~}
 40
3.0
 41
15.1071428571
  0
LINE
  5
221
100
AcDbEntity
  8
0
100
AcDbLine
 62
7
  6
CONTINUOUS
 10
94.9936062239
 20
85.0015152963
 11
110.4151055409
 21
85.0015152963
  0
LINE
  5
222
100
AcDbEntity
  8
0
100
AcDbLine
 62
7
  6
CONTINUOUS
 10
94.9936062239
 20
-70.7083523464
 11
110.4151055409
 21
-70.7083523464
  0
LINE
  5
223
100
AcDbEntity
  8
0
100
AcDbLine
 62
7
  6
CONTINUOUS
 10
108.9151055409
 20
85.0015152963
 11
108.9151055409
 21
7.146581475
  0
LINE
  5
224
100
AcDbEntity
  8
0
100
AcDbLine
 62
7
  6
CONTINUOUS
 10
108.9151055409
 20
-70.7083523464
 11
108.9151055409
 21
7.146581475
  0
INSERT
  5
225
100
AcDbEntity
  8
0
100
AcDbBlockReference
 62
7
  6
CONTINUOUS
  2
_FILLED
 10
108.9151055409
 20
85.0015152963
 41
3.0
 42
3.0
 43
3.0
 50
90.0
  0
INSERT
  5
226
100
AcDbEntity
  8
0
100
AcDbBlockReference
 62
7
  6
CONTINUOUS
  2
_FILLED
 10
108.9151055409
 20
-70.7083523464
 41
3.0
 42
3.0
 43
3.0
 50
270.0
  0
ENDBLK
  5
227
100
AcDbEntity
  8
0
  6
BYBLOCK
 62
0
100
AcDbBlockEnd
  0
ENDSEC
  0
SECTION
  2
ENTITIES
  0
DIMENSION
  5
228
100
AcDbEntity
  8
0
100
AcDbDimension
 62
7
  6
CONTINUOUS
  2
*D0
 10
16.7820306945
 20
-86.932091029
 11
-1.1469225097
 21
-86.932091029
 70
160
 71
2
 72
2
 41
0.9
 42
35.0007636786
  1
{\ftxt;\W0.0001;\H0.0001;\~}{\ftxt;\W1.4285714286;\H3.0; }{\ftxt;\W0.0001;\H0.0001;\~}
  3
DIMSTYLE_1
100
AcDbAlignedDimension
 13
-18.2187329842
 23
-70.0847118195
 14
16.7820306945
 24
-70.0847118195
100
AcDbRotatedDimension
  0
DIMENSION
  5
229
100
AcDbEntity
  8
0
100
AcDbDimension
 62
7
  6
CONTINUOUS
  2
*D1
 10
94.6742694477
 20
-87.1695343008
 11
72.8965621719
 21
-87.1695343008
 70
160
 71
2
 72
2
 41
0.9
 42
42.6982754671
  1
{\ftxt;\W0.0001;\H0.0001;\~}{\ftxt;\W2.9285714286;\H3.0; }{\ftxt;\W0.0001;\H0.0001;\~}
  3
DIMSTYLE_1
100
AcDbAlignedDimension
 13
51.9759939807
 23
-70.7083523464
 14
94.6742694477
 24
-68.0350104463
100
AcDbRotatedDimension
  0
DIMENSION
  5
22A
100
AcDbEntity
  8
0
100
AcDbDimension
 62
7
  6
CONTINUOUS
  2
*D2
 10
108.9151055409
 20
-70.7083523464
 11
108.9151055409
 21
6.7180067045
 70
160
 71
2
 72
2
 41
0.9
 42
155.7098676427
  1
{\ftxt;\W0.0001;\H0.0001;\~}{\ftxt;\W3.3571428571;\H3.0; }{\ftxt;\W0.0001;\H0.0001;\~}
  3
DIMSTYLE_2
100
AcDbAlignedDimension
 13
94.4936062239
 23
85.0015152963
 14
94.4936062239
 24
-70.7083523464
 50
270.0
100
AcDbRotatedDimension
  0
LINE
  5
22B
100
AcDbEntity
  8
Livello_1
100
AcDbLine
 62
7
  6
CONTINUOUS
 10
-3.9549180277
 20
-52.976332121
 11
-3.9656966499
 21
-52.8240460825
  0
LINE
  5
22C
100
AcDbEntity
  8
Livello_1
100
AcDbLine
 62
7
  6
CONTINUOUS
 10
-3.5251216139
 20
-52.9351033651
 11
-3.5344498774
 21
-52.8033630714
  0
LINE
  5
22D
100
AcDbEntity
  8
Livello_1
100
AcDbLine
 62
7
  6
CONTINUOUS
 10
2.001545086
 20
-52.4062741807
 11
2.0108732104
 21
-52.5380980891
  0
LINE
  5
22E
100
AcDbEntity
  8
Livello_1
100
AcDbLine
 62
7
  6
CONTINUOUS
 10
2.4308243351
 20
-52.3651625564
 11
2.4416029561
 21
-52.5174753726
  0
LINE
  5
22F
100
AcDbEntity
  8
Livello_1
100
AcDbLine
 62
7
  6
CONTINUOUS
 10
-3.9656966499
 20
-52.8240460825
 11
-3.9692982615
 21
-52.6707756492
  0
LINE
  5
230
100
AcDbEntity
  8
Livello_1
100
AcDbLine
 62
7
  6
CONTINUOUS
 10
-3.5344498774
 20
-52.8033630714
 11
-3.5375668127
 21
-52.6707756492
  0
LINE
  5
231
100
AcDbEntity
  8
0
100
AcDbLine
 62
7
  6
CONTINUOUS
 10
-18.2204430581
 20
-70.7083523464
 11
-18.2204430581
 21
-69.977393545
  0
LINE
  5
232
100
AcDbEntity
  8
Livello_1
100
AcDbLine
 62
7
  6
CONTINUOUS
 10
-18.2187329842
 20
-70.0847118195
 11
-18.2187329842
 21
84.8820730028
  0
LINE
  5
233
100
AcDbEntity
  8
Livello_1
100
AcDbLine
 62
7
  6
CONTINUOUS
 10
-16.2080834378
 20
84.4874274801
 11
-16.2080834378
 21
83.3476530162
  0
LINE
  5
234
100
AcDbEntity
  8
Livello_1
100
AcDbLine
 62
7
  6
CONTINUOUS
 10
-16.2080834378
 20
82.0309743701
 11
-16.2080834378
 21
76.3761789003
  0
LINE
  5
235
100
AcDbEntity
  8
Livello_1
100
AcDbLine
 62
7
  6
CONTINUOUS
 10
-16.2080834378
 20
-69.9765231895
 11
-16.2080834378
 21
-68.8342763299
  0
LINE
  5
236
100
AcDbEntity
  8
Livello_1
100
AcDbLine
 62
7
  6
CONTINUOUS
 10
-16.2080834378
 20
-67.5196438045
 11
-16.2080834378
 21
-59.9332251745
  0
LINE
  5
237
100
AcDbEntity
  8
Livello_1
100
AcDbLine
 62
7
  6
CONTINUOUS
 10
-14.7277151762
 20
75.5802379626
 11
-14.7277151762
 21
-58.7717959335
  0
LINE
  5
238
100
AcDbEntity
  8
Livello_1
100
AcDbLine
 62
7
  6
CONTINUOUS
 10
-13.9376568553
 20
-58.6494549692
 11
-13.9376568553
 21
74.8533535973
  0
LINE
  5
239
100
AcDbEntity
  8
Livello_1
100
AcDbLine
 62
7
  6
CONTINUOUS
 10
-12.572638643
 20
-56.1858404369
 11
-12.572638643
 21
71.7949147378
  0
LINE
  5
23A
100
AcDbEntity
  8
Livello_1
100
AcDbLine
 62
7
  6
CONTINUOUS
 10
-9.7722668226
 20
-11.2803975605
 11
-9.7722668226
 21
16.62561909
  0
LINE
  5
23B
100
AcDbEntity
  8
Livello_1
100
AcDbLine
 62
7
  6
CONTINUOUS
 10
-9.7722668226
 20
37.2725111613
 11
-9.7722668226
 21
65.179721382
  0
LINE
  5
23C
100
AcDbEntity
  8
Livello_1
100
AcDbLine
 62
7
  6
CONTINUOUS
 10
-6.9965337044
 20
-8.259897188
 11
-6.9965337044
 21
13.4318805015
  0
LINE
  5
23D
100
AcDbEntity
  8
Livello_1
100
AcDbLine
 62
7
  6
CONTINUOUS
 10
-6.9965337044
 20
40.2938640841
 11
-6.9965337044
 21
61.983936673
  0
LINE
  5
23E
100
AcDbEntity
  8
Livello_1
100
AcDbLine
 62
7
  6
CONTINUOUS
 10
-6.1872930031
 20
-56.347398714
 11
-6.1872930031
 21
-58.9533038873
  0
LINE
  5
23F
100
AcDbEntity
  8
Livello_1
100
AcDbLine
 62
7
  6
CONTINUOUS
 10
-6.1656382267
 20
74.4374795729
 11
-6.1656382267
 21
71.8823863961
  0
LINE
  5
240
100
AcDbEntity
  8
0
100
AcDbLine
 62
7
  6
CONTINUOUS
 10
-18.2187329842
 20
-70.0847118195
 11
-18.2204430581
 21
-70.7083523464
  0
LINE
  5
241
100
AcDbEntity
  8
Livello_1
100
AcDbLine
 62
7
  6
CONTINUOUS
 10
86.2936626977
 20
-60.1603503379
 11
86.2863520935
 21
-60.1613832905
  0
LINE
  5
242
100
AcDbEntity
  8
Livello_1
100
AcDbLine
 62
7
  6
CONTINUOUS
 10
85.3411935535
 20
-60.1603503379
 11
85.3338829495
 21
-60.1613832905
  0
LINE
  5
243
100
AcDbEntity
  8
Livello_1
100
AcDbLine
 62
7
  6
CONTINUOUS
 10
92.1847412121
 20
-60.1482525073
 11
92.1791027933
 21
-60.1489203944
  0
LINE
  5
244
100
AcDbEntity
  8
Livello_1
100
AcDbLine
 62
7
  6
CONTINUOUS
 10
89.4938494265
 20
-60.1482525032
 11
89.4882061197
 21
-60.1489203944
  0
LINE
  5
245
100
AcDbEntity
  8
Livello_1
100
AcDbLine
 62
7
  6
CONTINUOUS
 10
86.2863520935
 20
-60.1613832905
 11
86.2788628211
 21
-60.1620093172
  0
LINE
  5
246
100
AcDbEntity
  8
Livello_1
100
AcDbLine
 62
7
  6
CONTINUOUS
 10
85.3338829495
 20
-60.1613832905
 11
85.3263936771
 21
-60.1620093172
  0
LINE
  5
247
100
AcDbEntity
  8
Livello_1
100
AcDbLine
 62
7
  6
CONTINUOUS
 10
92.9916684407
 20
-59.6426760406
 11
93.0193672868
 21
-59.6408513271
  0
LINE
  5
248
100
AcDbEntity
  8
Livello_1
100
AcDbLine
 62
7
  6
CONTINUOUS
 10
94.6700841265
 20
-68.0350104463
 11
91.8610162933
 21
-68.1848035296
  0
LINE
  5
249
100
AcDbEntity
  8
Livello_1
100
AcDbLine
 62
7
  6
CONTINUOUS
 10
68.7250482925
 20
-58.8152870035
 11
68.6806864077
 21
-58.8168105882
  0
LINE
  5
24A
100
AcDbEntity
  8
Livello_1
100
AcDbLine
 62
7
  6
CONTINUOUS
 10
86.2788628211
 20
-60.1620093172
 11
86.2711852958
 21
-60.1622201786
  0
LINE
  5
24B
100
AcDbEntity
  8
Livello_1
100
AcDbLine
 62
7
  6
CONTINUOUS
 10
85.3263936771
 20
-60.1620093172
 11
85.3187161516
 21
-60.1622201786
  0
LINE
  5
24C
100
AcDbEntity
  8
Livello_1
100
AcDbLine
 62
7
  6
CONTINUOUS
 10
-0.6088690389
 20
-55.8742124876
 11
-0.7622599697
 21
-55.8778140222
  0
LINE
  5
24D
100
AcDbEntity
  8
Livello_1
100
AcDbLine
 62
7
  6
CONTINUOUS
 10
-0.6290919593
 20
-55.4425394463
 11
-0.7618336946
 21
-55.4456562874
  0
LINE
  5
24E
100
AcDbEntity
  8
Livello_1
100
AcDbLine
 62
7
  6
CONTINUOUS
 10
83.0940790505
 20
-50.6192839205
 11
69.3999830575
 21
-50.8857058817
  0
LINE
  5
24F
100
AcDbEntity
  8
Livello_1
100
AcDbLine
 62
7
  6
CONTINUOUS
 10
82.6078621078
 20
-50.0981199369
 11
68.8604892565
 21
-50.1180696133
  0
LWPOLYLINE
  5
250
100
AcDbEntity
  8
0
100
AcDbPolyline
 62
7
  6
CONTINUOUS
 90
7
 70
0
 43
0.3500000006
 10
72.7894176636
 20
-86.4195363464
 10
71.2894172058
 20
-86.4195363464
 10
72.7894176636
 20
-84.2766779022
 10
72.7894176636
 20
-83.8481044006
 10
72.360844162
 20
-83.4195354309
 10
71.7179907074
 20
-83.4195354309
 10
71.2894172058
 20
-84.0623934174
  0
LWPOLYLINE
  5
251
100
AcDbEntity
  8
0
100
AcDbPolyline
 62
7
  6
CONTINUOUS
 90
6
 70
0
 43
0.3500000006
 10
-2.8612081604
 20
-86.1820895233
 10
-1.7897796464
 20
-86.1820895233
 10
-1.5754940286
 20
-85.9678050385
 10
-1.5754940286
 20
-84.8963780823
 10
-2.0040654058
 20
-84.4678045807
 10
-2.4326369247
 20
-84.4678045807
  0
LWPOLYLINE
  5
252
100
AcDbEntity
  8
0
100
AcDbPolyline
 62
7
  6
CONTINUOUS
 90
8
 70
0
 43
0.3500000006
 10
-0.7183511324
 20
-86.1820895233
 10
0.1387917107
 20
-86.1820895233
 10
0.5673631411
 20
-85.7535205536
 10
0.5673631411
 20
-84.8963780823
 10
0.1387917107
 20
-84.4678045807
 10
-0.7183511324
 20
-84.4678045807
 10
-0.7183511324
 20
-83.1820931396
 10
0.5673631411
 20
-83.1820931396
  0
LWPOLYLINE
  5
253
100
AcDbEntity
  8
0
100
AcDbPolyline
 62
7
  6
CONTINUOUS
 90
3
 70
0
 43
0.3500000006
 10
70.4322747345
 20
-85.77667836
 10
68.9322742767
 20
-85.77667836
 10
69.5751322632
 20
-83.4195354309
  0
LINE
  5
254
100
AcDbEntity
  8
Livello_1
100
AcDbLine
 62
7
  6
CONTINUOUS
 10
94.4936062239
 20
-70.7083523464
 11
51.9759939807
 21
-70.7083523464
  0
LINE
  5
255
100
AcDbEntity
  8
0
100
AcDbLine
 62
7
  6
CONTINUOUS
 10
-18.2204430581
 20
-70.7083523464
 11
16.7820306945
 21
-70.7083523464
  0
LINE
  5
256
100
AcDbEntity
  8
Livello_1
100
AcDbLine
 62
7
  6
CONTINUOUS
 10
-18.2204430581
 20
-69.977393545
 11
16.7216701365
 21
-69.977393545
  0
LINE
  5
257
100
AcDbEntity
  8
Livello_1
100
AcDbLine
 62
7
  6
CONTINUOUS
 10
94.6767340184
 20
-69.3603851052
 11
94.6742694477
 21
-69.3603851052
  0
LINE
  5
258
100
AcDbEntity
  8
Livello_1
100
AcDbLine
 62
7
  6
CONTINUOUS
 10
-18.1379161935
 20
-68.7468046716
 11
16.7216701365
 21
-68.7468046716
  0
LINE
  5
259
100
AcDbEntity
  8
Livello_1
100
AcDbLine
 62
7
  6
CONTINUOUS
 10
94.6742694477
 20
-68.0350104463
 11
94.6700841265
 21
-68.0350104463
  0
LINE
  5
25A
100
AcDbEntity
  8
Livello_1
100
AcDbLine
 62
7
  6
CONTINUOUS
 10
-18.1379161935
 20
-67.7385787153
 11
16.7216701365
 21
-67.7385787153
  0
LINE
  5
25B
100
AcDbEntity
  8
Livello_1
100
AcDbLine
 62
7
  6
CONTINUOUS
 10
61.0526635172
 20
-60.157190132
 11
94.4936062239
 21
-60.157190132
  0
LINE
  5
25C
100
AcDbEntity
  8
Livello_1
100
AcDbLine
 62
7
  6
CONTINUOUS
 10
93.9507874769
 20
-59.6493259325
 11
78.0720389896
 21
-59.6493259325
  0
LINE
  5
25D
100
AcDbEntity
  8
Livello_1
100
AcDbLine
 62
7
  6
CONTINUOUS
 10
-18.1379161935
 20
-59.0932073876
 11
16.7216701365
 21
-59.0932073876
  0
LINE
  5
25E
100
AcDbEntity
  8
Livello_1
100
AcDbLine
 62
7
  6
CONTINUOUS
 10
11.0340516246
 20
-56.1858404369
 11
-12.572638643
 21
-56.1858404369
  0
LINE
  5
25F
100
AcDbEntity
  8
Livello_1
100
AcDbLine
 62
7
  6
CONTINUOUS
 10
83.1124013484
 20
-49.0915138262
 11
82.6503191105
 21
-49.0915138262
  0
LINE
  5
260
100
AcDbEntity
  8
Livello_1
100
AcDbLine
 62
7
  6
CONTINUOUS
 10
83.0112473899
 20
-60.1487195544
 11
83.0224648274
 21
-60.1489203944
  0
LINE
  5
261
100
AcDbEntity
  8
Livello_1
100
AcDbLine
 62
7
  6
CONTINUOUS
 10
-0.7622599697
 20
-55.8778140222
 11
-0.9155798872
 21
-55.8742124876
  0
LINE
  5
262
100
AcDbEntity
  8
Livello_1
100
AcDbLine
 62
7
  6
CONTINUOUS
 10
-0.7618336946
 20
-55.4456562874
 11
-0.8945402278
 21
-55.4425394463
  0
LINE
  5
263
100
AcDbEntity
  8
Livello_1
100
AcDbLine
 62
7
  6
CONTINUOUS
 10
-0.7618336946
 20
-49.8949572062
 11
-0.6290964816
 21
-49.8980740663
  0
LINE
  5
264
100
AcDbEntity
  8
Livello_1
100
AcDbLine
 62
7
  6
CONTINUOUS
 10
-0.7622599697
 20
-49.4636520214
 11
-0.6088690389
 21
-49.4672535579
  0
LINE
  5
265
100
AcDbEntity
  8
Livello_1
100
AcDbLine
 62
7
  6
CONTINUOUS
 10
93.1781211813
 20
-56.6388003983
 11
94.1772326371
 21
-56.665399967
  0
LINE
  5
266
100
AcDbEntity
  8
Livello_1
100
AcDbLine
 62
7
  6
CONTINUOUS
 10
91.8610162933
 20
-69.2163893635
 11
94.6767340184
 21
-69.3603851052
  0
LINE
  5
267
100
AcDbEntity
  8
Livello_1
100
AcDbLine
 62
7
  6
CONTINUOUS
 10
83.0004270767
 20
-60.1481263045
 11
83.0112473899
 21
-60.1487195544
  0
LINE
  5
268
100
AcDbEntity
  8
Livello_1
100
AcDbLine
 62
7
  6
CONTINUOUS
 10
-0.9155798872
 20
-55.8742124876
 11
-1.0678994536
 21
-55.8634345931
  0
LINE
  5
269
100
AcDbEntity
  8
Livello_1
100
AcDbLine
 62
7
  6
CONTINUOUS
 10
-0.8945402278
 20
-55.4425394463
 11
-1.0263802583
 21
-55.4332120598
  0
LINE
  5
26A
100
AcDbEntity
  8
Livello_1
100
AcDbLine
 62
7
  6
CONTINUOUS
 10
-0.6290964816
 20
-49.8980740663
 11
-0.497232035
 21
-49.9074013192
  0
LINE
  5
26B
100
AcDbEntity
  8
Livello_1
100
AcDbLine
 62
7
  6
CONTINUOUS
 10
-0.6088690389
 20
-49.4672535579
 11
-0.4564871898
 21
-49.4780311955
  0
LINE
  5
26C
100
AcDbEntity
  8
Livello_1
100
AcDbLine
 62
7
  6
CONTINUOUS
 10
78.0720389896
 20
-59.6493259325
 11
65.7223092663
 21
-58.5561669047
  0
LINE
  5
26D
100
AcDbEntity
  8
Livello_1
100
AcDbLine
 62
7
  6
CONTINUOUS
 10
65.7223092663
 20
-58.5561669047
 11
61.7537155912
 21
-58.2039974499
  0
LINE
  5
26E
100
AcDbEntity
  8
Livello_1
100
AcDbLine
 62
7
  6
CONTINUOUS
 10
82.9899927108
 20
-60.1471540856
 11
83.0004270767
 21
-60.1481263045
  0
LINE
  5
26F
100
AcDbEntity
  8
Livello_1
100
AcDbLine
 62
7
  6
CONTINUOUS
 10
-1.0678994536
 20
-55.8634345931
 11
-1.2190424518
 21
-55.8455210766
  0
LINE
  5
270
100
AcDbEntity
  8
Livello_1
100
AcDbLine
 62
7
  6
CONTINUOUS
 10
-1.0263802583
 20
-55.4332120598
 11
-1.1572013818
 21
-55.4177094125
  0
LINE
  5
271
100
AcDbEntity
  8
Livello_1
100
AcDbLine
 62
7
  6
CONTINUOUS
 10
-0.497232035
 20
-49.9074013192
 11
-0.3663925282
 21
-49.9229034056
  0
LINE
  5
272
100
AcDbEntity
  8
Livello_1
100
AcDbLine
 62
7
  6
CONTINUOUS
 10
-0.4564871898
 20
-49.4780311955
 11
-0.3052903537
 21
-49.4959438128
  0
LINE
  5
273
100
AcDbEntity
  8
Livello_1
100
AcDbLine
 62
7
  6
CONTINUOUS
 10
82.979930302
 20
-60.1458152397
 11
82.9899927108
 21
-60.1471540856
  0
LINE
  5
274
100
AcDbEntity
  8
Livello_1
100
AcDbLine
 62
7
  6
CONTINUOUS
 10
61.7537155912
 20
-58.2039974499
 11
61.6906963255
 21
-58.1951662288
  0
LINE
  5
275
100
AcDbEntity
  8
Livello_1
100
AcDbLine
 62
7
  6
CONTINUOUS
 10
-1.2190424518
 20
-55.8455210766
 11
-1.3688175708
 21
-55.8205153114
  0
LINE
  5
276
100
AcDbEntity
  8
Livello_1
100
AcDbLine
 62
7
  6
CONTINUOUS
 10
-1.1572013818
 20
-55.4177094125
 11
-1.2868381243
 21
-55.3960690637
  0
LINE
  5
277
100
AcDbEntity
  8
Livello_1
100
AcDbLine
 62
7
  6
CONTINUOUS
 10
-0.3663925282
 20
-49.9229034056
 11
-0.2367431472
 21
-49.9445425156
  0
LINE
  5
278
100
AcDbEntity
  8
Livello_1
100
AcDbLine
 62
7
  6
CONTINUOUS
 10
-0.3052903537
 20
-49.4959438128
 11
-0.1554694952
 21
-49.5209476766
  0
LINE
  5
279
100
AcDbEntity
  8
Livello_1
100
AcDbLine
 62
7
  6
CONTINUOUS
 10
82.9702262315
 20
-60.1441209696
 11
82.979930302
 21
-60.1458152397
  0
LINE
  5
27A
100
AcDbEntity
  8
Livello_1
100
AcDbLine
 62
7
  6
CONTINUOUS
 10
-1.2868381243
 20
-55.3960690637
 11
-1.4151114808
 21
-55.3683328349
  0
LINE
  5
27B
100
AcDbEntity
  8
Livello_1
100
AcDbLine
 62
7
  6
CONTINUOUS
 10
-0.2367431472
 20
-49.9445425156
 11
-0.1084625499
 21
-49.9722766076
  0
LINE
  5
27C
100
AcDbEntity
  8
Livello_1
100
AcDbLine
 62
7
  6
CONTINUOUS
 10
-0.1554694952
 20
-49.5209476766
 11
-0.0072311393
 21
-49.5529941554
  0
LINE
  5
27D
100
AcDbEntity
  8
Livello_1
100
AcDbLine
 62
7
  6
CONTINUOUS
 10
-1.3688175708
 20
-55.8205153114
 11
-1.5170178749
 21
-55.7884656034
  0
LINE
  5
27E
100
AcDbEntity
  8
Livello_1
100
AcDbLine
 62
7
  6
CONTINUOUS
 10
82.9608672984
 20
-60.1420813012
 11
82.9702262315
 21
-60.1441209696
  0
LINE
  5
27F
100
AcDbEntity
  8
Livello_1
100
AcDbLine
 62
7
  6
CONTINUOUS
 10
60.8067856734
 20
-60.099198569
 11
61.0526635172
 21
-60.157190132
  0
LINE
  5
280
100
AcDbEntity
  8
Livello_1
100
AcDbLine
 62
7
  6
CONTINUOUS
 10
82.9518407728
 20
-60.1397050499
 11
82.9608672984
 21
-60.1420813012
  0
LINE
  5
281
100
AcDbEntity
  8
Livello_1
100
AcDbLine
 62
7
  6
CONTINUOUS
 10
-1.5170178749
 20
-55.7884656034
 11
-1.6634206012
 21
-55.7494276021
  0
LINE
  5
282
100
AcDbEntity
  8
Livello_1
100
AcDbLine
 62
7
  6
CONTINUOUS
 10
-1.4151114808
 20
-55.3683328349
 11
-1.5418287374
 21
-55.3345489003
  0
LINE
  5
283
100
AcDbEntity
  8
Livello_1
100
AcDbLine
 62
7
  6
CONTINUOUS
 10
-0.1084625499
 20
-49.9722766076
 11
0.0182569562
 21
-50.0060573292
  0
LINE
  5
284
100
AcDbEntity
  8
Livello_1
100
AcDbLine
 62
7
  6
CONTINUOUS
 10
-0.0072311393
 20
-49.5529941554
 11
0.1392024222
 21
-49.592027317
  0
LINE
  5
285
100
AcDbEntity
  8
Livello_1
100
AcDbLine
 62
7
  6
CONTINUOUS
 10
82.9431344549
 20
-60.1369997972
 11
82.9518407728
 21
-60.1397050499
  0
LINE
  5
286
100
AcDbEntity
  8
Livello_1
100
AcDbLine
 62
7
  6
CONTINUOUS
 10
-1.6634206012
 20
-55.7494276021
 11
-1.8077873281
 21
-55.7034667649
  0
LINE
  5
287
100
AcDbEntity
  8
Livello_1
100
AcDbLine
 62
7
  6
CONTINUOUS
 10
-1.5418287374
 20
-55.3345489003
 11
-1.6667836145
 21
-55.2947739202
  0
LINE
  5
288
100
AcDbEntity
  8
Livello_1
100
AcDbLine
 62
7
  6
CONTINUOUS
 10
0.0182569562
 20
-50.0060573292
 11
0.1432095562
 21
-50.0458278923
  0
LINE
  5
289
100
AcDbEntity
  8
Livello_1
100
AcDbLine
 62
7
  6
CONTINUOUS
 10
0.1392024222
 20
-49.592027317
 11
0.2835933002
 21
-49.6379814756
  0
LINE
  5
28A
100
AcDbEntity
  8
Livello_1
100
AcDbLine
 62
7
  6
CONTINUOUS
 10
69.5111745982
 20
-58.8816197067
 11
69.5531863381
 21
-58.8966945491
  0
LINE
  5
28B
100
AcDbEntity
  8
Livello_1
100
AcDbLine
 62
7
  6
CONTINUOUS
 10
82.9347367352
 20
-60.1339718691
 11
82.9431344549
 21
-60.1369997972
  0
LINE
  5
28C
100
AcDbEntity
  8
Livello_1
100
AcDbLine
 62
7
  6
CONTINUOUS
 10
-1.8077873281
 20
-55.7034667649
 11
-1.9498645645
 21
-55.6506608029
  0
LINE
  5
28D
100
AcDbEntity
  8
Livello_1
100
AcDbLine
 62
7
  6
CONTINUOUS
 10
-1.6667836145
 20
-55.2947739202
 11
-1.7897567748
 21
-55.2490751594
  0
LINE
  5
28E
100
AcDbEntity
  8
Livello_1
100
AcDbLine
 62
7
  6
CONTINUOUS
 10
0.1432095562
 20
-50.0458278923
 11
0.2661764322
 21
-50.0915209633
  0
LINE
  5
28F
100
AcDbEntity
  8
Livello_1
100
AcDbLine
 62
7
  6
CONTINUOUS
 10
0.2835933002
 20
-49.6379814756
 11
0.425688591
 21
-49.6907787535
  0
LINE
  5
290
100
AcDbEntity
  8
Livello_1
100
AcDbLine
 62
7
  6
CONTINUOUS
 10
94.4936062239
 20
-60.157190132
 11
94.6183762432
 21
-60.2078100621
  0
LINE
  5
291
100
AcDbEntity
  8
Livello_1
100
AcDbLine
 62
7
  6
CONTINUOUS
 10
82.9266366622
 20
-60.1306263306
 11
82.9347367352
 21
-60.1339718691
  0
LINE
  5
292
100
AcDbEntity
  8
Livello_1
100
AcDbLine
 62
7
  6
CONTINUOUS
 10
0.2661764322
 20
-50.0915209633
 11
0.3869266565
 21
-50.1430566423
  0
LINE
  5
293
100
AcDbEntity
  8
Livello_1
100
AcDbLine
 62
7
  6
CONTINUOUS
 10
0.425688591
 20
-49.6907787535
 11
0.5652214108
 21
-49.7503267506
  0
LINE
  5
294
100
AcDbEntity
  8
Livello_1
100
AcDbLine
 62
7
  6
CONTINUOUS
 10
-1.9498645645
 20
-55.6506608029
 11
-2.0893847895
 21
-55.5911020206
  0
LINE
  5
295
100
AcDbEntity
  8
Livello_1
100
AcDbLine
 62
7
  6
CONTINUOUS
 10
-1.7897567748
 20
-55.2490751594
 11
-1.9105167204
 21
-55.197532516
  0
LINE
  5
296
100
AcDbEntity
  8
Livello_1
100
AcDbLine
 62
7
  6
CONTINUOUS
 10
91.7355160409
 20
-69.1594276281
 11
91.8610162933
 21
-69.2163893635
  0
LINE
  5
297
100
AcDbEntity
  8
Livello_1
100
AcDbLine
 62
7
  6
CONTINUOUS
 10
82.9188240121
 20
-60.1269669862
 11
82.9266366622
 21
-60.1306263306
  0
LINE
  5
298
100
AcDbEntity
  8
Livello_1
100
AcDbLine
 62
7
  6
CONTINUOUS
 10
-1.9105167204
 20
-55.197532516
 11
-2.0288210972
 21
-55.1402403819
  0
LINE
  5
299
100
AcDbEntity
  8
Livello_1
100
AcDbLine
 62
7
  6
CONTINUOUS
 10
0.3869266565
 20
-50.1430566423
 11
0.5052184861
 21
-50.2003406099
  0
LINE
  5
29A
100
AcDbEntity
  8
Livello_1
100
AcDbLine
 62
7
  6
CONTINUOUS
 10
0.5652214108
 20
-49.7503267506
 11
0.7019123939
 21
-49.8165164044
  0
LINE
  5
29B
100
AcDbEntity
  8
Livello_1
100
AcDbLine
 62
7
  6
CONTINUOUS
 10
-2.0893847895
 20
-55.5911020206
 11
-2.2260679612
 21
-55.5248994615
  0
LINE
  5
29C
100
AcDbEntity
  8
Livello_1
100
AcDbLine
 62
7
  6
CONTINUOUS
 10
82.9112893599
 20
-60.1229963971
 11
82.9188240121
 21
-60.1269669862
  0
LINE
  5
29D
100
AcDbEntity
  8
Livello_1
100
AcDbLine
 62
7
  6
CONTINUOUS
 10
0.7019123939
 20
-49.8165164044
 11
0.8354716585
 21
-49.8892201394
  0
LINE
  5
29E
100
AcDbEntity
  8
Livello_1
100
AcDbLine
 62
7
  6
CONTINUOUS
 10
-2.2260679612
 20
-55.5248994615
 11
-2.359623492
 21
-55.4521807625
  0
LINE
  5
29F
100
AcDbEntity
  8
Livello_1
100
AcDbLine
 62
7
  6
CONTINUOUS
 10
-2.0288210972
 20
-55.1402403819
 11
-2.1444184032
 21
-55.0773092508
  0
LINE
  5
2A0
100
AcDbEntity
  8
Livello_1
100
AcDbLine
 62
7
  6
CONTINUOUS
 10
0.5052184861
 20
-50.2003406099
 11
0.6208010641
 21
-50.2632625249
  0
LINE
  5
2A1
100
AcDbEntity
  8
Livello_1
100
AcDbLine
 62
7
  6
CONTINUOUS
 10
61.6906963255
 20
-58.1951662288
 11
61.5889351786
 21
-58.1385273153
  0
LINE
  5
2A2
100
AcDbEntity
  8
Livello_1
100
AcDbLine
 62
7
  6
CONTINUOUS
 10
82.9040241536
 20
-60.1187159134
 11
82.9112893599
 21
-60.1229963971
  0
LINE
  5
2A3
100
AcDbEntity
  8
Livello_1
100
AcDbLine
 62
7
  6
CONTINUOUS
 10
-2.359623492
 20
-55.4521807625
 11
-2.4897526694
 21
-55.3730936209
  0
LINE
  5
2A4
100
AcDbEntity
  8
Livello_1
100
AcDbLine
 62
7
  6
CONTINUOUS
 10
-2.1444184032
 20
-55.0773092508
 11
-2.2570500828
 21
-55.008866991
  0
LINE
  5
2A5
100
AcDbEntity
  8
Livello_1
100
AcDbLine
 62
7
  6
CONTINUOUS
 10
0.6208010641
 20
-50.2632625249
 11
0.7334165008
 21
-50.3316947511
  0
LINE
  5
2A6
100
AcDbEntity
  8
Livello_1
100
AcDbLine
 62
7
  6
CONTINUOUS
 10
0.8354716585
 20
-49.8892201394
 11
0.9656012134
 21
-49.9682904031
  0
LINE
  5
2A7
100
AcDbEntity
  8
Livello_1
100
AcDbLine
 62
7
  6
CONTINUOUS
 10
69.4919942013
 20
-58.8696588036
 11
69.5111745982
 21
-58.8816197067
  0
LINE
  5
2A8
100
AcDbEntity
  8
Livello_1
100
AcDbLine
 62
7
  6
CONTINUOUS
 10
82.8970207874
 20
-60.1141257202
 11
82.9040241536
 21
-60.1187159134
  0
LINE
  5
2A9
100
AcDbEntity
  8
Livello_1
100
AcDbLine
 62
7
  6
CONTINUOUS
 10
-2.4897526694
 20
-55.3730936209
 11
-2.6161514724
 21
-55.2878067859
  0
LINE
  5
2AA
100
AcDbEntity
  8
Livello_1
100
AcDbLine
 62
7
  6
CONTINUOUS
 10
-2.2570500828
 20
-55.008866991
 11
-2.3664529645
 21
-54.9350597092
  0
LINE
  5
2AB
100
AcDbEntity
  8
Livello_1
100
AcDbLine
 62
7
  6
CONTINUOUS
 10
0.7334165008
 20
-50.3316947511
 11
0.842802298
 21
-50.4054914981
  0
LINE
  5
2AC
100
AcDbEntity
  8
Livello_1
100
AcDbLine
 62
7
  6
CONTINUOUS
 10
0.9656012134
 20
-49.9682904031
 11
1.0919977609
 21
-50.053558671
  0
LINE
  5
2AD
100
AcDbEntity
  8
Livello_1
100
AcDbLine
 62
7
  6
CONTINUOUS
 10
82.8902726737
 20
-60.1092249081
 11
82.8970207874
 21
-60.1141257202
  0
LINE
  5
2AE
100
AcDbEntity
  8
Livello_1
100
AcDbLine
 62
7
  6
CONTINUOUS
 10
1.0919977609
 20
-50.053558671
 11
1.2143558206
 21
-50.1448350012
  0
LINE
  5
2AF
100
AcDbEntity
  8
Livello_1
100
AcDbLine
 62
7
  6
CONTINUOUS
 10
-2.6161514724
 20
-55.2878067859
 11
-2.7385137112
 21
-55.196510501
  0
LINE
  5
2B0
100
AcDbEntity
  8
Livello_1
100
AcDbLine
 62
7
  6
CONTINUOUS
 10
-2.3664529645
 20
-54.9350597092
 11
-2.4723619804
 21
-54.8560521365
  0
LINE
  5
2B1
100
AcDbEntity
  8
Livello_1
100
AcDbLine
 62
7
  6
CONTINUOUS
 10
0.842802298
 20
-50.4054914981
 11
0.9486940545
 21
-50.4844884302
  0
LINE
  5
2B2
100
AcDbEntity
  8
Livello_1
100
AcDbLine
 62
7
  6
CONTINUOUS
 10
82.8837743132
 20
-60.1040115607
 11
82.8902726737
 21
-60.1092249081
  0
LINE
  5
2B3
100
AcDbEntity
  8
Livello_1
100
AcDbLine
 62
7
  6
CONTINUOUS
 10
-2.4723619804
 20
-54.8560521365
 11
-2.5745130845
 21
-54.7720274918
  0
LINE
  5
2B4
100
AcDbEntity
  8
Livello_1
100
AcDbLine
 62
7
  6
CONTINUOUS
 10
0.9486940545
 20
-50.4844884302
 11
1.0508283678
 21
-50.5685027977
  0
LINE
  5
2B5
100
AcDbEntity
  8
Livello_1
100
AcDbLine
 62
7
  6
CONTINUOUS
 10
1.2143558206
 20
-50.1448350012
 11
1.3323710836
 21
-50.2419081867
  0
LINE
  5
2B6
100
AcDbEntity
  8
Livello_1
100
AcDbLine
 62
7
  6
CONTINUOUS
 10
-2.7385137112
 20
-55.196510501
 11
-2.8565343959
 21
-55.0994163438
  0
LINE
  5
2B7
100
AcDbEntity
  8
Livello_1
100
AcDbLine
 62
7
  6
CONTINUOUS
 10
69.4742188532
 20
-58.8547478524
 11
69.4919942013
 21
-58.8696588036
  0
LINE
  5
2B8
100
AcDbEntity
  8
Livello_1
100
AcDbLine
 62
7
  6
CONTINUOUS
 10
82.877521362
 20
-60.0984828679
 11
82.8837743132
 21
-60.1040115607
  0
LINE
  5
2B9
100
AcDbEntity
  8
Livello_1
100
AcDbLine
 62
7
  6
CONTINUOUS
 10
60.6284050932
 20
-59.9402877464
 11
60.8067856734
 21
-60.099198569
  0
LINE
  5
2BA
100
AcDbEntity
  8
Livello_1
100
AcDbLine
 62
7
  6
CONTINUOUS
 10
-2.8565343959
 20
-55.0994163438
 11
-2.9699132164
 21
-54.9967564293
  0
LINE
  5
2BB
100
AcDbEntity
  8
Livello_1
100
AcDbLine
 62
7
  6
CONTINUOUS
 10
-2.5745130845
 20
-54.7720274918
 11
-2.6726462661
 21
-54.6831867965
  0
LINE
  5
2BC
100
AcDbEntity
  8
Livello_1
100
AcDbLine
 62
7
  6
CONTINUOUS
 10
1.0508283678
 20
-50.5685027977
 11
1.148945833
 21
-50.6573341141
  0
LINE
  5
2BD
100
AcDbEntity
  8
Livello_1
100
AcDbLine
 62
7
  6
CONTINUOUS
 10
1.3323710836
 20
-50.2419081867
 11
1.445743876
 21
-50.344546542
  0
LINE
  5
2BE
100
AcDbEntity
  8
Livello_1
100
AcDbLine
 62
7
  6
CONTINUOUS
 10
82.8715106934
 20
-60.0926352658
 11
82.877521362
 21
-60.0984828679
  0
LINE
  5
2BF
100
AcDbEntity
  8
Livello_1
100
AcDbLine
 62
7
  6
CONTINUOUS
 10
-2.6726462661
 20
-54.6831867965
 11
-2.7665085516
 21
-54.5897476428
  0
LINE
  5
2C0
100
AcDbEntity
  8
Livello_1
100
AcDbLine
 62
7
  6
CONTINUOUS
 10
1.148945833
 20
-50.6573341141
 11
1.2427940283
 21
-50.7507653764
  0
LINE
  5
2C1
100
AcDbEntity
  8
Livello_1
100
AcDbLine
 62
7
  6
CONTINUOUS
 10
1.445743876
 20
-50.344546542
 11
1.5541826066
 21
-50.4524993132
  0
LINE
  5
2C2
100
AcDbEntity
  8
Livello_1
100
AcDbLine
 62
7
  6
CONTINUOUS
 10
-2.9699132164
 20
-54.9967564293
 11
-3.078358002
 21
-54.8887819868
  0
LINE
  5
2C3
100
AcDbEntity
  8
Livello_1
100
AcDbLine
 62
7
  6
CONTINUOUS
 10
-1.849176289
 20
-51.5834330275
 11
0.3275550206
 21
-53.7572657209
  0
LINE
  5
2C4
100
AcDbEntity
  8
Livello_1
100
AcDbLine
 62
7
  6
CONTINUOUS
 10
-2.7665085516
 20
-54.5897476428
 11
-2.7748540702
 21
-54.5809984842
  0
LINE
  5
2C5
100
AcDbEntity
  8
Livello_1
100
AcDbLine
 62
7
  6
CONTINUOUS
 10
-3.078358002
 20
-54.8887819868
 11
-3.0881023237
 21
-54.878564126
  0
LINE
  5
2C6
100
AcDbEntity
  8
Livello_1
100
AcDbLine
 62
7
  6
CONTINUOUS
 10
1.2427940283
 20
-50.7507653764
 11
1.2514471003
 21
-50.7598390649
  0
LINE
  5
2C7
100
AcDbEntity
  8
Livello_1
100
AcDbLine
 62
7
  6
CONTINUOUS
 10
1.5541826066
 20
-50.4524993132
 11
1.5640926327
 21
-50.4628902652
  0
LINE
  5
2C8
100
AcDbEntity
  8
Livello_1
100
AcDbLine
 62
7
  6
CONTINUOUS
 10
5.4770493838
 20
-8.259897188
 11
8.3035889251
 21
-11.2803975605
  0
LINE
  5
2C9
100
AcDbEntity
  8
Livello_1
100
AcDbLine
 62
7
  6
CONTINUOUS
 10
82.8657404548
 20
-60.0864646088
 11
82.8715106934
 21
-60.0926352658
  0
LINE
  5
2CA
100
AcDbEntity
  8
Livello_1
100
AcDbLine
 62
7
  6
CONTINUOUS
 10
-3.0881023237
 20
-54.878564126
 11
-3.1907674388
 21
-54.7651734567
  0
LINE
  5
2CB
100
AcDbEntity
  8
Livello_1
100
AcDbLine
 62
7
  6
CONTINUOUS
 10
-2.7748540702
 20
-54.5809984842
 11
-2.8637183015
 21
-54.4828767997
  0
LINE
  5
2CC
100
AcDbEntity
  8
Livello_1
100
AcDbLine
 62
7
  6
CONTINUOUS
 10
1.5640926327
 20
-50.4628902652
 11
1.666744921
 21
-50.5762687558
  0
LINE
  5
2CD
100
AcDbEntity
  8
Livello_1
100
AcDbLine
 62
7
  6
CONTINUOUS
 10
1.2514471003
 20
-50.7598390649
 11
1.3402847614
 21
-50.8579705565
  0
LINE
  5
2CE
100
AcDbEntity
  8
Livello_1
100
AcDbLine
 62
7
  6
CONTINUOUS
 10
-6.9965337044
 20
13.4318805015
 11
-9.7722668226
 21
16.62561909
  0
LINE
  5
2CF
100
AcDbEntity
  8
Livello_1
100
AcDbLine
 62
7
  6
CONTINUOUS
 10
82.8602101193
 20
-60.0799663764
 11
82.8657404548
 21
-60.0864646088
  0
LINE
  5
2D0
100
AcDbEntity
  8
Livello_1
100
AcDbLine
 62
7
  6
CONTINUOUS
 10
-2.8637183015
 20
-54.4828767997
 11
-2.9477676504
 21
-54.3807350307
  0
LINE
  5
2D1
100
AcDbEntity
  8
Livello_1
100
AcDbLine
 62
7
  6
CONTINUOUS
 10
-3.1907674388
 20
-54.7651734567
 11
-3.2878701538
 21
-54.64713625
  0
LINE
  5
2D2
100
AcDbEntity
  8
Livello_1
100
AcDbLine
 62
7
  6
CONTINUOUS
 10
1.3402847614
 20
-50.8579705565
 11
1.4243094724
 21
-50.9601244681
  0
LINE
  5
2D3
100
AcDbEntity
  8
Livello_1
100
AcDbLine
 62
7
  6
CONTINUOUS
 10
1.666744921
 20
-50.5762687558
 11
1.7638354209
 21
-50.6942946392
  0
LINE
  5
2D4
100
AcDbEntity
  8
Livello_1
100
AcDbLine
 62
7
  6
CONTINUOUS
 10
69.4434629233
 20
-58.816075987
 11
69.4742188532
 21
-58.8547478524
  0
LINE
  5
2D5
100
AcDbEntity
  8
Livello_1
100
AcDbLine
 62
7
  6
CONTINUOUS
 10
-2.9477676504
 20
-54.3807350307
 11
-3.0268005681
 21
-54.2748337005
  0
LINE
  5
2D6
100
AcDbEntity
  8
Livello_1
100
AcDbLine
 62
7
  6
CONTINUOUS
 10
-3.2878701538
 20
-54.64713625
 11
-3.3791777134
 21
-54.5247532262
  0
LINE
  5
2D7
100
AcDbEntity
  8
Livello_1
100
AcDbLine
 62
7
  6
CONTINUOUS
 10
1.4243094724
 20
-50.9601244681
 11
1.5033199828
 21
-51.0660409032
  0
LINE
  5
2D8
100
AcDbEntity
  8
Livello_1
100
AcDbLine
 62
7
  6
CONTINUOUS
 10
1.7638354209
 20
-50.6942946392
 11
1.8551316797
 21
-50.8166676802
  0
LINE
  5
2D9
100
AcDbEntity
  8
Livello_1
100
AcDbLine
 62
7
  6
CONTINUOUS
 10
-3.3791777134
 20
-54.5247532262
 11
-3.4644778049
 21
-54.3983300489
  0
LINE
  5
2DA
100
AcDbEntity
  8
Livello_1
100
AcDbLine
 62
7
  6
CONTINUOUS
 10
-3.0268005681
 20
-54.2748337005
 11
-3.1006332174
 21
-54.16543763
  0
LINE
  5
2DB
100
AcDbEntity
  8
Livello_1
100
AcDbLine
 62
7
  6
CONTINUOUS
 10
1.5033199828
 20
-51.0660409032
 11
1.5771326636
 21
-51.1754556539
  0
LINE
  5
2DC
100
AcDbEntity
  8
Livello_1
100
AcDbLine
 62
7
  6
CONTINUOUS
 10
1.8551316797
 20
-50.8166676802
 11
1.9404216054
 21
-50.9430826754
  0
LINE
  5
2DD
100
AcDbEntity
  8
Livello_1
100
AcDbLine
 62
7
  6
CONTINUOUS
 10
-3.4644778049
 20
-54.3983300489
 11
-3.5435794004
 21
-54.2681738347
  0
LINE
  5
2DE
100
AcDbEntity
  8
Livello_1
100
AcDbLine
 62
7
  6
CONTINUOUS
 10
-3.1006332174
 20
-54.16543763
 11
-3.1691002081
 21
-54.0528129133
  0
LINE
  5
2DF
100
AcDbEntity
  8
Livello_1
100
AcDbLine
 62
7
  6
CONTINUOUS
 10
1.5771326636
 20
-51.1754556539
 11
1.6455822434
 21
-51.2881032097
  0
LINE
  5
2E0
100
AcDbEntity
  8
Livello_1
100
AcDbLine
 62
7
  6
CONTINUOUS
 10
1.9404216054
 20
-50.9430826754
 11
2.0195143114
 21
-51.0732329293
  0
LINE
  5
2E1
100
AcDbEntity
  8
Livello_1
100
AcDbLine
 62
7
  6
CONTINUOUS
 10
-3.1691002081
 20
-54.0528129133
 11
-3.2320547808
 21
-53.9372239819
  0
LINE
  5
2E2
100
AcDbEntity
  8
Livello_1
100
AcDbLine
 62
7
  6
CONTINUOUS
 10
-3.5435794004
 20
-54.2681738347
 11
-3.6163129671
 21
-54.1345897684
  0
LINE
  5
2E3
100
AcDbEntity
  8
Livello_1
100
AcDbLine
 62
7
  6
CONTINUOUS
 10
1.6455822434
 20
-51.2881032097
 11
1.708521995
 21
-51.4037196802
  0
LINE
  5
2E4
100
AcDbEntity
  8
Livello_1
100
AcDbLine
 62
7
  6
CONTINUOUS
 10
2.0195143114
 20
-51.0732329293
 11
2.0922403327
 21
-51.2068136301
  0
LINE
  5
2E5
100
AcDbEntity
  8
Livello_1
100
AcDbLine
 62
7
  6
CONTINUOUS
 10
-3.2320547808
 20
-53.9372239819
 11
-3.289368467
 21
-53.8189308569
  0
LINE
  5
2E6
100
AcDbEntity
  8
Livello_1
100
AcDbLine
 62
7
  6
CONTINUOUS
 10
-3.6163129671
 20
-54.1345897684
 11
-3.6825300695
 21
-53.9978779371
  0
LINE
  5
2E7
100
AcDbEntity
  8
Livello_1
100
AcDbLine
 62
7
  6
CONTINUOUS
 10
1.708521995
 20
-51.4037196802
 11
1.7658234017
 21
-51.5220455318
  0
LINE
  5
2E8
100
AcDbEntity
  8
Livello_1
100
AcDbLine
 62
7
  6
CONTINUOUS
 10
2.0922403327
 20
-51.2068136301
 11
2.1584512356
 21
-51.3435250071
  0
LINE
  5
2E9
100
AcDbEntity
  8
Livello_1
100
AcDbLine
 62
7
  6
CONTINUOUS
 10
-3.6825300695
 20
-53.9978779371
 11
-3.7421024171
 21
-53.8583304809
  0
LINE
  5
2EA
100
AcDbEntity
  8
Livello_1
100
AcDbLine
 62
7
  6
CONTINUOUS
 10
-3.289368467
 20
-53.8189308569
 11
-3.3409302652
 21
-53.6981866777
  0
LINE
  5
2EB
100
AcDbEntity
  8
Livello_1
100
AcDbLine
 62
7
  6
CONTINUOUS
 10
1.7658234017
 20
-51.5220455318
 11
1.8173753403
 21
-51.6428280496
  0
LINE
  5
2EC
100
AcDbEntity
  8
Livello_1
100
AcDbLine
 62
7
  6
CONTINUOUS
 10
2.1584512356
 20
-51.3435250071
 11
2.2180186744
 21
-51.4830751748
  0
LINE
  5
2ED
100
AcDbEntity
  8
Livello_1
100
AcDbLine
 62
7
  6
CONTINUOUS
 10
-3.7421024171
 20
-53.8583304809
 11
-3.7949204303
 21
-53.7162291368
  0
LINE
  5
2EE
100
AcDbEntity
  8
Livello_1
100
AcDbLine
 62
7
  6
CONTINUOUS
 10
-3.3409302652
 20
-53.6981866777
 11
-3.3866454015
 21
-53.5752355715
  0
LINE
  5
2EF
100
AcDbEntity
  8
Livello_1
100
AcDbLine
 62
7
  6
CONTINUOUS
 10
2.2180186744
 20
-51.4830751748
 11
2.2708329682
 21
-51.6251825869
  0
LINE
  5
2F0
100
AcDbEntity
  8
Livello_1
100
AcDbLine
 62
7
  6
CONTINUOUS
 10
1.8173753403
 20
-51.6428280496
 11
1.8630828524
 21
-51.7658234639
  0
LINE
  5
2F1
100
AcDbEntity
  8
Livello_1
100
AcDbLine
 62
7
  6
CONTINUOUS
 10
-3.7949204303
 20
-53.7162291368
 11
-3.8408914142
 21
-53.5718432251
  0
LINE
  5
2F2
100
AcDbEntity
  8
Livello_1
100
AcDbLine
 62
7
  6
CONTINUOUS
 10
-3.3866454015
 20
-53.5752355715
 11
-3.426433745
 21
-53.4503109029
  0
LINE
  5
2F3
100
AcDbEntity
  8
Livello_1
100
AcDbLine
 62
7
  6
CONTINUOUS
 10
1.8630828524
 20
-51.7658234639
 11
1.9028655719
 21
-51.8907986937
  0
LINE
  5
2F4
100
AcDbEntity
  8
Livello_1
100
AcDbLine
 62
7
  6
CONTINUOUS
 10
2.2708329682
 20
-51.6251825869
 11
2.3168012841
 21
-51.7695780489
  0
LINE
  5
2F5
100
AcDbEntity
  8
Livello_1
100
AcDbLine
 62
7
  6
CONTINUOUS
 10
-3.8408914142
 20
-53.5718432251
 11
-3.8799374297
 21
-53.4254281017
  0
LINE
  5
2F6
100
AcDbEntity
  8
Livello_1
100
AcDbLine
 62
7
  6
CONTINUOUS
 10
-3.426433745
 20
-53.4503109029
 11
-3.4602279667
 21
-53.3236339333
  0
LINE
  5
2F7
100
AcDbEntity
  8
Livello_1
100
AcDbLine
 62
7
  6
CONTINUOUS
 10
1.9028655719
 20
-51.8907986937
 11
1.9366558938
 21
-52.0175326897
  0
LINE
  5
2F8
100
AcDbEntity
  8
Livello_1
100
AcDbLine
 62
7
  6
CONTINUOUS
 10
2.3168012841
 20
-51.7695780489
 11
2.3558455216
 21
-51.9160062668
  0
LINE
  5
2F9
100
AcDbEntity
  8
Livello_1
100
AcDbLine
 62
7
  6
CONTINUOUS
 10
-3.4602279667
 20
-53.3236339333
 11
-3.4879715188
 21
-53.1954128848
  0
LINE
  5
2FA
100
AcDbEntity
  8
Livello_1
100
AcDbLine
 62
7
  6
CONTINUOUS
 10
-3.8799374297
 20
-53.4254281017
 11
-3.9119929662
 21
-53.2772240834
  0
LINE
  5
2FB
100
AcDbEntity
  8
Livello_1
100
AcDbLine
 62
7
  6
CONTINUOUS
 10
1.9366558938
 20
-52.0175326897
 11
1.964396967
 21
-52.1458173691
  0
LINE
  5
2FC
100
AcDbEntity
  8
Livello_1
100
AcDbLine
 62
7
  6
CONTINUOUS
 10
2.3558455216
 20
-51.9160062668
 11
2.3878999928
 21
-52.0642269271
  0
LINE
  5
2FD
100
AcDbEntity
  8
Livello_1
100
AcDbLine
 62
7
  6
CONTINUOUS
 10
-3.9119929662
 20
-53.2772240834
 11
-3.9370024997
 21
-53.1274558253
  0
LINE
  5
2FE
100
AcDbEntity
  8
Livello_1
100
AcDbLine
 62
7
  6
CONTINUOUS
 10
-3.4879715188
 20
-53.1954128848
 11
-3.5096165192
 21
-53.0658423994
  0
LINE
  5
2FF
100
AcDbEntity
  8
Livello_1
100
AcDbLine
 62
7
  6
CONTINUOUS
 10
1.964396967
 20
-52.1458173691
 11
1.9860405904
 21
-52.27545816
  0
LINE
  5
300
100
AcDbEntity
  8
Livello_1
100
AcDbLine
 62
7
  6
CONTINUOUS
 10
2.3878999928
 20
-52.0642269271
 11
2.4129089911
 21
-52.2140153221
  0
LINE
  5
301
100
AcDbEntity
  8
Livello_1
100
AcDbLine
 62
7
  6
CONTINUOUS
 10
-3.9370024997
 20
-53.1274558253
 11
-3.9549180277
 21
-52.976332121
  0
LINE
  5
302
100
AcDbEntity
  8
Livello_1
100
AcDbLine
 62
7
  6
CONTINUOUS
 10
-3.5096165192
 20
-53.0658423994
 11
-3.5251216139
 21
-52.9351033651
  0
LINE
  5
303
100
AcDbEntity
  8
Livello_1
100
AcDbLine
 62
7
  6
CONTINUOUS
 10
1.9860405904
 20
-52.27545816
 11
2.001545086
 21
-52.4062741807
  0
LINE
  5
304
100
AcDbEntity
  8
Livello_1
100
AcDbLine
 62
7
  6
CONTINUOUS
 10
2.4129089911
 20
-52.2140153221
 11
2.4308243351
 21
-52.3651625564
  0
LINE
  5
305
100
AcDbEntity
  8
Livello_1
100
AcDbLine
 62
7
  6
CONTINUOUS
 10
2.0108732104
 20
-52.5380980891
 11
2.0139901631
 21
-52.6707756492
  0
LINE
  5
306
100
AcDbEntity
  8
Livello_1
100
AcDbLine
 62
7
  6
CONTINUOUS
 10
2.4416029561
 20
-52.5174753726
 11
2.4452045972
 21
-52.6707756492
  0
LINE
  5
307
100
AcDbEntity
  8
Livello_1
100
AcDbLine
 62
7
  6
CONTINUOUS
 10
4.6503258302
 20
74.4374795729
 11
4.6503258302
 21
71.8823863961
  0
LINE
  5
308
100
AcDbEntity
  8
Livello_1
100
AcDbLine
 62
7
  6
CONTINUOUS
 10
4.663199339
 20
-56.347398714
 11
4.663199339
 21
-58.9533038873
  0
LINE
  5
309
100
AcDbEntity
  8
Livello_1
100
AcDbLine
 62
7
  6
CONTINUOUS
 10
-3.9692982615
 20
-52.6707756492
 11
-3.9656966499
 21
-52.5174980051
  0
LINE
  5
30A
100
AcDbEntity
  8
Livello_1
100
AcDbLine
 62
7
  6
CONTINUOUS
 10
-3.5375668127
 20
-52.6707756492
 11
-3.5344498774
 21
-52.5381159051
  0
LINE
  5
30B
100
AcDbEntity
  8
Livello_1
100
AcDbLine
 62
7
  6
CONTINUOUS
 10
86.307783362
 20
-60.1570859272
 11
86.3008036727
 21
-60.1589165591
  0
LINE
  5
30C
100
AcDbEntity
  8
Livello_1
100
AcDbLine
 62
7
  6
CONTINUOUS
 10
85.3553142178
 20
-60.1570859272
 11
85.3483345285
 21
-60.1589165591
  0
LINE
  5
30D
100
AcDbEntity
  8
Livello_1
100
AcDbLine
 62
7
  6
CONTINUOUS
 10
92.195951032
 20
-60.1457612523
 11
92.1903550087
 21
-60.1472007511
  0
LINE
  5
30E
100
AcDbEntity
  8
Livello_1
100
AcDbLine
 62
7
  6
CONTINUOUS
 10
89.5050682702
 20
-60.1457613202
 11
89.4994678629
 21
-60.1472007613
  0
LINE
  5
30F
100
AcDbEntity
  8
Livello_1
100
AcDbLine
 62
7
  6
CONTINUOUS
 10
86.3008036727
 20
-60.1589165591
 11
86.2936626977
 21
-60.1603503379
  0
LINE
  5
310
100
AcDbEntity
  8
Livello_1
100
AcDbLine
 62
7
  6
CONTINUOUS
 10
85.3483345285
 20
-60.1589165591
 11
85.3411935535
 21
-60.1603503379
  0
LINE
  5
311
100
AcDbEntity
  8
Livello_1
100
AcDbLine
 62
7
  6
CONTINUOUS
 10
92.1903550087
 20
-60.1472007511
 11
92.1847412121
 21
-60.1482525073
  0
LINE
  5
312
100
AcDbEntity
  8
Livello_1
100
AcDbLine
 62
7
  6
CONTINUOUS
 10
89.4994678629
 20
-60.1472007613
 11
89.4938494265
 21
-60.1482525032
  0
LINE
  5
313
100
AcDbEntity
  8
Livello_1
100
AcDbLine
 62
7
  6
CONTINUOUS
 10
-0.4564870577
 20
-55.8634348522
 11
-0.6088690389
 21
-55.8742124876
  0
LINE
  5
314
100
AcDbEntity
  8
Livello_1
100
AcDbLine
 62
7
  6
CONTINUOUS
 10
-0.4972219057
 20
-55.4332122169
 11
-0.6290919593
 21
-55.4425394463
  0
LINE
  5
315
100
AcDbEntity
  8
Livello_1
100
AcDbLine
 62
7
  6
CONTINUOUS
 10
-1.0263701312
 20
-49.9074014763
 11
-0.8945357067
 21
-49.8980740663
  0
LINE
  5
316
100
AcDbEntity
  8
Livello_1
100
AcDbLine
 62
7
  6
CONTINUOUS
 10
-0.8945357067
 20
-49.8980740663
 11
-0.7618336946
 21
-49.8949572062
  0
LINE
  5
317
100
AcDbEntity
  8
Livello_1
100
AcDbLine
 62
7
  6
CONTINUOUS
 10
-0.9155798872
 20
-49.4672535579
 11
-0.7622599697
 21
-49.4636520214
  0
LINE
  5
318
100
AcDbEntity
  8
Livello_1
100
AcDbLine
 62
7
  6
CONTINUOUS
 10
5.4770493838
 20
40.2938640841
 11
8.3035889251
 21
37.2725111613
  0
LINE
  5
319
100
AcDbEntity
  8
Livello_1
100
AcDbLine
 62
7
  6
CONTINUOUS
 10
-6.9965337044
 20
61.983936673
 11
-9.7722668226
 21
65.179721382
  0
LINE
  5
31A
100
AcDbEntity
  8
Livello_1
100
AcDbLine
 62
7
  6
CONTINUOUS
 10
82.8549205321
 20
-60.0731359252
 11
82.8602101193
 21
-60.0799663764
  0
LINE
  5
31B
100
AcDbEntity
  8
Livello_1
100
AcDbLine
 62
7
  6
CONTINUOUS
 10
82.8498739498
 20
-60.0659687958
 11
82.8549205321
 21
-60.0731359252
  0
LINE
  5
31C
100
AcDbEntity
  8
Livello_1
100
AcDbLine
 62
7
  6
CONTINUOUS
 10
82.8450740762
 20
-60.0584610894
 11
82.8498739498
 21
-60.0659687958
  0
LWPOLYLINE
  5
31D
100
AcDbEntity
  8
0
100
AcDbPolyline
 62
7
  6
CONTINUOUS
 90
10
 70
0
 43
0.3500000006
 10
74.2894181213
 20
-85.9195361938
 10
74.3608447723
 20
-86.0623894958
 10
74.3608447723
 20
-86.1338206787
 10
74.2179869385
 20
-86.2766785126
 10
74.1465602875
 20
-86.2766785126
 10
74.0751336365
 20
-86.2052473297
 10
74.0751336365
 20
-86.1338206787
 10
74.1465602875
 20
-85.9909628448
 10
74.2179869385
 20
-85.9195361938
 10
74.2894181213
 20
-85.9195361938
  0
LINE
  5
31E
100
AcDbEntity
  8
Livello_1
100
AcDbLine
 62
7
  6
CONTINUOUS
 10
5.4770493838
 20
61.983936673
 11
5.4770493838
 21
40.2938640841
  0
LINE
  5
31F
100
AcDbEntity
  8
Livello_1
100
AcDbLine
 62
7
  6
CONTINUOUS
 10
5.4770493838
 20
13.4318805015
 11
5.4770493838
 21
-8.259897188
  0
LINE
  5
320
100
AcDbEntity
  8
Livello_1
100
AcDbLine
 62
7
  6
CONTINUOUS
 10
8.3035889251
 20
65.179721382
 11
8.3035889251
 21
37.2725111613
  0
LINE
  5
321
100
AcDbEntity
  8
Livello_1
100
AcDbLine
 62
7
  6
CONTINUOUS
 10
8.3035889251
 20
16.62561909
 11
8.3035889251
 21
-11.2803975605
  0
LINE
  5
322
100
AcDbEntity
  8
Livello_1
100
AcDbLine
 62
7
  6
CONTINUOUS
 10
11.0340516246
 20
71.7949147378
 11
11.0340516246
 21
-56.1858404369
  0
LINE
  5
323
100
AcDbEntity
  8
Livello_1
100
AcDbLine
 62
7
  6
CONTINUOUS
 10
12.4685526827
 20
74.8533535973
 11
12.4685526827
 21
-58.6494549692
  0
LINE
  5
324
100
AcDbEntity
  8
Livello_1
100
AcDbLine
 62
7
  6
CONTINUOUS
 10
13.2565706512
 20
75.5802379626
 11
13.2565706512
 21
-58.7717959335
  0
LINE
  5
325
100
AcDbEntity
  8
Livello_1
100
AcDbLine
 62
7
  6
CONTINUOUS
 10
14.7481015526
 20
84.4874274801
 11
14.7481015526
 21
83.3476530162
  0
LINE
  5
326
100
AcDbEntity
  8
Livello_1
100
AcDbLine
 62
7
  6
CONTINUOUS
 10
14.7481015526
 20
82.0309743701
 11
14.7481015526
 21
76.3761789003
  0
LINE
  5
327
100
AcDbEntity
  8
Livello_1
100
AcDbLine
 62
7
  6
CONTINUOUS
 10
14.7481015526
 20
-69.9765231895
 11
14.7481015526
 21
-68.8342763299
  0
LINE
  5
328
100
AcDbEntity
  8
Livello_1
100
AcDbLine
 62
7
  6
CONTINUOUS
 10
14.7481015526
 20
-67.5196438045
 11
14.7481015526
 21
-59.9332251745
  0
LINE
  5
329
100
AcDbEntity
  8
Livello_1
100
AcDbLine
 62
7
  6
CONTINUOUS
 10
2.0139901631
 20
-52.6707756492
 11
2.0108732104
 21
-52.803380878
  0
LINE
  5
32A
100
AcDbEntity
  8
Livello_1
100
AcDbLine
 62
7
  6
CONTINUOUS
 10
2.4452045972
 20
-52.6707756492
 11
2.4416029561
 21
-52.824068714
  0
LINE
  5
32B
100
AcDbEntity
  8
Livello_1
100
AcDbLine
 62
7
  6
CONTINUOUS
 10
-3.9656966499
 20
-52.5174980051
 11
-3.9549180439
 21
-52.3652053096
  0
LINE
  5
32C
100
AcDbEntity
  8
Livello_1
100
AcDbLine
 62
7
  6
CONTINUOUS
 10
-3.5344498774
 20
-52.5381159051
 11
-3.5251217587
 21
-52.4063082163
  0
LINE
  5
32D
100
AcDbEntity
  8
Livello_1
100
AcDbLine
 62
7
  6
CONTINUOUS
 10
2.0108732104
 20
-52.803380878
 11
2.0015449413
 21
-52.9351373835
  0
LINE
  5
32E
100
AcDbEntity
  8
Livello_1
100
AcDbLine
 62
7
  6
CONTINUOUS
 10
2.4416029561
 20
-52.824068714
 11
2.4308243187
 21
-52.9763748725
  0
LINE
  5
32F
100
AcDbEntity
  8
Livello_1
100
AcDbLine
 62
7
  6
CONTINUOUS
 10
-0.1554687013
 20
-55.8205183518
 11
-0.3052899562
 21
-55.8455222313
  0
LINE
  5
330
100
AcDbEntity
  8
Livello_1
100
AcDbLine
 62
7
  6
CONTINUOUS
 10
-0.2367186909
 20
-55.3960708936
 11
-0.3663757372
 21
-55.4177101102
  0
LINE
  5
331
100
AcDbEntity
  8
Livello_1
100
AcDbLine
 62
7
  6
CONTINUOUS
 10
-1.1571845939
 20
-49.9229041033
 11
-1.0263701312
 21
-49.9074014763
  0
LINE
  5
332
100
AcDbEntity
  8
Livello_1
100
AcDbLine
 62
7
  6
CONTINUOUS
 10
-1.2190420545
 20
-49.4959449678
 11
-1.0678993215
 21
-49.4780314549
  0
LINE
  5
333
100
AcDbEntity
  8
Livello_1
100
AcDbLine
 62
7
  6
CONTINUOUS
 10
-0.3052899562
 20
-55.8455222313
 11
-0.4564870577
 21
-55.8634348522
  0
LINE
  5
334
100
AcDbEntity
  8
Livello_1
100
AcDbLine
 62
7
  6
CONTINUOUS
 10
-0.3663757372
 20
-55.4177101102
 11
-0.4972219057
 21
-55.4332122169
  0
LINE
  5
335
100
AcDbEntity
  8
Livello_1
100
AcDbLine
 62
7
  6
CONTINUOUS
 10
-1.0678993215
 20
-49.4780314549
 11
-0.9155798872
 21
-49.4672535579
  0
LINE
  5
336
100
AcDbEntity
  8
Livello_1
100
AcDbLine
 62
7
  6
CONTINUOUS
 10
82.8405260913
 20
-60.0506099355
 11
82.8450740762
 21
-60.0584610894
  0
LINE
  5
337
100
AcDbEntity
  8
Livello_1
100
AcDbLine
 62
7
  6
CONTINUOUS
 10
82.8362366772
 20
-60.042414083
 11
82.8405260913
 21
-60.0506099355
  0
LINE
  5
338
100
AcDbEntity
  8
Livello_1
100
AcDbLine
 62
7
  6
CONTINUOUS
 10
69.4197843371
 20
-58.7647797981
 11
69.4434629233
 21
-58.816075987
  0
LINE
  5
339
100
AcDbEntity
  8
Livello_1
100
AcDbLine
 62
7
  6
CONTINUOUS
 10
60.5387025773
 20
-59.7047181639
 11
60.6284050932
 21
-59.9402877464
  0
LINE
  5
33A
100
AcDbEntity
  8
Livello_1
100
AcDbLine
 62
7
  6
CONTINUOUS
 10
16.7820306945
 20
84.8820730028
 11
16.7820306945
 21
-70.0847118195
  0
LINE
  5
33B
100
AcDbEntity
  8
0
100
AcDbLine
 62
7
  6
CONTINUOUS
 10
16.7820306945
 20
-70.7083523464
 11
16.7820306945
 21
-70.0847118195
  0
LINE
  5
33C
100
AcDbEntity
  8
Livello_1
100
AcDbLine
 62
7
  6
CONTINUOUS
 10
-3.9549180439
 20
-52.3652053096
 11
-3.9370025737
 21
-52.2140754943
  0
LINE
  5
33D
100
AcDbEntity
  8
Livello_1
100
AcDbLine
 62
7
  6
CONTINUOUS
 10
-3.5251217587
 20
-52.4063082163
 11
-3.5096171744
 21
-52.2755066707
  0
LINE
  5
33E
100
AcDbEntity
  8
Livello_1
100
AcDbLine
 62
7
  6
CONTINUOUS
 10
2.0015449413
 20
-52.9351373835
 11
1.9860399353
 21
-53.0658908869
  0
LINE
  5
33F
100
AcDbEntity
  8
Livello_1
100
AcDbLine
 62
7
  6
CONTINUOUS
 10
2.4308243187
 20
-52.9763748725
 11
2.4129089171
 21
-53.127515995
  0
LINE
  5
340
100
AcDbEntity
  8
Livello_1
100
AcDbLine
 62
7
  6
CONTINUOUS
 10
-3.9370025737
 20
-52.2140754943
 11
-3.9119931631
 21
-52.0643016585
  0
LINE
  5
341
100
AcDbEntity
  8
Livello_1
100
AcDbLine
 62
7
  6
CONTINUOUS
 10
-3.5096171744
 20
-52.2755066707
 11
-3.4879732718
 21
-52.1458784811
  0
LINE
  5
342
100
AcDbEntity
  8
Livello_1
100
AcDbLine
 62
7
  6
CONTINUOUS
 10
-0.007229822
 20
-55.7884718399
 11
-0.1554687013
 21
-55.8205183518
  0
LINE
  5
343
100
AcDbEntity
  8
Livello_1
100
AcDbLine
 62
7
  6
CONTINUOUS
 10
-0.1084294984
 20
-55.3683365742
 11
-0.2367186909
 21
-55.3960708936
  0
LINE
  5
344
100
AcDbEntity
  8
Livello_1
100
AcDbLine
 62
7
  6
CONTINUOUS
 10
-1.2868136714
 20
-49.9445443455
 11
-1.1571845939
 21
-49.9229041033
  0
LINE
  5
345
100
AcDbEntity
  8
Livello_1
100
AcDbLine
 62
7
  6
CONTINUOUS
 10
-1.3688167769
 20
-49.5209507171
 11
-1.2190420545
 21
-49.4959449678
  0
LINE
  5
346
100
AcDbEntity
  8
Livello_1
100
AcDbLine
 62
7
  6
CONTINUOUS
 10
-14.7185928883
 20
75.6863804719
 11
-13.9726114157
 21
74.9870334807
  0
LINE
  5
347
100
AcDbEntity
  8
Livello_1
100
AcDbLine
 62
7
  6
CONTINUOUS
 10
82.8322140387
 20
-60.0338746616
 11
82.8362366772
 21
-60.042414083
  0
LINE
  5
348
100
AcDbEntity
  8
Livello_1
100
AcDbLine
 62
7
  6
CONTINUOUS
 10
82.8284679204
 20
-60.0249961797
 11
82.8322140387
 21
-60.0338746616
  0
LINE
  5
349
100
AcDbEntity
  8
Livello_1
100
AcDbLine
 62
7
  6
CONTINUOUS
 10
2.4129089171
 20
-53.127515995
 11
2.3878997958
 21
-53.2772988119
  0
LINE
  5
34A
100
AcDbEntity
  8
Livello_1
100
AcDbLine
 62
7
  6
CONTINUOUS
 10
1.9860399353
 20
-53.0658908869
 11
1.9643952137
 21
-53.1954739695
  0
LINE
  5
34B
100
AcDbEntity
  8
Livello_1
100
AcDbLine
 62
7
  6
CONTINUOUS
 10
-3.9119931631
 20
-52.0643016585
 11
-3.8799378386
 21
-51.9160925802
  0
LINE
  5
34C
100
AcDbEntity
  8
Livello_1
100
AcDbLine
 62
7
  6
CONTINUOUS
 10
-3.4879732718
 20
-52.1458784811
 11
-3.4602316222
 21
-52.0176044252
  0
LINE
  5
34D
100
AcDbEntity
  8
Livello_1
100
AcDbLine
 62
7
  6
CONTINUOUS
 10
0.1392043831
 20
-55.7494386232
 11
-0.007229822
 21
-55.7884718399
  0
LINE
  5
34E
100
AcDbEntity
  8
Livello_1
100
AcDbLine
 62
7
  6
CONTINUOUS
 10
0.0182994344
 20
-55.3345554823
 11
-0.1084294984
 21
-55.3683365742
  0
LINE
  5
34F
100
AcDbEntity
  8
Livello_1
100
AcDbLine
 62
7
  6
CONTINUOUS
 10
-1.415078433
 20
-49.9722803466
 11
-1.2868136714
 21
-49.9445443455
  0
LINE
  5
350
100
AcDbEntity
  8
Livello_1
100
AcDbLine
 62
7
  6
CONTINUOUS
 10
-1.5170165578
 20
-49.5530003919
 11
-1.3688167769
 21
-49.5209507171
  0
LINE
  5
351
100
AcDbEntity
  8
Livello_1
100
AcDbLine
 62
7
  6
CONTINUOUS
 10
8.3035889251
 20
-11.2803975605
 11
-9.7722668226
 21
-11.2803975605
  0
LINE
  5
352
100
AcDbEntity
  8
Livello_1
100
AcDbLine
 62
7
  6
CONTINUOUS
 10
5.4770493838
 20
-8.259897188
 11
-6.9965337044
 21
-8.259897188
  0
LINE
  5
353
100
AcDbEntity
  8
Livello_1
100
AcDbLine
 62
7
  6
CONTINUOUS
 10
94.6183762432
 20
-60.2078100621
 11
94.6742694477
 21
-60.3386980858
  0
LINE
  5
354
100
AcDbEntity
  8
Livello_1
100
AcDbLine
 62
7
  6
CONTINUOUS
 10
91.6795083443
 20
-69.0257591217
 11
91.7355160409
 21
-69.1594276281
  0
LINE
  5
355
100
AcDbEntity
  8
Livello_1
100
AcDbLine
 62
7
  6
CONTINUOUS
 10
82.8250096153
 20
-60.0157878712
 11
82.8284679204
 21
-60.0249961797
  0
LINE
  5
356
100
AcDbEntity
  8
Livello_1
100
AcDbLine
 62
7
  6
CONTINUOUS
 10
82.8218519646
 20
-60.0062655493
 11
82.8250096153
 21
-60.0157878712
  0
LINE
  5
357
100
AcDbEntity
  8
Livello_1
100
AcDbLine
 62
7
  6
CONTINUOUS
 10
69.4046591778
 20
-58.6997160755
 11
69.4197843371
 21
-58.7647797981
  0
LINE
  5
358
100
AcDbEntity
  8
Livello_1
100
AcDbLine
 62
7
  6
CONTINUOUS
 10
61.5889351786
 20
-58.1385273153
 11
61.5538778116
 21
-57.9775600967
  0
LINE
  5
359
100
AcDbEntity
  8
Livello_1
100
AcDbLine
 62
7
  6
CONTINUOUS
 10
1.9643952137
 20
-53.1954739695
 11
1.9366522381
 21
-53.3237056383
  0
LINE
  5
35A
100
AcDbEntity
  8
Livello_1
100
AcDbLine
 62
7
  6
CONTINUOUS
 10
2.3878997958
 20
-53.2772988119
 11
2.3558451129
 21
-53.4255144116
  0
LINE
  5
35B
100
AcDbEntity
  8
Livello_1
100
AcDbLine
 62
7
  6
CONTINUOUS
 10
-3.8799378386
 20
-51.9160925802
 11
-3.8408921455
 21
-51.769672894
  0
LINE
  5
35C
100
AcDbEntity
  8
Livello_1
100
AcDbLine
 62
7
  6
CONTINUOUS
 10
-3.4602316222
 20
-52.0176044252
 11
-3.4264403131
 21
-51.8908789971
  0
LINE
  5
35D
100
AcDbEntity
  8
Livello_1
100
AcDbLine
 62
7
  6
CONTINUOUS
 10
-1.5417862622
 20
-50.0060639108
 11
-1.415078433
 21
-49.9722803466
  0
LINE
  5
35E
100
AcDbEntity
  8
Livello_1
100
AcDbLine
 62
7
  6
CONTINUOUS
 10
-1.6634186408
 20
-49.5920383381
 11
-1.5170165578
 21
-49.5530003919
  0
LWPOLYLINE
  5
35F
100
AcDbEntity
  8
0
100
AcDbPolyline
 62
7
  6
CONTINUOUS
 90
3
 70
0
 43
0.3500000006
 10
107.8793948364
 20
8.8251519241
 10
108.0936793213
 20
8.7537252731
 10
108.379394989
 20
8.6108674393
  0
LWPOLYLINE
  5
360
100
AcDbEntity
  8
0
100
AcDbPolyline
 62
7
  6
CONTINUOUS
 90
3
 70
0
 43
0.3500000006
 10
106.0222475281
 20
2.1108677216
 10
105.1651095886
 20
2.9680101929
 10
108.1651014404
 20
2.9680101929
  0
LINE
  5
361
100
AcDbEntity
  8
Livello_1
100
AcDbLine
 62
7
  6
CONTINUOUS
 10
82.8190093346
 20
-59.9964542448
 11
82.8218519646
 21
-60.0062655493
  0
LINE
  5
362
100
AcDbEntity
  8
Livello_1
100
AcDbLine
 62
7
  6
CONTINUOUS
 10
82.8164975562
 20
-59.9863920744
 11
82.8190093346
 21
-59.9964542448
  0
LINE
  5
363
100
AcDbEntity
  8
Livello_1
100
AcDbLine
 62
7
  6
CONTINUOUS
 10
60.5348244926
 20
-59.6426760406
 11
60.5387025773
 21
-59.7047181639
  0
LINE
  5
364
100
AcDbEntity
  8
Livello_1
100
AcDbLine
 62
7
  6
CONTINUOUS
 10
51.9759939807
 20
-70.7083523464
 11
51.9759939807
 21
85.0015152963
  0
LINE
  5
365
100
AcDbEntity
  8
Livello_1
100
AcDbLine
 62
7
  6
CONTINUOUS
 10
2.3558451129
 20
-53.4255144116
 11
2.3168005528
 21
-53.5719380669
  0
LINE
  5
366
100
AcDbEntity
  8
Livello_1
100
AcDbLine
 62
7
  6
CONTINUOUS
 10
1.9366522381
 20
-53.3237056383
 11
1.9028590038
 21
-53.4503911736
  0
LINE
  5
367
100
AcDbEntity
  8
Livello_1
100
AcDbLine
 62
7
  6
CONTINUOUS
 10
-3.8408921455
 20
-51.769672894
 11
-3.7949216143
 21
-51.6252828928
  0
LINE
  5
368
100
AcDbEntity
  8
Livello_1
100
AcDbLine
 62
7
  6
CONTINUOUS
 10
-3.4264403131
 20
-51.8908789971
 11
-3.3866560806
 21
-51.7659102345
  0
LWPOLYLINE
  5
369
100
AcDbEntity
  8
0
100
AcDbPolyline
 62
7
  6
CONTINUOUS
 90
4
 70
0
 43
0.3500000006
 10
105.8079630432
 20
9.8251522293
 10
105.1651095886
 20
9.8251522293
 10
105.1651095886
 20
11.3251526871
 10
108.1651014404
 20
10.4680102158
  0
LINE
  5
36A
100
AcDbEntity
  8
Livello_1
100
AcDbLine
 62
7
  6
CONTINUOUS
 10
82.8143337793
 20
-59.9761361344
 11
82.8164975562
 21
-59.9863920744
  0
LINE
  5
36B
100
AcDbEntity
  8
Livello_1
100
AcDbLine
 62
7
  6
CONTINUOUS
 10
82.8125361564
 20
-59.9657718669
 11
82.8143337793
 21
-59.9761361344
  0
LINE
  5
36C
100
AcDbEntity
  8
Livello_1
100
AcDbLine
 62
7
  6
CONTINUOUS
 10
82.810111914
 20
-59.9453076935
 11
82.8111231446
 21
-59.9554287006
  0
LINE
  5
36D
100
AcDbEntity
  8
Livello_1
100
AcDbLine
 62
7
  6
CONTINUOUS
 10
69.3999830575
 20
-58.6294200376
 11
69.4046591778
 21
-58.6997160755
  0
LINE
  5
36E
100
AcDbEntity
  8
Livello_1
100
AcDbLine
 62
7
  6
CONTINUOUS
 10
60.5348244926
 20
75.9323412266
 11
60.5348244926
 21
-59.6426760406
  0
LINE
  5
36F
100
AcDbEntity
  8
Livello_1
100
AcDbLine
 62
7
  6
CONTINUOUS
 10
61.5538778116
 20
-57.9775600967
 11
61.5538778116
 21
75.9394173938
  0
LINE
  5
370
100
AcDbEntity
  8
Livello_1
100
AcDbLine
 62
7
  6
CONTINUOUS
 10
63.7518376223
 20
-58.4438198426
 11
63.7518376223
 21
-60.1222355706
  0
LINE
  5
371
100
AcDbEntity
  8
Livello_1
100
AcDbLine
 62
7
  6
CONTINUOUS
 10
64.6227247733
 20
-58.4887492422
 11
64.6227247733
 21
-60.1421852471
  0
LINE
  5
372
100
AcDbEntity
  8
Livello_1
100
AcDbLine
 62
7
  6
CONTINUOUS
 10
66.1854494289
 20
-58.6386275806
 11
66.1854494289
 21
-60.1421852471
  0
LINE
  5
373
100
AcDbEntity
  8
Livello_1
100
AcDbLine
 62
7
  6
CONTINUOUS
 10
66.2986609972
 20
-58.6386275806
 11
66.2986609972
 21
-60.1421852471
  0
LINE
  5
374
100
AcDbEntity
  8
Livello_1
100
AcDbLine
 62
7
  6
CONTINUOUS
 10
66.6050675586
 20
-58.6702571957
 11
66.6050675586
 21
-60.1372404555
  0
LINE
  5
375
100
AcDbEntity
  8
Livello_1
100
AcDbLine
 62
7
  6
CONTINUOUS
 10
66.7382359084
 20
-58.6702571957
 11
66.7382359084
 21
-60.1372404555
  0
LINE
  5
376
100
AcDbEntity
  8
Livello_1
100
AcDbLine
 62
7
  6
CONTINUOUS
 10
60.5387441366
 20
75.9947267676
 11
60.5348244926
 21
75.9323412266
  0
LINE
  5
377
100
AcDbEntity
  8
Livello_1
100
AcDbLine
 62
7
  6
CONTINUOUS
 10
2.3168005528
 20
-53.5719380669
 11
2.2708317842
 21
-53.7163294396
  0
LINE
  5
378
100
AcDbEntity
  8
Livello_1
100
AcDbLine
 62
7
  6
CONTINUOUS
 10
1.9028590038
 20
-53.4503911736
 11
1.8630721736
 21
-53.575322308
  0
LINE
  5
379
100
AcDbEntity
  8
Livello_1
100
AcDbLine
 62
7
  6
CONTINUOUS
 10
-3.7949216143
 20
-51.6252828928
 11
-3.7421042001
 21
-51.4831779046
  0
LINE
  5
37A
100
AcDbEntity
  8
Livello_1
100
AcDbLine
 62
7
  6
CONTINUOUS
 10
-3.3866560806
 20
-51.7659102345
 11
-3.3409464183
 21
-51.642919177
  0
LINE
  5
37B
100
AcDbEntity
  8
Livello_1
100
AcDbLine
 62
7
  6
CONTINUOUS
 10
2.2708317842
 20
-53.7163294396
 11
2.2180168914
 21
-53.8584332074
  0
LINE
  5
37C
100
AcDbEntity
  8
Livello_1
100
AcDbLine
 62
7
  6
CONTINUOUS
 10
1.8630721736
 20
-53.575322308
 11
1.8173591882
 21
-53.69827777
  0
LINE
  5
37D
100
AcDbEntity
  8
Livello_1
100
AcDbLine
 62
7
  6
CONTINUOUS
 10
-6.9965337044
 20
13.4318805015
 11
5.4770493838
 21
13.4318805015
  0
LINE
  5
37E
100
AcDbEntity
  8
Livello_1
100
AcDbLine
 62
7
  6
CONTINUOUS
 10
-9.7722668226
 20
16.62561909
 11
8.3035889251
 21
16.62561909
  0
LINE
  5
37F
100
AcDbEntity
  8
Livello_1
100
AcDbLine
 62
7
  6
CONTINUOUS
 10
82.8111231446
 20
-59.9554287006
 11
82.8125361564
 21
-59.9657718669
  0
LINE
  5
380
100
AcDbEntity
  8
Livello_1
100
AcDbLine
 62
7
  6
CONTINUOUS
 10
82.8095144689
 20
-59.9357333585
 11
82.810111914
 21
-59.9453076935
  0
LINE
  5
381
100
AcDbEntity
  8
Livello_1
100
AcDbLine
 62
7
  6
CONTINUOUS
 10
67.0454950199
 20
-58.6569574115
 11
67.0454950199
 21
-60.1305905633
  0
LINE
  5
382
100
AcDbEntity
  8
Livello_1
100
AcDbLine
 62
7
  6
CONTINUOUS
 10
67.2385976527
 20
-58.7368413724
 11
67.2385976527
 21
-60.1305905633
  0
LINE
  5
383
100
AcDbEntity
  8
Livello_1
100
AcDbLine
 62
7
  6
CONTINUOUS
 10
67.5666589905
 20
-58.716891696
 11
67.5666589905
 21
-60.1489203944
  0
LINE
  5
384
100
AcDbEntity
  8
Livello_1
100
AcDbLine
 62
7
  6
CONTINUOUS
 10
67.8064813769
 20
-58.7735010342
 11
67.8064813769
 21
-60.1489203944
  0
LINE
  5
385
100
AcDbEntity
  8
Livello_1
100
AcDbLine
 62
7
  6
CONTINUOUS
 10
68.1585846319
 20
-58.7701760882
 11
68.1585846319
 21
-60.1489203944
  0
LINE
  5
386
100
AcDbEntity
  8
Livello_1
100
AcDbLine
 62
7
  6
CONTINUOUS
 10
68.4850261244
 20
-58.8234604804
 11
68.4850261244
 21
-60.1489203944
  0
LINE
  5
387
100
AcDbEntity
  8
Livello_1
100
AcDbLine
 62
7
  6
CONTINUOUS
 10
68.8379819298
 20
-58.8783647182
 11
68.8379819298
 21
-60.1421852471
  0
LINE
  5
388
100
AcDbEntity
  8
Livello_1
100
AcDbLine
 62
7
  6
CONTINUOUS
 10
68.8604892565
 20
-50.1180696133
 11
68.8604892565
 21
-58.630272588
  0
LINE
  5
389
100
AcDbEntity
  8
Livello_1
100
AcDbLine
 62
7
  6
CONTINUOUS
 10
69.2043299559
 20
-58.8783647182
 11
69.2043299559
 21
-60.1421852471
  0
LINE
  5
38A
100
AcDbEntity
  8
Livello_1
100
AcDbLine
 62
7
  6
CONTINUOUS
 10
69.3999830575
 20
-50.8857058817
 11
69.3999830575
 21
-58.6294200376
  0
LINE
  5
38B
100
AcDbEntity
  8
Livello_1
100
AcDbLine
 62
7
  6
CONTINUOUS
 10
69.5839634024
 20
-58.9300292649
 11
69.5839634024
 21
-60.1489203944
  0
LWPOLYLINE
  5
38C
100
AcDbEntity
  8
0
100
AcDbPolyline
 62
7
  6
CONTINUOUS
 90
2
 70
0
 43
0.3500000006
 10
69.9322745819
 20
-86.4195363464
 10
69.9322745819
 20
-84.9195358887
  0
LINE
  5
38D
100
AcDbEntity
  8
Livello_1
100
AcDbLine
 62
7
  6
CONTINUOUS
 10
70.0035886376
 20
-58.9300292649
 11
70.0035886376
 21
-60.1489203944
  0
LINE
  5
38E
100
AcDbEntity
  8
Livello_1
100
AcDbLine
 62
7
  6
CONTINUOUS
 10
70.3898791578
 20
-59.0165631178
 11
70.3898791578
 21
-60.1489203944
  0
LINE
  5
38F
100
AcDbEntity
  8
Livello_1
100
AcDbLine
 62
7
  6
CONTINUOUS
 10
70.8494889998
 20
-59.0165631178
 11
70.8494889998
 21
-60.1489203944
  0
LINE
  5
390
100
AcDbEntity
  8
Livello_1
100
AcDbLine
 62
7
  6
CONTINUOUS
 10
71.255814451
 20
-59.063197618
 11
71.255814451
 21
-60.1489203944
  0
LINE
  5
391
100
AcDbEntity
  8
Livello_1
100
AcDbLine
 62
7
  6
CONTINUOUS
 10
71.7686234292
 20
-59.063197618
 11
71.7686234292
 21
-60.1489203944
  0
LINE
  5
392
100
AcDbEntity
  8
Livello_1
100
AcDbLine
 62
7
  6
CONTINUOUS
 10
72.1749488804
 20
-59.1631165103
 11
72.1749488804
 21
-60.1489203944
  0
LINE
  5
393
100
AcDbEntity
  8
Livello_1
100
AcDbLine
 62
7
  6
CONTINUOUS
 10
72.7343923571
 20
-59.1631165103
 11
72.7343923571
 21
-60.1489203944
  0
LINE
  5
394
100
AcDbEntity
  8
Livello_1
100
AcDbLine
 62
7
  6
CONTINUOUS
 10
73.1407178083
 20
-59.2430857263
 11
73.1407178083
 21
-60.1489203944
  0
LINE
  5
395
100
AcDbEntity
  8
Livello_1
100
AcDbLine
 62
7
  6
CONTINUOUS
 10
73.7201962164
 20
-59.2430857263
 11
73.7201962164
 21
-60.1489203944
  0
LINE
  5
396
100
AcDbEntity
  8
Livello_1
100
AcDbLine
 62
7
  6
CONTINUOUS
 10
74.1464713436
 20
-59.3496545107
 11
74.1464713436
 21
-60.1489203944
  0
LINE
  5
397
100
AcDbEntity
  8
Livello_1
100
AcDbLine
 62
7
  6
CONTINUOUS
 10
74.6127310776
 20
-59.3496545107
 11
74.6127310776
 21
-60.1489203944
  0
LINE
  5
398
100
AcDbEntity
  8
Livello_1
100
AcDbLine
 62
7
  6
CONTINUOUS
 10
75.1788244465
 20
-59.4361883636
 11
75.1788244465
 21
-60.1489203944
  0
LWPOLYLINE
  5
399
100
AcDbEntity
  8
0
100
AcDbPolyline
 62
7
  6
CONTINUOUS
 90
4
 70
0
 43
0.3500000006
 10
75.3608450775
 20
-84.0623934174
 10
75.3608450775
 20
-83.4195354309
 10
76.8608500671
 20
-83.4195354309
 10
76.003703064
 20
-86.4195363464
  0
LINE
  5
39A
100
AcDbEntity
  8
Livello_1
100
AcDbLine
 62
7
  6
CONTINUOUS
 10
75.6251345046
 20
-59.4361883636
 11
75.6251345046
 21
-60.1489203944
  0
LINE
  5
39B
100
AcDbEntity
  8
Livello_1
100
AcDbLine
 62
7
  6
CONTINUOUS
 10
75.9314558109
 20
-59.5161575796
 11
75.9314558109
 21
-60.1489203944
  0
LINE
  5
39C
100
AcDbEntity
  8
Livello_1
100
AcDbLine
 62
7
  6
CONTINUOUS
 10
76.2245625883
 20
-59.5161575796
 11
76.2245625883
 21
-60.1489203944
  0
LINE
  5
39D
100
AcDbEntity
  8
Livello_1
100
AcDbLine
 62
7
  6
CONTINUOUS
 10
76.6375379315
 20
-59.5161575796
 11
76.6375379315
 21
-60.1489203944
  0
LINE
  5
39E
100
AcDbEntity
  8
Livello_1
100
AcDbLine
 62
7
  6
CONTINUOUS
 10
77.010528668
 20
-59.6026914326
 11
77.010528668
 21
-60.1489203944
  0
LINE
  5
39F
100
AcDbEntity
  8
Livello_1
100
AcDbLine
 62
7
  6
CONTINUOUS
 10
77.3035575766
 20
-59.6026914326
 11
77.3035575766
 21
-60.1489203944
  0
LINE
  5
3A0
100
AcDbEntity
  8
Livello_1
100
AcDbLine
 62
7
  6
CONTINUOUS
 10
60.6286010769
 20
76.2304289515
 11
60.5387441366
 21
75.9947267676
  0
LINE
  5
3A1
100
AcDbEntity
  8
Livello_1
100
AcDbLine
 62
7
  6
CONTINUOUS
 10
-3.7421042001
 20
-51.4831779046
 11
-3.6825326111
 21
-51.3436272181
  0
LINE
  5
3A2
100
AcDbEntity
  8
Livello_1
100
AcDbLine
 62
7
  6
CONTINUOUS
 10
-3.3409464183
 20
-51.642919177
 11
-3.2893915915
 21
-51.522138933
  0
LINE
  5
3A3
100
AcDbEntity
  8
Livello_1
100
AcDbLine
 62
7
  6
CONTINUOUS
 10
1.8173591882
 20
-53.69827777
 11
1.7658002789
 21
-53.8190242226
  0
LINE
  5
3A4
100
AcDbEntity
  8
Livello_1
100
AcDbLine
 62
7
  6
CONTINUOUS
 10
2.2180168914
 20
-53.8584332074
 11
2.1584486942
 21
-53.9979801447
  0
LINE
  5
3A5
100
AcDbEntity
  8
Livello_1
100
AcDbLine
 62
7
  6
CONTINUOUS
 10
5.4770493838
 20
61.983936673
 11
8.3035889251
 21
65.179721382
  0
LINE
  5
3A6
100
AcDbEntity
  8
Livello_1
100
AcDbLine
 62
7
  6
CONTINUOUS
 10
13.2340575561
 20
75.6863804719
 11
12.4902074591
 21
74.9870334807
  0
LINE
  5
3A7
100
AcDbEntity
  8
Livello_1
100
AcDbLine
 62
7
  6
CONTINUOUS
 10
82.5870707942
 20
76.4031481347
 11
82.6067797101
 21
76.3551386414
  0
LINE
  5
3A8
100
AcDbEntity
  8
Livello_1
100
AcDbLine
 62
7
  6
CONTINUOUS
 10
82.6169005046
 20
76.3004137803
 11
82.6206292185
 21
76.2444039553
  0
LINE
  5
3A9
100
AcDbEntity
  8
Livello_1
100
AcDbLine
 62
7
  6
CONTINUOUS
 10
82.8093272583
 20
-59.9274278326
 11
82.8095144689
 21
-59.9357333585
  0
LINE
  5
3AA
100
AcDbEntity
  8
Livello_1
100
AcDbLine
 62
7
  6
CONTINUOUS
 10
82.6206292185
 20
76.2444039553
 11
82.6211618918
 21
76.1925395707
  0
LINE
  5
3AB
100
AcDbEntity
  8
Livello_1
100
AcDbLine
 62
7
  6
CONTINUOUS
 10
77.5966569677
 20
-59.6026914326
 11
77.5966569677
 21
-60.1489203944
  0
LINE
  5
3AC
100
AcDbEntity
  8
Livello_1
100
AcDbLine
 62
7
  6
CONTINUOUS
 10
77.8364014992
 20
-59.6493259325
 11
77.8364014992
 21
-60.1489203944
  0
LINE
  5
3AD
100
AcDbEntity
  8
Livello_1
100
AcDbLine
 62
7
  6
CONTINUOUS
 10
78.1094659457
 20
-59.6493259325
 11
78.1094659457
 21
-60.1489203944
  0
LINE
  5
3AE
100
AcDbEntity
  8
Livello_1
100
AcDbLine
 62
7
  6
CONTINUOUS
 10
78.3825377923
 20
-59.6493259325
 11
78.3825377923
 21
-60.1489203944
  0
LINE
  5
3AF
100
AcDbEntity
  8
Livello_1
100
AcDbLine
 62
7
  6
CONTINUOUS
 10
78.6223601787
 20
-59.6493259325
 11
78.6223601787
 21
-60.1489203944
  0
LINE
  5
3B0
100
AcDbEntity
  8
Livello_1
100
AcDbLine
 62
7
  6
CONTINUOUS
 10
78.9087318093
 20
-59.6493259325
 11
78.9087318093
 21
-60.1489203944
  0
LINE
  5
3B1
100
AcDbEntity
  8
Livello_1
100
AcDbLine
 62
7
  6
CONTINUOUS
 10
79.2151383707
 20
-59.6493259325
 11
79.2151383707
 21
-60.1489203944
  0
LINE
  5
3B2
100
AcDbEntity
  8
Livello_1
100
AcDbLine
 62
7
  6
CONTINUOUS
 10
79.4616106491
 20
-59.6493259325
 11
79.4616106491
 21
-60.1489203944
  0
LINE
  5
3B3
100
AcDbEntity
  8
Livello_1
100
AcDbLine
 62
7
  6
CONTINUOUS
 10
79.6281137139
 20
-59.6493259325
 11
79.6281137139
 21
-60.1489203944
  0
LINE
  5
3B4
100
AcDbEntity
  8
Livello_1
100
AcDbLine
 62
7
  6
CONTINUOUS
 10
79.9810695191
 20
-59.6493259325
 11
79.9810695191
 21
-60.1489203944
  0
LINE
  5
3B5
100
AcDbEntity
  8
Livello_1
100
AcDbLine
 62
7
  6
CONTINUOUS
 10
80.2808261885
 20
-59.6493259325
 11
80.2808261885
 21
-60.1489203944
  0
LINE
  5
3B6
100
AcDbEntity
  8
Livello_1
100
AcDbLine
 62
7
  6
CONTINUOUS
 10
80.5364282228
 20
-50.1514043291
 11
80.5364282228
 21
-50.6309638592
  0
LINE
  5
3B7
100
AcDbEntity
  8
Livello_1
100
AcDbLine
 62
7
  6
CONTINUOUS
 10
80.6005325339
 20
-59.6493259325
 11
80.6005325339
 21
-60.1489203944
  0
LINE
  5
3B8
100
AcDbEntity
  8
Livello_1
100
AcDbLine
 62
7
  6
CONTINUOUS
 10
81.0334650337
 20
-59.6493259325
 11
81.0334650337
 21
-60.1489203944
  0
LINE
  5
3B9
100
AcDbEntity
  8
Livello_1
100
AcDbLine
 62
7
  6
CONTINUOUS
 10
81.3223868344
 20
-50.1314546526
 11
81.3223868344
 21
-50.6110141827
  0
LINE
  5
3BA
100
AcDbEntity
  8
Livello_1
100
AcDbLine
 62
7
  6
CONTINUOUS
 10
81.3465140065
 20
-59.6493259325
 11
81.3465140065
 21
-60.1489203944
  0
LINE
  5
3BB
100
AcDbEntity
  8
Livello_1
100
AcDbLine
 62
7
  6
CONTINUOUS
 10
81.6062860691
 20
-59.6493259325
 11
81.6062860691
 21
-60.1489203944
  0
LINE
  5
3BC
100
AcDbEntity
  8
Livello_1
100
AcDbLine
 62
7
  6
CONTINUOUS
 10
82.0725458031
 20
-59.6493259325
 11
82.0725458031
 21
-60.1489203944
  0
LINE
  5
3BD
100
AcDbEntity
  8
Livello_1
100
AcDbLine
 62
7
  6
CONTINUOUS
 10
82.3989020405
 20
-59.6493259325
 11
82.3989020405
 21
-60.1489203944
  0
LINE
  5
3BE
100
AcDbEntity
  8
Livello_1
100
AcDbLine
 62
7
  6
CONTINUOUS
 10
82.6186894961
 20
-59.6493259325
 11
82.6186894961
 21
-60.1489203944
  0
LINE
  5
3BF
100
AcDbEntity
  8
Livello_1
100
AcDbLine
 62
7
  6
CONTINUOUS
 10
82.6211618918
 20
76.1925395707
 11
82.6211618918
 21
-50.5659995283
  0
LINE
  5
3C0
100
AcDbEntity
  8
Livello_1
100
AcDbLine
 62
7
  6
CONTINUOUS
 10
82.8093272583
 20
-59.6876054399
 11
82.8093272583
 21
-59.9274278326
  0
LINE
  5
3C1
100
AcDbEntity
  8
Livello_1
100
AcDbLine
 62
7
  6
CONTINUOUS
 10
83.1606556928
 20
75.9661022176
 11
83.1606556928
 21
-59.4903253062
  0
LINE
  5
3C2
100
AcDbEntity
  8
Livello_1
100
AcDbLine
 62
7
  6
CONTINUOUS
 10
85.4719194322
 20
-59.6517983285
 11
85.4719194322
 21
-59.9623823939
  0
LINE
  5
3C3
100
AcDbEntity
  8
Livello_1
100
AcDbLine
 62
7
  6
CONTINUOUS
 10
86.4243885764
 20
-59.6517983285
 11
86.4243885764
 21
-59.9623823939
  0
LINE
  5
3C4
100
AcDbEntity
  8
Livello_1
100
AcDbLine
 62
7
  6
CONTINUOUS
 10
86.6508259239
 20
-59.6760107563
 11
86.6508259239
 21
-60.1489203944
  0
LINE
  5
3C5
100
AcDbEntity
  8
Livello_1
100
AcDbLine
 62
7
  6
CONTINUOUS
 10
87.0304665521
 20
-59.6760107563
 11
87.0304665521
 21
-60.1489203944
  0
LINE
  5
3C6
100
AcDbEntity
  8
Livello_1
100
AcDbLine
 62
7
  6
CONTINUOUS
 10
87.3634726815
 20
-59.6760107563
 11
87.3634726815
 21
-60.1489203944
  0
LINE
  5
3C7
100
AcDbEntity
  8
Livello_1
100
AcDbLine
 62
7
  6
CONTINUOUS
 10
-3.2893915915
 20
-51.522138933
 11
-3.2320864743
 21
-51.4038133412
  0
LINE
  5
3C8
100
AcDbEntity
  8
Livello_1
100
AcDbLine
 62
7
  6
CONTINUOUS
 10
2.1584486942
 20
-53.9979801447
 11
2.0922368648
 21
-54.1346886695
  0
LINE
  5
3C9
100
AcDbEntity
  8
Livello_1
100
AcDbLine
 62
7
  6
CONTINUOUS
 10
-3.6825326111
 20
-51.3436272181
 11
-3.6163164355
 21
-51.2069125348
  0
LINE
  5
3CA
100
AcDbEntity
  8
Livello_1
100
AcDbLine
 62
7
  6
CONTINUOUS
 10
1.7658002789
 20
-53.8190242226
 11
1.7084903049
 21
-53.9373176071
  0
LINE
  5
3CB
100
AcDbEntity
  8
Livello_1
100
AcDbLine
 62
7
  6
CONTINUOUS
 10
-6.9965337044
 20
40.2938640841
 11
-9.7722668226
 21
37.2725111613
  0
LINE
  5
3CC
100
AcDbEntity
  8
Livello_1
100
AcDbLine
 62
7
  6
CONTINUOUS
 10
8.3035889251
 20
37.2725111613
 11
-9.7722668226
 21
37.2725111613
  0
LINE
  5
3CD
100
AcDbEntity
  8
Livello_1
100
AcDbLine
 62
7
  6
CONTINUOUS
 10
5.4770493838
 20
40.2938640841
 11
-6.9965337044
 21
40.2938640841
  0
LINE
  5
3CE
100
AcDbEntity
  8
Livello_1
100
AcDbLine
 62
7
  6
CONTINUOUS
 10
82.554577717
 20
76.4390118556
 11
82.5870707942
 21
76.4031481347
  0
LINE
  5
3CF
100
AcDbEntity
  8
Livello_1
100
AcDbLine
 62
7
  6
CONTINUOUS
 10
93.135042158
 20
74.9065186327
 11
93.0716374842
 21
74.9853467101
  0
LINE
  5
3D0
100
AcDbEntity
  8
Livello_1
100
AcDbLine
 62
7
  6
CONTINUOUS
 10
91.6795083443
 20
82.6691082516
 11
91.7355160409
 21
82.53569532
  0
LINE
  5
3D1
100
AcDbEntity
  8
Livello_1
100
AcDbLine
 62
7
  6
CONTINUOUS
 10
93.1689550725
 20
74.8240996136
 11
93.135042158
 21
74.9065186327
  0
LINE
  5
3D2
100
AcDbEntity
  8
Livello_1
100
AcDbLine
 62
7
  6
CONTINUOUS
 10
82.6067797101
 20
76.3551386414
 11
82.6169005046
 21
76.3004137803
  0
LINE
  5
3D3
100
AcDbEntity
  8
Livello_1
100
AcDbLine
 62
7
  6
CONTINUOUS
 10
93.1714712893
 20
74.8004954803
 11
93.1689550725
 21
74.8240996136
  0
LINE
  5
3D4
100
AcDbEntity
  8
Livello_1
100
AcDbLine
 62
7
  6
CONTINUOUS
 10
87.7564983487
 20
-59.6760107563
 11
87.7564983487
 21
-60.1489203944
  0
LINE
  5
3D5
100
AcDbEntity
  8
Livello_1
100
AcDbLine
 62
7
  6
CONTINUOUS
 10
88.0428699793
 20
-59.6760107563
 11
88.0428699793
 21
-60.1489203944
  0
LINE
  5
3D6
100
AcDbEntity
  8
Livello_1
100
AcDbLine
 62
7
  6
CONTINUOUS
 10
88.4158607155
 20
-59.6760107563
 11
88.4158607155
 21
-60.1489203944
  0
LINE
  5
3D7
100
AcDbEntity
  8
Livello_1
100
AcDbLine
 62
7
  6
CONTINUOUS
 10
88.6489479551
 20
-59.6760107563
 11
88.6489479551
 21
-60.1489203944
  0
LINE
  5
3D8
100
AcDbEntity
  8
Livello_1
100
AcDbLine
 62
7
  6
CONTINUOUS
 10
89.0619309817
 20
75.9794020018
 11
89.0619309817
 21
76.4323619634
  0
LINE
  5
3D9
100
AcDbEntity
  8
Livello_1
100
AcDbLine
 62
7
  6
CONTINUOUS
 10
89.6214520301
 20
-59.6826606483
 11
89.6214520301
 21
-59.9490826097
  0
LINE
  5
3DA
100
AcDbEntity
  8
Livello_1
100
AcDbLine
 62
7
  6
CONTINUOUS
 10
89.7004911383
 20
75.1539628248
 11
89.7004911383
 21
-59.1980710716
  0
LINE
  5
3DB
100
AcDbEntity
  8
Livello_1
100
AcDbLine
 62
7
  6
CONTINUOUS
 10
90.0077425505
 20
75.8728332173
 11
90.0077425505
 21
76.4456617476
  0
LINE
  5
3DC
100
AcDbEntity
  8
Livello_1
100
AcDbLine
 62
7
  6
CONTINUOUS
 10
90.6071706343
 20
75.7262798249
 11
90.6071706343
 21
76.4323619634
  0
LINE
  5
3DD
100
AcDbEntity
  8
Livello_1
100
AcDbLine
 62
7
  6
CONTINUOUS
 10
91.6795083443
 20
83.3193483471
 11
91.6795083443
 21
82.6691082516
  0
LINE
  5
3DE
100
AcDbEntity
  8
Livello_1
100
AcDbLine
 62
7
  6
CONTINUOUS
 10
91.6795083443
 20
-68.3762863217
 11
91.6795083443
 21
-69.0257591217
  0
LINE
  5
3DF
100
AcDbEntity
  8
Livello_1
100
AcDbLine
 62
7
  6
CONTINUOUS
 10
92.3122711431
 20
-59.6826606483
 11
92.3122711431
 21
-59.9490826097
  0
LINE
  5
3E0
100
AcDbEntity
  8
Livello_1
100
AcDbLine
 62
7
  6
CONTINUOUS
 10
92.9916684407
 20
-60.3087735711
 11
92.9916684407
 21
-68.0350104463
  0
LINE
  5
3E1
100
AcDbEntity
  8
Livello_1
100
AcDbLine
 62
7
  6
CONTINUOUS
 10
92.9916684407
 20
-69.3537352129
 11
92.9916684407
 21
-70.5259918422
  0
LINE
  5
3E2
100
AcDbEntity
  8
Livello_1
100
AcDbLine
 62
7
  6
CONTINUOUS
 10
92.9916684407
 20
76.5984387571
 11
92.9916684407
 21
82.3281733962
  0
LINE
  5
3E3
100
AcDbEntity
  8
Livello_1
100
AcDbLine
 62
7
  6
CONTINUOUS
 10
92.9916684407
 20
83.646983418
 11
92.9916684407
 21
84.8192400475
  0
LINE
  5
3E4
100
AcDbEntity
  8
Livello_1
100
AcDbLine
 62
7
  6
CONTINUOUS
 10
93.1714712893
 20
-59.4361883636
 11
93.1714712893
 21
74.8004954803
  0
LINE
  5
3E5
100
AcDbEntity
  8
Livello_1
100
AcDbLine
 62
7
  6
CONTINUOUS
 10
94.1772326371
 20
-56.665399967
 11
94.1772326371
 21
-59.4562232952
  0
LINE
  5
3E6
100
AcDbEntity
  8
Livello_1
100
AcDbLine
 62
7
  6
CONTINUOUS
 10
94.1772326371
 20
71.9963723678
 11
94.1772326371
 21
74.5362048947
  0
LINE
  5
3E7
100
AcDbEntity
  8
Livello_1
100
AcDbLine
 62
7
  6
CONTINUOUS
 10
94.6742694477
 20
84.8204336177
 11
94.6742694477
 21
83.6536333102
  0
LINE
  5
3E8
100
AcDbEntity
  8
Livello_1
100
AcDbLine
 62
7
  6
CONTINUOUS
 10
94.6742694477
 20
82.3281733962
 11
94.6742694477
 21
76.6284485269
  0
LINE
  5
3E9
100
AcDbEntity
  8
Livello_1
100
AcDbLine
 62
7
  6
CONTINUOUS
 10
94.6742694477
 20
-60.3386980858
 11
94.6742694477
 21
-68.0350104463
  0
LINE
  5
3EA
100
AcDbEntity
  8
Livello_1
100
AcDbLine
 62
7
  6
CONTINUOUS
 10
94.6742694477
 20
-69.3603851052
 11
94.6742694477
 21
-70.5276969429
  0
LINE
  5
3EB
100
AcDbEntity
  8
Livello_1
100
AcDbLine
 62
7
  6
CONTINUOUS
 10
85.4719194322
 20
-59.9623823939
 11
85.471705474
 21
-59.9719198898
  0
LINE
  5
3EC
100
AcDbEntity
  8
Livello_1
100
AcDbLine
 62
7
  6
CONTINUOUS
 10
86.4243885764
 20
-59.9623823939
 11
86.4241746182
 21
-59.9719198898
  0
LINE
  5
3ED
100
AcDbEntity
  8
Livello_1
100
AcDbLine
 62
7
  6
CONTINUOUS
 10
89.6214520301
 20
-59.9490826097
 11
89.6212591848
 21
-59.9568987869
  0
LINE
  5
3EE
100
AcDbEntity
  8
Livello_1
100
AcDbLine
 62
7
  6
CONTINUOUS
 10
92.3122711431
 20
-59.9490826097
 11
92.3120783084
 21
-59.9568991926
  0
LINE
  5
3EF
100
AcDbEntity
  8
Livello_1
100
AcDbLine
 62
7
  6
CONTINUOUS
 10
85.471705474
 20
-59.9719198898
 11
85.471050889
 21
-59.9818753461
  0
LINE
  5
3F0
100
AcDbEntity
  8
Livello_1
100
AcDbLine
 62
7
  6
CONTINUOUS
 10
86.4241746182
 20
-59.9719198898
 11
86.4235200332
 21
-59.9818753461
  0
LINE
  5
3F1
100
AcDbEntity
  8
Livello_1
100
AcDbLine
 62
7
  6
CONTINUOUS
 10
68.8604892565
 20
-58.630272588
 11
68.8537502834
 21
-58.6772229265
  0
LINE
  5
3F2
100
AcDbEntity
  8
Livello_1
100
AcDbLine
 62
7
  6
CONTINUOUS
 10
-3.6163164355
 20
-51.2069125348
 11
-3.5435839677
 21
-51.0733259572
  0
LINE
  5
3F3
100
AcDbEntity
  8
Livello_1
100
AcDbLine
 62
7
  6
CONTINUOUS
 10
-3.2320864743
 20
-51.4038133412
 11
-3.1691421285
 21
-51.2881952247
  0
LINE
  5
3F4
100
AcDbEntity
  8
Livello_1
100
AcDbLine
 62
7
  6
CONTINUOUS
 10
2.0922368648
 20
-54.1346886695
 11
2.0195097448
 21
-54.2682668591
  0
LINE
  5
3F5
100
AcDbEntity
  8
Livello_1
100
AcDbLine
 62
7
  6
CONTINUOUS
 10
1.7084903049
 20
-53.9373176071
 11
1.6455403278
 21
-54.0529048926
  0
LINE
  5
3F6
100
AcDbEntity
  8
Livello_1
100
AcDbLine
 62
7
  6
CONTINUOUS
 10
-6.1302573911
 20
74.8533535973
 11
-5.2336084282
 21
74.6960137208
  0
LINE
  5
3F7
100
AcDbEntity
  8
Livello_1
100
AcDbLine
 62
7
  6
CONTINUOUS
 10
93.0716374842
 20
74.9853467101
 11
92.9916684407
 21
75.0335827259
  0
LINE
  5
3F8
100
AcDbEntity
  8
Livello_1
100
AcDbLine
 62
7
  6
CONTINUOUS
 10
94.1366170198
 20
74.6732412644
 11
94.0173716517
 21
74.7580384766
  0
LINE
  5
3F9
100
AcDbEntity
  8
Livello_1
100
AcDbLine
 62
7
  6
CONTINUOUS
 10
94.6183762432
 20
84.9509444062
 11
94.6742694477
 21
84.8204336177
  0
LINE
  5
3FA
100
AcDbEntity
  8
Livello_1
100
AcDbLine
 62
7
  6
CONTINUOUS
 10
94.1772326371
 20
74.5362048947
 11
94.1366170198
 21
74.6732412644
  0
LWPOLYLINE
  5
3FB
100
AcDbEntity
  8
0
100
AcDbPolyline
 62
7
  6
CONTINUOUS
 90
8
 70
0
 43
0.3500000006
 10
108.1651014404
 20
3.8251526642
 10
108.1651014404
 20
4.6822951355
 10
107.7365324707
 20
5.1108663712
 10
106.8793945313
 20
5.1108663712
 10
106.4508164978
 20
4.6822951355
 10
106.4508164978
 20
3.8251526642
 10
105.1651095886
 20
3.8251526642
 10
105.1651095886
 20
5.1108663712
  0
LWPOLYLINE
  5
3FC
100
AcDbEntity
  8
0
100
AcDbPolyline
 62
7
  6
CONTINUOUS
 90
8
 70
0
 43
0.3500000006
 10
108.1651014404
 20
5.9680111084
 10
108.1651014404
 20
6.8251535797
 10
107.7365324707
 20
7.2537248154
 10
106.8793945313
 20
7.2537248154
 10
106.4508164978
 20
6.8251535797
 10
106.4508164978
 20
5.9680111084
 10
105.1651095886
 20
5.9680111084
 10
105.1651095886
 20
7.2537248154
  0
LINE
  5
3FD
100
AcDbEntity
  8
Livello_1
100
AcDbLine
 62
7
  6
CONTINUOUS
 10
89.6212591848
 20
-59.9568987869
 11
89.6206628381
 21
-59.9652538131
  0
LINE
  5
3FE
100
AcDbEntity
  8
Livello_1
100
AcDbLine
 62
7
  6
CONTINUOUS
 10
92.3120783084
 20
-59.9568991926
 11
92.31148199
 21
-59.9652548433
  0
LINE
  5
3FF
100
AcDbEntity
  8
Livello_1
100
AcDbLine
 62
7
  6
CONTINUOUS
 10
94.1772326371
 20
-59.4562232952
 11
94.1751708232
 21
-59.4838335123
  0
LINE
  5
400
100
AcDbEntity
  8
Livello_1
100
AcDbLine
 62
7
  6
CONTINUOUS
 10
85.471050889
 20
-59.9818753461
 11
85.4700016808
 21
-59.9916871595
  0
LINE
  5
401
100
AcDbEntity
  8
Livello_1
100
AcDbLine
 62
7
  6
CONTINUOUS
 10
86.4235200332
 20
-59.9818753461
 11
86.422470825
 21
-59.9916871595
  0
LINE
  5
402
100
AcDbEntity
  8
Livello_1
100
AcDbLine
 62
7
  6
CONTINUOUS
 10
91.7301501775
 20
83.4470760673
 11
91.6795083443
 21
83.3193483471
  0
LINE
  5
403
100
AcDbEntity
  8
Livello_1
100
AcDbLine
 62
7
  6
CONTINUOUS
 10
-3.5435839677
 20
-51.0733259572
 11
-3.4644836426
 21
-50.9431675324
  0
LINE
  5
404
100
AcDbEntity
  8
Livello_1
100
AcDbLine
 62
7
  6
CONTINUOUS
 10
-3.1691421285
 20
-51.2881952247
 11
-3.100687041
 21
-51.1755442667
  0
LINE
  5
405
100
AcDbEntity
  8
Livello_1
100
AcDbLine
 62
7
  6
CONTINUOUS
 10
2.0195097448
 20
-54.2682668591
 11
1.9404157686
 21
-54.3984149028
  0
LINE
  5
406
100
AcDbEntity
  8
Livello_1
100
AcDbLine
 62
7
  6
CONTINUOUS
 10
1.6455403278
 20
-54.0529048926
 11
1.5770788474
 21
-54.1655262066
  0
LINE
  5
407
100
AcDbEntity
  8
Livello_1
100
AcDbLine
 62
7
  6
CONTINUOUS
 10
5.4770493838
 20
13.4318805015
 11
8.3035889251
 21
16.62561909
  0
LINE
  5
408
100
AcDbEntity
  8
Livello_1
100
AcDbLine
 62
7
  6
CONTINUOUS
 10
-6.9965337044
 20
61.983936673
 11
5.4770493838
 21
61.983936673
  0
LINE
  5
409
100
AcDbEntity
  8
Livello_1
100
AcDbLine
 62
7
  6
CONTINUOUS
 10
-5.2336084282
 20
74.6960137208
 11
-3.8073490193
 21
74.5572005164
  0
LINE
  5
40A
100
AcDbEntity
  8
Livello_1
100
AcDbLine
 62
7
  6
CONTINUOUS
 10
92.3965617635
 20
75.1987455857
 11
89.5547826003
 21
75.9661022176
  0
LINE
  5
40B
100
AcDbEntity
  8
Livello_1
100
AcDbLine
 62
7
  6
CONTINUOUS
 10
92.8228646765
 20
75.0833972645
 11
92.3965617635
 21
75.1987455857
  0
LINE
  5
40C
100
AcDbEntity
  8
Livello_1
100
AcDbLine
 62
7
  6
CONTINUOUS
 10
94.0173716517
 20
74.7580384766
 11
92.8228646765
 21
75.0833972645
  0
LINE
  5
40D
100
AcDbEntity
  8
Livello_1
100
AcDbLine
 62
7
  6
CONTINUOUS
 10
91.7355160409
 20
82.53569532
 11
91.8610162933
 21
82.4784780099
  0
LINE
  5
40E
100
AcDbEntity
  8
Livello_1
100
AcDbLine
 62
7
  6
CONTINUOUS
 10
92.31148199
 20
-59.9652548433
 11
92.3104594334
 21
-59.9741027832
  0
LINE
  5
40F
100
AcDbEntity
  8
Livello_1
100
AcDbLine
 62
7
  6
CONTINUOUS
 10
89.6206628381
 20
-59.9652538131
 11
89.6196402455
 21
-59.9741008767
  0
LINE
  5
410
100
AcDbEntity
  8
Livello_1
100
AcDbLine
 62
7
  6
CONTINUOUS
 10
85.4700016808
 20
-59.9916871595
 11
85.4684672945
 21
-60.0020962837
  0
LINE
  5
411
100
AcDbEntity
  8
Livello_1
100
AcDbLine
 62
7
  6
CONTINUOUS
 10
86.422470825
 20
-59.9916871595
 11
86.4209364387
 21
-60.0020962837
  0
LINE
  5
412
100
AcDbEntity
  8
Livello_1
100
AcDbLine
 62
7
  6
CONTINUOUS
 10
89.6196402455
 20
-59.9741008767
 11
89.6181752751
 21
-59.9833767882
  0
LINE
  5
413
100
AcDbEntity
  8
Livello_1
100
AcDbLine
 62
7
  6
CONTINUOUS
 10
92.3104594334
 20
-59.9741027832
 11
92.3089944968
 21
-59.9833798446
  0
LINE
  5
414
100
AcDbEntity
  8
Livello_1
100
AcDbLine
 62
7
  6
CONTINUOUS
 10
85.4684672945
 20
-60.0020962837
 11
85.4664973699
 21
-60.0125485439
  0
LINE
  5
415
100
AcDbEntity
  8
Livello_1
100
AcDbLine
 62
7
  6
CONTINUOUS
 10
86.4209364387
 20
-60.0020962837
 11
86.4189665141
 21
-60.0125485439
  0
LINE
  5
416
100
AcDbEntity
  8
Livello_1
100
AcDbLine
 62
7
  6
CONTINUOUS
 10
94.6742694477
 20
76.6284485269
 11
94.6183762432
 21
76.4979377384
  0
LINE
  5
417
100
AcDbEntity
  8
Livello_1
100
AcDbLine
 62
7
  6
CONTINUOUS
 10
-3.4644836426
 20
-50.9431675324
 11
-3.3791849871
 21
-50.8167424043
  0
LINE
  5
418
100
AcDbEntity
  8
Livello_1
100
AcDbLine
 62
7
  6
CONTINUOUS
 10
-3.100687041
 20
-51.1755442667
 11
-3.0268679438
 21
-51.0661245445
  0
LINE
  5
419
100
AcDbEntity
  8
Livello_1
100
AcDbLine
 62
7
  6
CONTINUOUS
 10
1.9404157686
 20
-54.3984149028
 11
1.8551244074
 21
-54.5248279472
  0
LINE
  5
41A
100
AcDbEntity
  8
Livello_1
100
AcDbLine
 62
7
  6
CONTINUOUS
 10
1.5770788474
 20
-54.1655262066
 11
1.5032526169
 21
-54.2749173053
  0
LINE
  5
41B
100
AcDbEntity
  8
Livello_1
100
AcDbLine
 62
7
  6
CONTINUOUS
 10
-6.9965337044
 20
-8.259897188
 11
-9.7722668226
 21
-11.2803975605
  0
LINE
  5
41C
100
AcDbEntity
  8
Livello_1
100
AcDbLine
 62
7
  6
CONTINUOUS
 10
60.8069849138
 20
76.3893796798
 11
60.6286010769
 21
76.2304289515
  0
LINE
  5
41D
100
AcDbEntity
  8
Livello_1
100
AcDbLine
 62
7
  6
CONTINUOUS
 10
-1.8156634628
 20
74.4708477563
 11
0.5321255911
 21
74.4742036193
  0
LINE
  5
41E
100
AcDbEntity
  8
Livello_1
100
AcDbLine
 62
7
  6
CONTINUOUS
 10
-9.7722668226
 20
65.179721382
 11
8.3035889251
 21
65.179721382
  0
LINE
  5
41F
100
AcDbEntity
  8
Livello_1
100
AcDbLine
 62
7
  6
CONTINUOUS
 10
-12.572638643
 20
71.7949147378
 11
11.0340516246
 21
71.7949147378
  0
LINE
  5
420
100
AcDbEntity
  8
Livello_1
100
AcDbLine
 62
7
  6
CONTINUOUS
 10
93.1823064651
 20
71.9963723678
 11
94.1772326371
 21
71.9963723678
  0
LINE
  5
421
100
AcDbEntity
  8
Livello_1
100
AcDbLine
 62
7
  6
CONTINUOUS
 10
-13.9376568553
 20
74.8533535973
 11
-6.1302573911
 21
74.8533535973
  0
LINE
  5
422
100
AcDbEntity
  8
Livello_1
100
AcDbLine
 62
7
  6
CONTINUOUS
 10
4.6477681794
 20
74.8533535973
 11
12.4685526827
 21
74.8533535973
  0
LINE
  5
423
100
AcDbEntity
  8
Livello_1
100
AcDbLine
 62
7
  6
CONTINUOUS
 10
-3.8073490193
 20
74.5572005164
 11
-1.8156634628
 21
74.4708477563
  0
LINE
  5
424
100
AcDbEntity
  8
Livello_1
100
AcDbLine
 62
7
  6
CONTINUOUS
 10
94.4936062239
 20
85.0015152963
 11
94.6183762432
 21
84.9509444062
  0
LINE
  5
425
100
AcDbEntity
  8
Livello_1
100
AcDbLine
 62
7
  6
CONTINUOUS
 10
93.1502617147
 20
-59.5454197479
 11
93.1714712893
 21
-59.4361883636
  0
LINE
  5
426
100
AcDbEntity
  8
Livello_1
100
AcDbLine
 62
7
  6
CONTINUOUS
 10
92.3089944968
 20
-59.9833798446
 11
92.3070790364
 21
-59.9930077124
  0
LINE
  5
427
100
AcDbEntity
  8
Livello_1
100
AcDbLine
 62
7
  6
CONTINUOUS
 10
89.6181752751
 20
-59.9833767882
 11
89.6162597927
 21
-59.9930032289
  0
LINE
  5
428
100
AcDbEntity
  8
Livello_1
100
AcDbLine
 62
7
  6
CONTINUOUS
 10
85.4664973699
 20
-60.0125485439
 11
85.4641094683
 21
-60.0229441169
  0
LINE
  5
429
100
AcDbEntity
  8
Livello_1
100
AcDbLine
 62
7
  6
CONTINUOUS
 10
86.4189665141
 20
-60.0125485439
 11
86.4165786123
 21
-60.0229441169
  0
LINE
  5
42A
100
AcDbEntity
  8
Livello_1
100
AcDbLine
 62
7
  6
CONTINUOUS
 10
68.8537502834
 20
-58.6772229265
 11
68.8483915124
 21
-58.6947384512
  0
LINE
  5
42B
100
AcDbEntity
  8
Livello_1
100
AcDbLine
 62
7
  6
CONTINUOUS
 10
-3.3791849871
 20
-50.8167424043
 11
-3.2878790186
 21
-50.6943576483
  0
LINE
  5
42C
100
AcDbEntity
  8
Livello_1
100
AcDbLine
 62
7
  6
CONTINUOUS
 10
-3.0268679438
 20
-51.0661245445
 11
-2.9478501573
 21
-50.96020179
  0
LINE
  5
42D
100
AcDbEntity
  8
Livello_1
100
AcDbLine
 62
7
  6
CONTINUOUS
 10
1.5032526169
 20
-54.2749173053
 11
1.4242269788
 21
-54.3808123158
  0
LINE
  5
42E
100
AcDbEntity
  8
Livello_1
100
AcDbLine
 62
7
  6
CONTINUOUS
 10
1.8551244074
 20
-54.5248279472
 11
1.7638265577
 21
-54.6471992554
  0
LINE
  5
42F
100
AcDbEntity
  8
Livello_1
100
AcDbLine
 62
7
  6
CONTINUOUS
 10
0.5982756969
 20
74.4758344231
 11
2.5481409733
 21
74.5692153786
  0
LINE
  5
430
100
AcDbEntity
  8
Livello_1
100
AcDbLine
 62
7
  6
CONTINUOUS
 10
0.5321255911
 20
74.4742036193
 11
0.5982756969
 21
74.4758344231
  0
LINE
  5
431
100
AcDbEntity
  8
Livello_1
100
AcDbLine
 62
7
  6
CONTINUOUS
 10
-18.1379161935
 20
75.7175838121
 11
16.7216701365
 21
75.7175838121
  0
LINE
  5
432
100
AcDbEntity
  8
Livello_1
100
AcDbLine
 62
7
  6
CONTINUOUS
 10
61.5538778116
 20
75.9394173938
 11
82.6145119998
 21
75.9394173938
  0
LINE
  5
433
100
AcDbEntity
  8
Livello_1
100
AcDbLine
 62
7
  6
CONTINUOUS
 10
89.5547826003
 20
75.9661022176
 11
83.1606556928
 21
75.9661022176
  0
LINE
  5
434
100
AcDbEntity
  8
Livello_1
100
AcDbLine
 62
7
  6
CONTINUOUS
 10
94.4936062239
 20
76.4473668483
 11
61.0526635172
 21
76.4473668483
  0
LINE
  5
435
100
AcDbEntity
  8
Livello_1
100
AcDbLine
 62
7
  6
CONTINUOUS
 10
-18.1379161935
 20
82.2494830057
 11
16.7216701365
 21
82.2494830057
  0
LINE
  5
436
100
AcDbEntity
  8
Livello_1
100
AcDbLine
 62
7
  6
CONTINUOUS
 10
94.6700841265
 20
82.3281733962
 11
94.6742694477
 21
82.3281733962
  0
LINE
  5
437
100
AcDbEntity
  8
Livello_1
100
AcDbLine
 62
7
  6
CONTINUOUS
 10
-18.1379161935
 20
83.260266613
 11
16.7216701365
 21
83.260266613
  0
LINE
  5
438
100
AcDbEntity
  8
Livello_1
100
AcDbLine
 62
7
  6
CONTINUOUS
 10
94.6742694477
 20
83.6536333102
 11
94.6767340184
 21
83.6536333102
  0
LINE
  5
439
100
AcDbEntity
  8
Livello_1
100
AcDbLine
 62
7
  6
CONTINUOUS
 10
-18.2187329842
 20
84.8820730028
 11
16.7820306945
 21
84.8820730028
  0
LINE
  5
43A
100
AcDbEntity
  8
Livello_1
100
AcDbLine
 62
7
  6
CONTINUOUS
 10
51.9759939807
 20
85.0015152963
 11
94.4936062239
 21
85.0015152963
  0
LINE
  5
43B
100
AcDbEntity
  8
Livello_1
100
AcDbLine
 62
7
  6
CONTINUOUS
 10
91.8610162933
 20
82.4784780099
 11
94.6700841265
 21
82.3281733962
  0
LINE
  5
43C
100
AcDbEntity
  8
Livello_1
100
AcDbLine
 62
7
  6
CONTINUOUS
 10
89.6162597927
 20
-59.9930032289
 11
89.6138945559
 21
-60.0028893052
  0
LINE
  5
43D
100
AcDbEntity
  8
Livello_1
100
AcDbLine
 62
7
  6
CONTINUOUS
 10
92.3070790364
 20
-59.9930077124
 11
92.3047138028
 21
-60.002895477
  0
LINE
  5
43E
100
AcDbEntity
  8
Livello_1
100
AcDbLine
 62
7
  6
CONTINUOUS
 10
85.4641094683
 20
-60.0229441169
 11
85.4613257161
 21
-60.0331941642
  0
LINE
  5
43F
100
AcDbEntity
  8
Livello_1
100
AcDbLine
 62
7
  6
CONTINUOUS
 10
86.4165786123
 20
-60.0229441169
 11
86.4137948603
 21
-60.0331941642
  0
LINE
  5
440
100
AcDbEntity
  8
Livello_1
100
AcDbLine
 62
7
  6
CONTINUOUS
 10
89.6138945559
 20
-60.0028893052
 11
89.611089477
 21
-60.0129352595
  0
LINE
  5
441
100
AcDbEntity
  8
Livello_1
100
AcDbLine
 62
7
  6
CONTINUOUS
 10
92.3047138028
 20
-60.002895477
 11
92.3019087074
 21
-60.0129433424
  0
LINE
  5
442
100
AcDbEntity
  8
Livello_1
100
AcDbLine
 62
7
  6
CONTINUOUS
 10
85.4613257161
 20
-60.0331941642
 11
85.4581711831
 21
-60.0432222762
  0
LINE
  5
443
100
AcDbEntity
  8
Livello_1
100
AcDbLine
 62
7
  6
CONTINUOUS
 10
86.4137948603
 20
-60.0331941642
 11
86.410640327
 21
-60.0432222762
  0
LWPOLYLINE
  5
444
100
AcDbEntity
  8
0
100
AcDbPolyline
 62
7
  6
CONTINUOUS
 90
3
 70
0
 43
0.3500000006
 10
74.3608447723
 20
-86.1338206787
 10
74.2894181213
 20
-86.3481051636
 10
74.1465602875
 20
-86.6338208313
  0
LINE
  5
445
100
AcDbEntity
  8
Livello_1
100
AcDbLine
 62
7
  6
CONTINUOUS
 10
-3.2878790186
 20
-50.6943576483
 11
-3.1907780345
 21
-50.5763188862
  0
LINE
  5
446
100
AcDbEntity
  8
Livello_1
100
AcDbLine
 62
7
  6
CONTINUOUS
 10
-2.9478501573
 20
-50.96020179
 11
-2.8638174039
 21
-50.8580404611
  0
LINE
  5
447
100
AcDbEntity
  8
Livello_1
100
AcDbLine
 62
7
  6
CONTINUOUS
 10
1.7638265577
 20
-54.6471992554
 11
1.6667343275
 21
-54.7652235834
  0
LINE
  5
448
100
AcDbEntity
  8
Livello_1
100
AcDbLine
 62
7
  6
CONTINUOUS
 10
1.4242269788
 20
-54.3808123158
 11
1.3401856757
 21
-54.4829466676
  0
LINE
  5
449
100
AcDbEntity
  8
Livello_1
100
AcDbLine
 62
7
  6
CONTINUOUS
 10
2.5481409733
 20
74.5692153786
 11
3.8753121638
 21
74.7070980348
  0
LINE
  5
44A
100
AcDbEntity
  8
Livello_1
100
AcDbLine
 62
7
  6
CONTINUOUS
 10
94.6767340184
 20
83.6536333102
 11
91.8610162933
 21
83.5095523137
  0
LINE
  5
44B
100
AcDbEntity
  8
Livello_1
100
AcDbLine
 62
7
  6
CONTINUOUS
 10
92.3019087074
 20
-60.0129433424
 11
92.3016964049
 21
-60.0136496929
  0
LINE
  5
44C
100
AcDbEntity
  8
Livello_1
100
AcDbLine
 62
7
  6
CONTINUOUS
 10
89.611089477
 20
-60.0129352595
 11
89.6108606483
 21
-60.0136961733
  0
LINE
  5
44D
100
AcDbEntity
  8
Livello_1
100
AcDbLine
 62
7
  6
CONTINUOUS
 10
92.3016964049
 20
-60.0136496929
 11
92.2984553914
 21
-60.0237129501
  0
LINE
  5
44E
100
AcDbEntity
  8
Livello_1
100
AcDbLine
 62
7
  6
CONTINUOUS
 10
89.6108606483
 20
-60.0136961733
 11
89.6076176045
 21
-60.0237569348
  0
LINE
  5
44F
100
AcDbEntity
  8
Livello_1
100
AcDbLine
 62
7
  6
CONTINUOUS
 10
85.4581711831
 20
-60.0432222762
 11
85.4546724448
 21
-60.0529648342
  0
LINE
  5
450
100
AcDbEntity
  8
Livello_1
100
AcDbLine
 62
7
  6
CONTINUOUS
 10
86.410640327
 20
-60.0432222762
 11
86.407141589
 21
-60.0529648342
  0
LINE
  5
451
100
AcDbEntity
  8
Livello_1
100
AcDbLine
 62
7
  6
CONTINUOUS
 10
89.6076176045
 20
-60.0237569348
 11
89.6040015849
 21
-60.0337195084
  0
LINE
  5
452
100
AcDbEntity
  8
Livello_1
100
AcDbLine
 62
7
  6
CONTINUOUS
 10
68.8483915124
 20
-58.6947384512
 11
68.8263499948
 21
-58.741154463
  0
LINE
  5
453
100
AcDbEntity
  8
Livello_1
100
AcDbLine
 62
7
  6
CONTINUOUS
 10
-3.1907780345
 20
-50.5763188862
 11
-3.0881147708
 21
-50.4629267988
  0
LINE
  5
454
100
AcDbEntity
  8
Livello_1
100
AcDbLine
 62
7
  6
CONTINUOUS
 10
-2.8638174039
 20
-50.8580404611
 11
-2.7749710787
 21
-50.7599007264
  0
LINE
  5
455
100
AcDbEntity
  8
Livello_1
100
AcDbLine
 62
7
  6
CONTINUOUS
 10
1.6667343275
 20
-54.7652235834
 11
1.5640801882
 21
-54.878600656
  0
LINE
  5
456
100
AcDbEntity
  8
Livello_1
100
AcDbLine
 62
7
  6
CONTINUOUS
 10
1.3401856757
 20
-54.4829466676
 11
1.2513301123
 21
-54.5810601092
  0
LINE
  5
457
100
AcDbEntity
  8
Livello_1
100
AcDbLine
 62
7
  6
CONTINUOUS
 10
-3.0881147708
 20
-50.4629267988
 11
-3.0783458173
 21
-50.4526829128
  0
LINE
  5
458
100
AcDbEntity
  8
Livello_1
100
AcDbLine
 62
7
  6
CONTINUOUS
 10
-2.7749710787
 20
-50.7599007264
 11
-2.7663577714
 21
-50.7508686195
  0
LINE
  5
459
100
AcDbEntity
  8
Livello_1
100
AcDbLine
 62
7
  6
CONTINUOUS
 10
91.8610162933
 20
83.5095523137
 11
91.7301501775
 21
83.4470760673
  0
LINE
  5
45A
100
AcDbEntity
  8
Livello_1
100
AcDbLine
 62
7
  6
CONTINUOUS
 10
61.0526635172
 20
76.4473668483
 11
60.8069849138
 21
76.3893796798
  0
LINE
  5
45B
100
AcDbEntity
  8
Livello_1
100
AcDbLine
 62
7
  6
CONTINUOUS
 10
3.8753121638
 20
74.7070980348
 11
4.6477681794
 21
74.8533535973
  0
LINE
  5
45C
100
AcDbEntity
  8
Livello_1
100
AcDbLine
 62
7
  6
CONTINUOUS
 10
92.2984553914
 20
-60.0237129501
 11
92.2948412275
 21
-60.0336785631
  0
LINE
  5
45D
100
AcDbEntity
  8
Livello_1
100
AcDbLine
 62
7
  6
CONTINUOUS
 10
92.2948412275
 20
-60.0336785631
 11
92.2908888358
 21
-60.0434560791
  0
LINE
  5
45E
100
AcDbEntity
  8
Livello_1
100
AcDbLine
 62
7
  6
CONTINUOUS
 10
89.6040015849
 20
-60.0337195084
 11
89.600047501
 21
-60.0434935804
  0
LINE
  5
45F
100
AcDbEntity
  8
Livello_1
100
AcDbLine
 62
7
  6
CONTINUOUS
 10
85.4546724448
 20
-60.0529648342
 11
85.4508563999
 21
-60.0623705747
  0
LINE
  5
460
100
AcDbEntity
  8
Livello_1
100
AcDbLine
 62
7
  6
CONTINUOUS
 10
86.407141589
 20
-60.0529648342
 11
86.4033255441
 21
-60.0623705747
  0
LINE
  5
461
100
AcDbEntity
  8
Livello_1
100
AcDbLine
 62
7
  6
CONTINUOUS
 10
85.4508563999
 20
-60.0623705747
 11
85.4467493432
 21
-60.0713996238
  0
LINE
  5
462
100
AcDbEntity
  8
Livello_1
100
AcDbLine
 62
7
  6
CONTINUOUS
 10
1.2513301123
 20
-54.5810601092
 11
1.2429447843
 21
-54.5898508896
  0
LINE
  5
463
100
AcDbEntity
  8
Livello_1
100
AcDbLine
 62
7
  6
CONTINUOUS
 10
1.5640801882
 20
-54.878600656
 11
1.5541947888
 21
-54.8889655874
  0
LINE
  5
464
100
AcDbEntity
  8
Livello_1
100
AcDbLine
 62
7
  6
CONTINUOUS
 10
0.3250880665
 20
-51.5834330275
 11
-1.8470449134
 21
-53.7572657209
  0
LINE
  5
465
100
AcDbEntity
  8
Livello_1
100
AcDbLine
 62
7
  6
CONTINUOUS
 10
-3.0783458173
 20
-50.4526829128
 11
-2.9699017725
 21
-50.3447083492
  0
LINE
  5
466
100
AcDbEntity
  8
Livello_1
100
AcDbLine
 62
7
  6
CONTINUOUS
 10
-2.7663577714
 20
-50.7508686195
 11
-2.6725016064
 21
-50.6574257951
  0
LINE
  5
467
100
AcDbEntity
  8
Livello_1
100
AcDbLine
 62
7
  6
CONTINUOUS
 10
1.2429447843
 20
-54.5898508896
 11
1.1490904702
 21
-54.6832784821
  0
LINE
  5
468
100
AcDbEntity
  8
Livello_1
100
AcDbLine
 62
7
  6
CONTINUOUS
 10
1.5541947888
 20
-54.8889655874
 11
1.4457553178
 21
-54.9969182375
  0
LINE
  5
469
100
AcDbEntity
  8
Livello_1
100
AcDbLine
 62
7
  6
CONTINUOUS
 10
94.6183762432
 20
76.4979377384
 11
94.4936062239
 21
76.4473668483
  0
LINE
  5
46A
100
AcDbEntity
  8
Livello_1
100
AcDbLine
 62
7
  6
CONTINUOUS
 10
91.7355160409
 20
-68.2425022812
 11
91.6795083443
 21
-68.3762863217
  0
LINE
  5
46B
100
AcDbEntity
  8
Livello_1
100
AcDbLine
 62
7
  6
CONTINUOUS
 10
94.6742694477
 20
-70.5276969429
 11
94.6183762432
 21
-70.6578304959
  0
LINE
  5
46C
100
AcDbEntity
  8
Livello_1
100
AcDbLine
 62
7
  6
CONTINUOUS
 10
92.2908888358
 20
-60.0434560791
 11
92.286635458
 21
-60.0529657958
  0
LINE
  5
46D
100
AcDbEntity
  8
Livello_1
100
AcDbLine
 62
7
  6
CONTINUOUS
 10
89.600047501
 20
-60.0434935804
 11
89.5957925704
 21
-60.052999594
  0
LINE
  5
46E
100
AcDbEntity
  8
Livello_1
100
AcDbLine
 62
7
  6
CONTINUOUS
 10
86.4033255441
 20
-60.0623705747
 11
86.3992184874
 21
-60.0713996238
  0
LINE
  5
46F
100
AcDbEntity
  8
Livello_1
100
AcDbLine
 62
7
  6
CONTINUOUS
 10
89.5957925704
 20
-60.052999594
 11
89.5912746521
 21
-60.0621701326
  0
LINE
  5
470
100
AcDbEntity
  8
Livello_1
100
AcDbLine
 62
7
  6
CONTINUOUS
 10
85.4467493432
 20
-60.0713996238
 11
85.4423762847
 21
-60.080022237
  0
LINE
  5
471
100
AcDbEntity
  8
Livello_1
100
AcDbLine
 62
7
  6
CONTINUOUS
 10
86.3992184874
 20
-60.0713996238
 11
86.3948454287
 21
-60.080022237
  0
LINE
  5
472
100
AcDbEntity
  8
Livello_1
100
AcDbLine
 62
7
  6
CONTINUOUS
 10
-2.9699017725
 20
-50.3447083492
 11
-2.8565238092
 21
-50.242048427
  0
LINE
  5
473
100
AcDbEntity
  8
Livello_1
100
AcDbLine
 62
7
  6
CONTINUOUS
 10
-2.6725016064
 20
-50.6574257951
 11
-2.574375997
 21
-50.5685828139
  0
LINE
  5
474
100
AcDbEntity
  8
Livello_1
100
AcDbLine
 62
7
  6
CONTINUOUS
 10
1.1490904702
 20
-54.6832784821
 11
1.0509654348
 21
-54.7721075133
  0
LINE
  5
475
100
AcDbEntity
  8
Livello_1
100
AcDbLine
 62
7
  6
CONTINUOUS
 10
1.4457553178
 20
-54.9969182375
 11
1.3323816685
 21
-55.099556585
  0
LINE
  5
476
100
AcDbEntity
  8
Livello_1
100
AcDbLine
 62
7
  6
CONTINUOUS
 10
92.286635458
 20
-60.0529657958
 11
92.2821189882
 21
-60.0621401568
  0
LINE
  5
477
100
AcDbEntity
  8
Livello_1
100
AcDbLine
 62
7
  6
CONTINUOUS
 10
92.2821189882
 20
-60.0621401568
 11
92.2773765845
 21
-60.0709241736
  0
LINE
  5
478
100
AcDbEntity
  8
Livello_1
100
AcDbLine
 62
7
  6
CONTINUOUS
 10
89.5912746521
 20
-60.0621701326
 11
89.5865308624
 21
-60.0709503332
  0
LINE
  5
479
100
AcDbEntity
  8
Livello_1
100
AcDbLine
 62
7
  6
CONTINUOUS
 10
85.4423762847
 20
-60.080022237
 11
85.4377604683
 21
-60.0882174157
  0
LINE
  5
47A
100
AcDbEntity
  8
Livello_1
100
AcDbLine
 62
7
  6
CONTINUOUS
 10
86.3948454287
 20
-60.080022237
 11
86.3902296122
 21
-60.0882174157
  0
LINE
  5
47B
100
AcDbEntity
  8
Livello_1
100
AcDbLine
 62
7
  6
CONTINUOUS
 10
-2.8565238092
 20
-50.242048427
 11
-2.7385040718
 21
-50.1449543437
  0
LINE
  5
47C
100
AcDbEntity
  8
Livello_1
100
AcDbLine
 62
7
  6
CONTINUOUS
 10
-2.574375997
 20
-50.5685828139
 11
-2.472233693
 21
-50.4845569626
  0
LINE
  5
47D
100
AcDbEntity
  8
Livello_1
100
AcDbLine
 62
7
  6
CONTINUOUS
 10
1.0509654348
 20
-54.7721075133
 11
0.9488223245
 21
-54.856120674
  0
LINE
  5
47E
100
AcDbEntity
  8
Livello_1
100
AcDbLine
 62
7
  6
CONTINUOUS
 10
1.3323816685
 20
-55.099556585
 11
1.2143654583
 21
-55.1966298445
  0
LINE
  5
47F
100
AcDbEntity
  8
Livello_1
100
AcDbLine
 62
7
  6
CONTINUOUS
 10
94.1751708232
 20
-59.4838335123
 11
94.1060489582
 21
-59.6012607292
  0
LINE
  5
480
100
AcDbEntity
  8
Livello_1
100
AcDbLine
 62
7
  6
CONTINUOUS
 10
92.2773765845
 20
-60.0709241736
 11
92.272443601
 21
-60.0792750755
  0
LINE
  5
481
100
AcDbEntity
  8
Livello_1
100
AcDbLine
 62
7
  6
CONTINUOUS
 10
89.5865308624
 20
-60.0709503332
 11
89.5815965114
 21
-60.0792975323
  0
LINE
  5
482
100
AcDbEntity
  8
Livello_1
100
AcDbLine
 62
7
  6
CONTINUOUS
 10
85.4377604683
 20
-60.0882174157
 11
85.4329230569
 21
-60.09597152
  0
LINE
  5
483
100
AcDbEntity
  8
Livello_1
100
AcDbLine
 62
7
  6
CONTINUOUS
 10
86.3902296122
 20
-60.0882174157
 11
86.3853922011
 21
-60.09597152
  0
LINE
  5
484
100
AcDbEntity
  8
Livello_1
100
AcDbLine
 62
7
  6
CONTINUOUS
 10
92.272443601
 20
-60.0792750755
 11
92.2673528332
 21
-60.087161419
  0
LINE
  5
485
100
AcDbEntity
  8
Livello_1
100
AcDbLine
 62
7
  6
CONTINUOUS
 10
89.5815965114
 20
-60.0792975323
 11
89.5765043498
 21
-60.0871803718
  0
LINE
  5
486
100
AcDbEntity
  8
Livello_1
100
AcDbLine
 62
7
  6
CONTINUOUS
 10
85.4329230569
 20
-60.09597152
 11
85.4278829419
 21
-60.1032769501
  0
LINE
  5
487
100
AcDbEntity
  8
Livello_1
100
AcDbLine
 62
7
  6
CONTINUOUS
 10
86.3853922011
 20
-60.09597152
 11
86.3803520861
 21
-60.1032769501
  0
LINE
  5
488
100
AcDbEntity
  8
Livello_1
100
AcDbLine
 62
7
  6
CONTINUOUS
 10
68.8263499948
 20
-58.741154463
 11
68.7974651384
 21
-58.7772063397
  0
LINE
  5
489
100
AcDbEntity
  8
Livello_1
100
AcDbLine
 62
7
  6
CONTINUOUS
 10
-2.7385040718
 20
-50.1449543437
 11
-2.6161428434
 21
-50.0536581869
  0
LINE
  5
48A
100
AcDbEntity
  8
Livello_1
100
AcDbLine
 62
7
  6
CONTINUOUS
 10
-2.472233693
 20
-50.4845569626
 11
-2.3663344641
 21
-50.4055489875
  0
LINE
  5
48B
100
AcDbEntity
  8
Livello_1
100
AcDbLine
 62
7
  6
CONTINUOUS
 10
0.9488223245
 20
-54.856120674
 11
0.8429207838
 21
-54.9351172032
  0
LINE
  5
48C
100
AcDbEntity
  8
Livello_1
100
AcDbLine
 62
7
  6
CONTINUOUS
 10
1.2143654583
 20
-55.1966298445
 11
1.0920063884
 21
-55.2879063025
  0
LINE
  5
48D
100
AcDbEntity
  8
Livello_1
100
AcDbLine
 62
7
  6
CONTINUOUS
 10
92.2673528332
 20
-60.087161419
 11
92.2621340333
 21
-60.0945618633
  0
LINE
  5
48E
100
AcDbEntity
  8
Livello_1
100
AcDbLine
 62
7
  6
CONTINUOUS
 10
89.5765043498
 20
-60.0871803718
 11
89.5712840877
 21
-60.094577575
  0
LINE
  5
48F
100
AcDbEntity
  8
Livello_1
100
AcDbLine
 62
7
  6
CONTINUOUS
 10
85.4278829419
 20
-60.1032769501
 11
85.4226566451
 21
-60.1101309351
  0
LINE
  5
490
100
AcDbEntity
  8
Livello_1
100
AcDbLine
 62
7
  6
CONTINUOUS
 10
86.3803520861
 20
-60.1032769501
 11
86.3751257893
 21
-60.1101309351
  0
LINE
  5
491
100
AcDbEntity
  8
Livello_1
100
AcDbLine
 62
7
  6
CONTINUOUS
 10
-2.6161428434
 20
-50.0536581869
 11
-2.4897450861
 21
-49.9683715105
  0
LINE
  5
492
100
AcDbEntity
  8
Livello_1
100
AcDbLine
 62
7
  6
CONTINUOUS
 10
-2.3663344641
 20
-50.4055489875
 11
-2.2569421095
 21
-50.3317418681
  0
LINE
  5
493
100
AcDbEntity
  8
Livello_1
100
AcDbLine
 62
7
  6
CONTINUOUS
 10
0.8429207838
 20
-54.9351172032
 11
0.733524463
 21
-55.0089141118
  0
LINE
  5
494
100
AcDbEntity
  8
Livello_1
100
AcDbLine
 62
7
  6
CONTINUOUS
 10
1.0920063884
 20
-55.2879063025
 11
0.9656087957
 21
-55.3731747292
  0
LINE
  5
495
100
AcDbEntity
  8
Livello_1
100
AcDbLine
 62
7
  6
CONTINUOUS
 10
92.2621340333
 20
-60.0945618633
 11
92.2568136487
 21
-60.1014637855
  0
LINE
  5
496
100
AcDbEntity
  8
Livello_1
100
AcDbLine
 62
7
  6
CONTINUOUS
 10
89.5712840877
 20
-60.094577575
 11
89.5659621331
 21
-60.1014765635
  0
LINE
  5
497
100
AcDbEntity
  8
Livello_1
100
AcDbLine
 62
7
  6
CONTINUOUS
 10
93.0952512504
 20
-59.6121997553
 11
93.1502617147
 21
-59.5454197479
  0
LINE
  5
498
100
AcDbEntity
  8
Livello_1
100
AcDbLine
 62
7
  6
CONTINUOUS
 10
85.4226566451
 20
-60.1101309351
 11
85.4172582873
 21
-60.1165344475
  0
LINE
  5
499
100
AcDbEntity
  8
Livello_1
100
AcDbLine
 62
7
  6
CONTINUOUS
 10
86.3751257893
 20
-60.1101309351
 11
86.3697274315
 21
-60.1165344475
  0
LINE
  5
49A
100
AcDbEntity
  8
Livello_1
100
AcDbLine
 62
7
  6
CONTINUOUS
 10
92.2568136487
 20
-60.1014637855
 11
92.2514147268
 21
-60.1078618626
  0
LINE
  5
49B
100
AcDbEntity
  8
Livello_1
100
AcDbLine
 62
7
  6
CONTINUOUS
 10
89.5659621331
 20
-60.1014765635
 11
89.5605614986
 21
-60.1078720397
  0
LINE
  5
49C
100
AcDbEntity
  8
Livello_1
100
AcDbLine
 62
7
  6
CONTINUOUS
 10
-2.4897450861
 20
-49.9683715105
 11
-2.3596169626
 21
-49.8892845392
  0
LINE
  5
49D
100
AcDbEntity
  8
Livello_1
100
AcDbLine
 62
7
  6
CONTINUOUS
 10
-2.2569421095
 20
-50.3317418681
 11
-2.1443214485
 21
-50.2633001322
  0
LINE
  5
49E
100
AcDbEntity
  8
Livello_1
100
AcDbLine
 62
7
  6
CONTINUOUS
 10
0.733524463
 20
-55.0089141118
 11
0.6208980111
 21
-55.0773468613
  0
LINE
  5
49F
100
AcDbEntity
  8
Livello_1
100
AcDbLine
 62
7
  6
CONTINUOUS
 10
0.9656087957
 20
-55.3731747292
 11
0.8354781872
 21
-55.4522451631
  0
LINE
  5
4A0
100
AcDbEntity
  8
Livello_1
100
AcDbLine
 62
7
  6
CONTINUOUS
 10
92.2514147268
 20
-60.1078618626
 11
92.2459569383
 21
-60.1137566974
  0
LINE
  5
4A1
100
AcDbEntity
  8
Livello_1
100
AcDbLine
 62
7
  6
CONTINUOUS
 10
89.5605614986
 20
-60.1078720397
 11
89.5551018248
 21
-60.1137646166
  0
LINE
  5
4A2
100
AcDbEntity
  8
Livello_1
100
AcDbLine
 62
7
  6
CONTINUOUS
 10
85.4172582873
 20
-60.1165344475
 11
85.411699607
 21
-60.122491244
  0
LINE
  5
4A3
100
AcDbEntity
  8
Livello_1
100
AcDbLine
 62
7
  6
CONTINUOUS
 10
86.3697274315
 20
-60.1165344475
 11
86.3641687513
 21
-60.122491244
  0
LINE
  5
4A4
100
AcDbEntity
  8
Livello_1
100
AcDbLine
 62
7
  6
CONTINUOUS
 10
-2.3596169626
 20
-49.8892845392
 11
-2.2260624681
 21
-49.8165660076
  0
LINE
  5
4A5
100
AcDbEntity
  8
Livello_1
100
AcDbLine
 62
7
  6
CONTINUOUS
 10
-2.1443214485
 20
-50.2633001322
 11
-2.02873541
 21
-50.2003697198
  0
LINE
  5
4A6
100
AcDbEntity
  8
Livello_1
100
AcDbLine
 62
7
  6
CONTINUOUS
 10
0.6208980111
 20
-55.0773468613
 11
0.5053041685
 21
-55.1402694945
  0
LINE
  5
4A7
100
AcDbEntity
  8
Livello_1
100
AcDbLine
 62
7
  6
CONTINUOUS
 10
0.8354781872
 20
-55.4522451631
 11
0.7019178866
 21
-55.5249490651
  0
LWPOLYLINE
  5
4A8
100
AcDbEntity
  8
0
100
AcDbPolyline
 62
7
  6
CONTINUOUS
 90
10
 70
0
 43
0.3500000006
 10
107.6651012878
 20
8.7537252731
 10
107.8079636536
 20
8.8251519241
 10
107.8793948364
 20
8.8251519241
 10
108.0222481384
 20
8.6822963562
 10
108.0222481384
 20
8.6108674393
 10
107.9508169556
 20
8.5394385223
 10
107.8793948364
 20
8.5394385223
 10
107.7365324707
 20
8.6108674393
 10
107.6651012878
 20
8.6822963562
 10
107.6651012878
 20
8.7537252731
  0
LINE
  5
4A9
100
AcDbEntity
  8
Livello_1
100
AcDbLine
 62
7
  6
CONTINUOUS
 10
-2.2260624681
 20
-49.8165660076
 11
-2.0893802918
 21
-49.7503636015
  0
LINE
  5
4AA
100
AcDbEntity
  8
Livello_1
100
AcDbLine
 62
7
  6
CONTINUOUS
 10
92.2459569383
 20
-60.1137566974
 11
92.2404566796
 21
-60.1191535438
  0
LINE
  5
4AB
100
AcDbEntity
  8
Livello_1
100
AcDbLine
 62
7
  6
CONTINUOUS
 10
89.5551018248
 20
-60.1137646166
 11
89.5495994822
 21
-60.1191595456
  0
LINE
  5
4AC
100
AcDbEntity
  8
Livello_1
100
AcDbLine
 62
7
  6
CONTINUOUS
 10
85.411699607
 20
-60.122491244
 11
85.4059900101
 21
-60.1280070246
  0
LINE
  5
4AD
100
AcDbEntity
  8
Livello_1
100
AcDbLine
 62
7
  6
CONTINUOUS
 10
86.3641687513
 20
-60.122491244
 11
86.3584591543
 21
-60.1280070246
  0
LINE
  5
4AE
100
AcDbEntity
  8
Livello_1
100
AcDbLine
 62
7
  6
CONTINUOUS
 10
85.4059900101
 20
-60.1280070246
 11
85.400136646
 21
-60.1330887026
  0
LINE
  5
4AF
100
AcDbEntity
  8
Livello_1
100
AcDbLine
 62
7
  6
CONTINUOUS
 10
86.3584591543
 20
-60.1280070246
 11
86.3526057902
 21
-60.1330887026
  0
LINE
  5
4B0
100
AcDbEntity
  8
Livello_1
100
AcDbLine
 62
7
  6
CONTINUOUS
 10
-2.02873541
 20
-50.2003697198
 11
-1.9104423189
 21
-50.1430783694
  0
LINE
  5
4B1
100
AcDbEntity
  8
Livello_1
100
AcDbLine
 62
7
  6
CONTINUOUS
 10
0.7019178866
 20
-55.5249490651
 11
0.5652259084
 21
-55.5911388716
  0
LINE
  5
4B2
100
AcDbEntity
  8
Livello_1
100
AcDbLine
 62
7
  6
CONTINUOUS
 10
0.5053041685
 20
-55.1402694945
 11
0.3870010556
 21
-55.1975542451
  0
LINE
  5
4B3
100
AcDbEntity
  8
Livello_1
100
AcDbLine
 62
7
  6
CONTINUOUS
 10
-2.0893802918
 20
-49.7503636015
 11
-1.9498609994
 21
-49.6908049508
  0
LINE
  5
4B4
100
AcDbEntity
  8
Livello_1
100
AcDbLine
 62
7
  6
CONTINUOUS
 10
-1.9104423189
 20
-50.1430783694
 11
-1.7896934629
 21
-50.0915364779
  0
LINE
  5
4B5
100
AcDbEntity
  8
Livello_1
100
AcDbLine
 62
7
  6
CONTINUOUS
 10
92.2404566796
 20
-60.1191535438
 11
92.2349272253
 21
-60.1240611504
  0
LINE
  5
4B6
100
AcDbEntity
  8
Livello_1
100
AcDbLine
 62
7
  6
CONTINUOUS
 10
89.5495994822
 20
-60.1191595456
 11
89.5440677238
 21
-60.1240655618
  0
LINE
  5
4B7
100
AcDbEntity
  8
Livello_1
100
AcDbLine
 62
7
  6
CONTINUOUS
 10
92.2349272253
 20
-60.1240611504
 11
92.2293789078
 21
-60.1284907297
  0
LINE
  5
4B8
100
AcDbEntity
  8
Livello_1
100
AcDbLine
 62
7
  6
CONTINUOUS
 10
89.5440677238
 20
-60.1240655618
 11
89.5385168654
 21
-60.1284938564
  0
LINE
  5
4B9
100
AcDbEntity
  8
Livello_1
100
AcDbLine
 62
7
  6
CONTINUOUS
 10
85.400136646
 20
-60.1330887026
 11
85.3941445025
 21
-60.1377437729
  0
LINE
  5
4BA
100
AcDbEntity
  8
Livello_1
100
AcDbLine
 62
7
  6
CONTINUOUS
 10
86.3526057902
 20
-60.1330887026
 11
86.3466136464
 21
-60.1377437729
  0
LINE
  5
4BB
100
AcDbEntity
  8
Livello_1
100
AcDbLine
 62
7
  6
CONTINUOUS
 10
68.7974651384
 20
-58.7772063397
 11
68.7636413812
 21
-58.8018664144
  0
LWPOLYLINE
  5
4BC
100
AcDbEntity
  8
0
100
AcDbPolyline
 62
7
  6
CONTINUOUS
 90
5
 70
0
 43
0.3500000006
 10
-2.0040654058
 20
-84.4678045807
 10
-1.6469225206
 20
-84.2535200958
 10
-1.6469225206
 20
-83.6106621094
 10
-2.0040654058
 20
-83.1820931396
 10
-2.8612081604
 20
-83.1820931396
  0
LINE
  5
4BD
100
AcDbEntity
  8
Livello_1
100
AcDbLine
 62
7
  6
CONTINUOUS
 10
0.3870010556
 20
-55.1975542451
 11
0.2662397441
 21
-55.2490906754
  0
LINE
  5
4BE
100
AcDbEntity
  8
Livello_1
100
AcDbLine
 62
7
  6
CONTINUOUS
 10
0.5652259084
 20
-55.5911388716
 11
0.4256921563
 21
-55.6506870004
  0
LINE
  5
4BF
100
AcDbEntity
  8
Livello_1
100
AcDbLine
 62
7
  6
CONTINUOUS
 10
-1.9498609994
 20
-49.6908049508
 11
-1.807784614
 21
-49.6379990951
  0
LINE
  5
4C0
100
AcDbEntity
  8
Livello_1
100
AcDbLine
 62
7
  6
CONTINUOUS
 10
-1.7896934629
 20
-50.0915364779
 11
-1.666731002
 21
-50.0458383715
  0
LINE
  5
4C1
100
AcDbEntity
  8
Livello_1
100
AcDbLine
 62
7
  6
CONTINUOUS
 10
92.2293789078
 20
-60.1284907297
 11
92.2238193131
 21
-60.1324550496
  0
LINE
  5
4C2
100
AcDbEntity
  8
Livello_1
100
AcDbLine
 62
7
  6
CONTINUOUS
 10
89.5385168654
 20
-60.1284938564
 11
89.5329544797
 21
-60.1324571691
  0
LINE
  5
4C3
100
AcDbEntity
  8
Livello_1
100
AcDbLine
 62
7
  6
CONTINUOUS
 10
85.3941445025
 20
-60.1377437729
 11
85.3880165141
 21
-60.1419797642
  0
LINE
  5
4C4
100
AcDbEntity
  8
Livello_1
100
AcDbLine
 62
7
  6
CONTINUOUS
 10
86.3466136464
 20
-60.1377437729
 11
86.3404856583
 21
-60.1419797642
  0
LINE
  5
4C5
100
AcDbEntity
  8
Livello_1
100
AcDbLine
 62
7
  6
CONTINUOUS
 10
0.2662397441
 20
-55.2490906754
 11
0.1432621705
 21
-55.2947844004
  0
LINE
  5
4C6
100
AcDbEntity
  8
Livello_1
100
AcDbLine
 62
7
  6
CONTINUOUS
 10
0.4256921563
 20
-55.6506870004
 11
0.2835960146
 21
-55.7034843847
  0
LINE
  5
4C7
100
AcDbEntity
  8
Livello_1
100
AcDbLine
 62
7
  6
CONTINUOUS
 10
-1.807784614
 20
-49.6379990951
 11
-1.6634186408
 21
-49.5920383381
  0
LINE
  5
4C8
100
AcDbEntity
  8
Livello_1
100
AcDbLine
 62
7
  6
CONTINUOUS
 10
-1.666731002
 20
-50.0458383715
 11
-1.5417862622
 21
-50.0060639108
  0
LINE
  5
4C9
100
AcDbEntity
  8
Livello_1
100
AcDbLine
 62
7
  6
CONTINUOUS
 10
92.2238193131
 20
-60.1324550496
 11
92.2182534814
 21
-60.1359676364
  0
LINE
  5
4CA
100
AcDbEntity
  8
Livello_1
100
AcDbLine
 62
7
  6
CONTINUOUS
 10
89.5329544797
 20
-60.1324571691
 11
89.5273855972
 21
-60.1359689948
  0
LINE
  5
4CB
100
AcDbEntity
  8
Livello_1
100
AcDbLine
 62
7
  6
CONTINUOUS
 10
85.3880165141
 20
-60.1419797642
 11
85.3817536857
 21
-60.1458037709
  0
LINE
  5
4CC
100
AcDbEntity
  8
Livello_1
100
AcDbLine
 62
7
  6
CONTINUOUS
 10
86.3404856583
 20
-60.1419797642
 11
86.3342228299
 21
-60.1458037709
  0
LINE
  5
4CD
100
AcDbEntity
  8
Livello_1
100
AcDbLine
 62
7
  6
CONTINUOUS
 10
0.1432621705
 20
-55.2947844004
 11
0.0182994344
 21
-55.3345554823
  0
LINE
  5
4CE
100
AcDbEntity
  8
Livello_1
100
AcDbLine
 62
7
  6
CONTINUOUS
 10
0.2835960146
 20
-55.7034843847
 11
0.1392043831
 21
-55.7494386232
  0
LINE
  5
4CF
100
AcDbEntity
  8
Livello_1
100
AcDbLine
 62
7
  6
CONTINUOUS
 10
92.2182534814
 20
-60.1359676364
 11
92.2126841122
 21
-60.1390420805
  0
LINE
  5
4D0
100
AcDbEntity
  8
Livello_1
100
AcDbLine
 62
7
  6
CONTINUOUS
 10
89.5273855972
 20
-60.1359689948
 11
89.5218129119
 21
-60.1390428888
  0
LINE
  5
4D1
100
AcDbEntity
  8
Livello_1
100
AcDbLine
 62
7
  6
CONTINUOUS
 10
85.3817536857
 20
-60.1458037709
 11
85.3753552241
 21
-60.1492220531
  0
LINE
  5
4D2
100
AcDbEntity
  8
Livello_1
100
AcDbLine
 62
7
  6
CONTINUOUS
 10
86.3342228299
 20
-60.1458037709
 11
86.3278243683
 21
-60.1492220531
  0
LINE
  5
4D3
100
AcDbEntity
  8
Livello_1
100
AcDbLine
 62
7
  6
CONTINUOUS
 10
92.2126841122
 20
-60.1390420805
 11
92.2071117715
 21
-60.1416914299
  0
LINE
  5
4D4
100
AcDbEntity
  8
Livello_1
100
AcDbLine
 62
7
  6
CONTINUOUS
 10
89.5218129119
 20
-60.1390428888
 11
89.5162369858
 21
-60.1416918634
  0
LINE
  5
4D5
100
AcDbEntity
  8
Livello_1
100
AcDbLine
 62
7
  6
CONTINUOUS
 10
85.3753552241
 20
-60.1492220531
 11
85.3688186823
 21
-60.1522396977
  0
LINE
  5
4D6
100
AcDbEntity
  8
Livello_1
100
AcDbLine
 62
7
  6
CONTINUOUS
 10
86.3278243683
 20
-60.1492220531
 11
86.3212878265
 21
-60.1522396977
  0
LINE
  5
4D7
100
AcDbEntity
  8
Livello_1
100
AcDbLine
 62
7
  6
CONTINUOUS
 10
91.8610162933
 20
-68.1848035296
 11
91.7355160409
 21
-68.2425022812
  0
LINE
  5
4D8
100
AcDbEntity
  8
Livello_1
100
AcDbLine
 62
7
  6
CONTINUOUS
 10
92.2071117715
 20
-60.1416914299
 11
92.2015351006
 21
-60.1439276661
  0
LINE
  5
4D9
100
AcDbEntity
  8
Livello_1
100
AcDbLine
 62
7
  6
CONTINUOUS
 10
89.5162369858
 20
-60.1416918634
 11
89.5106564605
 21
-60.1439278642
  0
LINE
  5
4DA
100
AcDbEntity
  8
Livello_1
100
AcDbLine
 62
7
  6
CONTINUOUS
 10
85.3688186823
 20
-60.1522396977
 11
85.3621401111
 21
-60.1548603382
  0
LINE
  5
4DB
100
AcDbEntity
  8
Livello_1
100
AcDbLine
 62
7
  6
CONTINUOUS
 10
86.3212878265
 20
-60.1522396977
 11
86.3146092553
 21
-60.1548603382
  0
LINE
  5
4DC
100
AcDbEntity
  8
Livello_1
100
AcDbLine
 62
7
  6
CONTINUOUS
 10
93.0193672868
 20
-59.6408513271
 11
93.0952512504
 21
-59.6121997553
  0
LINE
  5
4DD
100
AcDbEntity
  8
Livello_1
100
AcDbLine
 62
7
  6
CONTINUOUS
 10
68.7636413812
 20
-58.8018664144
 11
68.7250482925
 21
-58.8152870035
  0
LINE
  5
4DE
100
AcDbEntity
  8
Livello_1
100
AcDbLine
 62
7
  6
CONTINUOUS
 10
94.6183762432
 20
-70.6578304959
 11
94.4936062239
 21
-70.7083523464
  0
LINE
  5
4DF
100
AcDbEntity
  8
Livello_1
100
AcDbLine
 62
7
  6
CONTINUOUS
 10
92.2015351006
 20
-60.1439276661
 11
92.195951032
 21
-60.1457612523
  0
LINE
  5
4E0
100
AcDbEntity
  8
Livello_1
100
AcDbLine
 62
7
  6
CONTINUOUS
 10
89.5106564605
 20
-60.1439278642
 11
89.5050682702
 21
-60.1457613202
  0
LINE
  5
4E1
100
AcDbEntity
  8
Livello_1
100
AcDbLine
 62
7
  6
CONTINUOUS
 10
85.3621401111
 20
-60.1548603382
 11
85.3553142178
 21
-60.1570859272
  0
LINE
  5
4E2
100
AcDbEntity
  8
Livello_1
100
AcDbLine
 62
7
  6
CONTINUOUS
 10
86.3146092553
 20
-60.1548603382
 11
86.307783362
 21
-60.1570859272
  0
LINE
  5
4E3
100
AcDbEntity
  8
Livello_1
100
AcDbLine
 62
7
  6
CONTINUOUS
 10
94.1060489582
 20
-59.6012607292
 11
93.9507874769
 21
-59.6493259325
  0
ENDSEC
  0
SECTION
  2
OBJECTS
  0
DICTIONARY
  5
C
100
AcDbDictionary
280
0
281
1
  3
ACAD_GROUP
350
D
  3
ACAD_MLINESTYLE
350
17
  3
ACAD_LAYOUT
350
1A
  3
ACAD_PLOTSETTINGS
350
19
  3
ACAD_PLOTSTYLENAME
350
E
  0
DICTIONARY
  5
D
102
{ACAD_REACTORS
330
C
102
}
100
AcDbDictionary
280
0
281
1
  0
ACDBDICTIONARYWDFLT
  5
E
102
{ACAD_REACTORS
330
C
102
}
100
AcDbDictionary
281
1
  3
Normal
350
F
100
AcDbDictionaryWithDefault
340
F
  0
DICTIONARY
  5
17
102
{ACAD_REACTORS
330
C
102
}
100
AcDbDictionary
280
0
281
1
  3
Standard
350
18
  0
DICTIONARY
  5
19
102
{ACAD_REACTORS
330
C
102
}
100
AcDbDictionary
281
1
  0
DICTIONARY
  5
1A
102
{ACAD_REACTORS
330
C
102
}
100
AcDbDictionary
281
1
  3
Model
350
4E4
  3
Layout1
350
4E5
  0
ACDBPLACEHOLDER
  5
F
102
{ACAD_REACTORS
330
E
102
}
  0
MLINESTYLE
  5
18
102
{ACAD_REACTORS
330
17
102
}
100
AcDbMlineStyle
  2
STANDARD
 70
0
  3

 62
256
 51
90.0
 52
90.0
 71
2
 49
0.5
 62
256
  6
BYLAYER
 49
-0.5
 62
256
  6
BYLAYER
  0
LAYOUT
  5
4E4
102
{ACAD_REACTORS
330
1A
102
}
100
AcDbPlotSettings
  1

  2
none_device
  4
ISO_A4_(297.00_x_210.00_MM)
  6

 40
0.0
 41
0.0
 42
0.0
 43
0.0
 44
297.0
 45
210.0
 46
0.0
 47
0.0
 48
0.0
 49
0.0
140
0.0
141
0.0
142
1.0
143
1.0
 70
1024
 72
1
 73
0
 74
0
  7

 75
0
147
1.0
148
0.0
149
0.0
100
AcDbLayout
  1
Model
 70
0
 71
0
 10
0.0
 20
0.0
 11
297.0
 21
210.0
 12
0.0
 22
0.0
 32
0.0
 14
0.0
 24
0.0
 34
0.0
 15
0.0
 25
0.0
 35
0.0
146
0.0
 13
0.0
 23
0.0
 33
0.0
 16
1.0
 26
0.0
 36
0.0
 17
0.0
 27
1.0
 37
0.0
 76
0
330
201
345
0
346
0
  0
LAYOUT
  5
4E5
102
{ACAD_REACTORS
330
1A
102
}
100
AcDbPlotSettings
  1

  2
none_device
  4
ISO_A4_(297.00_x_210.00_MM)
  6

 40
0.0
 41
0.0
 42
0.0
 43
0.0
 44
297.0
 45
210.0
 46
0.0
 47
0.0
 48
0.0
 49
0.0
140
0.0
141
0.0
142
1.0
143
1.0
 70
0
 72
1
 73
0
 74
0
  7

 75
0
147
1.0
148
0.0
149
0.0
100
AcDbLayout
  1
Layout1
 70
0
 71
1
 10
0.0
 20
0.0
 11
297.0
 21
210.0
 12
0.0
 22
0.0
 32
0.0
 14
0.0
 24
0.0
 34
0.0
 15
0.0
 25
0.0
 35
0.0
146
0.0
 13
0.0
 23
0.0
 33
0.0
 16
1.0
 26
0.0
 36
0.0
 17
0.0
 27
1.0
 37
0.0
 76
0
330
202
345
0
346
0
  0
ENDSEC
  0
EOF
