  0
SECTION
  2
HEADER
  9
$ACADVER
  1
AC1021
  9
$DWGCODEPAGE
  3
ANSI_1252
  9
$EXTMAX
 10
297.0
 20
210.0
 30
0.0
  9
$EXTMIN
 10
0.0
 20
0.0
 30
0.0
  9
$LIMMIN
 10
0.0
 20
0.0
  9
$LIMMAX
 10
297.0
 20
210.0
  9
$VIEWCTR
 10
148.5
 20
105.0
  9
$VIEWSIZE
 40
210.0
  9
$CLAYER
  8
0
  9
$LTSCALE
 40
16.335
  9
$CELTYPE
  6
BYLAYER
  9
$DIMSCALE
 40
1.0
  9
$DIMASZ
 40
3.0
  9
$DIMEXO
 40
0.5
  9
$DIMDLI
 40
11.286
  9
$DIMEXE
 40
1.5
  9
$DIMCEN
 40
2.673
  9
$DIMLFAC
 40
1.0
  9
$DIMBLK
  1
_FILLED
  9
$DIMALT
 70
0
  9
$DIMALTF
 40
0.0393700787
  9
$DIMTXT
 40
3.0
  9
$DIMTOL
 70
1
  9
$DIMLIM
 70
0
  9
$DIMTFAC
 40
1.0
  9
$DIMTP
 40
0.01
  9
$DIMTM
 40
0.01
  9
$DIMGAP
 40
0.625
  9
$DIMDSEP
 70
44
  9
$AUNITS
 70
0
  9
$PDMODE
 70
3
  9
$PDSIZE
 40
3.0
  9
$HANDSEED
  5
3FA
  9
$TILEMODE
 70
1
  9
$MEASUREMENT
 70
1
  9
$INSUNITS
 70
4
  0
ENDSEC
  0
SECTION
  2
CLASSES
  0
CLASS
  1
ACDBDICTIONARYWDFLT
  2
AcDbDictionaryWithDefault
  3
AutoCAD 2000
 90
0
 91
1
280
0
281
0
  0
CLASS
  1
ACDBPLACEHOLDER
  2
AcDbPlaceHolder
  3
AutoCAD 2000
 90
0
 91
1
280
0
281
0
  0
CLASS
  1
LAYOUT
  2
AcDbLayout
  3
AutoCAD 2000
 90
0
 91
0
280
0
281
0
  0
ENDSEC
  0
SECTION
  2
TABLES
  0
TABLE
  2
VPORT
  5
8
100
AcDbSymbolTable
 70
2
  0
VPORT
  5
1F4
100
AcDbSymbolTableRecord
100
AcDbViewportTableRecord
  2
*ACTIVE
 70
0
 10
0.0
 20
0.0
 11
1.0
 21
1.0
 12
148.5
 22
105.0
 13
0.0
 23
0.0
 14
1.0
 24
1.0
 15
0.0
 25
0.0
 16
0.0
 26
0.0
 36
1.0
 17
0.0
 27
0.0
 37
0.0
 40
210.0
 41
1.4142857143
 42
50.0
 43
0.0
 44
0.0
 50
0.0
 51
0.0
 71
0
 72
100
 73
1
 74
1
 75
0
 76
0
 77
0
 78
0
  0
ENDTAB
  0
TABLE
  2
LTYPE
  5
5
100
AcDbSymbolTable
 70
6
  0
LTYPE
  5
14
100
AcDbSymbolTableRecord
100
AcDbLinetypeTableRecord
  2
BYBLOCK
 70
0
  3

 72
65
 73
0
 40
0.0
  0
LTYPE
  5
15
100
AcDbSymbolTableRecord
100
AcDbLinetypeTableRecord
  2
BYLAYER
 70
0
  3

 72
65
 73
0
 40
0.0
  0
LTYPE
  5
16
100
AcDbSymbolTableRecord
100
AcDbLinetypeTableRecord
  2
CONTINUOUS
 70
64
  3
Solid line
 72
65
 73
0
 40
0.0
  0
LTYPE
  5
1F5
100
AcDbSymbolTableRecord
100
AcDbLinetypeTableRecord
  2
CENTER
 70
64
  3
____ _ ____ _ ____ _ ____ _ ____ _ ____ _ ____
 72
65
 73
4
 40
0.6
 49
0.375
 74
0
 49
-0.075
 74
0
 49
0.075
 74
0
 49
-0.075
 74
0
  0
LTYPE
  5
1F6
100
AcDbSymbolTableRecord
100
AcDbLinetypeTableRecord
  2
HIDDEN
 70
64
  3
- - - - - - - - - - - - - - - - - - - -
 72
65
 73
2
 40
0.2
 49
0.1
 74
0
 49
-0.1
 74
0
  0
LTYPE
  5
1F7
100
AcDbSymbolTableRecord
100
AcDbLinetypeTableRecord
  2
PHANTOM
 70
64
  3
_____ _ _ _____ _ _ _____ _ _ _____
 72
65
 73
6
 40
0.8
 49
0.45
 74
0
 49
-0.05
 74
0
 49
0.1
 74
0
 49
-0.05
 74
0
 49
0.1
 74
0
 49
-0.05
 74
0
  0
LTYPE
  5
1F8
100
AcDbSymbolTableRecord
100
AcDbLinetypeTableRecord
  2
DOT
 70
64
  3
. . . . . . . . . . . . . . . . . . . .
 72
65
 73
2
 40
0.2
 49
0.1
 74
0
 49
-0.1
 74
0
  0
LTYPE
  5
1F9
100
AcDbSymbolTableRecord
100
AcDbLinetypeTableRecord
  2
DASHED
 70
64
  3
- - - - - - - - - - - - - - - - - - - -
 72
65
 73
2
 40
0.2
 49
0.1
 74
0
 49
-0.1
 74
0
  0
ENDTAB
  0
TABLE
  2
LAYER
  5
2
100
AcDbSymbolTable
 70
36
  0
LAYER
  5
10
100
AcDbSymbolTableRecord
100
AcDbLayerTableRecord
  2
0
 70
0
 62
7
  6
CONTINUOUS
370
-3
390
F
  0
LAYER
  5
1FA
100
AcDbSymbolTableRecord
100
AcDbLayerTableRecord
  2
DEFAULT_1
 70
0
 62
7
  6
CENTER
370
-3
390
F
  0
LAYER
  5
1FB
100
AcDbSymbolTableRecord
100
AcDbLayerTableRecord
  2
DEFAULT_2
 70
0
 62
7
  6
HIDDEN
370
-3
390
F
  0
LAYER
  5
1FC
100
AcDbSymbolTableRecord
100
AcDbLayerTableRecord
  2
DEFAULT_3
 70
0
 62
7
  6
PHANTOM
370
-3
390
F
  0
LAYER
  5
1FD
100
AcDbSymbolTableRecord
100
AcDbLayerTableRecord
  2
ASSI
 70
0
 62
7
  6
CONTINUOUS
370
-3
390
F
  0
LAYER
  5
1FE
100
AcDbSymbolTableRecord
100
AcDbLayerTableRecord
  2
COORDINATE
 70
0
 62
7
  6
CONTINUOUS
370
-3
390
F
  0
LAYER
  5
1FF
100
AcDbSymbolTableRecord
100
AcDbLayerTableRecord
  2
COPY_PUBLISH
 70
0
 62
7
  6
CONTINUOUS
370
-3
390
F
  0
LAYER
  5
200
100
AcDbSymbolTableRecord
100
AcDbLayerTableRecord
  2
COSMETICI
 70
0
 62
7
  6
CONTINUOUS
370
-3
390
F
  0
LAYER
  5
201
100
AcDbSymbolTableRecord
100
AcDbLayerTableRecord
  2
CURVE
 70
0
 62
7
  6
CONTINUOUS
370
-3
390
F
  0
LAYER
  5
202
100
AcDbSymbolTableRecord
100
AcDbLayerTableRecord
  2
DRAFT
 70
0
 62
7
  6
CONTINUOUS
370
-3
390
F
  0
LAYER
  5
203
100
AcDbSymbolTableRecord
100
AcDbLayerTableRecord
  2
IMPORT_IGES
 70
0
 62
7
  6
CONTINUOUS
370
-3
390
F
  0
LAYER
  5
204
100
AcDbSymbolTableRecord
100
AcDbLayerTableRecord
  2
NOTE
 70
0
 62
7
  6
CONTINUOUS
370
-3
390
F
  0
LAYER
  5
205
100
AcDbSymbolTableRecord
100
AcDbLayerTableRecord
  2
PIANI
 70
0
 62
7
  6
CONTINUOUS
370
-3
390
F
  0
LAYER
  5
206
100
AcDbSymbolTableRecord
100
AcDbLayerTableRecord
  2
PUNTI
 70
0
 62
7
  6
CONTINUOUS
370
-3
390
F
  0
LAYER
  5
207
100
AcDbSymbolTableRecord
100
AcDbLayerTableRecord
  2
RACCORDO
 70
0
 62
7
  6
CONTINUOUS
370
-3
390
F
  0
LAYER
  5
208
100
AcDbSymbolTableRecord
100
AcDbLayerTableRecord
  2
SIMBOLI
 70
0
 62
7
  6
CONTINUOUS
370
-3
390
F
  0
LAYER
  5
209
100
AcDbSymbolTableRecord
100
AcDbLayerTableRecord
  2
SMUSSO
 70
0
 62
7
  6
CONTINUOUS
370
-3
390
F
  0
LAYER
  5
20A
100
AcDbSymbolTableRecord
100
AcDbLayerTableRecord
  2
SNAPLINE
 70
0
 62
7
  6
CONTINUOUS
370
-3
390
F
  0
LAYER
  5
20B
100
AcDbSymbolTableRecord
100
AcDbLayerTableRecord
  2
SUPERFICI
 70
0
 62
7
  6
CONTINUOUS
370
-3
390
F
  0
LAYER
  5
20C
100
AcDbSymbolTableRecord
100
AcDbLayerTableRecord
  2
TRASH
 70
0
 62
7
  6
CONTINUOUS
370
-3
390
F
  0
ENDTAB
  0
TABLE
  2
STYLE
  5
3
100
AcDbSymbolTable
 70
1
  0
STYLE
  5
11
100
AcDbSymbolTableRecord
100
AcDbTextStyleTableRecord
  2
STANDARD
 70
0
 40
0.0
 41
0.8
 50
0.0
 71
0
 42
0.2
  3
txt
  4

  0
STYLE
  5
20D
100
AcDbSymbolTableRecord
100
AcDbTextStyleTableRecord
  2
TEXTSTYLE_1
 70
0
 40
0.0
 41
0.8
 50
0.0
 71
0
 42
0.2
  3
gdt
  4

  0
ENDTAB
  0
TABLE
  2
VIEW
  5
6
100
AcDbSymbolTable
 70
0
  0
ENDTAB
  0
TABLE
  2
UCS
  5
7
100
AcDbSymbolTable
 70
0
  0
ENDTAB
  0
TABLE
  2
APPID
  5
9
100
AcDbSymbolTable
 70
1
  0
APPID
  5
20E
100
AcDbSymbolTableRecord
100
AcDbRegAppTableRecord
  2
ACAD
 70
0
  0
ENDTAB
  0
TABLE
  2
BLOCK_RECORD
  5
1
100
AcDbSymbolTable
 70
0
  0
BLOCK_RECORD
  5
20F
100
AcDbSymbolTableRecord
100
AcDbBlockTableRecord
  2
*Model_Space
  0
BLOCK_RECORD
  5
210
100
AcDbSymbolTableRecord
100
AcDbBlockTableRecord
  2
*Paper_Space
  0
BLOCK_RECORD
  5
211
100
AcDbSymbolTableRecord
100
AcDbBlockTableRecord
  2
_FILLED
  0
BLOCK_RECORD
  5
212
100
AcDbSymbolTableRecord
100
AcDbBlockTableRecord
  2
*D0
  0
BLOCK_RECORD
  5
213
100
AcDbSymbolTableRecord
100
AcDbBlockTableRecord
  2
*D1
  0
BLOCK_RECORD
  5
214
100
AcDbSymbolTableRecord
100
AcDbBlockTableRecord
  2
*D2
  0
ENDTAB
  0
TABLE
  2
DIMSTYLE
  5
A
100
AcDbSymbolTable
 70
1
100
AcDbDimStyleTable
 71
0
  0
DIMSTYLE
105
215
100
AcDbSymbolTableRecord
100
AcDbDimStyleTableRecord
  2
STANDARD
 70
0
  3

  4

 40
1.0
 41
3.0
 42
0.5
 43
0.38
 44
1.5
 45
0.0
 46
0.0
 47
0.01
 48
0.01
140
3.0
141
0.09
142
0.0
143
25.4
144
1.0
145
0.0
146
1.0
147
0.625
 71
1.0
 72
0.0
 73
0
 74
0
 75
0
 76
0
 77
1
 78
8
170
0
171
2
172
0
173
0
174
0
175
0
176
0
177
0
178
0
270
2
271
2
272
2
273
2
274
2
275
0
280
0
281
0
282
0
283
1
284
8
285
0
286
0
287
3
288
0
340
11
278
44
341
211
342
211
343
211
344
211
  0
DIMSTYLE
105
216
100
AcDbSymbolTableRecord
100
AcDbDimStyleTableRecord
  2
DIMSTYLE_1
 70
0
  3

  4

 40
1.0
 41
3.0
 42
0.5
 43
0.38
 44
1.5
 45
0.0
 46
0.0
 47
0.0
 48
0.0
140
3.0
141
0.09
142
0.0
143
25.4
144
1.0
145
0.0
146
1.0
147
0.75
 71
0.0
 72
0.0
 73
0
 74
0
 75
0
 76
0
 77
1
 78
8
170
0
171
2
172
0
173
0
174
0
175
0
176
0
177
0
178
0
270
2
271
1
272
1
273
2
274
2
275
0
280
0
281
0
282
0
283
1
284
8
285
0
286
0
287
3
288
0
340
11
278
44
341
211
342
211
343
211
344
211
  0
ENDTAB
  0
ENDSEC
  0
SECTION
  2
BLOCKS
  0
BLOCK
  5
20
100
AcDbEntity
  8
0
100
AcDbBlockBegin
  2
*Model_Space
 70
0
 10
0.0
 20
0.0
 30
0.0
  3
*Model_Space
  1

  0
ENDBLK
  5
21
100
AcDbEntity
  8
0
100
AcDbBlockEnd
  0
BLOCK
  5
1C
100
AcDbEntity
  8
0
100
AcDbBlockBegin
  2
*Paper_Space
 70
0
 10
0.0
 20
0.0
 30
0.0
  3
*Paper_Space
  1

  0
ENDBLK
  5
1D
100
AcDbEntity
  8
0
100
AcDbBlockEnd
  0
BLOCK
  5
217
100
AcDbEntity
  8
0
100
AcDbBlockBegin
  2
_FILLED
 70
64
 10
0.0
 20
0.0
  3
_FILLED
  1

  0
SOLID
  5
218
100
AcDbEntity
  8
0
  6
BYBLOCK
 62
0
100
AcDbTrace
 10
0.0
 20
0.0
 11
-1.0
 21
0.3166666667
 12
-1.0
 22
-0.3166666667
 13
-1.0
 23
-0.3166666667
  0
ENDBLK
  5
219
100
AcDbEntity
  8
0
  6
BYBLOCK
 62
0
100
AcDbBlockEnd
  0
BLOCK
  5
21A
100
AcDbEntity
  8
0
100
AcDbBlockBegin
 62
7
  6
CONTINUOUS
  2
*D0
 70
65
 10
0.0
 20
0.0
  3
*D0
  1

  0
MTEXT
  5
21B
100
AcDbEntity
  8
0
100
AcDbMText
 62
7
  6
CONTINUOUS
  7
STANDARD
 71
2
 72
1
 10
-75.7651487892
 20
67.3020081412
 30
0.0
 11
1.0
 21
0.0
 31
0.0
 44
0.9
  1
45,4
 40
3.0
 41
12.8571428571
  0
LINE
  5
21C
100
AcDbEntity
  8
0
100
AcDbLine
 62
7
  6
CONTINUOUS
 10
-53.0866429373
 20
47.2463861454
 11
-53.0866429373
 21
65.0520081412
  0
LINE
  5
21D
100
AcDbEntity
  8
0
100
AcDbLine
 62
7
  6
CONTINUOUS
 10
-98.443654641
 20
6.9887003038
 11
-98.443654641
 21
65.0520081412
  0
LINE
  5
21E
100
AcDbEntity
  8
0
100
AcDbLine
 62
7
  6
CONTINUOUS
 10
-53.0866429373
 20
63.5520081412
 11
-75.7651487892
 21
63.5520081412
  0
LINE
  5
21F
100
AcDbEntity
  8
0
100
AcDbLine
 62
7
  6
CONTINUOUS
 10
-98.443654641
 20
63.5520081412
 11
-75.7651487892
 21
63.5520081412
  0
INSERT
  5
220
100
AcDbEntity
  8
0
100
AcDbBlockReference
 62
7
  6
CONTINUOUS
  2
_FILLED
 10
-53.0866429373
 20
63.5520081412
 41
3.0
 42
3.0
 43
3.0
  0
INSERT
  5
221
100
AcDbEntity
  8
0
100
AcDbBlockReference
 62
7
  6
CONTINUOUS
  2
_FILLED
 10
-98.443654641
 20
63.5520081412
 41
3.0
 42
3.0
 43
3.0
 50
180.0
  0
ENDBLK
  5
222
100
AcDbEntity
  8
0
  6
BYBLOCK
 62
0
100
AcDbBlockEnd
  0
BLOCK
  5
223
100
AcDbEntity
  8
0
100
AcDbBlockBegin
 62
7
  6
CONTINUOUS
  2
*D1
 70
65
 10
0.0
 20
0.0
  3
*D1
  1

  0
MTEXT
  5
224
100
AcDbEntity
  8
0
100
AcDbMText
 62
7
  6
CONTINUOUS
  7
STANDARD
 71
2
 72
1
 10
0.3739406367
 20
67.2436957736
 30
0.0
 11
1.0
 21
0.0
 31
0.0
 44
0.9
  1
60,8
 40
3.0
 41
13.1785714286
  0
LINE
  5
225
100
AcDbEntity
  8
0
100
AcDbLine
 62
7
  6
CONTINUOUS
 10
-30.0335853458
 20
-45.3957987234
 11
-30.0335853458
 21
64.9936957736
  0
LINE
  5
226
100
AcDbEntity
  8
0
100
AcDbLine
 62
7
  6
CONTINUOUS
 10
30.7814666192
 20
-45.3957987234
 11
30.7814666192
 21
64.9936957736
  0
LINE
  5
227
100
AcDbEntity
  8
0
100
AcDbLine
 62
7
  6
CONTINUOUS
 10
-30.0335853458
 20
63.4936957736
 11
0.3739406367
 21
63.4936957736
  0
LINE
  5
228
100
AcDbEntity
  8
0
100
AcDbLine
 62
7
  6
CONTINUOUS
 10
30.7814666192
 20
63.4936957736
 11
0.3739406367
 21
63.4936957736
  0
INSERT
  5
229
100
AcDbEntity
  8
0
100
AcDbBlockReference
 62
7
  6
CONTINUOUS
  2
_FILLED
 10
-30.0335853458
 20
63.4936957736
 41
3.0
 42
3.0
 43
3.0
 50
180.0
  0
INSERT
  5
22A
100
AcDbEntity
  8
0
100
AcDbBlockReference
 62
7
  6
CONTINUOUS
  2
_FILLED
 10
30.7814666192
 20
63.4936957736
 41
3.0
 42
3.0
 43
3.0
  0
ENDBLK
  5
22B
100
AcDbEntity
  8
0
  6
BYBLOCK
 62
0
100
AcDbBlockEnd
  0
BLOCK
  5
22C
100
AcDbEntity
  8
0
100
AcDbBlockBegin
 62
7
  6
CONTINUOUS
  2
*D2
 70
65
 10
0.0
 20
0.0
  3
*D2
  1

  0
MTEXT
  5
22D
100
AcDbEntity
  8
0
100
AcDbMText
 62
7
  6
CONTINUOUS
  7
STANDARD
 71
2
 72
1
 10
34.954231201
 20
-0.02596536
 30
0.0
 11
0.0
 21
1.0
 31
0.0
 44
0.9
  1
111
 40
3.0
 41
7.7142857143
  0
LINE
  5
22E
100
AcDbEntity
  8
0
100
AcDbLine
 62
7
  6
CONTINUOUS
 10
0.8739406367
 20
55.4936957736
 11
40.204231201
 21
55.4936957736
  0
LINE
  5
22F
100
AcDbEntity
  8
0
100
AcDbLine
 62
7
  6
CONTINUOUS
 10
3.4612159618
 20
-55.5456264937
 11
40.204231201
 21
-55.5456264937
  0
LINE
  5
230
100
AcDbEntity
  8
0
100
AcDbLine
 62
7
  6
CONTINUOUS
 10
38.704231201
 20
55.4936957736
 11
38.704231201
 21
-0.02596536
  0
LINE
  5
231
100
AcDbEntity
  8
0
100
AcDbLine
 62
7
  6
CONTINUOUS
 10
38.704231201
 20
-55.5456264937
 11
38.704231201
 21
-0.02596536
  0
INSERT
  5
232
100
AcDbEntity
  8
0
100
AcDbBlockReference
 62
7
  6
CONTINUOUS
  2
_FILLED
 10
38.704231201
 20
55.4936957736
 41
3.0
 42
3.0
 43
3.0
 50
90.0
  0
INSERT
  5
233
100
AcDbEntity
  8
0
100
AcDbBlockReference
 62
7
  6
CONTINUOUS
  2
_FILLED
 10
38.704231201
 20
-55.5456264937
 41
3.0
 42
3.0
 43
3.0
 50
270.0
  0
ENDBLK
  5
234
100
AcDbEntity
  8
0
  6
BYBLOCK
 62
0
100
AcDbBlockEnd
  0
ENDSEC
  0
SECTION
  2
ENTITIES
  0
DIMENSION
  5
235
100
AcDbEntity
  8
0
100
AcDbDimension
 62
7
  6
CONTINUOUS
  2
*D0
 10
-98.443654641
 20
63.5520081412
 11
-76.1937194366
 21
63.5520081412
 70
160
 71
2
 42
45.3570117036
  3
DIMSTYLE_1
100
AcDbAlignedDimension
 13
-53.0866429373
 23
46.7463861454
 14
-98.443654641
 24
6.4887003038
 50
180.0
100
AcDbRotatedDimension
  0
DIMENSION
  5
236
100
AcDbEntity
  8
0
100
AcDbDimension
 62
7
  6
CONTINUOUS
  2
*D1
 10
30.7814666192
 20
63.4936957736
 11
-0.0546308684
 21
63.4936957736
 70
160
 71
2
 42
60.815051965
  3
DIMSTYLE_1
100
AcDbAlignedDimension
 13
-30.0335853458
 23
-45.8957987234
 14
30.7814666192
 24
-45.8957987234
100
AcDbRotatedDimension
  0
DIMENSION
  5
237
100
AcDbEntity
  8
0
100
AcDbDimension
 62
7
  6
CONTINUOUS
  2
*D2
 10
38.704231201
 20
-55.5456264937
 11
38.704231201
 21
-0.4545359449
 70
160
 71
2
 42
111.0393222673
  3
DIMSTYLE_1
100
AcDbAlignedDimension
 13
0.3739406367
 23
55.4936957736
 14
2.9612159618
 24
-55.5456264937
 50
270.0
100
AcDbRotatedDimension
  0
LWPOLYLINE
  5
238
100
AcDbEntity
  8
IMPORT_IGES
100
AcDbPolyline
 62
253
  6
CONTINUOUS
 90
22
 70
0
 10
-19.3758393337
 20
51.942645526
 10
-19.468648972
 20
51.9063790402
 10
-19.5593244162
 20
51.8621570063
 10
-19.6474579164
 20
51.8102833082
 10
-19.732429126
 20
51.7512489193
 10
-19.8141665158
 20
51.6852164658
 10
-19.893084209
 20
51.6118149217
 10
-19.9689431902
 20
51.5313015916
 10
-20.0413760715
 20
51.4441700982
 10
-20.110526534
 20
51.3502277687
 10
-20.1760636335
 20
51.2497502221
 10
-20.2376446098
 20
51.143035413
 10
-20.2953379059
 20
51.0297969785
 10
-20.3489668916
 20
50.9103348675
 10
-20.3982129507
 20
50.7852772012
 10
-20.4429135948
 20
50.6548621556
 10
-20.4827644812
 20
50.5196618293
 10
-20.5175428713
 20
50.3801607487
 10
-20.5472522007
 20
50.2364729534
 10
-20.5718090935
 20
50.0890549962
 10
-20.5910731503
 20
49.9387352784
 10
-20.6049435835
 20
49.7862314229
  0
LWPOLYLINE
  5
239
100
AcDbEntity
  8
IMPORT_IGES
100
AcDbPolyline
 62
7
  6
CONTINUOUS
 90
37
 70
0
 10
23.8168432827
 20
-53.884041394
 10
24.1363748911
 20
-53.8334995623
 10
24.452428346
 20
-53.7704728515
 10
24.7650036476
 20
-53.6949612619
 10
25.0745799761
 20
-53.6067975041
 10
25.3806781513
 20
-53.5061488674
 10
25.6818606322
 20
-53.3935172192
 10
25.9781056845
 20
-53.2688471938
 10
26.2694350426
 20
-53.1321941569
 10
26.5544763685
 20
-52.984226073
 10
26.8332011513
 20
-52.8248915718
 10
27.1056379021
 20
-52.6542420236
 10
27.3704998152
 20
-52.4730995036
 10
27.6277536274
 20
-52.2814145051
 10
27.8774326021
 20
-52.0792365347
 10
28.1183497241
 20
-51.8675361884
 10
28.3504639757
 20
-51.6462693616
 10
28.5738163747
 20
-51.4154801588
 10
28.7873429586
 20
-51.1762714895
 10
28.9909980021
 20
-50.9286041804
 10
29.1848272305
 20
-50.6725174048
 10
29.3679038579
 20
-50.4092315929
 10
29.5401780471
 20
-50.1387128872
 10
29.7016996352
 20
-49.8609951451
 10
29.8516913474
 20
-49.5774003698
 10
29.9900990773
 20
-49.2879034717
 10
30.1169769313
 20
-48.9925295404
 10
30.231709954
 20
-48.6926758473
 10
30.3342430796
 20
-48.3883220171
 10
30.4246313739
 20
-48.0794884252
 10
30.5024250779
 20
-47.7676334693
 10
30.5675676814
 20
-47.4527441341
 10
30.6201156947
 20
-47.1348334349
 10
30.6597888894
 20
-46.8153988159
 10
30.6864938562
 20
-46.4949394252
 10
30.7003240044
 20
-46.1729561146
 10
30.7012793341
 20
-45.8494488842
  0
LWPOLYLINE
  5
23A
100
AcDbEntity
  8
IMPORT_IGES
100
AcDbPolyline
 62
253
  6
CONTINUOUS
 90
79
 70
0
 10
23.1214021051
 20
-53.3150355608
 10
23.3195814479
 20
-53.2966672165
 10
23.5165521089
 20
-53.2741954651
 10
23.7122218818
 20
-53.247600939
 10
23.9068089944
 20
-53.2168159959
 10
24.0999212416
 20
-53.1818663343
 10
24.2905588191
 20
-53.1429409026
 10
24.4784996234
 20
-53.1001340254
 10
24.6638254622
 20
-53.0534813225
 10
24.8460069286
 20
-53.0031870891
 10
25.0247405931
 20
-52.9494364351
 10
25.2002333701
 20
-52.8922742038
 10
25.3727317345
 20
-52.8317132773
 10
25.5422085319
 20
-52.7678479731
 10
25.7086220535
 20
-52.70078286
 10
25.8722012376
 20
-52.6305078821
 10
26.0329387082
 20
-52.5570998159
 10
26.1907992731
 20
-52.4806511514
 10
26.3459706045
 20
-52.4011441683
 10
26.4985513724
 20
-52.3185950258
 10
26.6484133752
 20
-52.2331375575
 10
26.7954034131
 20
-52.1449334097
 10
26.9394249956
 20
-52.0541541958
 10
27.0805284962
 20
-51.9608994613
 10
27.2187733229
 20
-51.8652459036
 10
27.354360178
 20
-51.767160643
 10
27.4870843643
 20
-51.6668524295
 10
27.6164343231
 20
-51.5647577217
 10
27.7425113338
 20
-51.4608815229
 10
27.8653728658
 20
-51.3552813685
 10
27.984423321
 20
-51.2486030239
 10
28.0993155571
 20
-51.1412855996
 10
28.2102998453
 20
-51.0332341471
 10
28.3176066842
 20
-50.9243590326
 10
28.4211037411
 20
-50.8149389524
 10
28.5208625243
 20
-50.7050810577
 10
28.6174009857
 20
-50.5943892303
 10
28.7107392865
 20
-50.4829796409
 10
28.8007573833
 20
-50.3711451813
 10
28.8877473645
 20
-50.2586625973
 10
28.9717352372
 20
-50.1456132551
 10
29.0526632486
 20
-50.0321949053
 10
29.1306890494
 20
-49.9183081516
 10
29.2058641763
 20
-49.8039894936
 10
29.2781507358
 20
-49.6894149622
 10
29.3475722515
 20
-49.5746779588
 10
29.414143911
 20
-49.4598874841
 10
29.4778604245
 20
-49.3451831161
 10
29.5387222324
 20
-49.230702186
 10
29.5966270677
 20
-49.1168054781
 10
29.6517157738
 20
-49.0033894943
 10
29.7043315077
 20
-48.8898613265
 10
29.7543879981
 20
-48.7765156906
 10
29.80199112
 20
-48.6633135634
 10
29.8476842126
 20
-48.5491046174
 10
29.8915173499
 20
-48.4337999621
 10
29.9333568429
 20
-48.3178012758
 10
29.9733775655
 20
-48.2006350789
 10
30.0115599768
 20
-48.0822890101
 10
30.0477849416
 20
-47.963061031
 10
30.0820551868
 20
-47.8429102804
 10
30.1143015815
 20
-47.7220486353
 10
30.1445125827
 20
-47.6004953787
 10
30.1727620651
 20
-47.4778937597
 10
30.1989870691
 20
-47.3543412384
 10
30.2231146901
 20
-47.2299741245
 10
30.2451572187
 20
-47.1044861746
 10
30.2650716653
 20
-46.9779327315
 10
30.2828245394
 20
-46.8504554522
 10
30.2984240021
 20
-46.7218809367
 10
30.3118501679
 20
-46.5922436065
 10
30.3230657076
 20
-46.4617491073
 10
30.3320393177
 20
-46.3305129328
 10
30.3387531371
 20
-46.1986437826
 10
30.3431890148
 20
-46.0663472876
 10
30.3453259223
 20
-45.9339152181
 10
30.3451619845
 20
-45.8015753487
 10
30.3427081342
 20
-45.6694844191
 10
30.337976649
 20
-45.537848319
  0
LINE
  5
23B
100
AcDbEntity
  8
IMPORT_IGES
100
AcDbLine
 62
253
  6
CONTINUOUS
 10
18.6435375684
 20
-53.5484626344
 11
23.1214020965
 21
-53.3150355832
  0
LINE
  5
23C
100
AcDbEntity
  8
IMPORT_IGES
100
AcDbLine
 62
253
  6
CONTINUOUS
 10
16.9938637932
 20
-53.6302416601
 11
18.6435375684
 21
-53.5484626344
  0
LINE
  5
23D
100
AcDbEntity
  8
IMPORT_IGES
100
AcDbLine
 62
253
  6
CONTINUOUS
 10
-16.2827049169
 20
-53.6293224936
 11
-14.5674465184
 21
-53.7094419986
  0
LINE
  5
23E
100
AcDbEntity
  8
IMPORT_IGES
100
AcDbLine
 62
253
  6
CONTINUOUS
 10
-17.927261603
 20
-53.5475066955
 11
-16.2827049169
 21
-53.6293224936
  0
LINE
  5
23F
100
AcDbEntity
  8
IMPORT_IGES
100
AcDbLine
 62
253
  6
CONTINUOUS
 10
-22.3735208232
 20
-53.3150355832
 11
-17.927261603
 21
-53.5475066955
  0
LWPOLYLINE
  5
240
100
AcDbEntity
  8
IMPORT_IGES
100
AcDbPolyline
 62
7
  6
CONTINUOUS
 90
37
 70
0
 10
-23.1293615515
 20
-53.955852851
 10
-23.4489362645
 20
-53.9052226372
 10
-23.7651495078
 20
-53.8420428194
 10
-24.0780012814
 20
-53.7663133978
 10
-24.3879838327
 20
-53.6778678993
 10
-24.6946049142
 20
-53.576872797
 10
-24.9963877844
 20
-53.4638275093
 10
-25.2933091727
 20
-53.3386748808
 10
-25.5853923495
 20
-53.201472067
 10
-25.8712303847
 20
-53.052889953
 10
-26.1507930699
 20
-52.8928746856
 10
-26.4241106134
 20
-52.7214801181
 10
-26.6898667097
 20
-52.5395386949
 10
-26.9480258615
 20
-52.3469996456
 10
-27.1986235662
 20
-52.1439137407
 10
-27.44045001
 20
-51.9312657366
 10
-27.6734628845
 20
-51.709010158
 10
-27.897704498
 20
-51.4771924801
 10
-28.1120919621
 20
-51.236933886
 10
-28.3165781619
 20
-50.9881940201
 10
-28.5112102122
 20
-50.7310132379
 10
-28.695046569
 20
-50.4666337886
 10
-28.8680357969
 20
-50.1950208528
 10
-29.0302293312
 20
-49.9162092499
 10
-29.1808399339
 20
-49.6315456868
 10
-29.3198119839
 20
-49.3410028882
 10
-29.4472011023
 20
-49.0446081294
 10
-29.5623869136
 20
-48.7437899433
 10
-29.6653115641
 20
-48.4385267542
 10
-29.7560329077
 20
-48.1288401378
 10
-29.8341041304
 20
-47.8162233536
 10
-29.8994651815
 20
-47.5006621886
 10
-29.9521761117
 20
-47.1821708559
 10
-29.9919702594
 20
-46.8622852532
 10
-30.0187587374
 20
-46.5415173465
 10
-30.0326304329
 20
-46.2193551699
 10
-30.0335853458
 20
-45.8957987234
  0
LWPOLYLINE
  5
241
100
AcDbEntity
  8
IMPORT_IGES
100
AcDbPolyline
 62
253
  6
CONTINUOUS
 90
22
 70
0
 10
-22.3735208232
 20
-53.3150355832
 10
-22.4798740408
 20
-53.2864732401
 10
-22.5847561343
 20
-53.249743813
 10
-22.6876799798
 20
-53.2051213041
 10
-22.7878991915
 20
-53.1530523661
 10
-22.8853195182
 20
-53.0936958097
 10
-22.9804513199
 20
-53.0267074219
 10
-23.0730036209
 20
-52.9523243317
 10
-23.1625104778
 20
-52.8710159573
 10
-23.2491525721
 20
-52.7826001713
 10
-23.3325317572
 20
-52.6873274876
 10
-23.4122345492
 20
-52.5854696599
 10
-23.4883688459
 20
-52.4767430341
 10
-23.5607050848
 20
-52.3614354905
 10
-23.6288194099
 20
-52.2401545998
 10
-23.6925045522
 20
-52.1131276603
 10
-23.7513585538
 20
-51.9809073364
 10
-23.8050800244
 20
-51.8439642326
 10
-23.8536609351
 20
-51.7024128784
 10
-23.8969591516
 20
-51.556706423
 10
-23.9347280938
 20
-51.407668791
 10
-23.9667775561
 20
-51.2560156243
  0
LINE
  5
242
100
AcDbEntity
  8
IMPORT_IGES
100
AcDbLine
 62
253
  6
CONTINUOUS
 10
24.7146588295
 20
-51.2560156243
 11
23.1839745223
 21
-51.3579475747
  0
LINE
  5
243
100
AcDbEntity
  8
IMPORT_IGES
100
AcDbLine
 62
253
  6
CONTINUOUS
 10
23.1839745223
 20
-51.3579475747
 11
21.5711433571
 21
-51.4622676362
  0
LWPOLYLINE
  5
244
100
AcDbEntity
  8
IMPORT_IGES
100
AcDbPolyline
 62
253
  6
CONTINUOUS
 90
40
 70
0
 10
21.5711433571
 20
-51.4622676362
 10
19.8757337236
 20
-51.5671135335
 10
18.9996983178
 20
-51.6191145495
 10
18.1044911522
 20
-51.6705002707
 10
17.1907378593
 20
-51.7209916765
 10
16.2595611771
 20
-51.7703368821
 10
15.3116036742
 20
-51.8182361353
 10
14.3473960028
 20
-51.8643001486
 10
13.3685759569
 20
-51.9081590863
 10
12.3773728613
 20
-51.9495260928
 10
11.3743200466
 20
-51.9882243433
 10
10.358663579
 20
-52.0240873136
 10
9.331902264
 20
-52.0569382964
 10
8.2970723272
 20
-52.0866263522
 10
7.2546678703
 20
-52.1130142884
 10
6.2030777379
 20
-52.1359377409
 10
5.1436240762
 20
-52.1552802157
 10
4.0790571797
 20
-52.171012626
 10
3.0107863593
 20
-52.1830125545
 10
1.9388952579
 20
-52.1910251996
 10
0.8641246766
 20
-52.1949038607
 10
-0.2101322684
 20
-52.1945875659
 10
-1.2811677617
 20
-52.1900318433
 10
-2.3501583882
 20
-52.1812496392
 10
-3.4170838692
 20
-52.1683888826
 10
-4.4783418974
 20
-52.1517137813
 10
-5.5323639953
 20
-52.1313173581
 10
-6.5804424839
 20
-52.1072287202
 10
-7.6220288165
 20
-52.0796939247
 10
-8.6539676859
 20
-52.048999377
 10
-9.6745575697
 20
-52.0153671692
 10
-10.6845746202
 20
-51.9790100488
 10
-11.6850095718
 20
-51.940039353
 10
-12.6735321127
 20
-51.8986315123
 10
-13.6471206577
 20
-51.8550635017
 10
-14.6048238708
 20
-51.8096535906
 10
-15.546839682
 20
-51.7626270286
 10
-16.4720520739
 20
-51.7142103249
 10
-17.3799449163
 20
-51.6646955959
 10
-18.2704110608
 20
-51.6143295895
  0
LWPOLYLINE
  5
245
100
AcDbEntity
  8
IMPORT_IGES
100
AcDbPolyline
 62
253
  6
CONTINUOUS
 90
33
 70
0
 10
-14.5674465184
 20
-53.7094419986
 10
-13.6841348026
 20
-53.7481999878
 10
-12.7861814651
 20
-53.7856940945
 10
-11.8733111354
 20
-53.8217138463
 10
-10.9457621534
 20
-53.8560025959
 10
-10.0067784807
 20
-53.8882717546
 10
-9.0563198556
 20
-53.9183460901
 10
-8.0943948373
 20
-53.9460226777
 10
-7.1243213777
 20
-53.9710769277
 10
-6.1461448745
 20
-53.993380221
 10
-5.1597931641
 20
-54.012784462
 10
-4.1684084789
 20
-54.0291445135
 10
-3.1719185396
 20
-54.0423848846
 10
-2.1703724117
 20
-54.0524055474
 10
-1.1670946028
 20
-54.0591366116
 10
-0.162120318
 20
-54.0625638273
 10
0.8446071766
 20
-54.0626409966
 10
1.8499012506
 20
-54.0593647899
 10
2.8540278857
 20
-54.0527769306
 10
3.8567425373
 20
-54.0428824454
 10
4.8540926416
 20
-54.0297485741
 10
5.8455695047
 20
-54.0134823368
 10
6.8317046205
 20
-53.9941684303
 10
7.8101061165
 20
-53.9719506945
 10
8.781144823
 20
-53.9469573108
 10
9.7444766813
 20
-53.9193184479
 10
10.6966386573
 20
-53.8892793196
 10
11.6374881128
 20
-53.8570476282
 10
12.5672000918
 20
-53.8227861478
 10
13.4827893466
 20
-53.786776848
 10
14.3844321621
 20
-53.7492520927
 10
15.2719900013
 20
-53.7104260959
 10
16.9938637932
 20
-53.6302416601
  0
LINE
  5
246
100
AcDbEntity
  8
IMPORT_IGES
100
AcDbLine
 62
253
  6
CONTINUOUS
 10
-18.2704110608
 20
-51.6143295895
 11
-19.9971516851
 21
-51.5117755537
  0
LINE
  5
247
100
AcDbEntity
  8
IMPORT_IGES
100
AcDbLine
 62
253
  6
CONTINUOUS
 10
-19.9971516851
 20
-51.5117755537
 11
-21.64733292
 21
-51.4084836411
  0
LWPOLYLINE
  5
248
100
AcDbEntity
  8
IMPORT_IGES
100
AcDbPolyline
 62
253
  6
CONTINUOUS
 90
3
 70
0
 10
-21.64733292
 20
-51.4084836411
 10
-23.2152323739
 20
-51.3061613389
 10
-23.9667775561
 20
-51.2560156243
  0
LWPOLYLINE
  5
249
100
AcDbEntity
  8
IMPORT_IGES
100
AcDbPolyline
 62
253
  6
CONTINUOUS
 90
46
 70
0
 10
-23.9667775561
 20
-51.2560156243
 10
-24.2511132889
 20
-51.2321864488
 10
-24.5241774708
 20
-51.1981495903
 10
-24.7861097913
 20
-51.1547879673
 10
-25.0369943933
 20
-51.1032874159
 10
-25.2772547329
 20
-51.0441596299
 10
-25.5074556132
 20
-50.9773544154
 10
-25.7276085574
 20
-50.9035687302
 10
-25.9380390692
 20
-50.8238596949
 10
-26.1395040119
 20
-50.738558738
 10
-26.331631157
 20
-50.648199309
 10
-26.514575993
 20
-50.5534720661
 10
-26.6898720996
 20
-50.4546469442
 10
-26.8575606901
 20
-50.3521827173
 10
-27.0172807986
 20
-50.2467355045
 10
-27.1700738619
 20
-50.1383556757
 10
-27.3165408462
 20
-50.0271150303
 10
-27.4564423621
 20
-49.9132244453
 10
-27.5893873426
 20
-49.796920538
 10
-27.7150387127
 20
-49.6788198367
 10
-27.8333616414
 20
-49.5594474419
 10
-27.9444364196
 20
-49.4390027455
 10
-28.048123808
 20
-49.3180947849
 10
-28.1445998988
 20
-49.1972365918
 10
-28.2344419529
 20
-49.0764064981
 10
-28.3175095568
 20
-48.9564706649
 10
-28.3942045
 20
-48.8375112327
 10
-28.465746507
 20
-48.7180948108
 10
-28.5321039079
 20
-48.5987504123
 10
-28.5933207797
 20
-48.4795576151
 10
-28.6503716362
 20
-48.3581517395
 10
-28.7030390308
 20
-48.2346310837
 10
-28.7512404034
 20
-48.1099158146
 10
-28.7957949703
 20
-47.9827202303
 10
-28.8364435377
 20
-47.8531400552
 10
-28.8729018737
 20
-47.721925796
 10
-28.9057750271
 20
-47.5884535687
 10
-28.9350781273
 20
-47.4527900574
 10
-28.9603248324
 20
-47.3154228508
 10
-28.9813429607
 20
-47.1761995353
 10
-28.9982829564
 20
-47.0355862874
 10
-29.0110306467
 20
-46.8934956485
 10
-29.0189481905
 20
-46.7491234622
 10
-29.0216639622
 20
-46.6026783345
 10
-29.0192961383
 20
-46.4551314221
 10
-29.0117970875
 20
-46.3071395493
  0
LWPOLYLINE
  5
24A
100
AcDbEntity
  8
0
100
AcDbPolyline
 62
7
  6
CONTINUOUS
 90
25
 70
0
 10
16.3921641453
 20
-46.278832881
 10
16.505040831
 20
-46.2661493801
 10
16.6190183051
 20
-46.2459193554
 10
16.7336078852
 20
-46.217900931
 10
16.8484726224
 20
-46.1817627217
 10
16.9628666455
 20
-46.1374157006
 10
17.0756807399
 20
-46.0851694001
 10
17.1863506348
 20
-46.0250617511
 10
17.2943240692
 20
-45.9571638836
 10
17.3986034713
 20
-45.8821548384
 10
17.498729854
 20
-45.800297178
 10
17.5942042974
 20
-45.7118993518
 10
17.6841559453
 20
-45.6180023625
 10
17.7679909004
 20
-45.5194419721
 10
17.8457499414
 20
-45.4163731694
 10
17.9175826246
 20
-45.3088859345
 10
17.9828827825
 20
-45.1979352978
 10
18.0417629568
 20
-45.083493224
 10
18.0950167685
 20
-44.9639094594
 10
18.1423663515
 20
-44.8384226746
 10
18.1826955067
 20
-44.7084189808
 10
18.2153297919
 20
-44.5754033993
 10
18.2398560575
 20
-44.4402825995
 10
18.2559283123
 20
-44.3033000764
 10
18.2632000734
 20
-44.1650900167
  0
LWPOLYLINE
  5
24B
100
AcDbEntity
  8
IMPORT_IGES
100
AcDbPolyline
 62
253
  6
CONTINUOUS
 90
31
 70
0
 10
16.9966169963
 20
-47.4061985304
 10
17.1388012253
 20
-47.3957405779
 10
17.2797567057
 20
-47.3771407506
 10
17.4189721568
 20
-47.3508196738
 10
17.5558502562
 20
-47.3172849924
 10
17.6900891607
 20
-47.2768475497
 10
17.8216372254
 20
-47.2295587926
 10
17.9500368797
 20
-47.1756712752
 10
18.0749469284
 20
-47.1155808959
 10
18.1964783159
 20
-47.0494144384
 10
18.3143808463
 20
-46.9772920087
 10
18.4282121335
 20
-46.8995524363
 10
18.5378532894
 20
-46.8165384656
 10
18.6430416811
 20
-46.7284371781
 10
18.7434617013
 20
-46.6354542127
 10
18.8389860259
 20
-46.5378948092
 10
18.9295119709
 20
-46.4362815613
 10
19.0147474664
 20
-46.3308941616
 10
19.0944387023
 20
-46.2217821183
 10
19.1684721378
 20
-46.109384203
 10
19.2368288278
 20
-45.9941698663
 10
19.2993450477
 20
-45.8762794425
 10
19.3558330595
 20
-45.7561549363
 10
19.4062453411
 20
-45.6342603738
 10
19.4505564181
 20
-45.5107702515
 10
19.488518953
 20
-45.3860229078
 10
19.52010476
 20
-45.2605457205
 10
19.5456010973
 20
-45.1347080335
 10
19.565032529
 20
-45.0088280723
 10
19.5781480211
 20
-44.8832566965
 10
19.5848313602
 20
-44.7583329382
  0
LWPOLYLINE
  5
24C
100
AcDbEntity
  8
IMPORT_IGES
100
AcDbPolyline
 62
253
  6
CONTINUOUS
 90
34
 70
0
 10
16.7297458749
 20
-46.6164146105
 10
15.8024234785
 20
-46.6566015805
 10
14.863922492
 20
-46.6943692222
 10
13.9142429153
 20
-46.7297175356
 10
12.9525503598
 20
-46.7626708369
 10
11.9796792141
 20
-46.7932048099
 10
10.9981326438
 20
-46.8212465062
 10
10.0078984084
 20
-46.8467896183
 10
9.0089887484
 20
-46.8698404538
 10
8.0039435516
 20
-46.890344986
 10
6.9927421862
 20
-46.9082959041
 10
5.975405284
 20
-46.9237005191
 10
4.954534628
 20
-46.936526737
 10
3.930121204
 20
-46.946768083
 10
2.9021740262
 20
-46.954431032
 10
1.873321921
 20
-46.9595029147
 10
0.8435903663
 20
-46.961976956
 10
-0.1870461159
 20
-46.961859931
 10
-1.2160351334
 20
-46.959159496
 10
-2.2433947562
 20
-46.9538688004
 10
-3.2691069143
 20
-46.9459946948
 10
-4.2905650059
 20
-46.9355653874
 10
-5.3077407995
 20
-46.9225743387
 10
-6.3206625267
 20
-46.9070280882
 10
-7.3268082801
 20
-46.8889744626
 10
-8.3261579254
 20
-46.8684070156
 10
-9.3187315969
 20
-46.8453321934
 10
-10.3020677905
 20
-46.8198171617
 10
-11.2761362828
 20
-46.7918557715
 10
-12.2409672972
 20
-46.7614541717
 10
-13.1941899993
 20
-46.7286979741
 10
-14.135014111
 20
-46.6936157161
 10
-15.0642299104
 20
-46.6561788602
 10
-15.9818373976
 20
-46.6163874066
  0
LINE
  5
24D
100
AcDbEntity
  8
IMPORT_IGES
100
AcDbLine
 62
253
  6
CONTINUOUS
 10
15.5952483205
 20
-47.4682457919
 11
16.9966232324
 21
-47.406146213
  0
LINE
  5
24E
100
AcDbEntity
  8
IMPORT_IGES
100
AcDbLine
 62
253
  6
CONTINUOUS
 10
14.16198196
 20
-47.5248543622
 11
15.5952483205
 21
-47.4682457919
  0
LINE
  5
24F
100
AcDbEntity
  8
IMPORT_IGES
100
AcDbLine
 62
253
  6
CONTINUOUS
 10
12.7055556336
 20
-47.5755422532
 11
14.16198196
 21
-47.5248543622
  0
LINE
  5
250
100
AcDbEntity
  8
IMPORT_IGES
100
AcDbLine
 62
253
  6
CONTINUOUS
 10
11.2266994144
 20
-47.6203058511
 11
12.7055556336
 21
-47.5755422532
  0
LINE
  5
251
100
AcDbEntity
  8
IMPORT_IGES
100
AcDbLine
 62
253
  6
CONTINUOUS
 10
9.7211737106
 20
-47.6593118719
 11
11.2266994144
 21
-47.6203058511
  0
LINE
  5
252
100
AcDbEntity
  8
IMPORT_IGES
100
AcDbLine
 62
253
  6
CONTINUOUS
 10
8.1915222577
 20
-47.6925249069
 11
9.7211737106
 21
-47.6593118719
  0
LINE
  5
253
100
AcDbEntity
  8
IMPORT_IGES
100
AcDbLine
 62
253
  6
CONTINUOUS
 10
6.6445012976
 20
-47.7197235542
 11
8.1915222577
 21
-47.6925249069
  0
LINE
  5
254
100
AcDbEntity
  8
IMPORT_IGES
100
AcDbLine
 62
253
  6
CONTINUOUS
 10
5.0848936574
 20
-47.7409949276
 11
6.6445012976
 21
-47.7197235542
  0
LINE
  5
255
100
AcDbEntity
  8
IMPORT_IGES
100
AcDbLine
 62
253
  6
CONTINUOUS
 10
3.5150543967
 20
-47.756404245
 11
5.0848936574
 21
-47.7409949276
  0
LINE
  5
256
100
AcDbEntity
  8
IMPORT_IGES
100
AcDbLine
 62
253
  6
CONTINUOUS
 10
1.9407643768
 20
-47.7658424006
 11
3.5150543967
 21
-47.756404245
  0
LINE
  5
257
100
AcDbEntity
  8
IMPORT_IGES
100
AcDbLine
 62
253
  6
CONTINUOUS
 10
0.3761095928
 20
-47.7690580966
 11
1.9407643768
 21
-47.7658424006
  0
LINE
  5
258
100
AcDbEntity
  8
IMPORT_IGES
100
AcDbLine
 62
253
  6
CONTINUOUS
 10
-1.1829396902
 20
-47.7658441093
 11
0.3761095928
 21
-47.7690580966
  0
LINE
  5
259
100
AcDbEntity
  8
IMPORT_IGES
100
AcDbLine
 62
253
  6
CONTINUOUS
 10
-2.7478717787
 20
-47.7562767468
 11
-1.1829396902
 21
-47.7658441093
  0
LINE
  5
25A
100
AcDbEntity
  8
IMPORT_IGES
100
AcDbLine
 62
253
  6
CONTINUOUS
 10
-4.3136844866
 20
-47.740503921
 11
-2.7478717787
 21
-47.7562767468
  0
LINE
  5
25B
100
AcDbEntity
  8
IMPORT_IGES
100
AcDbLine
 62
253
  6
CONTINUOUS
 10
-5.8731145559
 20
-47.7187292419
 11
-4.3136844866
 21
-47.740503921
  0
LINE
  5
25C
100
AcDbEntity
  8
IMPORT_IGES
100
AcDbLine
 62
253
  6
CONTINUOUS
 10
-7.4201730057
 20
-47.6911243704
 11
-5.8731145559
 21
-47.7187292419
  0
LINE
  5
25D
100
AcDbEntity
  8
IMPORT_IGES
100
AcDbLine
 62
253
  6
CONTINUOUS
 10
-8.9521473865
 20
-47.6577670025
 11
-7.4201730057
 21
-47.6911243704
  0
LINE
  5
25E
100
AcDbEntity
  8
IMPORT_IGES
100
AcDbLine
 62
253
  6
CONTINUOUS
 10
-10.4678393719
 20
-47.6186462065
 11
-8.9521473865
 21
-47.6577670025
  0
LINE
  5
25F
100
AcDbEntity
  8
IMPORT_IGES
100
AcDbLine
 62
253
  6
CONTINUOUS
 10
-11.9605721976
 20
-47.5738617849
 11
-10.4678393719
 21
-47.6186462065
  0
LINE
  5
260
100
AcDbEntity
  8
IMPORT_IGES
100
AcDbLine
 62
253
  6
CONTINUOUS
 10
-13.4258338431
 20
-47.5234499383
 11
-11.9605721976
 21
-47.5738617849
  0
LINE
  5
261
100
AcDbEntity
  8
IMPORT_IGES
100
AcDbLine
 62
253
  6
CONTINUOUS
 10
-14.857788073
 20
-47.4674297768
 11
-13.4258338431
 21
-47.5234499383
  0
LINE
  5
262
100
AcDbEntity
  8
IMPORT_IGES
100
AcDbLine
 62
253
  6
CONTINUOUS
 10
-16.2487333853
 20
-47.4062181037
 11
-14.857788073
 21
-47.4674297768
  0
LWPOLYLINE
  5
263
100
AcDbEntity
  8
IMPORT_IGES
100
AcDbPolyline
 62
253
  6
CONTINUOUS
 90
31
 70
0
 10
-15.981844001
 20
-46.61639401
 10
-16.0911060379
 20
-46.6069455148
 10
-16.1990183107
 20
-46.5912960179
 10
-16.305232591
 20
-46.5696848021
 10
-16.4093373845
 20
-46.5423800814
 10
-16.5111256264
 20
-46.5096449599
 10
-16.6105830221
 20
-46.4716903211
 10
-16.7074099751
 20
-46.4287832217
 10
-16.8014069173
 20
-46.3811680927
 10
-16.8927058768
 20
-46.3289394399
 10
-16.9811638448
 20
-46.2722598983
 10
-17.0664783421
 20
-46.2114061358
 10
-17.1485345552
 20
-46.1465909856
 10
-17.2271544382
 20
-46.0780473863
 10
-17.3021555174
 20
-46.006017354
 10
-17.3734275615
 20
-45.9307213463
 10
-17.440823525
 20
-45.8524046592
 10
-17.5042110146
 20
-45.771318256
 10
-17.5635129787
 20
-45.6876869329
 10
-17.6186337055
 20
-45.6017536395
 10
-17.669464813
 20
-45.5137814267
 10
-17.7159258121
 20
-45.4240239872
 10
-17.7579694436
 20
-45.332706667
 10
-17.7955220266
 20
-45.240116813
 10
-17.8285001371
 20
-45.146607259
 10
-17.8568869585
 20
-45.052481977
 10
-17.8807010385
 20
-44.9579536445
 10
-17.8999456601
 20
-44.8632381391
 10
-17.9146442514
 20
-44.7685695466
 10
-17.9248426939
 20
-44.6742002097
 10
-17.930593625
 20
-44.5803648417
  0
LWPOLYLINE
  5
264
100
AcDbEntity
  8
IMPORT_IGES
100
AcDbPolyline
 62
253
  6
CONTINUOUS
 90
10
 70
0
 10
-18.8370670459
 20
-44.7583129697
 10
-18.8055351361
 20
-44.7632791942
 10
-18.7729104261
 20
-44.7675914752
 10
-18.7394091951
 20
-44.7712186854
 10
-18.7054281992
 20
-44.7741281994
 10
-18.6710596731
 20
-44.7763295943
 10
-18.6360186501
 20
-44.7778437047
 10
-18.6003212392
 20
-44.7786564059
 10
-18.5643473227
 20
-44.7787503622
 10
-18.5283104438
 20
-44.778126574
  0
LWPOLYLINE
  5
265
100
AcDbEntity
  8
IMPORT_IGES
100
AcDbPolyline
 62
253
  6
CONTINUOUS
 90
19
 70
0
 10
-18.5283104438
 20
-44.778126574
 10
-18.479772049
 20
-44.7761563945
 10
-18.4313396203
 20
-44.7728844584
 10
-18.3835059734
 20
-44.7683335676
 10
-18.3370076041
 20
-44.7625881695
 10
-18.2920328088
 20
-44.7557004387
 10
-18.2482730469
 20
-44.7476210885
 10
-18.2061220038
 20
-44.738395826
 10
-18.1660774833
 20
-44.7281201167
 10
-18.1280971195
 20
-44.7167598477
 10
-18.0926318852
 20
-44.7044127247
 10
-18.0600838389
 20
-44.6911992979
 10
-18.0304833578
 20
-44.6770990023
 10
-18.0043022807
 20
-44.6622992962
 10
-17.9817750413
 20
-44.6469250603
 10
-17.9628328642
 20
-44.6308648455
 10
-17.947778955
 20
-44.6142227056
 10
-17.9369936999
 20
-44.5973149289
 10
-17.9305940948
 20
-44.5803667307
  0
LWPOLYLINE
  5
266
100
AcDbEntity
  8
IMPORT_IGES
100
AcDbPolyline
 62
253
  6
CONTINUOUS
 90
10
 70
0
 10
19.2761917172
 20
-44.778126574
 10
19.3116073621
 20
-44.7787456731
 10
19.3472196086
 20
-44.7786685727
 10
19.382804617
 20
-44.7778794717
 10
19.418064267
 20
-44.7763763361
 10
19.4528509724
 20
-44.7741623827
 10
19.4871447533
 20
-44.7712327792
 10
19.5207731954
 20
-44.7675936967
 10
19.5534451883
 20
-44.7632750309
 10
19.5849561726
 20
-44.7583116284
  0
LWPOLYLINE
  5
267
100
AcDbEntity
  8
IMPORT_IGES
100
AcDbPolyline
 62
253
  6
CONTINUOUS
 90
13
 70
0
 10
-27.5051351999
 20
42.6935924954
 10
-27.4900050996
 20
42.7423674853
 10
-27.4686397108
 20
42.7910047149
 10
-27.4410876616
 20
42.8393494353
 10
-27.4074815565
 20
42.8871678121
 10
-27.3679263474
 20
42.9343949563
 10
-27.3223335046
 20
42.9811271447
 10
-27.2707459875
 20
43.0272509946
 10
-27.2133641288
 20
43.0725830054
 10
-27.1501981632
 20
43.1170974345
 10
-27.081344561
 20
43.1606826329
 10
-27.0070838391
 20
43.2031634095
 10
-26.9276662915
 20
43.2444065402
  0
LWPOLYLINE
  5
268
100
AcDbEntity
  8
IMPORT_IGES
100
AcDbPolyline
 62
253
  6
CONTINUOUS
 90
13
 70
0
 10
-29.5900996518
 20
-45.5378189041
 10
-29.5768618746
 20
-45.6046281955
 10
-29.5567002774
 20
-45.6714838997
 10
-29.5298604222
 20
-45.7381678304
 10
-29.4966512152
 20
-45.8043444206
 10
-29.4572653779
 20
-45.8699300359
 10
-29.4116634348
 20
-45.9350850098
 10
-29.3599242503
 20
-45.999657508
 10
-29.3022175395
 20
-46.0633745213
 10
-29.2384884704
 20
-46.1261957541
 10
-29.1687561597
 20
-46.1879486792
 10
-29.0931684113
 20
-46.2483384192
 10
-29.0118199439
 20
-46.3071238312
  0
LWPOLYLINE
  5
269
100
AcDbEntity
  8
IMPORT_IGES
100
AcDbPolyline
 62
7
  6
CONTINUOUS
 90
37
 70
0
 10
-29.9533980607
 20
-45.8494488842
 10
-29.9524425759
 20
-46.1729607353
 10
-29.9386119778
 20
-46.4949483823
 10
-29.9119062665
 20
-46.8154118254
 10
-29.8722319999
 20
-47.1348502281
 10
-29.8196826201
 20
-47.4527644268
 10
-29.7545384534
 20
-47.7676569303
 10
-29.6767429871
 20
-48.0795147151
 10
-29.5863527338
 20
-48.3883508046
 10
-29.4838175578
 20
-48.6927067774
 10
-29.3690823924
 20
-48.9925622501
 10
-29.2422023043
 20
-49.2879376061
 10
-29.1037923567
 20
-49.5774355752
 10
-28.9537984442
 20
-49.8610310592
 10
-28.7922746723
 20
-50.1387491563
 10
-28.6199984209
 20
-50.4092678901
 10
-28.4369198555
 20
-50.6725533947
 10
-28.2430888106
 20
-50.928639536
 10
-28.0394321696
 20
-51.1763059349
 10
-27.8259042114
 20
-51.4155134104
 10
-27.602550657
 20
-51.6463011436
 10
-27.3704355531
 20
-51.8675662988
 10
-27.1295178879
 20
-52.0792647648
 10
-26.8798386731
 20
-52.2814406528
 10
-26.6225849906
 20
-52.4731234608
 10
-26.3577235842
 20
-52.6542636765
 10
-26.0852877101
 20
-52.8249108123
 10
-25.8065642184
 20
-52.9842429029
 10
-25.5215246063
 20
-53.1322085743
 10
-25.2301973766
 20
-53.2688592005
 10
-24.9339548871
 20
-53.393526939
 10
-24.6327754125
 20
-53.5061564217
 10
-24.3266806781
 20
-53.6068030165
 10
-24.0171082172
 20
-53.6949649851
 10
-23.7045372077
 20
-53.7704750811
 10
-23.3884884718
 20
-53.8335005507
 10
-23.0689620094
 20
-53.884041394
  0
LINE
  5
26A
100
AcDbEntity
  8
IMPORT_IGES
100
AcDbLine
 62
7
  6
CONTINUOUS
 10
-30.0335853458
 20
-45.8957987234
 11
-28.4740434577
 21
43.4502962058
  0
LINE
  5
26B
100
AcDbEntity
  8
IMPORT_IGES
100
AcDbLine
 62
7
  6
CONTINUOUS
 10
-28.3953306663
 20
43.412172364
 11
-29.9533980607
 21
-45.8494488842
  0
LWPOLYLINE
  5
26C
100
AcDbEntity
  8
IMPORT_IGES
100
AcDbPolyline
 62
7
  6
CONTINUOUS
 90
34
 70
0
 10
-28.4740434577
 20
43.4502962058
 10
-28.4589535327
 20
43.8507088544
 10
-28.4280758066
 20
44.2488815617
 10
-28.3814102796
 20
44.6448143277
 10
-28.3188285957
 20
45.0391260959
 10
-28.2404591107
 20
45.4311979228
 10
-28.1466868923
 20
45.8191729784
 10
-28.0374400714
 20
46.2030318585
 10
-27.9127905171
 20
46.5827939674
 10
-27.7733389036
 20
46.9566606881
 10
-27.6190160259
 20
47.3246042153
 10
-27.4498910891
 20
47.6866523542
 10
-27.2667723834
 20
48.0410899038
 10
-27.0695945404
 20
48.3878808965
 10
-26.8584229285
 20
48.7270612999
 10
-26.6342619423
 20
49.0570238158
 10
-26.397050644
 20
49.3777253529
 10
-26.1468499714
 20
49.6892090025
 10
-25.8848471326
 20
49.9899967405
 10
-25.6109869072
 20
50.2800383572
 10
-25.3253245155
 20
50.5593840623
 10
-25.0292128264
 20
50.8267064607
 10
-24.7226026198
 20
51.08194948
 10
-24.4055431156
 20
51.3251691926
 10
-24.0795348425
 20
51.5552064208
 10
-23.7445357231
 20
51.7719995848
 10
-23.4005878347
 20
51.9756102643
 10
-23.0493179379
 20
52.1650640211
 10
-22.6906915841
 20
52.340294862
 10
-22.3247432218
 20
52.5013687801
 10
-21.9532029576
 20
52.647509316
 10
-21.5766474938
 20
52.7784576498
 10
-21.1945001281
 20
52.8944726014
 10
-20.8067608606
 20
52.9955541707
  0
LINE
  5
26D
100
AcDbEntity
  8
IMPORT_IGES
100
AcDbLine
 62
253
  6
CONTINUOUS
 10
20.1236546237
 20
51.9426681825
 11
21.4960558236
 21
52.9279539395
  0
LWPOLYLINE
  5
26E
100
AcDbEntity
  8
IMPORT_IGES
100
AcDbPolyline
 62
253
  6
CONTINUOUS
 90
46
 70
0
 10
-26.927642096
 20
43.2444074297
 10
-26.8827612415
 20
41.4399141383
 10
-26.8405842123
 20
39.6110127117
 10
-26.8020025959
 20
37.7577473748
 10
-26.7685108042
 20
35.8787567524
 10
-26.7402441964
 20
33.9754835202
 10
-26.7159211476
 20
32.052171853
 10
-26.6961019246
 20
30.1085240616
 10
-26.6814256466
 20
28.1448964421
 10
-26.6705915526
 20
26.166505135
 10
-26.6638907436
 20
24.1752319849
 10
-26.6619513448
 20
22.1692304581
 10
-26.6638500333
 20
20.1481186968
 10
-26.6696634266
 20
18.1093321757
 10
-26.6798679521
 20
16.0554607344
 10
-26.6940973683
 20
13.99384764
 10
-26.7125813279
 20
11.925903221
 10
-26.7355818031
 20
9.8502214551
 10
-26.7628088803
 20
7.7699127192
 10
-26.7944251178
 20
5.6847314935
 10
-26.8305705027
 20
3.5949185655
 10
-26.8709189376
 20
1.5043086971
 10
-26.9155578194
 20
-0.5871059181
 10
-26.9645471478
 20
-2.6793290452
 10
-27.0175298746
 20
-4.7685244903
 10
-27.0743451245
 20
-6.8537785084
 10
-27.1351596996
 20
-8.93601958
 10
-27.2000973242
 20
-11.0141770898
 10
-27.2690955762
 20
-13.0898167584
 10
-27.342010997
 20
-15.1613826282
 10
-27.4188499997
 20
-17.2231244949
 10
-27.4993942147
 20
-19.2743576448
 10
-27.5835502173
 20
-21.3157758121
 10
-27.6715325203
 20
-23.3437002987
 10
-27.7629320763
 20
-25.3585151431
 10
-27.8576681148
 20
-27.3598369433
 10
-27.9564352932
 20
-29.3428385162
 10
-28.0587617663
 20
-31.306292841
 10
-28.1644380921
 20
-33.2514194166
 10
-28.2744650643
 20
-35.1770609957
 10
-28.3881986162
 20
-37.0832494409
 10
-28.5052293482
 20
-38.9699283597
 10
-28.6267138438
 20
-40.8358046895
 10
-28.7524842631
 20
-42.6804337249
 10
-28.8811334317
 20
-44.5042193855
 10
-29.0117863993
 20
-46.3071384863
  0
LINE
  5
26F
100
AcDbEntity
  8
IMPORT_IGES
100
AcDbLine
 62
253
  6
CONTINUOUS
 10
-27.4771457824
 20
40.807195659
 11
-27.5051351999
 21
42.6935924954
  0
LINE
  5
270
100
AcDbEntity
  8
IMPORT_IGES
100
AcDbLine
 62
253
  6
CONTINUOUS
 10
-27.4528233319
 20
38.8886003425
 11
-27.4771457824
 21
40.807195659
  0
LINE
  5
271
100
AcDbEntity
  8
IMPORT_IGES
100
AcDbLine
 62
253
  6
CONTINUOUS
 10
-27.4321846481
 20
36.9382322283
 11
-27.4528233319
 21
38.8886003425
  0
LWPOLYLINE
  5
272
100
AcDbEntity
  8
IMPORT_IGES
100
AcDbPolyline
 62
253
  6
CONTINUOUS
 90
43
 70
0
 10
-26.9276662915
 20
43.2444065402
 10
-26.9292910207
 20
43.4158834899
 10
-26.9255876653
 20
43.5881694248
 10
-26.916617782
 20
43.7609157901
 10
-26.9024114959
 20
43.9334044688
 10
-26.8830875763
 20
44.1056695937
 10
-26.8587228126
 20
44.2785607819
 10
-26.8293048306
 20
44.4518374582
 10
-26.7947290066
 20
44.6252091357
 10
-26.7547169513
 20
44.7995017735
 10
-26.7091406323
 20
44.9744856522
 10
-26.6578217064
 20
45.1497852992
 10
-26.6002235586
 20
45.3259422483
 10
-26.5361000437
 20
45.5025373876
 10
-26.4650480524
 20
45.6793378209
 10
-26.3864269099
 20
45.8566699414
 10
-26.3005301736
 20
46.0332460367
 10
-26.2077751
 20
46.2083568613
 10
-26.1076401836
 20
46.3827826023
 10
-25.9997931786
 20
46.5563028008
 10
-25.884224668
 20
46.7284740963
 10
-25.7603445075
 20
46.8999150314
 10
-25.6282636475
 20
47.0700940398
 10
-25.4878122884
 20
47.2386456113
 10
-25.3378871666
 20
47.4061941273
 10
-25.1783690778
 20
47.5720997066
 10
-25.0094537983
 20
47.7357970799
 10
-24.8304286423
 20
47.8978645014
 10
-24.641302232
 20
48.0580051375
 10
-24.4417856804
 20
48.2157059873
 10
-24.2306635049
 20
48.3711175022
 10
-24.0076109466
 20
48.5236000718
 10
-23.7724457912
 20
48.6722778855
 10
-23.5241483167
 20
48.8166782471
 10
-23.2628330844
 20
48.9557612672
 10
-22.9880232974
 20
49.0888190592
 10
-22.6977239634
 20
49.2155873158
 10
-22.391862295
 20
49.3348203559
 10
-22.0703246716
 20
49.4455130431
 10
-21.7309928183
 20
49.5472932447
 10
-21.3731775125
 20
49.6390333453
 10
-20.9977342221
 20
49.7191209831
 10
-20.6049427951
 20
49.7862422742
  0
LINE
  5
273
100
AcDbEntity
  8
IMPORT_IGES
100
AcDbLine
 62
253
  6
CONTINUOUS
 10
-27.4152862299
 20
34.957493429
 11
-27.4321846481
 21
36.9382322283
  0
LINE
  5
274
100
AcDbEntity
  8
IMPORT_IGES
100
AcDbLine
 62
253
  6
CONTINUOUS
 10
-27.4021760488
 20
32.9477236237
 11
-27.4152862299
 21
34.957493429
  0
LINE
  5
275
100
AcDbEntity
  8
IMPORT_IGES
100
AcDbLine
 62
253
  6
CONTINUOUS
 10
-27.3928852518
 20
30.9099144349
 11
-27.4021760488
 21
32.9477236237
  0
LINE
  5
276
100
AcDbEntity
  8
IMPORT_IGES
100
AcDbLine
 62
253
  6
CONTINUOUS
 10
-27.3874604147
 20
28.8455283052
 11
-27.3928852518
 21
30.9099144349
  0
LINE
  5
277
100
AcDbEntity
  8
IMPORT_IGES
100
AcDbLine
 62
253
  6
CONTINUOUS
 10
-27.3859394719
 20
26.757165346
 11
-27.3874604147
 21
28.8455283052
  0
LINE
  5
278
100
AcDbEntity
  8
IMPORT_IGES
100
AcDbLine
 62
253
  6
CONTINUOUS
 10
-27.3883433566
 20
24.6466696053
 11
-27.3859394719
 21
26.757165346
  0
LINE
  5
279
100
AcDbEntity
  8
IMPORT_IGES
100
AcDbLine
 62
253
  6
CONTINUOUS
 10
-27.394700052
 20
22.5169070692
 11
-27.3883433566
 21
24.6466696053
  0
LINE
  5
27A
100
AcDbEntity
  8
IMPORT_IGES
100
AcDbLine
 62
253
  6
CONTINUOUS
 10
-27.4050089211
 20
20.3724084242
 11
-27.394700052
 21
22.5169070692
  0
LINE
  5
27B
100
AcDbEntity
  8
IMPORT_IGES
100
AcDbLine
 62
253
  6
CONTINUOUS
 10
-27.4192704552
 20
18.2157750882
 11
-27.4050089211
 21
20.3724084242
  0
LINE
  5
27C
100
AcDbEntity
  8
IMPORT_IGES
100
AcDbLine
 62
253
  6
CONTINUOUS
 10
-27.4374832528
 20
16.050861239
 11
-27.4192704552
 21
18.2157750882
  0
LINE
  5
27D
100
AcDbEntity
  8
IMPORT_IGES
100
AcDbLine
 62
253
  6
CONTINUOUS
 10
-27.4596398717
 20
13.879533439
 11
-27.4374832528
 21
16.050861239
  0
LINE
  5
27E
100
AcDbEntity
  8
IMPORT_IGES
100
AcDbLine
 62
253
  6
CONTINUOUS
 10
-27.4857316482
 20
11.7030436771
 11
-27.4596398717
 21
13.879533439
  0
LINE
  5
27F
100
AcDbEntity
  8
IMPORT_IGES
100
AcDbLine
 62
253
  6
CONTINUOUS
 10
-27.5157363355
 20
9.5232177807
 11
-27.4857316482
 21
11.7030436771
  0
LINE
  5
280
100
AcDbEntity
  8
IMPORT_IGES
100
AcDbLine
 62
253
  6
CONTINUOUS
 10
-27.5496478627
 20
7.3402807628
 11
-27.5157363355
 21
9.5232177807
  0
LINE
  5
281
100
AcDbEntity
  8
IMPORT_IGES
100
AcDbLine
 62
253
  6
CONTINUOUS
 10
-27.5874649665
 20
5.1544052756
 11
-27.5496478627
 21
7.3402807628
  0
LINE
  5
282
100
AcDbEntity
  8
IMPORT_IGES
100
AcDbLine
 62
253
  6
CONTINUOUS
 10
-27.6291941671
 20
2.9655840813
 11
-27.5874649665
 21
5.1544052756
  0
LINE
  5
283
100
AcDbEntity
  8
IMPORT_IGES
100
AcDbLine
 62
253
  6
CONTINUOUS
 10
-27.6748307063
 20
0.7740665847
 11
-27.6291941671
 21
2.9655840813
  0
LINE
  5
284
100
AcDbEntity
  8
IMPORT_IGES
100
AcDbLine
 62
253
  6
CONTINUOUS
 10
-27.7243677065
 20
-1.4198721902
 11
-27.6748307063
 21
0.7740665847
  0
LINE
  5
285
100
AcDbEntity
  8
IMPORT_IGES
100
AcDbLine
 62
253
  6
CONTINUOUS
 10
-27.77779104
 20
-3.6159039143
 11
-27.7243677065
 21
-1.4198721902
  0
LINE
  5
286
100
AcDbEntity
  8
IMPORT_IGES
100
AcDbLine
 62
253
  6
CONTINUOUS
 10
-27.8350662194
 20
-5.8119011392
 11
-27.77779104
 21
-3.6159039143
  0
LWPOLYLINE
  5
287
100
AcDbEntity
  8
IMPORT_IGES
100
AcDbPolyline
 62
253
  6
CONTINUOUS
 90
40
 70
0
 10
-29.5900953774
 20
-45.5378483187
 10
-29.5972787197
 20
-45.8034023332
 10
-29.5952743439
 20
-46.0686036247
 10
-29.584152015
 20
-46.3320290996
 10
-29.5641567674
 20
-46.5913030947
 10
-29.5355262715
 20
-46.8463739907
 10
-29.4980588638
 20
-47.099745709
 10
-29.4518230019
 20
-47.3505877498
 10
-29.3971492189
 20
-47.5981037589
 10
-29.3335060241
 20
-47.8450542653
 10
-29.2610391672
 20
-48.0903798932
 10
-29.1800714762
 20
-48.332833225
 10
-29.0897293556
 20
-48.574568213
 10
-28.9901665534
 20
-48.8141075049
 10
-28.8816861574
 20
-49.0498424115
 10
-28.7631029968
 20
-49.2839863127
 10
-28.634474958
 20
-49.516014499
 10
-28.4960763967
 20
-49.7450900367
 10
-28.34654033
 20
-49.9728484797
 10
-28.1859565824
 20
-50.1982610143
 10
-28.0142266916
 20
-50.4206675935
 10
-27.8293211871
 20
-50.641708019
 10
-27.6310170391
 20
-50.8604860957
 10
-27.4198099127
 20
-51.0754663898
 10
-27.1946909043
 20
-51.2867193716
 10
-26.9553567698
 20
-51.4934867059
 10
-26.7026410455
 20
-51.6939528506
 10
-26.4370938871
 20
-51.8868048334
 10
-26.1589129441
 20
-52.0712338582
 10
-25.8681747409
 20
-52.2463860529
 10
-25.565377087
 20
-52.4111854213
 10
-25.250412349
 20
-52.5650959513
 10
-24.9239613067
 20
-52.7073764757
 10
-24.5875953095
 20
-52.8371533741
 10
-24.2408847678
 20
-52.954006211
 10
-23.8838971611
 20
-53.0570334662
 10
-23.5186788754
 20
-53.1450653583
 10
-23.1456944492
 20
-53.217615328
 10
-22.7640015344
 20
-53.2744223791
 10
-22.3735208232
 20
-53.3150355832
  0
LINE
  5
288
100
AcDbEntity
  8
IMPORT_IGES
100
AcDbLine
 62
253
  6
CONTINUOUS
 10
-27.8961686714
 20
-8.0065487921
 11
-27.8350662194
 21
-5.8119011392
  0
LINE
  5
289
100
AcDbEntity
  8
IMPORT_IGES
100
AcDbLine
 62
253
  6
CONTINUOUS
 10
-27.9610526108
 20
-10.1975372811
 11
-27.8961686714
 21
-8.0065487921
  0
LINE
  5
28A
100
AcDbEntity
  8
IMPORT_IGES
100
AcDbLine
 62
253
  6
CONTINUOUS
 10
-28.0296894338
 20
-12.3838368578
 11
-27.9610526108
 21
-10.1975372811
  0
LINE
  5
28B
100
AcDbEntity
  8
IMPORT_IGES
100
AcDbLine
 62
253
  6
CONTINUOUS
 10
-28.1020716825
 20
-14.5649215027
 11
-28.0296894338
 21
-12.3838368578
  0
LINE
  5
28C
100
AcDbEntity
  8
IMPORT_IGES
100
AcDbLine
 62
253
  6
CONTINUOUS
 10
-28.1782138157
 20
-16.7404705909
 11
-28.1020716825
 21
-14.5649215027
  0
LINE
  5
28D
100
AcDbEntity
  8
IMPORT_IGES
100
AcDbLine
 62
253
  6
CONTINUOUS
 10
-28.2580983905
 20
-18.910052946
 11
-28.1782138157
 21
-16.7404705909
  0
LINE
  5
28E
100
AcDbEntity
  8
IMPORT_IGES
100
AcDbLine
 62
253
  6
CONTINUOUS
 10
-28.3416971834
 20
-21.072979867
 11
-28.2580983905
 21
-18.910052946
  0
LINE
  5
28F
100
AcDbEntity
  8
IMPORT_IGES
100
AcDbLine
 62
253
  6
CONTINUOUS
 10
-28.4289685861
 20
-23.2282682197
 11
-28.3416971834
 21
-21.072979867
  0
LINE
  5
290
100
AcDbEntity
  8
IMPORT_IGES
100
AcDbLine
 62
253
  6
CONTINUOUS
 10
-28.5196752575
 20
-25.3706816143
 11
-28.4289685861
 21
-23.2282682197
  0
LINE
  5
291
100
AcDbEntity
  8
IMPORT_IGES
100
AcDbLine
 62
253
  6
CONTINUOUS
 10
-28.6136832554
 20
-27.4971314702
 11
-28.5196752575
 21
-25.3706816143
  0
LINE
  5
292
100
AcDbEntity
  8
IMPORT_IGES
100
AcDbLine
 62
253
  6
CONTINUOUS
 10
-28.7107796311
 20
-29.6024132947
 11
-28.6136832554
 21
-27.4971314702
  0
LINE
  5
293
100
AcDbEntity
  8
IMPORT_IGES
100
AcDbLine
 62
253
  6
CONTINUOUS
 10
-28.8108629829
 20
-31.6844882471
 11
-28.7107796311
 21
-29.6024132947
  0
LINE
  5
294
100
AcDbEntity
  8
IMPORT_IGES
100
AcDbLine
 62
253
  6
CONTINUOUS
 10
-28.9138622292
 20
-33.7420518307
 11
-28.8108629829
 21
-31.6844882471
  0
LINE
  5
295
100
AcDbEntity
  8
IMPORT_IGES
100
AcDbLine
 62
253
  6
CONTINUOUS
 10
-29.0196700672
 20
-35.7734563252
 11
-28.9138622292
 21
-33.7420518307
  0
LINE
  5
296
100
AcDbEntity
  8
IMPORT_IGES
100
AcDbLine
 62
253
  6
CONTINUOUS
 10
-29.1282601066
 20
-37.7787023736
 11
-29.0196700672
 21
-35.7734563252
  0
LINE
  5
297
100
AcDbEntity
  8
IMPORT_IGES
100
AcDbLine
 62
253
  6
CONTINUOUS
 10
-29.2396138744
 20
-39.7577155291
 11
-29.1282601066
 21
-37.7787023736
  0
LINE
  5
298
100
AcDbEntity
  8
IMPORT_IGES
100
AcDbLine
 62
253
  6
CONTINUOUS
 10
-29.3537155095
 20
-41.710538043
 11
-29.2396138744
 21
-39.7577155291
  0
LINE
  5
299
100
AcDbEntity
  8
IMPORT_IGES
100
AcDbLine
 62
253
  6
CONTINUOUS
 10
-29.4705447038
 20
-43.6372425327
 11
-29.3537155095
 21
-41.710538043
  0
LINE
  5
29A
100
AcDbEntity
  8
IMPORT_IGES
100
AcDbLine
 62
253
  6
CONTINUOUS
 10
-29.5900953774
 20
-45.5378483187
 11
-29.4705447038
 21
-43.6372425327
  0
LINE
  5
29B
100
AcDbEntity
  8
IMPORT_IGES
100
AcDbLine
 62
253
  6
CONTINUOUS
 10
23.8168432827
 20
-53.884041394
 11
23.1214020965
 21
-53.3150355832
  0
LINE
  5
29C
100
AcDbEntity
  8
0
100
AcDbLine
 62
253
  6
CONTINUOUS
 10
-17.9827614884
 20
-21.4039072473
 11
-18.4815226268
 21
-20.9051461088
  0
LINE
  5
29D
100
AcDbEntity
  8
0
100
AcDbLine
 62
253
  6
CONTINUOUS
 10
-16.6551844854
 20
-18.7467054579
 11
-16.2110904657
 21
-19.1907994776
  0
LWPOLYLINE
  5
29E
100
AcDbEntity
  8
IMPORT_IGES
100
AcDbPolyline
 62
253
  6
CONTINUOUS
 90
31
 70
0
 10
-18.8369500869
 20
-44.7583329382
 10
-18.830245613
 20
-44.8842573645
 10
-18.8170550507
 20
-45.01057102
 10
-18.7974954265
 20
-45.1369492867
 10
-18.7717728925
 20
-45.2630358427
 10
-18.7399164356
 20
-45.3885423891
 10
-18.7017729707
 20
-45.5131955391
 10
-18.6574021692
 20
-45.6365930208
 10
-18.6069842213
 20
-45.7583648193
 10
-18.550537948
 20
-45.8782172181
 10
-18.4881263466
 20
-45.9956733677
 10
-18.4199454855
 20
-46.1103778735
 10
-18.3461673094
 20
-46.2222156997
 10
-18.2668485655
 20
-46.3307533906
 10
-18.1820681916
 20
-46.4356288633
 10
-18.0919926508
 20
-46.5368410433
 10
-17.9969856365
 20
-46.6340172369
 10
-17.8971829928
 20
-46.7266405639
 10
-17.7925796197
 20
-46.8145026166
 10
-17.6834279259
 20
-46.8973690845
 10
-17.5700228791
 20
-46.9750138819
 10
-17.4524682498
 20
-47.0471567456
 10
-17.3311657502
 20
-47.1134800875
 10
-17.2063406529
 20
-47.1738123706
 10
-17.0778960983
 20
-47.2279782462
 10
-16.9461695054
 20
-47.2755675046
 10
-16.8115783451
 20
-47.3163226783
 10
-16.6741429743
 20
-47.3501607775
 10
-16.5341466116
 20
-47.3767496986
 10
-16.3921774526
 20
-47.3955739965
 10
-16.2487357229
 20
-47.4061985304
  0
LWPOLYLINE
  5
29F
100
AcDbEntity
  8
IMPORT_IGES
100
AcDbPolyline
 62
253
  6
CONTINUOUS
 90
13
 70
0
 10
-18.8362324766
 20
-44.758399704
 10
-18.8962004749
 20
-42.7646334639
 10
-18.9536820772
 20
-40.7730908182
 10
-19.0086933301
 20
-38.7837672196
 10
-19.0612596873
 20
-36.7964501127
 10
-19.1113818542
 20
-34.8113429825
 10
-19.1590395228
 20
-32.8290656819
 10
-19.2042371445
 20
-30.8495945751
 10
-19.2469936262
 20
-28.8729450779
 10
-19.2873150161
 20
-26.8997963126
 10
-19.3252120967
 20
-24.9303723798
 10
-19.3606961672
 20
-22.9644419809
 10
-19.3937754272
 20
-21.0020015501
  0
LWPOLYLINE
  5
2A0
100
AcDbEntity
  8
IMPORT_IGES
100
AcDbPolyline
 62
253
  6
CONTINUOUS
 90
19
 70
0
 10
17.4029791392
 20
-18.7467017844
 10
17.4241943591
 20
-18.7413973987
 10
17.4453062863
 20
-18.7325725736
 10
17.4660753669
 20
-18.7205570374
 10
17.4861472166
 20
-18.7057844219
 10
17.5054951508
 20
-18.6884769639
 10
17.5243970811
 20
-18.6684298016
 10
17.5427681136
 20
-18.6456275675
 10
17.560370148
 20
-18.6202333378
 10
17.577215406
 20
-18.5920313991
 10
17.5931554355
 20
-18.5610143771
 10
17.6080705381
 20
-18.527459011
 10
17.6219692266
 20
-18.4914720627
 10
17.6347349379
 20
-18.4534360502
 10
17.6462989162
 20
-18.4136139153
 10
17.6566676053
 20
-18.3718921629
 10
17.6657126652
 20
-18.3284830776
 10
17.6732232362
 20
-18.2839724053
 10
17.6790191862
 20
-18.2388523268
  0
LWPOLYLINE
  5
2A1
100
AcDbEntity
  8
IMPORT_IGES
100
AcDbPolyline
 62
253
  6
CONTINUOUS
 90
19
 70
0
 10
-19.0792285363
 20
-21.0131453661
 10
-19.0308034533
 20
-21.0120426472
 10
-18.9824946386
 20
-21.010236603
 10
-18.9347689044
 20
-21.0077297255
 10
-18.8883466617
 20
-21.0045723717
 10
-18.8434256043
 20
-21.0007997709
 10
-18.7997245743
 20
-20.9963797706
 10
-18.757639965
 20
-20.9913319727
 10
-18.7176283328
 20
-20.9857160575
 10
-18.6796543283
 20
-20.9795148969
 10
-18.6442175445
 20
-20.9727769805
 10
-18.6116771749
 20
-20.9655674891
 10
-18.5820307739
 20
-20.9578764284
 10
-18.5558023184
 20
-20.9498081525
 10
-18.5332217603
 20
-20.9414276367
 10
-18.5141757909
 20
-20.9326704171
 10
-18.4990002653
 20
-20.9236000978
 10
-18.4880821172
 20
-20.9143858777
 10
-18.4815226278
 20
-20.9051461096
  0
LWPOLYLINE
  5
2A2
100
AcDbEntity
  8
IMPORT_IGES
100
AcDbPolyline
 62
253
  6
CONTINUOUS
 90
10
 70
0
 10
19.8271102141
 20
-21.0131454405
 10
19.863354729
 20
-21.013512502
 10
19.8997879493
 20
-21.0134794144
 10
19.9361815931
 20
-21.0130371803
 10
19.9722445029
 20
-21.0121872881
 10
20.0078110855
 20
-21.0109322932
 10
20.0428164672
 20
-21.009268816
 10
20.0770796909
 20
-21.0072003348
 10
20.1103217041
 20
-21.0047447773
 10
20.1423194164
 20
-21.0019239742
  0
LWPOLYLINE
  5
2A3
100
AcDbEntity
  8
IMPORT_IGES
100
AcDbPolyline
 62
253
  6
CONTINUOUS
 90
10
 70
0
 10
-19.3944381211
 20
-21.0019239756
 10
-19.3624220618
 20
-21.0047462714
 10
-19.3292325926
 20
-21.0071980722
 10
-19.2951039773
 20
-21.0092597183
 10
-19.2604251359
 20
-21.0109117247
 10
-19.2252951559
 20
-21.0121597503
 10
-19.1894595942
 20
-21.0130163392
 10
-19.1529459072
 20
-21.0134725203
 10
-19.1161298392
 20
-21.0135154322
 10
-19.0792285363
 20
-21.0131453661
  0
LWPOLYLINE
  5
2A4
100
AcDbEntity
  8
IMPORT_IGES
100
AcDbPolyline
 62
253
  6
CONTINUOUS
 90
19
 70
0
 10
-16.6552056616
 20
-18.7466842814
 10
-16.6763297957
 20
-18.7415794212
 10
-16.6973125439
 20
-18.7331884559
 10
-16.7179670045
 20
-18.721605869
 10
-16.737966089
 20
-18.7071260175
 10
-16.7572884735
 20
-18.6898921166
 10
-16.7762029713
 20
-18.6696976832
 10
-16.7946215922
 20
-18.6465632597
 10
-16.8123149765
 20
-18.620716913
 10
-16.8293100844
 20
-18.5920781923
 10
-16.8454654602
 20
-18.5607676921
 10
-16.8606132968
 20
-18.5270591172
 10
-16.8746947722
 20
-18.4910066001
 10
-16.8875517706
 20
-18.4529563479
 10
-16.8990932881
 20
-18.4131724658
 10
-16.9093194783
 20
-18.371560418
 10
-16.9181437635
 20
-18.3283311138
 10
-16.9254273365
 20
-18.2840333524
 10
-16.9311134467
 20
-18.2390791505
  0
LINE
  5
2A5
100
AcDbEntity
  8
0
100
AcDbLine
 62
253
  6
CONTINUOUS
 10
16.7297458749
 20
-46.6164146105
 11
16.3921641466
 21
-46.2788328822
  0
LINE
  5
2A6
100
AcDbEntity
  8
IMPORT_IGES
100
AcDbLine
 62
7
  6
CONTINUOUS
 10
2.9612159618
 20
-55.5456264937
 11
2.9212970341
 21
-55.4663499463
  0
LWPOLYLINE
  5
2A7
100
AcDbEntity
  8
IMPORT_IGES
100
AcDbPolyline
 62
253
  6
CONTINUOUS
 90
10
 70
0
 10
-16.2487357229
 20
-47.4061985304
 10
-16.2510212797
 20
-47.3854284748
 10
-16.252951543
 20
-47.3644273492
 10
-16.2545224769
 20
-47.3432513446
 10
-16.2557296944
 20
-47.3219973215
 10
-16.2565761585
 20
-47.3006729582
 10
-16.2570649211
 20
-47.2791880306
 10
-16.2571930549
 20
-47.2575397262
 10
-16.2569598204
 20
-47.2358261246
 10
-16.2563668475
 20
-47.2140986622
  0
LWPOLYLINE
  5
2A8
100
AcDbEntity
  8
0
100
AcDbPolyline
 62
7
  6
CONTINUOUS
 90
25
 70
0
 10
-17.5153204055
 20
-44.1650916222
 10
-17.508917463
 20
-44.2920973556
 10
-17.4948963599
 20
-44.4197353666
 10
-17.473221951
 20
-44.5474605676
 10
-17.4439207105
 20
-44.6746511798
 10
-17.4070145904
 20
-44.8008220602
 10
-17.362473593
 20
-44.9256126568
 10
-17.3101963526
 20
-45.04888467
 10
-17.25041588
 20
-45.1695894969
 10
-17.1838209478
 20
-45.2860903379
 10
-17.1111415028
 20
-45.3974804168
 10
-17.03249886
 20
-45.5038439195
 10
-16.9478184789
 20
-45.6051106269
 10
-16.8573014726
 20
-45.7010181185
 10
-16.7614970707
 20
-45.7909631266
 10
-16.6608275633
 20
-45.8743505966
 10
-16.5555665102
 20
-45.9509899385
 10
-16.4463860505
 20
-46.0204098665
 10
-16.3344364245
 20
-46.081819437
 10
-16.2203138927
 20
-46.1351435721
 10
-16.1045905127
 20
-46.180358439
 10
-15.9884957865
 20
-46.2171267165
 10
-15.8728334864
 20
-46.2455600301
 10
-15.7579284535
 20
-46.266037246
 10
-15.6442843114
 20
-46.2788343204
  0
LWPOLYLINE
  5
2A9
100
AcDbEntity
  8
IMPORT_IGES
100
AcDbPolyline
 62
253
  6
CONTINUOUS
 90
13
 70
0
 10
-18.4815226268
 20
-20.9051461088
 10
-18.4488312561
 20
-22.8736897974
 10
-18.4137427457
 20
-24.8430514433
 10
-18.3762570955
 20
-26.8132310467
 10
-18.3363785273
 20
-28.7842415406
 10
-18.2941028193
 20
-30.756069992
 10
-18.2494173062
 20
-32.7286776011
 10
-18.2023207056
 20
-34.7020604393
 10
-18.1528142998
 20
-36.6762224351
 10
-18.1008892706
 20
-38.6511365747
 10
-18.0465426787
 20
-40.6267938533
 10
-17.9897774635
 20
-42.6032032756
 10
-17.930593625
 20
-44.5803648417
  0
LWPOLYLINE
  5
2AA
100
AcDbEntity
  8
IMPORT_IGES
100
AcDbPolyline
 62
253
  6
CONTINUOUS
 90
28
 70
0
 10
-18.4815226268
 20
-20.9051461088
 10
-18.4815769853
 20
-20.8056646117
 10
-18.4770358593
 20
-20.7026820214
 10
-18.4674212358
 20
-20.5964845578
 10
-18.4521738458
 20
-20.4869297308
 10
-18.4308578468
 20
-20.3749028911
 10
-18.4034208101
 20
-20.2622598577
 10
-18.3697328493
 20
-20.1495768583
 10
-18.329558289
 20
-20.0371635764
 10
-18.2831000388
 20
-19.9264044012
 10
-18.2304718282
 20
-19.8178644273
 10
-18.1716554571
 20
-19.7118487746
 10
-18.1069124513
 20
-19.6092573398
 10
-18.0364540266
 20
-19.5105222476
 10
-17.9604557096
 20
-19.4160016527
 10
-17.8792721102
 20
-19.3263932936
 10
-17.7931974743
 20
-19.2420256312
 10
-17.7025464014
 20
-19.163217952
 10
-17.6078093876
 20
-19.0905452975
 10
-17.509293671
 20
-19.0241940383
 10
-17.4074651934
 20
-18.9644201468
 10
-17.3031487976
 20
-18.9117272768
 10
-17.1967749071
 20
-18.8661758107
 10
-17.0888053607
 20
-18.8277916847
 10
-16.9801783335
 20
-18.7967851067
 10
-16.871507732
 20
-18.7730817503
 10
-16.7630506634
 20
-18.7564418407
 10
-16.6552056612
 20
-18.7466842821
  0
LWPOLYLINE
  5
2AB
100
AcDbEntity
  8
IMPORT_IGES
100
AcDbPolyline
 62
253
  6
CONTINUOUS
 90
31
 70
0
 10
-19.3937754272
 20
-21.0020015501
 10
-19.3930066863
 20
-20.8718053776
 10
-19.3859532032
 20
-20.7410944514
 10
-19.3726112668
 20
-20.6098688117
 10
-19.3529993829
 20
-20.4775711886
 10
-19.3270845107
 20
-20.3447590286
 10
-19.2947826914
 20
-20.2131045622
 10
-19.2559742617
 20
-20.0827066612
 10
-19.2107515642
 20
-19.9534669838
 10
-19.1593470197
 20
-19.8267620894
 10
-19.1016571513
 20
-19.7026978917
 10
-19.0377476278
 20
-19.5811692718
 10
-18.9681051751
 20
-19.4632363236
 10
-18.8926981996
 20
-19.3489439201
 10
-18.8115145768
 20
-19.2382481402
 10
-18.7250730962
 20
-19.1320759111
 10
-18.6333136708
 20
-19.0304346121
 10
-18.5362501392
 20
-18.9333179064
 10
-18.4345171461
 20
-18.8416321265
 10
-18.3280293976
 20
-18.7554025202
 10
-18.2168277548
 20
-18.674604901
 10
-18.1017440687
 20
-18.6000713695
 10
-17.9826838743
 20
-18.5318293016
 10
-17.8597042126
 20
-18.4698523073
 10
-17.7338758591
 20
-18.4148916835
 10
-17.6051286841
 20
-18.3670041116
 10
-17.4735077964
 20
-18.3261337128
 10
-17.34027183
 20
-18.2928627105
 10
-17.2058410028
 20
-18.2673852915
 10
-17.0697879707
 20
-18.2495077552
 10
-16.932108154
 20
-18.2392303528
  0
LWPOLYLINE
  5
2AC
100
AcDbEntity
  8
IMPORT_IGES
100
AcDbPolyline
 62
253
  6
CONTINUOUS
 90
13
 70
0
 10
27.121443766
 20
45.8853139895
 10
27.178117599
 20
45.9359020769
 10
27.2303565516
 20
45.9854147338
 10
27.2780050199
 20
46.0337122776
 10
27.3208601832
 20
46.0805887947
 10
27.3589089839
 20
46.125998434
 10
27.3922190501
 20
46.1700265399
 10
27.4206798853
 20
46.2125726384
 10
27.4441874151
 20
46.2534864863
 10
27.4627163783
 20
46.2927458567
 10
27.4761887721
 20
46.3302575645
 10
27.4845577122
 20
46.3658894315
 10
27.4878088773
 20
46.3995454133
  0
LWPOLYLINE
  5
2AD
100
AcDbEntity
  8
0
100
AcDbPolyline
 62
7
  6
CONTINUOUS
 90
25
 70
0
 10
-16.2110904606
 20
-19.1907994827
 10
-16.3348958279
 20
-19.2065780806
 10
-16.4572484871
 20
-19.2314628181
 10
-16.5775657538
 20
-19.2652580238
 10
-16.6952607353
 20
-19.307801054
 10
-16.8098235436
 20
-19.3587612132
 10
-16.9208298334
 20
-19.4176205883
 10
-17.0277413662
 20
-19.4839912757
 10
-17.1301878191
 20
-19.5575375705
 10
-17.2280373206
 20
-19.6377865426
 10
-17.3208863616
 20
-19.724329806
 10
-17.4083932399
 20
-19.8167757042
 10
-17.4905275386
 20
-19.9147022995
 10
-17.5668941189
 20
-20.0175887692
 10
-17.6372870563
 20
-20.1251067061
 10
-17.7018916482
 20
-20.2372015624
 10
-17.7603424824
 20
-20.3534096911
 10
-17.8123878355
 20
-20.4733862474
 10
-17.858191503
 20
-20.5973699411
 10
-17.8973980986
 20
-20.725150406
 10
-17.9295623607
 20
-20.8561243814
 10
-17.9545439192
 20
-20.9899813138
 10
-17.9720157234
 20
-21.1262843097
 10
-17.9815329757
 20
-21.2644506785
 10
-17.9827614895
 20
-21.4039072462
  0
LWPOLYLINE
  5
2AE
100
AcDbEntity
  8
0
100
AcDbPolyline
 62
7
  6
CONTINUOUS
 90
31
 70
0
 10
-16.2110904657
 20
-19.1907994776
 10
-15.2848545956
 20
-19.1132492522
 10
-14.3255009821
 20
-19.0407105928
 10
-13.3330296251
 20
-18.9731834996
 10
-12.3044214045
 20
-18.9105650514
 10
-11.2426954405
 20
-18.8529581692
 10
-10.1569090939
 20
-18.8006716166
 10
-9.0473076483
 20
-18.7537538211
 10
-7.91364582
 20
-18.7121563551
 10
-6.7642451193
 20
-18.676042699
 10
-5.5992214306
 20
-18.645439374
 10
-4.4184588694
 20
-18.6203198588
 10
-3.2299312925
 20
-18.6007680702
 10
-2.0337060317
 20
-18.5868035058
 10
-0.8297157552
 20
-18.578406668
 10
0.3742676752
 20
-18.5756029797
 10
1.5782432084
 20
-18.578409541
 10
2.7822118955
 20
-18.5868092519
 10
3.9784050283
 20
-18.6007762357
 10
5.1668888583
 20
-18.6203299046
 10
6.3475971339
 20
-18.6454508464
 10
7.5125623921
 20
-18.6760549469
 10
8.6618999691
 20
-18.7121685906
 10
9.7954945287
 20
-18.7537653929
 10
10.9050325986
 20
-18.8006820866
 10
11.9907606263
 20
-18.8529670148
 10
13.0524321643
 20
-18.9105718343
 10
14.0809943979
 20
-18.9731882481
 10
15.0734297222
 20
-19.0407134908
 10
16.0327557421
 20
-19.1132503277
 10
16.9589724575
 20
-19.1907987591
  0
LWPOLYLINE
  5
2AF
100
AcDbEntity
  8
IMPORT_IGES
100
AcDbPolyline
 62
253
  6
CONTINUOUS
 90
34
 70
0
 10
-16.932108154
 20
-18.2392303528
 10
-15.957360676
 20
-18.1966860609
 10
-14.9680335198
 20
-18.1567821957
 10
-13.9654617043
 20
-18.1194950852
 10
-12.9515249522
 20
-18.0847557778
 10
-11.9270699616
 20
-18.0525843839
 10
-10.8918728715
 20
-18.0230854473
 10
-9.8472796091
 20
-17.9962113596
 10
-8.7947221063
 20
-17.9719356417
 10
-7.7340940698
 20
-17.9503880679
 10
-6.666789411
 20
-17.9315081848
 10
-5.5940463861
 20
-17.9152494833
 10
-4.5155283941
 20
-17.9017574064
 10
-3.4318247653
 20
-17.8909533121
 10
-2.3456537507
 20
-17.8827765467
 10
-1.2603334744
 20
-17.8773902234
 10
-0.1719764346
 20
-17.8747863567
 10
0.9198834609
 20
-17.874781676
 10
2.008239586
 20
-17.877376207
 10
3.0935572361
 20
-17.8827532057
 10
4.1797245325
 20
-17.8909206756
 10
5.2634258139
 20
-17.9017155989
 10
6.3419441289
 20
-17.9151986344
 10
7.4146889357
 20
-17.9314484167
 10
8.4819956303
 20
-17.9503195775
 10
9.5426259363
 20
-17.9718586395
 10
10.59518593
 20
-17.9961260416
 10
11.6397807362
 20
-18.0229920454
 10
12.6750385822
 20
-18.0524854434
 10
13.6995524478
 20
-18.0846515498
 10
14.7133675035
 20
-18.1193788541
 10
15.7155838051
 20
-18.1566447963
 10
16.7043890047
 20
-18.1965204955
 10
17.678456829
 20
-18.2390294577
  0
LWPOLYLINE
  5
2B0
100
AcDbEntity
  8
IMPORT_IGES
100
AcDbPolyline
 62
253
  6
CONTINUOUS
 90
34
 70
0
 10
17.4030657641
 20
-18.7467054526
 10
16.4463361814
 20
-18.7035612346
 10
15.4771278311
 20
-18.6629936105
 10
14.4954407133
 20
-18.6250025803
 10
13.5003855406
 20
-18.5895599215
 10
12.4928516002
 20
-18.5566938566
 10
11.4755067548
 20
-18.5264890531
 10
10.4483237791
 20
-18.4989522957
 10
9.4113298982
 20
-18.4740767996
 10
8.3672746505
 20
-18.4519268786
 10
7.3161405374
 20
-18.4325095862
 10
6.2579450574
 20
-18.4158178689
 10
5.1954902446
 20
-18.4018948796
 10
4.1287644846
 20
-18.390747776
 10
3.0577793918
 20
-18.3823694005
 10
1.9853718436
 20
-18.3767814331
 10
0.9115390029
 20
-18.3739911024
 10
-0.1637162932
 20
-18.3739911799
 10
-1.2375486551
 20
-18.3767816604
 10
-2.3099552384
 20
-18.3823697722
 10
-3.3809388876
 20
-18.3907482869
 10
-4.4476627461
 20
-18.4018955142
 10
-5.5101151925
 20
-18.4158186115
 10
-6.5683078483
 20
-18.4325104212
 10
-7.6194387212
 20
-18.4519277806
 10
-8.6634903062
 20
-18.4740777429
 10
-9.7004801083
 20
-18.4989532547
 10
-10.7276586509
 20
-18.5264899933
 10
-11.7449987017
 20
-18.5566947428
 10
-12.7525274929
 20
-18.589560719
 10
-13.7475772449
 20
-18.6250032462
 10
-14.7292586976
 20
-18.6629940991
 10
-15.6984611111
 20
-18.703561503
 10
-16.6551844854
 20
-18.7467054579
  0
LWPOLYLINE
  5
2B1
100
AcDbEntity
  8
IMPORT_IGES
100
AcDbPolyline
 62
253
  6
CONTINUOUS
 90
31
 70
0
 10
17.678456829
 20
-18.2390294577
 10
17.8169574513
 20
-18.249499147
 10
17.9536969349
 20
-18.2675408906
 10
18.088680687
 20
-18.2931544206
 10
18.2223393928
 20
-18.3265371827
 10
18.3542511463
 20
-18.3674912141
 10
18.4831506724
 20
-18.4154229929
 10
18.6089562186
 20
-18.4703702488
 10
18.7317764965
 20
-18.5322944181
 10
18.8506462979
 20
-18.6004873156
 10
18.9655071143
 20
-18.6749844868
 10
19.0764552204
 20
-18.7557493949
 10
19.1827678944
 20
-18.8419655974
 10
19.2844565174
 20
-18.9336590953
 10
19.3815530118
 20
-19.0308028436
 10
19.473373086
 20
-19.1325007558
 10
19.5599116814
 20
-19.238752757
 10
19.6412198155
 20
-19.3495578823
 10
19.7167029093
 20
-19.464018678
 10
19.7863337679
 20
-19.5822062897
 10
19.850183792
 20
-19.7040486069
 10
19.9078093169
 20
-19.8284333149
 10
19.9591563858
 20
-19.9555226073
 10
20.0043167077
 20
-20.0851534941
 10
20.0430656233
 20
-20.2157259814
 10
20.0753180131
 20
-20.3472148077
 10
20.1011864641
 20
-20.4796447234
 10
20.1207412806
 20
-20.6114909046
 10
20.134010943
 20
-20.7422450394
 10
20.1409815206
 20
-20.8724152669
 10
20.1416567217
 20
-21.0020015498
  0
LINE
  5
2B2
100
AcDbEntity
  8
0
100
AcDbLine
 62
253
  6
CONTINUOUS
 10
18.2632000717
 20
-44.1650900149
 11
18.6784748984
 21
-44.5803648417
  0
LINE
  5
2B3
100
AcDbEntity
  8
IMPORT_IGES
100
AcDbLine
 62
7
  6
CONTINUOUS
 10
-12.6260699953
 20
-13.1265214929
 11
-12.6260699953
 21
-13.2016302378
  0
LWPOLYLINE
  5
2B4
100
AcDbEntity
  8
IMPORT_IGES
100
AcDbPolyline
 62
253
  6
CONTINUOUS
 90
19
 70
0
 10
-16.2563668475
 20
-47.2140986622
 10
-16.2537030315
 20
-47.1650344026
 10
-16.24919402
 20
-47.1161838071
 10
-16.242897645
 20
-47.0680714567
 10
-16.2349664817
 20
-47.0215262263
 10
-16.2254660555
 20
-46.9766743276
 10
-16.2143105781
 20
-46.9330132254
 10
-16.2015482392
 20
-46.8908812299
 10
-16.1873053798
 20
-46.8508606506
 10
-16.1715377522
 20
-46.8128862232
 10
-16.1543707755
 20
-46.7773792292
 10
-16.1359692233
 20
-46.744814748
 10
-16.1163361376
 20
-46.7152498175
 10
-16.0957316239
 20
-46.6891315358
 10
-16.0743290013
 20
-46.666729645
 10
-16.0519948565
 20
-46.6479606321
 10
-16.0288795517
 20
-46.6331141738
 10
-16.0053998648
 20
-46.6225615909
 10
-15.9818440278
 20
-46.6163940323
  0
LINE
  5
2B5
100
AcDbEntity
  8
IMPORT_IGES
100
AcDbLine
 62
253
  6
CONTINUOUS
 10
29.1432119396
 20
43.412172364
 11
28.2530164732
 21
42.6935924954
  0
LINE
  5
2B6
100
AcDbEntity
  8
IMPORT_IGES
100
AcDbLine
 62
253
  6
CONTINUOUS
 10
30.3379766508
 20
-45.5378483187
 11
30.7012793341
 21
-45.8494488842
  0
LINE
  5
2B7
100
AcDbEntity
  8
IMPORT_IGES
100
AcDbLine
 62
7
  6
CONTINUOUS
 10
-2.2133346875
 20
-55.5456264937
 11
-2.2133346875
 21
-55.4660471933
  0
LINE
  5
2B8
100
AcDbEntity
  8
IMPORT_IGES
100
AcDbLine
 62
7
  6
CONTINUOUS
 10
2.9612159618
 20
-55.5456264937
 11
2.9612159618
 21
-55.4660471933
  0
LWPOLYLINE
  5
2B9
100
AcDbEntity
  8
IMPORT_IGES
100
AcDbPolyline
 62
253
  6
CONTINUOUS
 90
22
 70
0
 10
19.2294039002
 20
-20.9051461088
 10
19.2346630007
 20
-20.9129556583
 10
19.2429447389
 20
-20.9206830022
 10
19.2540968718
 20
-20.9282492803
 10
19.2677535325
 20
-20.9355130282
 10
19.2836899032
 20
-20.9424774215
 10
19.3021995117
 20
-20.9493049437
 10
19.3233653802
 20
-20.9559931956
 10
19.3469336657
 20
-20.9624441085
 10
19.3729841962
 20
-20.9686775454
 10
19.4014328923
 20
-20.9746534425
 10
19.4320846798
 20
-20.9803086252
 10
19.4649133359
 20
-20.9856257095
 10
19.4996046662
 20
-20.9905546192
 10
19.5359604722
 20
-20.9950645833
 10
19.5741323627
 20
-20.999156185
 10
19.6139660041
 20
-21.0027947912
 10
19.6550686504
 20
-21.00594151
 10
19.6972572638
 20
-21.008575333
 10
19.7402420488
 20
-21.0106639403
 10
19.7836395767
 20
-21.012187662
 10
19.8271102141
 20
-21.0131454405
  0
LWPOLYLINE
  5
2BA
100
AcDbEntity
  8
IMPORT_IGES
100
AcDbPolyline
 62
253
  6
CONTINUOUS
 90
22
 70
0
 10
18.6784753682
 20
-44.5803667307
 10
18.6835943683
 20
-44.5946841291
 10
18.6917535738
 20
-44.6088557681
 10
18.7027991483
 20
-44.6227376377
 10
18.716352054
 20
-44.6360597207
 10
18.7322112851
 20
-44.6488337744
 10
18.750676678
 20
-44.6613603544
 10
18.7718039392
 20
-44.6736301744
 10
18.7953223335
 20
-44.6854587793
 10
18.8213497818
 20
-44.6968841671
 10
18.8498060817
 20
-44.7078332807
 10
18.8804640391
 20
-44.7181939077
 10
18.9132925102
 20
-44.7279352566
 10
18.948020411
 20
-44.7369599267
 10
18.9844509287
 20
-44.7452097101
 10
19.0227041485
 20
-44.7526932309
 10
19.0626066732
 20
-44.759346252
 10
19.1037812576
 20
-44.7650850721
 10
19.1460544474
 20
-44.7698718586
 10
19.1891398156
 20
-44.7736623041
 10
19.2326377082
 20
-44.7764186542
 10
19.2761917172
 20
-44.778126574
  0
LINE
  5
2BB
100
AcDbEntity
  8
IMPORT_IGES
100
AcDbLine
 62
7
  6
CONTINUOUS
 10
13.3739300047
 20
-13.2016302378
 11
13.3739300047
 21
-13.1265214929
  0
LWPOLYLINE
  5
2BC
100
AcDbEntity
  8
IMPORT_IGES
100
AcDbPolyline
 62
253
  6
CONTINUOUS
 90
19
 70
0
 10
17.0042721403
 20
-47.2139756283
 10
17.0015965902
 20
-47.1650155707
 10
16.9970218325
 20
-47.1162033418
 10
16.9906387085
 20
-47.0680655208
 10
16.9826575002
 20
-47.0214710438
 10
16.9731840492
 20
-46.9765807809
 10
16.9621064397
 20
-46.9329207229
 10
16.9494197716
 20
-46.8908577878
 10
16.9352037708
 20
-46.8509913945
 10
16.9194204062
 20
-46.8131941494
 10
16.9022243966
 20
-46.7777838718
 10
16.8838089356
 20
-46.7451472371
 10
16.8641853007
 20
-46.7154019774
 10
16.8436093603
 20
-46.689125844
 10
16.8222528988
 20
-46.6667017847
 10
16.7999688238
 20
-46.6480019267
 10
16.776874083
 20
-46.6332035075
 10
16.7533775095
 20
-46.6226200589
 10
16.7298279395
 20
-46.6164114792
  0
LINE
  5
2BD
100
AcDbEntity
  8
IMPORT_IGES
100
AcDbLine
 62
253
  6
CONTINUOUS
 10
-29.9533980607
 20
-45.8494488842
 11
-29.5900953774
 21
-45.5378483187
  0
LINE
  5
2BE
100
AcDbEntity
  8
IMPORT_IGES
100
AcDbLine
 62
253
  6
CONTINUOUS
 10
-27.5051351999
 20
42.6935924954
 11
-28.3953306663
 21
43.412172364
  0
LWPOLYLINE
  5
2BF
100
AcDbEntity
  8
0
100
AcDbPolyline
 62
7
  6
CONTINUOUS
 90
25
 70
0
 10
18.730643346
 20
-21.403906663
 10
18.7294531159
 20
-21.2655133285
 10
18.7200962065
 20
-21.1283418285
 10
18.7028909345
 20
-20.9929540962
 10
18.6782742728
 20
-20.8599812511
 10
18.6465545921
 20
-20.7297939648
 10
18.6078102666
 20
-20.6025317576
 10
18.562407373
 20
-20.4787215302
 10
18.5106839139
 20
-20.3586790783
 10
18.4524987212
 20
-20.2422740023
 10
18.3880934799
 20
-20.1298731031
 10
18.317807817
 20
-20.0219445351
 10
18.2414852304
 20
-19.9186102962
 10
18.1593472528
 20
-19.8202298348
 10
18.0717660629
 20
-19.7273100622
 10
17.9787511759
 20
-19.6402693364
 10
17.8806104399
 20
-19.5594913183
 10
17.7777712271
 20
-19.4854279184
 10
17.6704392724
 20
-19.4186148302
 10
17.5589912257
 20
-19.3593882031
 10
17.4439746309
 20
-19.3081362554
 10
17.3259061713
 20
-19.2654047106
 10
17.2053350661
 20
-19.2315112092
 10
17.0828280659
 20
-19.2065849243
 10
16.9589724502
 20
-19.1907987665
  0
LWPOLYLINE
  5
2C0
100
AcDbEntity
  8
IMPORT_IGES
100
AcDbPolyline
 62
253
  6
CONTINUOUS
 90
28
 70
0
 10
19.2294039002
 20
-20.9051461088
 10
19.2294202729
 20
-20.8038325617
 10
19.2246918944
 20
-20.6993627983
 10
19.2147844393
 20
-20.5920313744
 10
19.1992020895
 20
-20.4817830644
 10
19.177551725
 20
-20.3694170836
 10
19.1497578122
 20
-20.2565388732
 10
19.1156591684
 20
-20.1436021933
 10
19.0750644212
 20
-20.03104357
 10
19.0282483568
 20
-19.9203681656
 10
18.975396813
 20
-19.8121982374
 10
18.916493545
 20
-19.7067414527
 10
18.8517691195
 20
-19.6047813424
 10
18.7814305107
 20
-19.5067118901
 10
18.7056774664
 20
-19.4128991006
 10
18.6248538294
 20
-19.3240048641
 10
18.5392740142
 20
-19.2403600776
 10
18.4492394605
 20
-19.1622472169
 10
18.3551628716
 20
-19.0901639895
 10
18.2573825104
 20
-19.0243201038
 10
18.1563141458
 20
-18.9649418768
 10
18.0525530567
 20
-18.9124333499
 10
17.9463985781
 20
-18.866857654
 10
17.8383959917
 20
-18.8283422483
 10
17.7295698889
 20
-18.7971714116
 10
17.6205638904
 20
-18.7733072695
 10
17.5116023841
 20
-18.7565289162
 10
17.4030869346
 20
-18.7466842821
  0
LWPOLYLINE
  5
2C1
100
AcDbEntity
  8
IMPORT_IGES
100
AcDbPolyline
 62
253
  6
CONTINUOUS
 90
13
 70
0
 10
20.1416567217
 20
-21.0020015498
 10
20.1085814049
 20
-22.9643559357
 10
20.0731008254
 20
-24.93023457
 10
20.0352065913
 20
-26.8996410002
 10
19.9948873259
 20
-28.8728173725
 10
19.952131902
 20
-30.8495287005
 10
19.9069338645
 20
-32.8290632598
 10
19.8592736167
 20
-34.8114076439
 10
19.8091473849
 20
-36.7965834782
 10
19.7565775159
 20
-38.7839323119
 10
19.7015642145
 20
-40.7732378136
 10
19.6440815772
 20
-42.7647254233
 10
19.5841137649
 20
-44.7583997044
  0
LWPOLYLINE
  5
2C2
100
AcDbEntity
  8
IMPORT_IGES
100
AcDbPolyline
 62
253
  6
CONTINUOUS
 90
13
 70
0
 10
18.6784748984
 20
-44.5803648417
 10
18.7376587369
 20
-42.6032032756
 10
18.7944239521
 20
-40.6267938533
 10
18.848770544
 20
-38.6511365747
 10
18.9006955732
 20
-36.6762224351
 10
18.950201979
 20
-34.7020604393
 10
18.9972985796
 20
-32.7286776011
 10
19.0419840927
 20
-30.756069992
 10
19.0842598007
 20
-28.7842415406
 10
19.1241383688
 20
-26.8132310467
 10
19.161624019
 20
-24.8430514433
 10
19.1967125295
 20
-22.8736897974
 10
19.2294039002
 20
-20.9051461088
  0
LWPOLYLINE
  5
2C3
100
AcDbEntity
  8
IMPORT_IGES
100
AcDbPolyline
 62
253
  6
CONTINUOUS
 90
31
 70
0
 10
18.6784748984
 20
-44.5803648417
 10
18.6727760572
 20
-44.6736423136
 10
18.6626662936
 20
-44.7675682793
 10
18.6480758462
 20
-44.8619100753
 10
18.6289333775
 20
-44.9564370134
 10
18.6052037764
 20
-45.0508919232
 10
18.5768979541
 20
-45.1449937448
 10
18.5440089291
 20
-45.238494793
 10
18.5065328119
 20
-45.3311240246
 10
18.464523312
 20
-45.4225642579
 10
18.418021506
 20
-45.5125527441
 10
18.3670799842
 20
-45.6008238311
 10
18.3118096944
 20
-45.6870627861
 10
18.2523279093
 20
-45.7709899299
 10
18.1887196569
 20
-45.8523712614
 10
18.1210745503
 20
-45.9309657243
 10
18.0495220515
 20
-46.0065272286
 10
17.9742143439
 20
-46.0787992636
 10
17.8952932907
 20
-46.14752771
 10
17.8129440336
 20
-46.2124741784
 10
17.7273535176
 20
-46.2734078639
 10
17.6386860591
 20
-46.3300927173
 10
17.5472761817
 20
-46.3822520721
 10
17.4532522074
 20
-46.4297502996
 10
17.3564625133
 20
-46.4725145781
 10
17.2570880038
 20
-46.5103184254
 10
17.1554518327
 20
-46.5428955001
 10
17.0516106827
 20
-46.57003484
 10
16.945786628
 20
-46.5914895457
 10
16.8383765349
 20
-46.6070156881
 10
16.7297252743
 20
-46.61639401
  0
LINE
  5
2C4
100
AcDbEntity
  8
0
100
AcDbLine
 62
253
  6
CONTINUOUS
 10
-17.930593625
 20
-44.5803648417
 11
-17.5153204059
 21
-44.1650916225
  0
LINE
  5
2C5
100
AcDbEntity
  8
0
100
AcDbLine
 62
253
  6
CONTINUOUS
 10
-15.6442843126
 20
-46.2788343216
 11
-15.9818373976
 21
-46.6163874066
  0
LWPOLYLINE
  5
2C6
100
AcDbEntity
  8
IMPORT_IGES
100
AcDbPolyline
 62
253
  6
CONTINUOUS
 90
22
 70
0
 10
21.3528248569
 20
49.7862314229
 10
21.339165626
 20
49.9368012062
 10
21.320321385
 20
50.0847514059
 10
21.2964439571
 20
50.2294063439
 10
21.2677824561
 20
50.3697316142
 10
21.2344324212
 20
50.5056029067
 10
21.1961997029
 20
50.637725078
 10
21.1532205765
 20
50.7656985283
 10
21.1057691448
 20
50.8888892588
 10
21.0537388726
 20
51.0075435627
 10
20.9972699572
 20
51.1211104913
 10
20.9365154174
 20
51.2290182121
 10
20.8713028172
 20
51.3314029805
 10
20.8018025791
 20
51.427955885
 10
20.7283765648
 20
51.5181112242
 10
20.6511579347
 20
51.6015884864
 10
20.57047243
 20
51.6778521987
 10
20.4866037598
 20
51.7464998175
 10
20.3996314126
 20
51.8075206627
 10
20.3098359067
 20
51.860739107
 10
20.2177193249
 20
51.9058564342
 10
20.1237206071
 20
51.942645526
  0
LWPOLYLINE
  5
2C7
100
AcDbEntity
  8
IMPORT_IGES
100
AcDbPolyline
 62
253
  6
CONTINUOUS
 90
10
 70
0
 10
16.9966232324
 20
-47.406146213
 10
16.9989043059
 20
-47.3853796848
 10
17.0008299795
 20
-47.3643517769
 10
17.0023974566
 20
-47.3431328264
 10
17.0036035214
 20
-47.3218304878
 10
17.0044518581
 20
-47.3004659283
 10
17.0049461958
 20
-47.2789659016
 10
17.0050831497
 20
-47.2573334146
 10
17.0048589643
 20
-47.2356558952
 10
17.0042721403
 20
-47.2139756283
  0
LINE
  5
2C8
100
AcDbEntity
  8
IMPORT_IGES
100
AcDbLine
 62
7
  6
CONTINUOUS
 10
-2.1734157598
 20
-55.4663499463
 11
-2.2133346875
 21
-55.5456264937
  0
LINE
  5
2C9
100
AcDbEntity
  8
0
100
AcDbLine
 62
253
  6
CONTINUOUS
 10
16.9589724575
 20
-19.1907987591
 11
17.4030657641
 21
-18.7467054526
  0
LWPOLYLINE
  5
2CA
100
AcDbEntity
  8
IMPORT_IGES
100
AcDbPolyline
 62
253
  6
CONTINUOUS
 90
46
 70
0
 10
29.75966768
 20
-46.307138486
 10
29.6293188247
 20
-44.510372304
 10
29.5009578127
 20
-42.6913826479
 10
29.3754321325
 20
-40.8501911586
 10
29.254090171
 20
-38.9864217136
 10
29.137108515
 20
-37.100488516
 10
29.0234112805
 20
-35.1935957864
 10
28.9134770997
 20
-33.2653774073
 10
28.807847221
 20
-31.3162216457
 10
28.7053553507
 20
-29.3484618147
 10
28.6061024002
 20
-27.3616152222
 10
28.5106572425
 20
-25.3561723017
 10
28.4184704838
 20
-23.3359263706
 10
28.3295280503
 20
-21.2992781033
 10
28.2442990675
 20
-19.2478237597
 10
28.1629954477
 20
-17.1901551156
 10
28.0859992585
 20
-15.1287616984
 10
28.0133416824
 20
-13.0611507424
 10
27.944734234
 20
-10.988444521
 10
27.8801957302
 20
-8.9099396303
 10
27.8198799076
 20
-6.8263271249
 10
27.7636783058
 20
-4.7408224174
 10
27.711544351
 20
-2.6538337065
 10
27.6635424654
 20
-0.5649398831
 10
27.6197226259
 20
1.5238849195
 10
27.5798859954
 20
3.6129374328
 10
27.5440686229
 20
5.7019332434
 10
27.5126584506
 20
7.788023622
 10
27.4855239415
 20
9.8721932863
 10
27.4624544163
 20
11.953464991
 10
27.4437336662
 20
14.0260408385
 10
27.4290696725
 20
16.0897355491
 10
27.4182995637
 20
18.144727728
 10
27.4119308603
 20
20.1857566115
 10
27.4094725737
 20
22.2125857013
 10
27.4108185972
 20
24.2254286089
 10
27.4170380761
 20
26.2196916489
 10
27.4276527365
 20
28.1945410018
 10
27.4423255157
 20
30.1507695045
 10
27.4622321525
 20
32.0862168557
 10
27.486701301
 20
34.0005884413
 10
27.5152305938
 20
35.8941199348
 10
27.5490383842
 20
37.7654406481
 10
27.5879298228
 20
39.6140670521
 10
27.6303998858
 20
41.440403791
 10
27.6755233924
 20
43.2444074283
  0
LINE
  5
2CB
100
AcDbEntity
  8
IMPORT_IGES
100
AcDbLine
 62
253
  6
CONTINUOUS
 10
30.2184213122
 20
-43.6371774969
 11
30.3379766508
 21
-45.5378483187
  0
LINE
  5
2CC
100
AcDbEntity
  8
IMPORT_IGES
100
AcDbLine
 62
253
  6
CONTINUOUS
 10
30.1016579293
 20
-41.7116551418
 11
30.2184213122
 21
-43.6371774969
  0
LINE
  5
2CD
100
AcDbEntity
  8
IMPORT_IGES
100
AcDbLine
 62
253
  6
CONTINUOUS
 10
29.9876779537
 20
-39.7610251329
 11
30.1016579293
 21
-41.7116551418
  0
LINE
  5
2CE
100
AcDbEntity
  8
IMPORT_IGES
100
AcDbLine
 62
253
  6
CONTINUOUS
 10
29.8764511074
 20
-37.784436334
 11
29.9876779537
 21
-39.7610251329
  0
LINE
  5
2CF
100
AcDbEntity
  8
IMPORT_IGES
100
AcDbLine
 62
253
  6
CONTINUOUS
 10
29.7679589407
 20
-35.7810693656
 11
29.8764511074
 21
-37.784436334
  0
LINE
  5
2D0
100
AcDbEntity
  8
IMPORT_IGES
100
AcDbLine
 62
253
  6
CONTINUOUS
 10
29.6621975581
 20
-33.7505143725
 11
29.7679589407
 21
-35.7810693656
  0
LWPOLYLINE
  5
2D1
100
AcDbEntity
  8
IMPORT_IGES
100
AcDbPolyline
 62
253
  6
CONTINUOUS
 90
43
 70
0
 10
29.7596783609
 20
-46.3071395492
 10
29.767249372
 20
-46.4592496661
 10
29.7694136256
 20
-46.6115501247
 10
29.7661690153
 20
-46.7633136023
 10
29.7573178384
 20
-46.9134443133
 10
29.7432168686
 20
-47.0617148021
 10
29.7245107553
 20
-47.2090636638
 10
29.7012732446
 20
-47.3556780107
 10
29.6732240497
 20
-47.5009490582
 10
29.6404189255
 20
-47.6448221062
 10
29.6033058463
 20
-47.7866965561
 10
29.5618507994
 20
-47.9265598154
 10
29.51537282
 20
-48.0650153944
 10
29.464225433
 20
-48.2009560216
 10
29.4086061665
 20
-48.3343520625
 10
29.347372163
 20
-48.4669737907
 10
29.280512348
 20
-48.5979468094
 10
29.2082720068
 20
-48.7271375028
 10
29.1294255683
 20
-48.8570970025
 10
29.0438100375
 20
-48.9877835128
 10
28.9514610112
 20
-49.1182836864
 10
28.8511068245
 20
-49.2495035154
 10
28.7423287782
 20
-49.3810547815
 10
28.6253934112
 20
-49.5119595345
 10
28.5000547791
 20
-49.6419041421
 10
28.3664358726
 20
-49.7700341045
 10
28.2248912487
 20
-49.8955248168
 10
28.0755552863
 20
-50.0182069221
 10
27.9188005714
 20
-50.1376870086
 10
27.7543055595
 20
-50.2537875472
 10
27.5811525015
 20
-50.3667342547
 10
27.3992461743
 20
-50.4760989305
 10
27.208464042
 20
-50.5811555199
 10
27.0078739
 20
-50.6814236695
 10
26.797655535
 20
-50.7760181785
 10
26.5776521092
 20
-50.8643574492
 10
26.3463780241
 20
-50.9461892587
 10
26.1040531643
 20
-51.0205290181
 10
25.8507864078
 20
-51.0866146933
 10
25.5849666744
 20
-51.1441399389
 10
25.3063271992
 20
-51.192253913
 10
25.0160071091
 20
-51.2298289966
 10
24.7146588295
 20
-51.2560156243
  0
LINE
  5
2D2
100
AcDbEntity
  8
IMPORT_IGES
100
AcDbLine
 62
253
  6
CONTINUOUS
 10
29.5591547292
 20
-31.6918921929
 11
29.6621975581
 21
-33.7505143725
  0
LINE
  5
2D3
100
AcDbEntity
  8
IMPORT_IGES
100
AcDbLine
 62
253
  6
CONTINUOUS
 10
29.4589428477
 20
-29.6071016264
 11
29.5591547292
 21
-31.6918921929
  0
LINE
  5
2D4
100
AcDbEntity
  8
IMPORT_IGES
100
AcDbLine
 62
253
  6
CONTINUOUS
 10
29.3616516369
 20
-27.4978924299
 11
29.4589428477
 21
-29.6071016264
  0
LINE
  5
2D5
100
AcDbEntity
  8
IMPORT_IGES
100
AcDbLine
 62
253
  6
CONTINUOUS
 10
29.2674469835
 20
-25.3677690639
 11
29.3616516369
 21
-27.4978924299
  0
LINE
  5
2D6
100
AcDbEntity
  8
IMPORT_IGES
100
AcDbLine
 62
253
  6
CONTINUOUS
 10
29.1765634927
 20
-23.2220859877
 11
29.2674469835
 21
-25.3677690639
  0
LINE
  5
2D7
100
AcDbEntity
  8
IMPORT_IGES
100
AcDbLine
 62
253
  6
CONTINUOUS
 10
29.0891472375
 20
-21.0640716943
 11
29.1765634927
 21
-23.2220859877
  0
LINE
  5
2D8
100
AcDbEntity
  8
IMPORT_IGES
100
AcDbLine
 62
253
  6
CONTINUOUS
 10
29.0054399601
 20
-18.8988974613
 11
29.0891472375
 21
-21.0640716943
  0
LINE
  5
2D9
100
AcDbEntity
  8
IMPORT_IGES
100
AcDbLine
 62
253
  6
CONTINUOUS
 10
28.9255231445
 20
-16.7285155797
 11
29.0054399601
 21
-18.8988974613
  0
LINE
  5
2DA
100
AcDbEntity
  8
IMPORT_IGES
100
AcDbLine
 62
253
  6
CONTINUOUS
 10
28.8494282495
 20
-14.5539344531
 11
28.9255231445
 21
-16.7285155797
  0
LINE
  5
2DB
100
AcDbEntity
  8
IMPORT_IGES
100
AcDbLine
 62
253
  6
CONTINUOUS
 10
28.7771463417
 20
-12.3759233791
 11
28.8494282495
 21
-14.5539344531
  0
LINE
  5
2DC
100
AcDbEntity
  8
IMPORT_IGES
100
AcDbLine
 62
253
  6
CONTINUOUS
 10
28.7086475107
 20
-10.1939675942
 11
28.7771463417
 21
-12.3759233791
  0
LINE
  5
2DD
100
AcDbEntity
  8
IMPORT_IGES
100
AcDbLine
 62
253
  6
CONTINUOUS
 10
28.6439218385
 20
-8.0078821438
 11
28.7086475107
 21
-10.1939675942
  0
LINE
  5
2DE
100
AcDbEntity
  8
IMPORT_IGES
100
AcDbLine
 62
253
  6
CONTINUOUS
 10
28.5829597007
 20
-5.8171875083
 11
28.6439218385
 21
-8.0078821438
  0
LINE
  5
2DF
100
AcDbEntity
  8
IMPORT_IGES
100
AcDbLine
 62
253
  6
CONTINUOUS
 10
28.5257822383
 20
-3.622755836
 11
28.5829597007
 21
-5.8171875083
  0
LINE
  5
2E0
100
AcDbEntity
  8
IMPORT_IGES
100
AcDbLine
 62
253
  6
CONTINUOUS
 10
28.4724029679
 20
-1.4251885752
 11
28.5257822383
 21
-3.622755836
  0
LINE
  5
2E1
100
AcDbEntity
  8
IMPORT_IGES
100
AcDbLine
 62
253
  6
CONTINUOUS
 10
28.4228426177
 20
0.7744560613
 11
28.4724029679
 21
-1.4251885752
  0
LINE
  5
2E2
100
AcDbEntity
  8
IMPORT_IGES
100
AcDbLine
 62
253
  6
CONTINUOUS
 10
28.3771482583
 20
2.9746144187
 11
28.4228426177
 21
0.7744560613
  0
LINE
  5
2E3
100
AcDbEntity
  8
IMPORT_IGES
100
AcDbLine
 62
253
  6
CONTINUOUS
 10
28.3353404062
 20
5.1741953374
 11
28.3771482583
 21
2.9746144187
  0
LINE
  5
2E4
100
AcDbEntity
  8
IMPORT_IGES
100
AcDbLine
 62
7
  6
CONTINUOUS
 10
30.7012793341
 20
-45.8494488842
 11
29.1432119396
 21
43.412172364
  0
LINE
  5
2E5
100
AcDbEntity
  8
IMPORT_IGES
100
AcDbLine
 62
7
  6
CONTINUOUS
 10
30.7814666192
 20
-45.8957987234
 11
29.2219247311
 21
43.4502962058
  0
LINE
  5
2E6
100
AcDbEntity
  8
IMPORT_IGES
100
AcDbLine
 62
253
  6
CONTINUOUS
 10
28.2974425342
 20
7.3713144769
 11
28.3353404062
 21
5.1741953374
  0
LINE
  5
2E7
100
AcDbEntity
  8
IMPORT_IGES
100
AcDbLine
 62
253
  6
CONTINUOUS
 10
28.2634437545
 20
9.5646690379
 11
28.2974425342
 21
7.3713144769
  0
LINE
  5
2E8
100
AcDbEntity
  8
IMPORT_IGES
100
AcDbLine
 62
253
  6
CONTINUOUS
 10
28.2333513169
 20
11.7533438268
 11
28.2634437545
 21
9.5646690379
  0
LINE
  5
2E9
100
AcDbEntity
  8
IMPORT_IGES
100
AcDbLine
 62
253
  6
CONTINUOUS
 10
28.2071897427
 20
13.9361451557
 11
28.2333513169
 21
11.7533438268
  0
LINE
  5
2EA
100
AcDbEntity
  8
IMPORT_IGES
100
AcDbLine
 62
253
  6
CONTINUOUS
 10
28.1850052224
 20
16.1108409746
 11
28.2071897427
 21
13.9361451557
  0
LINE
  5
2EB
100
AcDbEntity
  8
IMPORT_IGES
100
AcDbLine
 62
253
  6
CONTINUOUS
 10
28.1668062499
 20
18.2759471575
 11
28.1850052224
 21
16.1108409746
  0
LINE
  5
2EC
100
AcDbEntity
  8
IMPORT_IGES
100
AcDbLine
 62
253
  6
CONTINUOUS
 10
28.1525762764
 20
20.4293644131
 11
28.1668062499
 21
18.2759471575
  0
LINE
  5
2ED
100
AcDbEntity
  8
IMPORT_IGES
100
AcDbLine
 62
253
  6
CONTINUOUS
 10
28.1422969476
 20
22.5670967175
 11
28.1525762764
 21
20.4293644131
  0
LWPOLYLINE
  5
2EE
100
AcDbEntity
  8
IMPORT_IGES
100
AcDbPolyline
 62
253
  6
CONTINUOUS
 90
28
 70
0
 10
28.2530163847
 20
42.6935925021
 10
28.2524708832
 20
42.8325145334
 10
28.2495983443
 20
42.9727234855
 10
28.2443967204
 20
43.1141153435
 10
28.236852607
 20
43.2568032196
 10
28.2269671641
 20
43.4004677123
 10
28.214792247
 20
43.5443389691
 10
28.2003712373
 20
43.6881636392
 10
28.1837233593
 20
43.8319560479
 10
28.164909743
 20
43.975328186
 10
28.1439949935
 20
44.118009587
 10
28.1210030518
 20
44.2600361846
 10
28.0959392486
 20
44.4014754582
 10
28.068837626
 20
44.5422110429
 10
28.0397321039
 20
44.682139715
 10
28.0086114294
 20
44.8213488472
 10
27.9755008922
 20
44.9597304631
 10
27.9404267573
 20
45.0971838745
 10
27.9033615149
 20
45.2338081717
 10
27.8642722737
 20
45.369667869
 10
27.823220813
 20
45.5044959146
 10
27.7803248608
 20
45.6379043134
 10
27.7355952452
 20
45.7698586059
 10
27.6890780717
 20
45.9002202533
 10
27.6409749179
 20
46.0284729984
 10
27.5913925261
 20
46.1544106393
 10
27.5403218881
 20
46.2781200227
 10
27.4878088163
 20
46.3995453853
  0
LINE
  5
2EF
100
AcDbEntity
  8
IMPORT_IGES
100
AcDbLine
 62
253
  6
CONTINUOUS
 10
28.1359548362
 20
24.686942797
 11
28.1422969476
 21
22.5670967175
  0
LINE
  5
2F0
100
AcDbEntity
  8
IMPORT_IGES
100
AcDbLine
 62
253
  6
CONTINUOUS
 10
28.1335260105
 20
26.7857222307
 11
28.1359548362
 21
24.686942797
  0
LINE
  5
2F1
100
AcDbEntity
  8
IMPORT_IGES
100
AcDbLine
 62
253
  6
CONTINUOUS
 10
28.1349905553
 20
28.8620205224
 11
28.1335260105
 21
26.7857222307
  0
LINE
  5
2F2
100
AcDbEntity
  8
IMPORT_IGES
100
AcDbLine
 62
253
  6
CONTINUOUS
 10
28.1403407301
 20
30.9148153109
 11
28.1349905553
 21
28.8620205224
  0
LINE
  5
2F3
100
AcDbEntity
  8
IMPORT_IGES
100
AcDbLine
 62
253
  6
CONTINUOUS
 10
28.1495787444
 20
32.9425624765
 11
28.1403407301
 21
30.9148153109
  0
LINE
  5
2F4
100
AcDbEntity
  8
IMPORT_IGES
100
AcDbLine
 62
253
  6
CONTINUOUS
 10
28.1626760677
 20
34.9448210012
 11
28.1495787444
 21
32.9425624765
  0
LINE
  5
2F5
100
AcDbEntity
  8
IMPORT_IGES
100
AcDbLine
 62
253
  6
CONTINUOUS
 10
28.1796107997
 20
36.9212953863
 11
28.1626760677
 21
34.9448210012
  0
LINE
  5
2F6
100
AcDbEntity
  8
IMPORT_IGES
100
AcDbLine
 62
253
  6
CONTINUOUS
 10
28.2003428181
 20
38.871699602
 11
28.1796107997
 21
36.9212953863
  0
LINE
  5
2F7
100
AcDbEntity
  8
IMPORT_IGES
100
AcDbLine
 62
253
  6
CONTINUOUS
 10
28.2248167369
 20
40.7958218152
 11
28.2003428181
 21
38.871699602
  0
LINE
  5
2F8
100
AcDbEntity
  8
IMPORT_IGES
100
AcDbLine
 62
253
  6
CONTINUOUS
 10
28.2530164732
 20
42.6935924954
 11
28.2248167369
 21
40.7958218152
  0
LINE
  5
2F9
100
AcDbEntity
  8
0
100
AcDbLine
 62
253
  6
CONTINUOUS
 10
19.2294039002
 20
-20.9051461088
 11
18.7306433562
 21
-21.4039066528
  0
LINE
  5
2FA
100
AcDbEntity
  8
IMPORT_IGES
100
AcDbLine
 62
253
  6
CONTINUOUS
 10
-22.3735208232
 20
-53.3150355832
 11
-23.0689620094
 21
-53.884041394
  0
LWPOLYLINE
  5
2FB
100
AcDbEntity
  8
IMPORT_IGES
100
AcDbPolyline
 62
7
  6
CONTINUOUS
 90
34
 70
0
 10
29.1432119396
 20
43.412172364
 10
29.1281268942
 20
43.8122954764
 10
29.0973052164
 20
44.2100504064
 10
29.0507469063
 20
44.6054371539
 10
28.9883199529
 20
44.9990610842
 10
28.9101563672
 20
45.390316832
 10
28.8166521821
 20
45.7773883018
 10
28.7077391397
 20
46.160257164
 10
28.5834854979
 20
46.5389417482
 10
28.4444920634
 20
46.9116809475
 10
28.2906923119
 20
47.2784486016
 10
28.1221527677
 20
47.6392708709
 10
27.9396738105
 20
47.9924651286
 10
27.7431914869
 20
48.3379977109
 10
27.5327697503
 20
48.6759022818
 10
27.3094008405
 20
49.0045972068
 10
27.0730257206
 20
49.3240401506
 10
26.8237034275
 20
49.6342734484
 10
26.5626033117
 20
49.9338424717
 10
26.2896715315
 20
50.2226985264
 10
26.0049619286
 20
50.5008903065
 10
25.7098053792
 20
50.7671092654
 10
25.4041549702
 20
51.0213004388
 10
25.0880576146
 20
51.263518791
 10
24.7629849275
 20
51.4926206678
 10
24.4288969991
 20
51.7085466467
 10
24.0858337392
 20
51.9113561503
 10
23.7353864926
 20
52.100083792
 10
23.3775214909
 20
52.2746613257
 10
23.0122725025
 20
52.4351569975
 10
22.6413321766
 20
52.5808101596
 10
22.2652647298
 20
52.7113672626
 10
21.8835059454
 20
52.8270818559
 10
21.4960558236
 20
52.9279539395
  0
LWPOLYLINE
  5
2FC
100
AcDbEntity
  8
IMPORT_IGES
100
AcDbPolyline
 62
7
  6
CONTINUOUS
 90
37
 70
0
 10
30.7814666192
 20
-45.8957987234
 10
30.7805116113
 20
-46.2193578823
 10
30.7666396531
 20
-46.5415225874
 10
30.7398507447
 20
-46.8622928387
 10
30.7000559781
 20
-47.182180609
 10
30.6473442611
 20
-47.5006739254
 10
30.5819823175
 20
-47.8162368699
 10
30.503910096
 20
-48.1288552247
 10
30.4131876478
 20
-48.4385432075
 10
30.3102618498
 20
-48.7438075527
 10
30.1950748486
 20
-49.0446266802
 10
30.0676844976
 20
-49.3410221702
 10
29.9287112335
 20
-49.6315654978
 10
29.7780994368
 20
-49.9162293833
 10
29.6159047269
 20
-50.1950411065
 10
29.442914399
 20
-50.4666539819
 10
29.2590770202
 20
-50.7310331862
 10
29.0644440234
 20
-50.9882135427
 10
28.8599570029
 20
-51.236952836
 10
28.645568847
 20
-51.4772107072
 10
28.4213266674
 20
-51.7090275152
 10
28.1883133938
 20
-51.9312821217
 10
27.9464867214
 20
-52.1439290481
 10
27.6958889549
 20
-52.347013773
 10
27.4377299382
 20
-52.5395515929
 10
27.1719741781
 20
-52.7214917352
 10
26.8986571678
 20
-52.8928849724
 10
26.61909523
 20
-53.0528989195
 10
26.3332581611
 20
-53.201479722
 10
26.0411761648
 20
-53.3386812345
 10
25.7442561751
 20
-53.4638326348
 10
25.4424749263
 20
-53.5768767672
 10
25.1358556842
 20
-53.6778707875
 10
24.8258751799
 20
-53.7663153415
 10
24.5130256571
 20
-53.8420439777
 10
24.1968148721
 20
-53.9052231475
 10
23.8772428249
 20
-53.955852851
  0
LINE
  5
2FD
100
AcDbEntity
  8
IMPORT_IGES
100
AcDbLine
 62
253
  6
CONTINUOUS
 10
-20.7481745502
 20
52.9279539395
 11
-19.3757733503
 21
51.9426681825
  0
LWPOLYLINE
  5
2FE
100
AcDbEntity
  8
IMPORT_IGES
100
AcDbPolyline
 62
253
  6
CONTINUOUS
 90
22
 70
0
 10
24.7146588295
 20
-51.2560156243
 10
24.683058072
 20
-51.4057339031
 10
24.6460178142
 20
-51.5524149472
 10
24.6037804557
 20
-51.6953895782
 10
24.5567362004
 20
-51.833635229
 10
24.5050041768
 20
-51.9670346217
 10
24.4482897664
 20
-52.0962830764
 10
24.3867880732
 20
-52.2209888679
 10
24.3208743868
 20
-52.3405349226
 10
24.2504037788
 20
-52.4551605777
 10
24.1755936033
 20
-52.5643215832
 10
24.0966773946
 20
-52.6674538314
 10
24.0134473395
 20
-52.764679014
 10
23.9261267448
 20
-52.8557000123
 10
23.8351805948
 20
-52.9399769199
 10
23.7407883787
 20
-53.0172384646
 10
23.6433749212
 20
-53.0869701309
 10
23.5432973529
 20
-53.1487895602
 10
23.4406353985
 20
-53.2026958358
 10
23.3357164716
 20
-53.2485354209
 10
23.2291343435
 20
-53.2860463626
 10
23.1214021051
 20
-53.3150355608
  0
LWPOLYLINE
  5
2FF
100
AcDbEntity
  8
IMPORT_IGES
100
AcDbPolyline
 62
253
  6
CONTINUOUS
 90
52
 70
0
 10
27.4878088773
 20
46.3995454133
 10
27.4281221278
 20
46.5315823874
 10
27.3657055169
 20
46.663825117
 10
27.3005281179
 20
46.7961919206
 10
27.2326026958
 20
46.9285226709
 10
27.1618672089
 20
47.0608128885
 10
27.0881743501
 20
47.1932026591
 10
27.0115186174
 20
47.3255621626
 10
26.9318598575
 20
47.4578279442
 10
26.8489830827
 20
47.5902115827
 10
26.7629220681
 20
47.7225076671
 10
26.6736040545
 20
47.8546880389
 10
26.5806269206
 20
47.9871818759
 10
26.4839254747
 20
48.1198820446
 10
26.3835243709
 20
48.2525623353
 10
26.2791285787
 20
48.3854176123
 10
26.1706407884
 20
48.5183507028
 10
26.0581474796
 20
48.6510318427
 10
25.9416236173
 20
48.783288969
 10
25.8210699073
 20
48.9149846754
 10
25.6964774132
 20
49.0460094998
 10
25.5678066581
 20
49.176284017
 10
25.4349820598
 20
49.3057898762
 10
25.2980996348
 20
49.4343109642
 10
25.157364319
 20
49.5614647331
 10
25.0126894789
 20
49.6871486142
 10
24.8640664483
 20
49.8112027037
 10
24.711831702
 20
49.9332111915
 10
24.5559506101
 20
50.0530852968
 10
24.3963868801
 20
50.1707392032
 10
24.2334948222
 20
50.2858270771
 10
24.0672354599
 20
50.3983003777
 10
23.8976265154
 20
50.5080481475
 10
23.7251319389
 20
50.6146936324
 10
23.5499646003
 20
50.7180560584
 10
23.371945233
 20
50.818191789
 10
23.1909605353
 20
50.9151046415
 10
23.0070805337
 20
51.008694991
 10
22.8202729179
 20
51.0989179375
 10
22.6302623077
 20
51.1858401972
 10
22.4370345453
 20
51.2693972765
 10
22.2406346553
 20
51.3495012149
 10
22.0408686613
 20
51.4261575526
 10
21.8374598376
 20
51.4993839934
 10
21.6307240285
 20
51.5689815704
 10
21.4213688325
 20
51.63466278
 10
21.2093158868
 20
51.696424158
 10
20.99472639
 20
51.7541929603
 10
20.7786972384
 20
51.8076878535
 10
20.5616416895
 20
51.8568652029
 10
20.3432731325
 20
51.901847539
 10
20.1236546278
 20
51.942668165
  0
LWPOLYLINE
  5
300
100
AcDbEntity
  8
IMPORT_IGES
100
AcDbPolyline
 62
253
  6
CONTINUOUS
 90
16
 70
0
 10
27.12144373
 20
45.8853139847
 10
27.193638198
 20
45.7251114826
 10
27.2613073767
 20
45.56089367
 10
27.3243380151
 20
45.3929446317
 10
27.3826612704
 20
45.2213867684
 10
27.4361047692
 20
45.0467074636
 10
27.4844482364
 20
44.8697680886
 10
27.5276394071
 20
44.6910064782
 10
27.5656029379
 20
44.5106789034
 10
27.598153478
 20
44.3294175256
 10
27.6252449095
 20
44.1477504996
 10
27.646837514
 20
43.9659315183
 10
27.6627518576
 20
43.7842473817
 10
27.6728695544
 20
43.6031082404
 10
27.6771591799
 20
43.4230080238
 10
27.6755475118
 20
43.2444065173
  0
LWPOLYLINE
  5
301
100
AcDbEntity
  8
IMPORT_IGES
100
AcDbPolyline
 62
253
  6
CONTINUOUS
 90
13
 70
0
 10
27.6755475118
 20
43.2444065173
 10
27.754534592
 20
43.2033725764
 10
27.8284193676
 20
43.1610940485
 10
27.8969939416
 20
43.117717319
 10
27.9599519663
 20
43.0734631508
 10
28.0172203648
 20
43.0283977466
 10
28.068862586
 20
42.9824169131
 10
28.1146700058
 20
42.9356090496
 10
28.1544948696
 20
42.88815907
 10
28.1883543226
 20
42.8400910325
 10
28.2161552622
 20
42.7915142829
 10
28.2377485032
 20
42.7426279551
 10
28.2530163847
 20
42.6935925021
  0
LWPOLYLINE
  5
302
100
AcDbEntity
  8
IMPORT_IGES
100
AcDbPolyline
 62
253
  6
CONTINUOUS
 90
13
 70
0
 10
29.7595986481
 20
-46.3071943636
 10
29.8407252127
 20
-46.2487332395
 10
29.9164089456
 20
-46.1887056498
 10
29.98642616
 20
-46.1273327755
 10
30.0504453035
 20
-46.0649489669
 10
30.108393203
 20
-46.0016513776
 10
30.1603431663
 20
-45.9372797887
 10
30.2060686011
 20
-45.8719664515
 10
30.2454118593
 20
-45.8059872313
 10
30.2783921698
 20
-45.7393780556
 10
30.3049109213
 20
-45.6723016661
 10
30.3248125141
 20
-45.6050519769
 10
30.3379739858
 20
-45.5378666535
  0
LWPOLYLINE
  5
303
100
AcDbEntity
  8
IMPORT_IGES
100
AcDbPolyline
 62
253
  6
CONTINUOUS
 90
76
 70
0
 10
-19.3757733503
 20
51.9426681825
 10
-19.6046250558
 20
51.9000189417
 10
-19.8320659129
 20
51.8528316454
 10
-20.0580226303
 20
51.801079538
 10
-20.2827724235
 20
51.7446452062
 10
-20.5058914521
 20
51.6835798086
 10
-20.726272343
 20
51.6181778432
 10
-20.9437337962
 20
51.5485265337
 10
-21.1583591797
 20
51.4746347531
 10
-21.3694702338
 20
51.3967917447
 10
-21.5767902196
 20
51.3151897015
 10
-21.7805446093
 20
51.2298333845
 10
-21.9808240218
 20
51.140768123
 10
-22.1776058123
 20
51.0480838995
 10
-22.3708764064
 20
50.9518703233
 10
-22.5607420572
 20
50.8521559401
 10
-22.747205264
 20
50.7490155828
 10
-22.9302452435
 20
50.6425378922
 10
-23.1099341288
 20
50.5327589404
 10
-23.2863814392
 20
50.4196860175
 10
-23.459470132
 20
50.3034660207
 10
-23.6289388608
 20
50.1843629792
 10
-23.7947884332
 20
50.0624986645
 10
-23.9570175684
 20
49.9380031142
 10
-24.1153710704
 20
49.8112072571
 10
-24.2699925353
 20
49.6821411051
 10
-24.4208043592
 20
49.5509776262
 10
-24.5672473627
 20
49.4183370071
 10
-24.709321556
 20
49.2844018421
 10
-24.8471825458
 20
49.1492182225
 10
-24.9804674006
 20
49.0132784924
 10
-25.1089870468
 20
48.8769097742
 10
-25.2329219564
 20
48.7400822282
 10
-25.3524614056
 20
48.6027649701
 10
-25.4675968443
 20
48.4651552647
 10
-25.5783534269
 20
48.3274308981
 10
-25.6849708883
 20
48.1895053236
 10
-25.7874511534
 20
48.0515856014
 10
-25.8858393611
 20
47.9138284195
 10
-25.9804288157
 20
47.7760230209
 10
-26.0712130823
 20
47.6383740968
 10
-26.158267057
 20
47.500976351
 10
-26.2419779588
 20
47.3633968678
 10
-26.3225319744
 20
47.225475027
 10
-26.399803727
 20
47.0875843738
 10
-26.473729024
 20
46.9500561239
 10
-26.5442745572
 20
46.8132185891
 10
-26.6116188949
 20
46.6769835433
 10
-26.6759289408
 20
46.5411340394
 10
-26.7369852634
 20
46.4062283704
 10
-26.794895566
 20
46.2721683973
 10
-26.8502629515
 20
46.1377315824
 10
-26.9030866624
 20
46.003013614
 10
-26.9532601865
 20
45.8683652823
 10
-27.0011919518
 20
45.7328056211
 10
-27.0469869111
 20
45.5961611328
 10
-27.0905886708
 20
45.4587199834
 10
-27.1321289432
 20
45.3201292881
 10
-27.171603557
 20
45.1804101981
 10
-27.2089729583
 20
45.03972096
 10
-27.2442672286
 20
44.8979325254
 10
-27.2774577853
 20
44.7551192966
 10
-27.3085089376
 20
44.611399296
 10
-27.3374223286
 20
44.4667095053
 10
-27.3641613072
 20
44.3211442435
 10
-27.3886898713
 20
44.1748091589
 10
-27.4109977748
 20
44.0276568322
 10
-27.4310569991
 20
43.8796778251
 10
-27.4488075639
 20
43.7310956602
 10
-27.4641943238
 20
43.5822096792
 10
-27.4771931878
 20
43.4330216511
 10
-27.4877596697
 20
43.283753581
 10
-27.4958435484
 20
43.13502237
 10
-27.5014347368
 20
42.987098627
 10
-27.5045345263
 20
42.8399197534
 10
-27.5051351999
 20
42.6935924954
  0
LWPOLYLINE
  5
304
100
AcDbEntity
  8
IMPORT_IGES
100
AcDbPolyline
 62
253
  6
CONTINUOUS
 90
46
 70
0
 10
-19.3757733503
 20
51.9426681825
 10
-18.6453336216
 20
52.0551238589
 10
-17.8984494025
 20
52.1668124703
 10
-17.1350640603
 20
52.2773255897
 10
-16.35495029
 20
52.3862606785
 10
-15.5582314925
 20
52.493171238
 10
-14.7453827311
 20
52.5975824965
 10
-13.9161556454
 20
52.6990953228
 10
-13.0707190599
 20
52.7972302087
 10
-12.2101833622
 20
52.8914248855
 10
-11.333143313
 20
52.9813970508
 10
-10.4409572409
 20
53.0665397877
 10
-9.5389014016
 20
53.145984103
 10
-8.6275367269
 20
53.2194019946
 10
-7.7063072905
 20
53.286554272
 10
-6.7788349935
 20
53.3469714922
 10
-5.8461686062
 20
53.4004304163
 10
-4.9072939138
 20
53.4468059974
 10
-3.9627473775
 20
53.4859020576
 10
-3.011891249
 20
53.5175721589
 10
-2.0554137047
 20
53.5416015356
 10
-1.0958460914
 20
53.5577860596
 10
-0.1322451506
 20
53.5660377142
 10
0.834378515
 20
53.5662303425
 10
1.798558926
 20
53.5583585254
 10
2.7594216685
 20
53.5425278011
 10
3.7177731265
 20
53.5188066641
 10
4.6706726092
 20
53.4874035459
 10
5.6173509925
 20
53.4485336481
 10
6.5585260886
 20
53.4023347262
 10
7.4934942241
 20
53.3490123435
 10
8.4231286713
 20
53.2887029377
 10
9.3465212465
 20
53.221622057
 10
10.2603050824
 20
53.1482175361
 10
11.1653036574
 20
53.0686967103
 10
12.0606867168
 20
52.9833998045
 10
12.9406283563
 20
52.8932500569
 10
13.8035353294
 20
52.7988917682
 10
14.6510490932
 20
52.700594457
 10
15.4822173672
 20
52.5989116714
 10
16.2968531221
 20
52.494331342
 10
17.095223994
 20
52.3872539806
 10
17.8770685004
 20
52.2781246135
 10
18.6423341984
 20
52.1673765052
 10
19.391177352
 20
52.0554218882
 10
20.1236546237
 20
51.9426681825
  0
LWPOLYLINE
  5
305
100
AcDbEntity
  8
IMPORT_IGES
100
AcDbPolyline
 62
253
  6
CONTINUOUS
 90
46
 70
0
 10
21.3527635209
 20
49.7862540948
 10
20.5717952574
 20
49.9033816847
 10
19.7719063537
 20
50.0186081957
 10
18.9543463997
 20
50.1319353056
 10
18.1214896269
 20
50.2437523522
 10
17.2734745826
 20
50.3536722631
 10
16.4079636438
 20
50.460534987
 10
15.5257296652
 20
50.5644449586
 10
14.6280568167
 20
50.665304077
 10
13.7131984061
 20
50.7616356843
 10
12.7807211097
 20
50.8534679957
 10
11.8335184902
 20
50.9407245657
 10
10.87487642
 20
51.0217632895
 10
9.9071050243
 20
51.0962083441
 10
8.9307541337
 20
51.1643609396
 10
7.9465460044
 20
51.2255870594
 10
6.9569866191
 20
51.2797590362
 10
5.9623675402
 20
51.3269055241
 10
4.9601266298
 20
51.3666254722
 10
3.9501353814
 20
51.3988720252
 10
2.9357671359
 20
51.4235529007
 10
1.9205254875
 20
51.4401850684
 10
0.8998492538
 20
51.4485415863
 10
-0.1258320009
 20
51.4486446673
 10
-1.1464068161
 20
51.4404935675
 10
-2.1614401341
 20
51.4240704866
 10
-3.175694226
 20
51.3995976889
 10
-4.1858323276
 20
51.3675458843
 10
-5.1884549156
 20
51.3280137962
 10
-6.1836891435
 20
51.2810421253
 10
-7.1742680462
 20
51.2270008502
 10
-8.1601127907
 20
51.1658425824
 10
-9.1384933324
 20
51.0977146152
 10
-10.1082054822
 20
51.0232774446
 10
-11.0684323741
 20
50.9422486072
 10
-12.0171228264
 20
50.8549855562
 10
-12.951297257
 20
50.763101082
 10
-13.8682409999
 20
50.6666546119
 10
-14.7681728283
 20
50.5656356339
 10
-15.6525542608
 20
50.4615436538
 10
-16.5201040138
 20
50.3544653602
 10
-17.3700365366
 20
50.2443077162
 10
-18.2044103093
 20
50.1322871844
 10
-19.0230117593
 20
50.0188093208
 10
-19.8235785756
 20
49.9034656202
 10
-20.6048822024
 20
49.7862540997
  0
LWPOLYLINE
  5
306
100
AcDbEntity
  8
IMPORT_IGES
100
AcDbPolyline
 62
253
  6
CONTINUOUS
 90
31
 70
0
 10
21.3528240672
 20
49.7862422752
 10
21.7213083066
 20
49.7237844783
 10
22.0737353297
 20
49.6501385618
 10
22.4098982751
 20
49.5664354558
 10
22.7289742837
 20
49.4741054252
 10
23.0316893895
 20
49.3740986826
 10
23.3202148935
 20
49.2666273864
 10
23.5949324507
 20
49.1524209271
 10
23.8556051844
 20
49.0326868526
 10
24.1034311521
 20
48.9080329189
 10
24.3385319509
 20
48.7793861148
 10
24.5611174666
 20
48.6475817858
 10
24.772491622
 20
48.5128084309
 10
24.9728604134
 20
48.3757172955
 10
25.1625316615
 20
48.2368555131
 10
25.3429127861
 20
48.0959289716
 10
25.5144293625
 20
47.9532392208
 10
25.6770967157
 20
47.8094532353
 10
25.8314839382
 20
47.664561649
 10
25.9774373129
 20
47.5191248852
 10
26.1151417798
 20
47.3732819357
 10
26.245485826
 20
47.2263740223
 10
26.3684265708
 20
47.0788983705
 10
26.4839824817
 20
46.9314346697
 10
26.593030935
 20
46.7832946369
 10
26.6956079371
 20
46.6347887774
 10
26.7917747441
 20
46.486295305
 10
26.8823399904
 20
46.3369965833
 10
26.9675625995
 20
46.1867299315
 10
27.0472420318
 20
46.0360947573
 10
27.121443766
 20
45.8853139895
  0
LWPOLYLINE
  5
307
100
AcDbEntity
  8
IMPORT_IGES
100
AcDbPolyline
 62
7
  6
CONTINUOUS
 90
34
 70
0
 10
-20.7481745502
 20
52.9279539395
 10
-21.1356289893
 20
52.8270805522
 10
-21.517391606
 20
52.7113645389
 10
-21.8934624003
 20
52.5808058997
 10
-22.2644055705
 20
52.4351510436
 10
-22.6296569182
 20
52.2746535615
 10
-22.9875238492
 20
52.1000742265
 10
-23.3379725881
 20
51.9113448011
 10
-23.6810369102
 20
51.7085335228
 10
-24.0151255468
 20
51.4926058776
 10
-24.3401985836
 20
51.2635024526
 10
-24.6562959349
 20
51.0212826607
 10
-24.9619460752
 20
50.7670902265
 10
-25.2571020894
 20
50.5008701956
 10
-25.5418108925
 20
50.2226775223
 10
-25.8147417041
 20
49.9338207938
 10
-26.0758406829
 20
49.6342513255
 10
-26.3251616701
 20
49.324017802
 10
-26.5615354096
 20
49.0045748634
 10
-26.7849028671
 20
48.6758801832
 10
-26.9953230768
 20
48.3379760879
 10
-27.1918038849
 20
47.9924441969
 10
-27.3742813428
 20
47.6392508539
 10
-27.5428193992
 20
47.2784297152
 10
-27.6966177463
 20
46.9116633696
 10
-27.8356098663
 20
46.5389256627
 10
-27.9598622771
 20
46.1602427489
 10
-28.068774225
 20
45.7773756798
 10
-28.1622774596
 20
45.3903061297
 10
-28.2404402314
 20
44.9990524243
 10
-28.3028665381
 20
44.6054305922
 10
-28.3494243792
 20
44.2100459762
 10
-28.3802457552
 20
43.8122932335
 10
-28.3953306663
 20
43.412172364
  0
LWPOLYLINE
  5
308
100
AcDbEntity
  8
IMPORT_IGES
100
AcDbPolyline
 62
7
  6
CONTINUOUS
 90
34
 70
0
 10
21.5546421339
 20
52.9955541707
 10
21.9423798404
 20
52.8944730635
 10
22.3245257839
 20
52.7784586386
 10
22.7010799644
 20
52.6475108961
 10
23.0726190837
 20
52.5013710299
 10
23.4385664401
 20
52.3402978461
 10
23.7971919276
 20
52.1650677629
 10
24.1484611005
 20
51.9756147866
 10
24.4924084047
 20
51.7720049109
 10
24.8274070712
 20
51.5552125349
 10
25.1534150257
 20
51.3251760776
 10
25.4704743425
 20
51.0819571199
 10
25.7770844767
 20
50.826714804
 10
26.0731962109
 20
50.5593930556
 10
26.3588587624
 20
50.2800479489
 10
26.6327192386
 20
49.9900068482
 10
26.8947224213
 20
49.6892195419
 10
27.1449235287
 20
49.3777362416
 10
27.3821353226
 20
49.0570349472
 10
27.6062968668
 20
48.727072565
 10
27.8174690974
 20
48.3878921887
 10
28.0146475848
 20
48.0411010998
 10
28.1977669617
 20
47.6866633279
 10
28.3668925953
 20
47.3246148433
 10
28.5212161571
 20
46.9566708388
 10
28.6606684423
 20
46.582803506
 10
28.7853186556
 20
46.2030406532
 10
28.8945660825
 20
45.819180898
 10
28.988338854
 20
45.431204833
 10
29.066708839
 20
45.0391318654
 10
29.12929093
 20
44.644818835
 10
29.1759567578
 20
44.2488846882
 10
29.2068346915
 20
43.8507104785
 10
29.2219247311
 20
43.4502962058
  0
LINE
  5
309
100
AcDbEntity
  8
IMPORT_IGES
100
AcDbLine
 62
7
  6
CONTINUOUS
 10
-61.8897074859
 20
-55.3466148848
 11
-61.8866429373
 21
-55.3462337986
  0
LINE
  5
30A
100
AcDbEntity
  8
IMPORT_IGES
100
AcDbLine
 62
7
  6
CONTINUOUS
 10
-61.9632798334
 20
-55.3546694755
 11
-61.8897074859
 21
-55.3466148848
  0
LWPOLYLINE
  5
30B
100
AcDbEntity
  8
IMPORT_IGES
100
AcDbPolyline
 62
7
  6
CONTINUOUS
 90
4
 70
0
 10
-62.1325879812
 20
-55.3713649518
 10
-62.0815889992
 20
-55.366647469
 10
-62.0363110858
 20
-55.3621603496
 10
-61.9632798334
 20
-55.3546694755
  0
LWPOLYLINE
  5
30C
100
AcDbEntity
  8
IMPORT_IGES
100
AcDbPolyline
 62
7
  6
CONTINUOUS
 90
9
 70
0
 10
-62.8233480973
 20
-55.4116028198
 10
-62.7283211341
 20
-55.4085450772
 10
-62.6373641155
 20
-55.4050466466
 10
-62.5507060565
 20
-55.4011075279
 10
-62.4685606559
 20
-55.396611181
 10
-62.3911414508
 20
-55.391674146
 10
-62.3186582161
 20
-55.3866460435
 10
-62.2512869386
 20
-55.3815362701
 10
-62.1325879812
 20
-55.3713649518
  0
LINE
  5
30D
100
AcDbEntity
  8
IMPORT_IGES
100
AcDbLine
 62
7
  6
CONTINUOUS
 10
-63.5375520106
 20
-55.4314503088
 11
-66.8866429373
 21
-55.5456264937
  0
LINE
  5
30E
100
AcDbEntity
  8
IMPORT_IGES
100
AcDbLine
 62
7
  6
CONTINUOUS
 10
-62.8233480973
 20
-55.4116028198
 11
-63.5375520106
 21
-55.4314503088
  0
LWPOLYLINE
  5
30F
100
AcDbEntity
  8
IMPORT_IGES
100
AcDbPolyline
 62
253
  6
CONTINUOUS
 90
79
 70
0
 10
-75.3986289731
 20
-53.3150355608
 10
-75.2826996517
 20
-53.2966672165
 10
-75.1670098622
 20
-53.2741954651
 10
-75.051664817
 20
-53.247600939
 10
-74.9365831655
 20
-53.2168159959
 10
-74.8220444979
 20
-53.1818663343
 10
-74.708692286
 20
-53.1429409026
 10
-74.5967092028
 20
-53.1001340254
 10
-74.4860872715
 20
-53.0534813225
 10
-74.3771771415
 20
-53.0031870891
 10
-74.2702024268
 20
-52.9494364351
 10
-74.1650741488
 20
-52.8922742038
 10
-74.0616655746
 20
-52.8317132773
 10
-73.9600260052
 20
-52.7678479731
 10
-73.8602086798
 20
-52.70078286
 10
-73.7620885214
 20
-52.6305078821
 10
-73.665691135
 20
-52.5570998159
 10
-73.5710682354
 20
-52.4806511514
 10
-73.4781321203
 20
-52.4011441683
 10
-73.3868234302
 20
-52.3185950258
 10
-73.2972615179
 20
-52.2331375575
 10
-73.2096199934
 20
-52.1449334097
 10
-73.1239623055
 20
-52.0541541958
 10
-73.0402665924
 20
-51.9608994613
 10
-72.9585706286
 20
-51.8652459036
 10
-72.8787874976
 20
-51.767160643
 10
-72.801013673
 20
-51.6668524295
 10
-72.7255382832
 20
-51.5647577217
 10
-72.6523285199
 20
-51.4608815229
 10
-72.5813467379
 20
-51.3552813685
 10
-72.5129014084
 20
-51.2486030239
 10
-72.4472481331
 20
-51.1412855996
 10
-72.3843153175
 20
-51.0332341471
 10
-72.3239965573
 20
-50.9243590326
 10
-72.2663954611
 20
-50.8149389524
 10
-72.2115098742
 20
-50.7050810577
 10
-72.1590834351
 20
-50.5943892303
 10
-72.1091309874
 20
-50.4829796409
 10
-72.0617220719
 20
-50.3711451813
 10
-72.0167015764
 20
-50.2586625973
 10
-71.9740652043
 20
-50.1456132551
 10
-71.9338472264
 20
-50.0321949053
 10
-71.8959626486
 20
-49.9183081516
 10
-71.8603828564
 20
-49.8039894936
 10
-71.8271260619
 20
-49.6894149622
 10
-71.7961774359
 20
-49.5746779588
 10
-71.7675218413
 20
-49.4598874841
 10
-71.7411578455
 20
-49.3451831161
 10
-71.7170820119
 20
-49.230702186
 10
-71.6953057156
 20
-49.1168054781
 10
-71.6757669776
 20
-49.0033894943
 10
-71.6583740769
 20
-48.8898613265
 10
-71.6431345664
 20
-48.7765156906
 10
-71.6299923804
 20
-48.6633135634
 10
-71.6188456109
 20
-48.5491046174
 10
-71.6097137814
 20
-48.4337999621
 10
-71.6025991816
 20
-48.3178012758
 10
-71.597469033
 20
-48.2006350789
 10
-71.5943704297
 20
-48.0822890101
 10
-71.5933378542
 20
-47.963061031
 10
-71.5943463805
 20
-47.8429102804
 10
-71.5974272238
 20
-47.7220486353
 10
-71.6025838043
 20
-47.6004953787
 10
-71.6097671844
 20
-47.4778937597
 10
-71.6190152939
 20
-47.3543412384
 10
-71.630373722
 20
-47.2299741245
 10
-71.6438470914
 20
-47.1044861746
 10
-71.6594162389
 20
-46.9779327315
 10
-71.6771119535
 20
-46.8504554522
 10
-71.6970254096
 20
-46.7218809367
 10
-71.7191472935
 20
-46.5922436065
 10
-71.7434606131
 20
-46.4617491073
 10
-71.7700540787
 20
-46.3305129328
 10
-71.7989120712
 20
-46.1986437826
 10
-71.829990379
 20
-46.0663472876
 10
-71.8633262007
 20
-45.9339152181
 10
-71.8988955683
 20
-45.8015753487
 10
-71.9366151308
 20
-45.6694844191
 10
-71.9764204753
 20
-45.537848319
  0
LINE
  5
310
100
AcDbEntity
  8
IMPORT_IGES
100
AcDbLine
 62
253
  6
CONTINUOUS
 10
-84.1475670189
 20
-54.0630238667
 11
-84.1445371176
 21
-54.0626409966
  0
LINE
  5
311
100
AcDbEntity
  8
IMPORT_IGES
100
AcDbLine
 62
253
  6
CONTINUOUS
 10
-84.1445371176
 20
-54.0626409966
 11
-83.7128797295
 21
-54.0134823368
  0
LINE
  5
312
100
AcDbEntity
  8
IMPORT_IGES
100
AcDbLine
 62
253
  6
CONTINUOUS
 10
-83.7128797295
 20
-54.0134823368
 11
-83.1110178354
 21
-53.9469573108
  0
LINE
  5
313
100
AcDbEntity
  8
IMPORT_IGES
100
AcDbLine
 62
253
  6
CONTINUOUS
 10
-83.1110178354
 20
-53.9469573108
 11
-82.2599262441
 21
-53.8570476282
  0
LINE
  5
314
100
AcDbEntity
  8
IMPORT_IGES
100
AcDbLine
 62
253
  6
CONTINUOUS
 10
-82.2599262441
 20
-53.8570476282
 11
-81.5592033382
 21
-53.786776848
  0
LINE
  5
315
100
AcDbEntity
  8
IMPORT_IGES
100
AcDbLine
 62
253
  6
CONTINUOUS
 10
-81.5592033382
 20
-53.786776848
 11
-80.7562362338
 21
-53.7104260959
  0
LINE
  5
316
100
AcDbEntity
  8
IMPORT_IGES
100
AcDbLine
 62
253
  6
CONTINUOUS
 10
-80.7562362338
 20
-53.7104260959
 11
-79.8580467243
 21
-53.6302416601
  0
LWPOLYLINE
  5
317
100
AcDbEntity
  8
IMPORT_IGES
100
AcDbPolyline
 62
253
  6
CONTINUOUS
 90
8
 70
0
 10
-79.8580467243
 20
-53.6302416601
 10
-78.8683867362
 20
-53.5484626344
 10
-78.3409262866
 20
-53.5076619193
 10
-77.7917669681
 20
-53.4672675774
 10
-77.2227713223
 20
-53.4275393051
 10
-76.6345601964
 20
-53.388749627
 10
-76.0265127433
 20
-53.3511632337
 10
-75.3986289629
 20
-53.3150355832
  0
LWPOLYLINE
  5
318
100
AcDbEntity
  8
IMPORT_IGES
100
AcDbPolyline
 62
253
  6
CONTINUOUS
 90
22
 70
0
 10
-62.8233480973
 20
-53.8332276365
 10
-62.4738581821
 20
-53.8155368113
 10
-62.1246286162
 20
-53.7859928555
 10
-61.776094093
 20
-53.7445703819
 10
-61.4287453926
 20
-53.6912705878
 10
-61.0829683005
 20
-53.6260905744
 10
-60.7390467067
 20
-53.5490050058
 10
-60.3973907035
 20
-53.4600226055
 10
-60.058486668
 20
-53.3591869465
 10
-59.7227403304
 20
-53.2465275515
 10
-59.3905802638
 20
-53.1220983851
 10
-59.0624837911
 20
-52.9859871733
 10
-58.7389304029
 20
-52.8382972472
 10
-58.4204222953
 20
-52.6791724215
 10
-58.107353345
 20
-52.5087226926
 10
-57.8000443211
 20
-52.3270152589
 10
-57.4989352535
 20
-52.134197148
 10
-57.2044859871
 20
-51.9304465996
 10
-56.9170573203
 20
-51.715880951
 10
-56.6370700144
 20
-51.4906734951
 10
-56.3649964807
 20
-51.2550639396
 10
-56.1012752525
 20
-51.0092871849
  0
LINE
  5
319
100
AcDbEntity
  8
IMPORT_IGES
100
AcDbLine
 62
253
  6
CONTINUOUS
 10
-62.823348097
 20
-53.8332276364
 11
-66.8866429872
 21
-53.9558514359
  0
LINE
  5
31A
100
AcDbEntity
  8
IMPORT_IGES
100
AcDbLine
 62
7
  6
CONTINUOUS
 10
-67.8866429373
 20
-54.918274986
 11
-66.8866429373
 21
-54.918274986
  0
LINE
  5
31B
100
AcDbEntity
  8
IMPORT_IGES
100
AcDbLine
 62
253
  6
CONTINUOUS
 10
-67.8866429373
 20
-53.3007646438
 11
-66.8866429373
 21
-53.3007646438
  0
LINE
  5
31C
100
AcDbEntity
  8
IMPORT_IGES
100
AcDbLine
 62
253
  6
CONTINUOUS
 10
-67.8866429373
 20
-53.884041394
 11
-75.3986289629
 21
-53.3150355832
  0
LINE
  5
31D
100
AcDbEntity
  8
IMPORT_IGES
100
AcDbLine
 62
7
  6
CONTINUOUS
 10
-84.1475670189
 20
-54.0630238667
 11
-67.8866429373
 21
-55.4856703823
  0
LINE
  5
31E
100
AcDbEntity
  8
IMPORT_IGES
100
AcDbLine
 62
253
  6
CONTINUOUS
 10
-86.2015389296
 20
-52.1359377409
 11
-86.665422253
 21
-52.1949038607
  0
LINE
  5
31F
100
AcDbEntity
  8
IMPORT_IGES
100
AcDbLine
 62
253
  6
CONTINUOUS
 10
-85.5552073794
 20
-52.0569382964
 11
-86.2015389296
 21
-52.1359377409
  0
LINE
  5
320
100
AcDbEntity
  8
IMPORT_IGES
100
AcDbLine
 62
253
  6
CONTINUOUS
 10
-84.638710234
 20
-51.9495260928
 11
-85.5552073794
 21
-52.0569382964
  0
LINE
  5
321
100
AcDbEntity
  8
IMPORT_IGES
100
AcDbLine
 62
253
  6
CONTINUOUS
 10
-83.8831935697
 20
-51.8643001486
 11
-84.638710234
 21
-51.9495260928
  0
LINE
  5
322
100
AcDbEntity
  8
IMPORT_IGES
100
AcDbLine
 62
253
  6
CONTINUOUS
 10
-83.0171104535
 20
-51.7703368821
 11
-83.8831935697
 21
-51.8643001486
  0
LINE
  5
323
100
AcDbEntity
  8
IMPORT_IGES
100
AcDbLine
 62
253
  6
CONTINUOUS
 10
-86.665422253
 20
-52.1949038607
 11
-86.6690224428
 21
-52.1952868855
  0
LWPOLYLINE
  5
324
100
AcDbEntity
  8
IMPORT_IGES
100
AcDbPolyline
 62
253
  6
CONTINUOUS
 90
10
 70
0
 10
-77.1932199702
 20
-51.2560156243
 10
-77.8808691395
 20
-51.3065722329
 10
-78.5455720873
 20
-51.3579475747
 10
-79.1873346587
 20
-51.4099202755
 10
-79.8066722458
 20
-51.4622676362
 10
-80.4030656245
 20
-51.5147504438
 10
-80.9751639039
 20
-51.5671135335
 10
-81.5227318034
 20
-51.6191145495
 10
-82.0460474972
 20
-51.6705002707
 10
-83.0171104535
 20
-51.7703368821
  0
LWPOLYLINE
  5
325
100
AcDbEntity
  8
IMPORT_IGES
100
AcDbPolyline
 62
7
  6
CONTINUOUS
 90
17
 70
0
 10
-87.8747055067
 20
-46.9622805652
 10
-87.9462125748
 20
-46.9730372358
 10
-88.0180363279
 20
-46.9929691145
 10
-88.0873601469
 20
-47.0219156228
 10
-88.1521576961
 20
-47.0593572024
 10
-88.2114221264
 20
-47.1042936492
 10
-88.2649225247
 20
-47.1560362003
 10
-88.311452328
 20
-47.2134926392
 10
-88.3497691944
 20
-47.2753818914
 10
-88.3799357814
 20
-47.3410864327
 10
-88.4019668002
 20
-47.4090626121
 10
-88.4158128674
 20
-47.4775831852
 10
-88.4215139712
 20
-47.5456609747
 10
-88.4194272081
 20
-47.6115878034
 10
-88.4104631732
 20
-47.6749808503
 10
-88.3949817212
 20
-47.736691757
 10
-88.3840004713
 20
-47.7690580804
  0
LWPOLYLINE
  5
326
100
AcDbEntity
  8
IMPORT_IGES
100
AcDbPolyline
 62
253
  6
CONTINUOUS
 90
12
 70
0
 10
-84.3707860904
 20
-47.4061985304
 10
-84.2986983429
 20
-47.3957405779
 10
-84.229482128
 20
-47.3771407506
 10
-84.16332994
 20
-47.3508196738
 10
-84.1004453149
 20
-47.3172849924
 10
-84.0409414944
 20
-47.2768475497
 10
-83.9848851059
 20
-47.2295587926
 10
-83.9324881432
 20
-47.1756712752
 10
-83.8838392422
 20
-47.1155808959
 10
-83.8388663624
 20
-47.0494144384
 10
-83.7977023256
 20
-46.9772920087
 10
-83.7605062803
 20
-46.8995524363
  0
LINE
  5
327
100
AcDbEntity
  8
IMPORT_IGES
100
AcDbLine
 62
253
  6
CONTINUOUS
 10
-88.3840004705
 20
-47.7690580818
 11
-88.2473216234
 21
-47.756404245
  0
LINE
  5
328
100
AcDbEntity
  8
IMPORT_IGES
100
AcDbLine
 62
253
  6
CONTINUOUS
 10
-88.2473216234
 20
-47.756404245
 11
-84.3708027868
 21
-47.406146213
  0
LINE
  5
329
100
AcDbEntity
  8
IMPORT_IGES
100
AcDbLine
 62
7
  6
CONTINUOUS
 10
-83.9214473657
 20
-46.6164146105
 11
-87.8743011892
 21
-46.9622445087
  0
LINE
  5
32A
100
AcDbEntity
  8
IMPORT_IGES
100
AcDbLine
 62
253
  6
CONTINUOUS
 10
-66.8866429373
 20
-45.8957987234
 11
-62.8233480973
 21
-45.7723408809
  0
LWPOLYLINE
  5
32B
100
AcDbEntity
  8
IMPORT_IGES
100
AcDbPolyline
 62
253
  6
CONTINUOUS
 90
22
 70
0
 10
-62.8233480973
 20
-45.7723408809
 10
-62.4672486062
 20
-45.7692574455
 10
-62.1121125963
 20
-45.764144061
 10
-61.7583908543
 20
-45.756999904
 10
-61.406583273
 20
-45.7477984564
 10
-61.0570835778
 20
-45.7365636901
 10
-60.7101823704
 20
-45.7233703871
 10
-60.3662857136
 20
-45.7082158404
 10
-60.0258704978
 20
-45.6910992344
 10
-59.6893331728
 20
-45.6720981358
 10
-59.3571042427
 20
-45.6512099466
 10
-59.0296143031
 20
-45.6284322058
 10
-58.7072556778
 20
-45.6038424126
 10
-58.3904619954
 20
-45.5774380714
 10
-58.07963046
 20
-45.5492151085
 10
-57.7750955109
 20
-45.5192484569
 10
-57.4772717051
 20
-45.4875330719
 10
-57.1865441778
 20
-45.4540661429
 10
-56.9032047091
 20
-45.418925894
 10
-56.6276109125
 20
-45.3821354791
 10
-56.3601769898
 20
-45.3436627759
 10
-56.1012752525
 20
-45.3035028987
  0
LINE
  5
32C
100
AcDbEntity
  8
IMPORT_IGES
100
AcDbLine
 62
253
  6
CONTINUOUS
 10
-66.8866429373
 20
-45.9973018013
 11
-67.8866429373
 21
-45.9973018013
  0
LINE
  5
32D
100
AcDbEntity
  8
IMPORT_IGES
100
AcDbLine
 62
253
  6
CONTINUOUS
 10
-71.9764204749
 20
-45.5378483187
 11
-67.8866429373
 21
-45.8494488842
  0
LWPOLYLINE
  5
32E
100
AcDbEntity
  8
IMPORT_IGES
100
AcDbPolyline
 62
253
  6
CONTINUOUS
 90
10
 70
0
 10
-83.9365826991
 20
-44.7781340441
 10
-83.9352602635
 20
-44.7787456731
 10
-83.9319237481
 20
-44.7786685727
 10
-83.9265501502
 20
-44.7778794717
 10
-83.9191597254
 20
-44.7763763361
 10
-83.9097746004
 20
-44.7741623827
 10
-83.8983826812
 20
-44.7712327792
 10
-83.8850167289
 20
-44.7675936967
 10
-83.8697878459
 20
-44.7632750309
 10
-83.8528137445
 20
-44.7583116284
  0
LWPOLYLINE
  5
32F
100
AcDbEntity
  8
IMPORT_IGES
100
AcDbPolyline
 62
253
  6
CONTINUOUS
 90
13
 70
0
 10
-79.4358303033
 20
45.8853139895
 10
-79.3327149962
 20
45.9359020769
 10
-79.2265762103
 20
45.9854147338
 10
-79.1177000907
 20
46.0337122776
 10
-79.0065513491
 20
46.0805887947
 10
-78.8932853036
 20
46.125998434
 10
-78.7776828089
 20
46.1700265399
 10
-78.6599519991
 20
46.2125726384
 10
-78.5405028512
 20
46.2534864863
 10
-78.4193800896
 20
46.2927458567
 10
-78.2968162716
 20
46.3302575645
 10
-78.1732442188
 20
46.3658894315
 10
-78.0490103151
 20
46.3995454133
  0
LINE
  5
330
100
AcDbEntity
  8
IMPORT_IGES
100
AcDbLine
 62
253
  6
CONTINUOUS
 10
-53.3310130592
 20
-42.993486608
 11
-53.472429375
 21
-42.9907426218
  0
LINE
  5
331
100
AcDbEntity
  8
IMPORT_IGES
100
AcDbLine
 62
253
  6
CONTINUOUS
 10
-53.2074346011
 20
-42.9964638022
 11
-53.3310130592
 21
-42.993486608
  0
LWPOLYLINE
  5
332
100
AcDbEntity
  8
IMPORT_IGES
100
AcDbPolyline
 62
7
  6
CONTINUOUS
 90
17
 70
0
 10
-91.6092775671
 20
51.4496309245
 10
-92.6836545114
 20
47.7586094582
 10
-93.7194871497
 20
43.8579760005
 10
-94.6505004937
 20
39.9682116874
 10
-95.4772586662
 20
36.0904482667
 10
-96.2008009678
 20
32.2237079091
 10
-96.8223667851
 20
28.3649056575
 10
-97.342461267
 20
24.5142657258
 10
-97.7616325697
 20
20.6717159749
 10
-98.0806549495
 20
16.8337309705
 10
-98.2997763535
 20
13.0002235198
 10
-98.4192215164
 20
9.1714355192
 10
-98.4392068171
 20
5.3443410254
 10
-98.3597331208
 20
1.5190877395
 10
-98.1808012023
 20
-2.3043122505
 10
-97.9021528271
 20
-6.1290812947
 10
-97.4939630088
 20
-10.2175000094
  0
LWPOLYLINE
  5
333
100
AcDbEntity
  8
IMPORT_IGES
100
AcDbPolyline
 62
7
  6
CONTINUOUS
 90
13
 70
0
 10
-86.6690279555
 20
-52.1952841323
 10
-86.6314309513
 20
-52.2844004647
 10
-86.4929345722
 20
-52.5592901652
 10
-86.3257444277
 20
-52.8205669028
 10
-86.1326499033
 20
-53.0626785741
 10
-85.916329671
 20
-53.2830502731
 10
-85.6774960083
 20
-53.4809893982
 10
-85.4196667873
 20
-53.6527745827
 10
-85.1471255482
 20
-53.7964731691
 10
-84.860170113
 20
-53.9119498502
 10
-84.5617993489
 20
-53.9972910795
 10
-84.2583043131
 20
-54.0512441926
 10
-84.1477295263
 20
-54.0630111117
  0
LWPOLYLINE
  5
334
100
AcDbEntity
  8
IMPORT_IGES
100
AcDbPolyline
 62
7
  6
CONTINUOUS
 90
3
 70
0
 10
-88.3839684033
 20
-47.7690461828
 10
-88.1129420423
 20
-48.4925647596
 10
-86.6690144035
 20
-52.1952973254
  0
LWPOLYLINE
  5
335
100
AcDbEntity
  8
IMPORT_IGES
100
AcDbPolyline
 62
253
  6
CONTINUOUS
 90
10
 70
0
 10
-90.2574418371
 20
-21.0131454405
 10
-90.2562767203
 20
-21.013512502
 10
-90.2529084144
 20
-21.0134794144
 10
-90.2473077223
 20
-21.0130371803
 10
-90.2395082516
 20
-21.0121872881
 10
-90.2295384533
 20
-21.0109322932
 10
-90.2173855357
 20
-21.009268816
 10
-90.2030843378
 20
-21.0072003348
 10
-90.1867572424
 20
-21.0047447773
 10
-90.1685430646
 20
-21.0019239742
  0
LWPOLYLINE
  5
336
100
AcDbEntity
  8
IMPORT_IGES
100
AcDbPolyline
 62
253
  6
CONTINUOUS
 90
19
 70
0
 10
-91.3053609474
 20
-18.6749844868
 10
-91.2268269118
 20
-18.7557493949
 10
-91.1494834222
 20
-18.8419655974
 10
-91.0733673296
 20
-18.9336590953
 10
-90.9985097264
 20
-19.0308028436
 10
-90.9255231374
 20
-19.1325007558
 10
-90.8544600277
 20
-19.238752757
 10
-90.7853357023
 20
-19.3495578823
 10
-90.7187176526
 20
-19.464018678
 10
-90.6546561912
 20
-19.5822062897
 10
-90.5931630931
 20
-19.7040486069
 10
-90.5347554712
 20
-19.8284333149
 10
-90.479476781
 20
-19.9555226073
 10
-90.4273353479
 20
-20.0851534941
 10
-90.3788010304
 20
-20.2157259814
 10
-90.3339628698
 20
-20.3472148077
 10
-90.292771797
 20
-20.4796447234
 10
-90.2554940595
 20
-20.6114909046
 10
-90.2222284503
 20
-20.7422450394
  0
LWPOLYLINE
  5
337
100
AcDbEntity
  8
IMPORT_IGES
100
AcDbPolyline
 62
7
  6
CONTINUOUS
 90
13
 70
0
 10
-96.4226796672
 20
-17.8739105929
 10
-96.411644913
 20
-17.9250939477
 10
-96.3935208429
 20
-17.9818728887
 10
-96.3691188488
 20
-18.0384742119
 10
-96.3384305998
 20
-18.0939227143
 10
-96.3015710502
 20
-18.146950915
 10
-96.2581925334
 20
-18.1967841923
 10
-96.208386272
 20
-18.2419110454
 10
-96.1526046139
 20
-18.281479386
 10
-96.0909781016
 20
-18.3153748672
 10
-96.0243299583
 20
-18.3427854389
 10
-95.9544185995
 20
-18.3625249906
 10
-95.8835328584
 20
-18.3734782112
  0
LWPOLYLINE
  5
338
100
AcDbEntity
  8
IMPORT_IGES
100
AcDbPolyline
 62
253
  6
CONTINUOUS
 90
22
 70
0
 10
-84.3489620898
 20
49.7862314229
 10
-84.3031251352
 20
49.9368012062
 10
-84.2513322842
 20
50.0847514059
 10
-84.1939019722
 20
50.2294063439
 10
-84.1313424767
 20
50.3697316142
 10
-84.0637965802
 20
50.5056029067
 10
-83.9908875486
 20
50.637725078
 10
-83.9128615999
 20
50.7656985283
 10
-83.830181477
 20
50.8888892588
 10
-83.7426673496
 20
51.0075435627
 10
-83.6505992953
 20
51.1211104913
 10
-83.5542773577
 20
51.2290182121
 10
-83.4534606999
 20
51.3314029805
 10
-83.3484207054
 20
51.427955885
 10
-83.2397163363
 20
51.5181112242
 10
-83.1275671328
 20
51.6015884864
 10
-83.0124812859
 20
51.6778521987
 10
-82.8948891911
 20
51.7464998175
 10
-82.7748918877
 20
51.8075206627
 10
-82.6528723559
 20
51.860739107
 10
-82.5295130759
 20
51.9058564342
 10
-82.4054041833
 20
51.942645526
  0
LINE
  5
339
100
AcDbEntity
  8
IMPORT_IGES
100
AcDbLine
 62
253
  6
CONTINUOUS
 10
-96.3859016754
 20
-17.877376207
 11
-92.0908367797
 21
-18.2390294577
  0
LINE
  5
33A
100
AcDbEntity
  8
IMPORT_IGES
100
AcDbLine
 62
7
  6
CONTINUOUS
 10
-91.6175289155
 20
-18.7467054526
 11
-95.8816594169
 21
-18.3736423739
  0
LWPOLYLINE
  5
33B
100
AcDbEntity
  8
IMPORT_IGES
100
AcDbPolyline
 62
253
  6
CONTINUOUS
 90
19
 70
0
 10
-91.6175703449
 20
-18.7467017844
 10
-91.6568780983
 20
-18.7413973987
 10
-91.695684212
 20
-18.7325725736
 10
-91.7335684455
 20
-18.7205570374
 10
-91.7699043787
 20
-18.7057844219
 10
-91.8046614293
 20
-18.6884769639
 10
-91.8383426705
 20
-18.6684298016
 10
-91.8707876087
 20
-18.6456275675
 10
-91.9015641485
 20
-18.6202333378
 10
-91.9306763293
 20
-18.5920313991
 10
-91.9578452048
 20
-18.5610143771
 10
-91.9828705905
 20
-18.527459011
 10
-92.0057777852
 20
-18.4914720627
 10
-92.0263817362
 20
-18.4534360502
 10
-92.0445765526
 20
-18.4136139153
 10
-92.0603643848
 20
-18.3718921629
 10
-92.0735232083
 20
-18.3284830776
 10
-92.083708974
 20
-18.2839724053
 10
-92.0906270517
 20
-18.2388523268
  0
LWPOLYLINE
  5
33C
100
AcDbEntity
  8
IMPORT_IGES
100
AcDbPolyline
 62
253
  6
CONTINUOUS
 90
11
 70
0
 10
-92.0908367797
 20
-18.2390294577
 10
-92.0158275127
 20
-18.249499147
 10
-91.9397077107
 20
-18.2675408906
 10
-91.8624946146
 20
-18.2931544206
 10
-91.7839370461
 20
-18.3265371827
 10
-91.7043125368
 20
-18.3674912141
 10
-91.6244454334
 20
-18.4154229929
 10
-91.5444098575
 20
-18.4703702488
 10
-91.4641848729
 20
-18.5322944181
 10
-91.3844779762
 20
-18.6004873156
 10
-91.3053609474
 20
-18.6749844868
  0
LWPOLYLINE
  5
33D
100
AcDbEntity
  8
IMPORT_IGES
100
AcDbPolyline
 62
7
  6
CONTINUOUS
 90
19
 70
0
 10
-91.6168717623
 20
-18.7467634375
 10
-91.5973901354
 20
-18.7500018601
 10
-91.5631496102
 20
-18.7600996208
 10
-91.5124522906
 20
-18.7817170922
 10
-91.4462783854
 20
-18.8187582727
 10
-91.3699132293
 20
-18.8715756238
 10
-91.2846599855
 20
-18.9417551018
 10
-91.1912498279
 20
-19.0313141449
 10
-91.093799005
 20
-19.1386365904
 10
-90.9937583776
 20
-19.2641820294
 10
-90.8928665602
 20
-19.407313091
 10
-90.7946465008
 20
-19.5636278753
 10
-90.7000580169
 20
-19.7321969478
 10
-90.6102369922
 20
-19.9121522892
 10
-90.5278720967
 20
-20.0986121651
 10
-90.4535509856
 20
-20.2901214719
 10
-90.3878926566
 20
-20.4849413243
 10
-90.3324934973
 20
-20.6771692119
 10
-90.2874654389
 20
-20.8634900636
  0
LWPOLYLINE
  5
33E
100
AcDbEntity
  8
IMPORT_IGES
100
AcDbPolyline
 62
253
  6
CONTINUOUS
 90
11
 70
0
 10
-52.8866429373
 20
-43.0154240516
 10
-52.8893990353
 20
-43.0135922309
 10
-52.8976271214
 20
-43.011770863
 10
-52.9112559557
 20
-43.009964871
 10
-52.9301639916
 20
-43.0081820361
 10
-52.9542707782
 20
-43.006423992
 10
-52.9836253128
 20
-43.0046865812
 10
-53.0182409878
 20
-43.0029718587
 10
-53.0580109296
 20
-43.0012875488
 10
-53.1028618101
 20
-42.9996383053
 10
-53.2074346011
 20
-42.9964638022
  0
LINE
  5
33F
100
AcDbEntity
  8
IMPORT_IGES
100
AcDbLine
 62
7
  6
CONTINUOUS
 10
-97.4738478399
 20
-10.2362930156
 11
-97.4939701098
 21
-10.2175000094
  0
LINE
  5
340
100
AcDbEntity
  8
IMPORT_IGES
100
AcDbLine
 62
7
  6
CONTINUOUS
 10
-95.0079863828
 20
-12.5667366711
 11
-96.5033393179
 21
-11.1560951004
  0
LINE
  5
341
100
AcDbEntity
  8
IMPORT_IGES
100
AcDbLine
 62
7
  6
CONTINUOUS
 10
-97.3124187726
 20
-10.3885498785
 11
-97.4738478399
 21
-10.2362930156
  0
LINE
  5
342
100
AcDbEntity
  8
IMPORT_IGES
100
AcDbLine
 62
7
  6
CONTINUOUS
 10
-96.5033393179
 20
-11.1560951004
 11
-97.3124187726
 21
-10.3885498785
  0
LWPOLYLINE
  5
343
100
AcDbEntity
  8
IMPORT_IGES
100
AcDbPolyline
 62
253
  6
CONTINUOUS
 90
46
 70
0
 10
-73.3515061755
 20
-46.307138486
 10
-74.31047923
 20
-44.510372304
 10
-75.2362045182
 20
-42.6913826479
 10
-76.1279974029
 20
-40.8501911586
 10
-76.9845794139
 20
-38.9864217136
 10
-77.8058786968
 20
-37.100488516
 10
-78.5930413868
 20
-35.1935957864
 10
-79.3456010775
 20
-33.2653774073
 10
-80.0626984428
 20
-31.3162216457
 10
-80.7449652274
 20
-29.3484618147
 10
-81.3922330791
 20
-27.3616152222
 10
-82.0034478429
 20
-25.3561723017
 10
-82.5781105343
 20
-23.3359263706
 10
-83.1163809489
 20
-21.2992781033
 10
-83.6170997048
 20
-19.2478237597
 10
-84.0782741084
 20
-17.1901551156
 10
-84.4992035041
 20
-15.1287616984
 10
-84.8803845499
 20
-13.0611507424
 10
-85.2220089375
 20
-10.988444521
 10
-85.5241402111
 20
-8.9099396303
 10
-85.7864817618
 20
-6.8263271249
 10
-86.0088520423
 20
-4.7408224174
 10
-86.1913213456
 20
-2.6538337065
 10
-86.3338533967
 20
-0.5649398831
 10
-86.436314214
 20
1.5238849195
 10
-86.4989343545
 20
3.6129374328
 10
-86.5216374002
 20
5.7019332434
 10
-86.5040248056
 20
7.788023622
 10
-86.4462164308
 20
9.8721932863
 10
-86.3484391382
 20
11.953464991
 10
-86.2108048285
 20
14.0260408385
 10
-86.0338348558
 20
16.0897355491
 10
-85.8178311483
 20
18.144727728
 10
-85.5630166524
 20
20.1857566115
 10
-85.2702703966
 20
22.2125857013
 10
-84.939923538
 20
24.2254286089
 10
-84.5717540951
 20
26.2196916489
 10
-84.1667939312
 20
28.1945410018
 10
-83.7255437558
 20
30.1507695045
 10
-83.2472228701
 20
32.0862168557
 10
-82.7328441673
 20
34.0005884413
 10
-82.1830171946
 20
35.8941199348
 10
-81.5964585843
 20
37.7654406481
 10
-80.9733123431
 20
39.6140670521
 10
-80.315112459
 20
41.440403791
 10
-79.6226987666
 20
43.2444074283
  0
LWPOLYLINE
  5
344
100
AcDbEntity
  8
IMPORT_IGES
100
AcDbPolyline
 62
7
  6
CONTINUOUS
 90
3
 70
0
 10
-83.9365677461
 20
-44.7781285868
 10
-83.8984076622
 20
-44.8924058554
 10
-83.8497875331
 20
-45.058223098
  0
LWPOLYLINE
  5
345
100
AcDbEntity
  8
IMPORT_IGES
100
AcDbPolyline
 62
253
  6
CONTINUOUS
 90
3
 70
0
 10
-83.7730468076
 20
-45.0088280723
 10
-83.8110724336
 20
-44.8832566965
 10
-83.8528857043
 20
-44.7583329382
  0
LWPOLYLINE
  5
346
100
AcDbEntity
  8
IMPORT_IGES
100
AcDbPolyline
 62
253
  6
CONTINUOUS
 90
10
 70
0
 10
-84.3708027868
 20
-47.406146213
 10
-84.3770526246
 20
-47.3853796848
 10
-84.3826346516
 20
-47.3643517769
 10
-84.3875372792
 20
-47.3431328264
 10
-84.3917448397
 20
-47.3218304878
 10
-84.3952626404
 20
-47.3004659283
 10
-84.3981043371
 20
-47.2789659016
 10
-84.4002630885
 20
-47.2573334146
 10
-84.4017239473
 20
-47.2356558952
 10
-84.4024803005
 20
-47.2139756283
  0
LINE
  5
347
100
AcDbEntity
  8
0
100
AcDbLine
 62
7
  6
CONTINUOUS
 10
-86.25276359
 20
-46.8203783513
 11
-93.5732391323
 21
-18.5756029795
  0
LWPOLYLINE
  5
348
100
AcDbEntity
  8
IMPORT_IGES
100
AcDbPolyline
 62
7
  6
CONTINUOUS
 90
15
 70
0
 10
-94.8003398624
 20
-13.0804777473
 10
-94.8084995495
 20
-13.0343531778
 10
-94.817922669
 20
-12.9884335826
 10
-94.8286814571
 20
-12.9429597754
 10
-94.8407036775
 20
-12.8982922893
 10
-94.8537726223
 20
-12.8548938616
 10
-94.8679004342
 20
-12.8131261995
 10
-94.8830749704
 20
-12.7732021811
 10
-94.8990430947
 20
-12.7353496602
 10
-94.9158324483
 20
-12.6998399582
 10
-94.9334153901
 20
-12.6669614498
 10
-94.9514558603
 20
-12.6369668421
 10
-94.9698418393
 20
-12.610106679
 10
-94.9886853468
 20
-12.5866231877
 10
-95.0079863828
 20
-12.5667366711
  0
LINE
  5
349
100
AcDbEntity
  8
IMPORT_IGES
100
AcDbLine
 62
7
  6
CONTINUOUS
 10
-96.9127136264
 20
-14.7175000094
 11
-96.4222949708
 21
-17.8744640518
  0
LINE
  5
34A
100
AcDbEntity
  8
IMPORT_IGES
100
AcDbLine
 62
7
  6
CONTINUOUS
 10
-94.7934436078
 20
-13.1265214929
 11
-94.8003398624
 21
-13.0804777473
  0
LINE
  5
34B
100
AcDbEntity
  8
IMPORT_IGES
100
AcDbLine
 62
7
  6
CONTINUOUS
 10
-94.7833402128
 20
-13.2016302378
 11
-94.7934436078
 21
-13.1265214929
  0
LWPOLYLINE
  5
34C
100
AcDbEntity
  8
0
100
AcDbPolyline
 62
7
  6
CONTINUOUS
 90
6
 70
0
 10
-96.8215523302
 20
-11.6389259749
 10
-96.7528930424
 20
-12.1847664006
 10
-96.6821790151
 20
-12.7306983788
 10
-96.6094118596
 20
-13.2766996283
 10
-96.5345914724
 20
-13.8227625927
 10
-96.4394230815
 20
-14.496074075
  0
LINE
  5
34D
100
AcDbEntity
  8
0
100
AcDbLine
 62
7
  6
CONTINUOUS
 10
-96.9283386312
 20
-10.7535436155
 11
-96.8215523302
 21
-11.6389259749
  0
LWPOLYLINE
  5
34E
100
AcDbEntity
  8
IMPORT_IGES
100
AcDbPolyline
 62
253
  6
CONTINUOUS
 90
85
 70
0
 10
-78.2034176697
 20
42.6935924954
 10
-78.5585144522
 20
41.7479981998
 10
-78.904263975
 20
40.7958218152
 10
-79.2406662382
 20
39.8370633416
 10
-79.5677871316
 20
38.871699602
 10
-79.8855607654
 20
37.8997537733
 10
-80.1937894699
 20
36.9212953863
 10
-80.4924650815
 20
35.936314473
 10
-80.7815957638
 20
34.9448210012
 10
-81.0610083372
 20
33.9469144057
 10
-81.3306904256
 20
32.9425624765
 10
-81.5906544051
 20
31.9317974234
 10
-81.8407642238
 20
30.9148153109
 10
-82.0810107574
 20
29.8915264464
 10
-82.3114031302
 20
28.8620205224
 10
-82.531832663
 20
27.8267626813
 10
-82.7423243713
 20
26.7857222307
 10
-82.9428532398
 20
25.738929863
 10
-83.1332355424
 20
24.686942797
 10
-83.3135044942
 20
23.6296171064
 10
-83.4836268803
 20
22.5670967175
 10
-83.6433193297
 20
21.5003706283
 10
-83.7925904511
 20
20.4293644131
 10
-83.9314316358
 20
19.3541524976
 10
-84.0595336869
 20
18.2759471575
 10
-84.1768612584
 20
17.1948907784
 10
-84.2834496963
 20
16.1108409746
 10
-84.3790958415
 20
15.0245828657
 10
-84.4637305823
 20
13.9361451557
 10
-84.5374230304
 20
12.8454991405
 10
-84.6001773607
 20
11.7533438268
 10
-84.6519940678
 20
10.6597610816
 10
-84.6928726571
 20
9.5646690379
 10
-84.7228158203
 20
8.4685211011
 10
-84.7418585895
 20
7.3713144769
 10
-84.7499659326
 20
6.2730519596
 10
-84.7470354455
 20
5.1741953374
 10
-84.7330460939
 20
4.0747019305
 10
-84.708018912
 20
2.9746144187
 10
-84.6719145984
 20
1.8745226294
 10
-84.624701352
 20
0.7744560613
 10
-84.5664109738
 20
-0.3256147843
 10
-84.497099566
 20
-1.4251885752
 10
-84.4167800833
 20
-2.5242207329
 10
-84.3254395709
 20
-3.622755836
 10
-84.2230952661
 20
-4.7204262883
 10
-84.1097471631
 20
-5.8171875083
 10
-83.9853952678
 20
-6.9130840775
 10
-83.8500568344
 20
-8.0078821438
 10
-83.7037397924
 20
-9.1014741204
 10
-83.5464362124
 20
-10.1939675942
 10
-83.3781395602
 20
-11.2854514735
 10
-83.1988709644
 20
-12.3759233791
 10
-83.0086092963
 20
-13.4653856903
 10
-82.807284636
 20
-14.5539344531
 10
-82.59489286
 20
-15.6416817906
 10
-82.3714380917
 20
-16.7285155797
 10
-82.1368627813
 20
-17.814195497
 10
-81.8910757746
 20
-18.8988974613
 10
-81.6341682258
 20
-19.9824455539
 10
-81.3663560472
 20
-21.0640716943
 10
-81.0875406826
 20
-22.144039817
 10
-80.7978206882
 20
-23.2220859877
 10
-80.4977076447
 20
-24.2966503226
 10
-80.1872008258
 20
-25.3677690639
 10
-79.8663009579
 20
-26.4354059696
 10
-79.5355218014
 20
-27.4978924299
 10
-79.194898865
 20
-28.5550722508
 10
-78.8443966401
 20
-29.6071016264
 10
-78.4844223606
 20
-30.6527805291
 10
-78.1150220689
 20
-31.6918921929
 10
-77.7361497228
 20
-32.7246533838
 10
-77.3480744289
 20
-33.7505143725
 10
-76.9508683957
 20
-34.7692419702
 10
-76.5444594149
 20
-35.7810693656
 10
-76.1288999682
 20
-36.7861463959
 10
-75.7042126302
 20
-37.784436334
 10
-75.2703748262
 20
-38.775975907
 10
-74.8273713139
 20
-39.7610251329
 10
-74.3752125461
 20
-40.7395853109
 10
-73.91388807
 20
-41.7116551418
 10
-73.4433512849
 20
-42.6774907459
 10
-72.9635866573
 20
-43.6371774969
 10
-72.4746097206
 20
-44.5906300211
 10
-71.9764204749
 20
-45.5378483187
  0
LINE
  5
34F
100
AcDbEntity
  8
IMPORT_IGES
100
AcDbLine
 62
253
  6
CONTINUOUS
 10
-96.4222946084
 20
-17.8744640582
 11
-96.3859016754
 21
-17.877376207
  0
LWPOLYLINE
  5
350
100
AcDbEntity
  8
IMPORT_IGES
100
AcDbPolyline
 62
253
  6
CONTINUOUS
 90
43
 70
0
 10
-73.3515461248
 20
-46.3071395492
 10
-73.2736240411
 20
-46.4592496661
 10
-73.2033510067
 20
-46.6115501247
 10
-73.1410683535
 20
-46.7633136023
 10
-73.0875671889
 20
-46.9134443133
 10
-73.0424354418
 20
-47.0617148021
 10
-73.0043211221
 20
-47.2090636638
 10
-72.9730469212
 20
-47.3556780107
 10
-72.9492950433
 20
-47.5009490582
 10
-72.9329609841
 20
-47.6448221062
 10
-72.9236043441
 20
-47.7866965561
 10
-72.9212288021
 20
-47.9265598154
 10
-72.9264897279
 20
-48.0650153944
 10
-72.93928276
 20
-48.2009560216
 10
-72.9592436539
 20
-48.3343520625
 10
-72.9871109378
 20
-48.4669737907
 10
-73.0231737295
 20
-48.5979468094
 10
-73.0670272913
 20
-48.7271375028
 10
-73.1191072032
 20
-48.8570970025
 10
-73.1794789814
 20
-48.9877835128
 10
-73.2483333629
 20
-49.1182836864
 10
-73.3268351136
 20
-49.2495035154
 10
-73.4155021108
 20
-49.3810547815
 10
-73.5141415339
 20
-49.5119595345
 10
-73.6229002817
 20
-49.6419041421
 10
-73.7416150452
 20
-49.7700341045
 10
-73.8697610901
 20
-49.8955248168
 10
-74.0067694757
 20
-50.0182069221
 10
-74.1518394583
 20
-50.1376870086
 10
-74.3051226914
 20
-50.2537875472
 10
-74.4673910142
 20
-50.3667342547
 10
-74.6386434983
 20
-50.4760989305
 10
-74.8190004436
 20
-50.5811555199
 10
-75.0093958132
 20
-50.6814236695
 10
-75.2096004255
 20
-50.7760181785
 10
-75.41962848
 20
-50.8643574492
 10
-75.6407838508
 20
-50.9461892587
 10
-75.8727007832
 20
-51.0205290181
 10
-76.115009715
 20
-51.0866146933
 10
-76.3688894242
 20
-51.1441399389
 10
-76.6341861647
 20
-51.192253913
 10
-76.9093597804
 20
-51.2298289966
 10
-77.1932199702
 20
-51.2560156243
  0
LWPOLYLINE
  5
351
100
AcDbEntity
  8
IMPORT_IGES
100
AcDbPolyline
 62
7
  6
CONTINUOUS
 90
19
 70
0
 10
-83.8497875331
 20
-45.058223098
 10
-83.8100972832
 20
-45.2190857472
 10
-83.7787613705
 20
-45.3744696512
 10
-83.7550331256
 20
-45.5256504266
 10
-83.7388065661
 20
-45.6713554787
 10
-83.7299102906
 20
-45.8101877006
 10
-83.7280605767
 20
-45.9426666796
 10
-83.733167723
 20
-46.0677213952
 10
-83.7449517356
 20
-46.1832801805
 10
-83.7628087473
 20
-46.2873326514
 10
-83.7860035894
 20
-46.3788317485
 10
-83.813272602
 20
-46.456602916
 10
-83.8418903209
 20
-46.5179080052
 10
-83.869914119
 20
-46.5639542623
 10
-83.8949694583
 20
-46.5952638075
 10
-83.9113294256
 20
-46.6104957875
 10
-83.9170491695
 20
-46.6146487647
 10
-83.9177177886
 20
-46.6155312017
 10
-83.9211877722
 20
-46.6163919246
  0
LWPOLYLINE
  5
352
100
AcDbEntity
  8
IMPORT_IGES
100
AcDbPolyline
 62
253
  6
CONTINUOUS
 90
3
 70
0
 10
-90.2222284503
 20
-20.7422450394
 10
-90.1929018961
 20
-20.8724152669
 10
-90.1675212002
 20
-21.0020015498
  0
LINE
  5
353
100
AcDbEntity
  8
IMPORT_IGES
100
AcDbLine
 62
7
  6
CONTINUOUS
 10
-90.2874654389
 20
-20.8634900636
 11
-90.2574410314
 21
-21.0131500063
  0
LWPOLYLINE
  5
354
100
AcDbEntity
  8
IMPORT_IGES
100
AcDbPolyline
 62
7
  6
CONTINUOUS
 90
10
 70
0
 10
-90.2574603231
 20
-21.0131489818
 10
-89.7889614341
 20
-23.4595170505
 10
-89.2304835098
 20
-26.1274980378
 10
-88.6207286148
 20
-28.8022361351
 10
-87.9590322224
 20
-31.4845968079
 10
-87.2451787028
 20
-34.1736229583
 10
-86.4795607219
 20
-36.8665800846
 10
-85.6622100156
 20
-39.5625991379
 10
-84.7926377063
 20
-42.2626322289
 10
-83.9365853909
 20
-44.7781265253
  0
LWPOLYLINE
  5
355
100
AcDbEntity
  8
IMPORT_IGES
100
AcDbPolyline
 62
253
  6
CONTINUOUS
 90
13
 70
0
 10
-90.1675212002
 20
-21.0020015498
 10
-89.7953049456
 20
-22.9643559357
 10
-89.3954670455
 20
-24.93023457
 10
-88.9678488782
 20
-26.8996410002
 10
-88.5122325985
 20
-28.8728173725
 10
-88.0285118198
 20
-30.8495287005
 10
-87.5167235013
 20
-32.8290632598
 10
-86.9767476549
 20
-34.8114076439
 10
-86.4084433572
 20
-36.7965834782
 10
-85.811871464
 20
-38.7839323119
 10
-85.1869947549
 20
-40.7732378136
 10
-84.5336482228
 20
-42.7647254233
 10
-83.8517277716
 20
-44.7583997044
  0
LWPOLYLINE
  5
356
100
AcDbEntity
  8
IMPORT_IGES
100
AcDbPolyline
 62
253
  6
CONTINUOUS
 90
28
 70
0
 10
-78.2034176835
 20
42.6935925021
 10
-78.1697521656
 20
42.8325145334
 10
-78.1380381342
 20
42.9727234855
 10
-78.1083001755
 20
43.1141153435
 10
-78.0804974457
 20
43.2568032196
 10
-78.0547268078
 20
43.4004677123
 10
-78.0311882613
 20
43.5443389691
 10
-78.0098970243
 20
43.6881636392
 10
-77.9908199683
 20
43.8319560479
 10
-77.9740399484
 20
43.975328186
 10
-77.9595589806
 20
44.118009587
 10
-77.9473288878
 20
44.2600361846
 10
-77.9373514925
 20
44.4014754582
 10
-77.9296224629
 20
44.5422110429
 10
-77.9241187489
 20
44.682139715
 10
-77.9208302875
 20
44.8213488472
 10
-77.9197621419
 20
44.9597304631
 10
-77.9208987582
 20
45.0971838745
 10
-77.9242170114
 20
45.2338081717
 10
-77.9297365738
 20
45.369667869
 10
-77.9374509388
 20
45.5044959146
 10
-77.9472926503
 20
45.6379043134
 10
-77.9592579655
 20
45.7698586059
 10
-77.9733311913
 20
45.9002202533
 10
-77.9893900447
 20
46.0284729984
 10
-78.0073614183
 20
46.1544106393
 10
-78.0272461951
 20
46.2781200227
 10
-78.0490103243
 20
46.3995453853
  0
LWPOLYLINE
  5
357
100
AcDbEntity
  8
IMPORT_IGES
100
AcDbPolyline
 62
253
  6
CONTINUOUS
 90
22
 70
0
 10
-77.1932199702
 20
-51.2560156243
 10
-77.1518439186
 20
-51.4057339031
 10
-77.1048755952
 20
-51.5524149472
 10
-77.0526069316
 20
-51.6953895782
 10
-76.9955049644
 20
-51.833635229
 10
-76.9337019281
 20
-51.9670346217
 10
-76.866849269
 20
-52.0962830764
 10
-76.7951741585
 20
-52.2209888679
 10
-76.7191063236
 20
-52.3405349226
 10
-76.6384797587
 20
-52.4551605777
 10
-76.5535532691
 20
-52.5643215832
 10
-76.4646038298
 20
-52.6674538314
 10
-76.3714051667
 20
-52.764679014
 10
-76.2742092579
 20
-52.8557000123
 10
-76.1735366066
 20
-52.9399769199
 10
-76.0695914707
 20
-53.0172384646
 10
-75.9628505267
 20
-53.0869701309
 10
-75.8537118301
 20
-53.1487895602
 10
-75.7422597572
 20
-53.2026958358
 10
-75.6288487792
 20
-53.2485354209
 10
-75.5141208612
 20
-53.2860463626
 10
-75.3986289731
 20
-53.3150355608
  0
LWPOLYLINE
  5
358
100
AcDbEntity
  8
IMPORT_IGES
100
AcDbPolyline
 62
253
  6
CONTINUOUS
 90
19
 70
0
 10
-84.4024803005
 20
-47.2139756283
 10
-84.401564129
 20
-47.1650155707
 10
-84.3969441341
 20
-47.1162033418
 10
-84.3887507861
 20
-47.0680655208
 10
-84.3773167211
 20
-47.0214710438
 10
-84.362833556
 20
-46.9765807809
 10
-84.3451252659
 20
-46.9329207229
 10
-84.3241502267
 20
-46.8908577878
 10
-84.3000109342
 20
-46.8509913945
 10
-84.2726446245
 20
-46.8131941494
 10
-84.2423241705
 20
-46.7777838718
 10
-84.2093911919
 20
-46.7451472371
 10
-84.1738573046
 20
-46.7154019774
 10
-84.1361692128
 20
-46.689125844
 10
-84.0966272557
 20
-46.6667017847
 10
-84.0549567641
 20
-46.6480019267
 10
-84.0113695057
 20
-46.6332035075
 10
-83.9666325698
 20
-46.6226200589
 10
-83.9214098899
 20
-46.6164114792
  0
LWPOLYLINE
  5
359
100
AcDbEntity
  8
IMPORT_IGES
100
AcDbPolyline
 62
253
  6
CONTINUOUS
 90
12
 70
0
 10
-83.6230342157
 20
-46.3308941616
 10
-83.6151458144
 20
-46.2217821183
 10
-83.6116839755
 20
-46.109384203
 10
-83.6125199631
 20
-45.9941698663
 10
-83.6177443899
 20
-45.8762794425
 10
-83.6273474269
 20
-45.7561549363
 10
-83.641219377
 20
-45.6342603738
 10
-83.659343092
 20
-45.5107702515
 10
-83.6817797192
 20
-45.3860229078
 10
-83.7083757406
 20
-45.2605457205
 10
-83.7388338223
 20
-45.1347080335
 10
-83.7730468076
 20
-45.0088280723
  0
LINE
  5
35A
100
AcDbEntity
  8
IMPORT_IGES
100
AcDbLine
 62
253
  6
CONTINUOUS
 10
-52.986054281
 20
-4.4327204847
 11
-52.9116794512
 21
-4.4429310716
  0
LWPOLYLINE
  5
35B
100
AcDbEntity
  8
IMPORT_IGES
100
AcDbPolyline
 62
253
  6
CONTINUOUS
 90
4
 70
0
 10
-52.9116794512
 20
-4.4429310716
 10
-52.8977872702
 20
-4.4449784196
 10
-52.8894319797
 20
-4.4463392719
 10
-52.8866429373
 20
-4.4470085174
  0
LWPOLYLINE
  5
35C
100
AcDbEntity
  8
IMPORT_IGES
100
AcDbPolyline
 62
253
  6
CONTINUOUS
 90
9
 70
0
 10
-53.472429375
 20
-4.3483297419
 10
-53.4016672657
 20
-4.3628230922
 10
-53.3345783527
 20
-4.3759729441
 10
-53.2713868132
 20
-4.3877763461
 10
-53.2122838301
 20
-4.3981339397
 10
-53.1575091131
 20
-4.4071385133
 10
-53.1073289087
 20
-4.4150747794
 10
-53.0619194998
 20
-4.4219482115
 10
-52.986054281
 20
-4.4327204847
  0
LINE
  5
35D
100
AcDbEntity
  8
IMPORT_IGES
100
AcDbLine
 62
253
  6
CONTINUOUS
 10
-56.0819967325
 20
-45.3473818173
 11
-56.1012752525
 21
-45.3035028987
  0
LWPOLYLINE
  5
35E
100
AcDbEntity
  8
IMPORT_IGES
100
AcDbPolyline
 62
253
  6
CONTINUOUS
 90
3
 70
0
 10
-56.058231158
 20
-45.4022299708
 10
-56.0629541877
 20
-45.3912616431
 10
-56.0819967325
 20
-45.3473818173
  0
LWPOLYLINE
  5
35F
100
AcDbEntity
  8
IMPORT_IGES
100
AcDbPolyline
 62
7
  6
CONTINUOUS
 90
19
 70
0
 10
-94.8883638156
 20
-13.7951193153
 10
-94.8722535195
 20
-13.7858764889
 10
-94.8572019961
 20
-13.7727854901
 10
-94.8432092456
 20
-13.7560088574
 10
-94.8302192734
 20
-13.7357445298
 10
-94.818288074
 20
-13.7121839888
 10
-94.8075836308
 20
-13.685487476
 10
-94.7981228576
 20
-13.655864767
 10
-94.7898888406
 20
-13.6235462086
 10
-94.7829988224
 20
-13.5887099172
 10
-94.7774721116
 20
-13.5515925162
 10
-94.7732893995
 20
-13.5124441778
 10
-94.7705100028
 20
-13.4714557344
 10
-94.7691567185
 20
-13.4288606804
 10
-94.7692067495
 20
-13.3849469385
 10
-94.7706510219
 20
-13.339989236
 10
-94.7734865109
 20
-13.2942649261
 10
-94.7777162412
 20
-13.2480519997
 10
-94.7833402128
 20
-13.2016302378
  0
LINE
  5
360
100
AcDbEntity
  8
IMPORT_IGES
100
AcDbLine
 62
7
  6
CONTINUOUS
 10
-96.9129460635
 20
-14.7175000094
 11
-96.7856467283
 21
-14.6573046446
  0
LINE
  5
361
100
AcDbEntity
  8
IMPORT_IGES
100
AcDbLine
 62
7
  6
CONTINUOUS
 10
-96.7856467283
 20
-14.6573046446
 11
-96.5602542804
 21
-14.5520259722
  0
LWPOLYLINE
  5
362
100
AcDbEntity
  8
IMPORT_IGES
100
AcDbPolyline
 62
7
  6
CONTINUOUS
 90
3
 70
0
 10
-96.5602542804
 20
-14.5520259722
 10
-96.2226291424
 20
-14.3962121639
 10
-96.011749388
 20
-14.2997904697
  0
LWPOLYLINE
  5
363
100
AcDbEntity
  8
IMPORT_IGES
100
AcDbPolyline
 62
253
  6
CONTINUOUS
 90
16
 70
0
 10
-53.0866429373
 20
2.4463787377
 10
-53.0894276107
 20
2.4464577186
 10
-53.097771719
 20
2.4456278936
 10
-53.1116488079
 20
2.4438841569
 10
-53.1310245128
 20
2.4412795199
 10
-53.1558379721
 20
2.4377508618
 10
-53.1859837577
 20
2.4331190203
 10
-53.2213590201
 20
2.4273903821
 10
-53.2618468478
 20
2.4205490983
 10
-53.307267839
 20
2.4123830137
 10
-53.3574768926
 20
2.4029038908
 10
-53.412293548
 20
2.3920916058
 10
-53.4714277257
 20
2.3796868213
 10
-53.5346266208
 20
2.3656010339
 10
-53.6017030395
 20
2.3499162828
 10
-53.672429375
 20
2.3326296719
  0
LWPOLYLINE
  5
364
100
AcDbEntity
  8
IMPORT_IGES
100
AcDbPolyline
 62
253
  6
CONTINUOUS
 90
19
 70
0
 10
-53.6917913615
 20
-3.8728439283
 10
-53.6668610943
 20
-3.8812888724
 10
-53.6428736632
 20
-3.8924550191
 10
-53.6200496656
 20
-3.9062121886
 10
-53.5987375937
 20
-3.9222487249
 10
-53.5789277026
 20
-3.9404273044
 10
-53.5603264291
 20
-3.9609865357
 10
-53.5430397913
 20
-3.9838950649
 10
-53.5273044801
 20
-4.008899327
 10
-53.5131122691
 20
-4.0360850528
 10
-53.5006068035
 20
-4.0653082963
 10
-53.4899440026
 20
-4.0963044495
 10
-53.4811807754
 20
-4.1290137396
 10
-53.4744353296
 20
-4.1631008058
 10
-53.4697614655
 20
-4.198323848
 10
-53.4671761212
 20
-4.2347659141
 10
-53.4667466883
 20
-4.2722251544
 10
-53.4685065021
 20
-4.310204305
 10
-53.472429375
 20
-4.3483297419
  0
LINE
  5
365
100
AcDbEntity
  8
IMPORT_IGES
100
AcDbLine
 62
7
  6
CONTINUOUS
 10
-67.8866429373
 20
-55.4856695983
 11
-67.8866429373
 21
55.4143283859
  0
LINE
  5
366
100
AcDbEntity
  8
IMPORT_IGES
100
AcDbLine
 62
7
  6
CONTINUOUS
 10
-96.011749388
 20
-14.2997904697
 11
-95.5060316763
 21
-14.0708827294
  0
LINE
  5
367
100
AcDbEntity
  8
IMPORT_IGES
100
AcDbLine
 62
7
  6
CONTINUOUS
 10
-95.5060316763
 20
-14.0708827294
 11
-94.8883638156
 21
-13.7951193153
  0
LWPOLYLINE
  5
368
100
AcDbEntity
  8
IMPORT_IGES
100
AcDbPolyline
 62
253
  6
CONTINUOUS
 90
19
 70
0
 10
-53.863219933
 20
1.8536927121
 10
-53.83944217
 20
1.8633600723
 10
-53.8167197533
 20
1.8755725271
 10
-53.7952600841
 20
1.890167459
 10
-53.7753742519
 20
1.9068531158
 10
-53.757046305
 20
1.9255536372
 10
-53.7400011846
 20
1.9465006042
 10
-53.7243183921
 20
1.9696071728
 10
-53.7102050285
 20
1.9946096049
 10
-53.6976755777
 20
2.0216092569
 10
-53.6868917584
 20
2.0505123173
 10
-53.6779643992
 20
2.0810616526
 10
-53.6709055277
 20
2.1131741543
 10
-53.6658321547
 20
2.1462928516
 10
-53.6627571422
 20
2.1804123659
 10
-53.6617368806
 20
2.2163255847
 10
-53.6629378042
 20
2.2541053541
 10
-53.6664792055
 20
2.2930247845
 10
-53.6724294741
 20
2.3326294456
  0
LWPOLYLINE
  5
369
100
AcDbEntity
  8
IMPORT_IGES
100
AcDbPolyline
 62
253
  6
CONTINUOUS
 90
28
 70
0
 10
-53.672429375
 20
2.3326296719
 10
-53.8590475348
 20
2.2609012968
 10
-54.0367339729
 20
2.1826411124
 10
-54.2054886891
 20
2.0978491188
 10
-54.3646904937
 20
2.0062914853
 10
-54.5149605765
 20
1.9082020426
 10
-54.6581625069
 20
1.8042822827
 10
-54.7945337964
 20
1.694941888
 10
-54.9238369335
 20
1.5797711761
 10
-55.0472229524
 20
1.4582425912
 10
-55.166180379
 20
1.328384499
 10
-55.2792206874
 20
1.1921685338
 10
-55.3830293348
 20
1.0549820436
 10
-55.4758228486
 20
0.9188651696
 10
-55.5593847014
 20
0.7817777706
 10
-55.635750768
 20
0.6429867699
 10
-55.7053976652
 20
0.5023352017
 10
-55.7678487761
 20
0.3599800319
 10
-55.823710125
 20
0.2156590803
 10
-55.8733315598
 20
0.0676908337
 10
-55.9163632327
 20
-0.0822431946
 10
-55.9523616241
 20
-0.2293606441
 10
-55.9807051677
 20
-0.3722726463
 10
-56.0020154299
 20
-0.5123680697
 10
-56.0177135904
 20
-0.649031159
 10
-56.028273376
 20
-0.7820566624
 10
-56.0332210599
 20
-0.9116498316
 10
-56.0325566421
 20
-1.0378106668
  0
LWPOLYLINE
  5
36A
100
AcDbEntity
  8
IMPORT_IGES
100
AcDbPolyline
 62
253
  6
CONTINUOUS
 90
16
 70
0
 10
-79.4358302637
 20
45.8853139847
 10
-79.3950592824
 20
45.7251114826
 10
-79.3616952566
 20
45.56089367
 10
-79.3358158527
 20
45.3929446317
 10
-79.3174977659
 20
45.2213867684
 10
-79.3068287316
 20
45.0467074636
 10
-79.3038290675
 20
44.8697680886
 10
-79.3084417343
 20
44.6910064782
 10
-79.3207115859
 20
44.5106789034
 10
-79.3407043232
 20
44.3294175256
 10
-79.3683268534
 20
44.1477504996
 10
-79.40357853
 20
43.9659315183
 10
-79.4466477746
 20
43.7842473817
 10
-79.4975899719
 20
43.6031082404
 10
-79.5563051795
 20
43.4230080238
 10
-79.6227665642
 20
43.2444065173
  0
LWPOLYLINE
  5
36B
100
AcDbEntity
  8
IMPORT_IGES
100
AcDbPolyline
 62
253
  6
CONTINUOUS
 90
52
 70
0
 10
-78.0490103151
 20
46.3995454133
 10
-78.0747611529
 20
46.5315823874
 10
-78.1029058124
 20
46.663825117
 10
-78.1334690962
 20
46.7961919206
 10
-78.1664531095
 20
46.9285226709
 10
-78.2018891068
 20
47.0608128885
 10
-78.2398483931
 20
47.1932026591
 10
-78.2803325925
 20
47.3255621626
 10
-78.3233623512
 20
47.4578279442
 10
-78.369052133
 20
47.5902115827
 10
-78.4173852477
 20
47.7225076671
 10
-78.468385296
 20
47.8546880389
 10
-78.5222515033
 20
47.9871818759
 10
-78.5790240728
 20
48.1198820446
 10
-78.6386610727
 20
48.2525623353
 10
-78.7012567742
 20
48.3854176123
 10
-78.7668146887
 20
48.5183507028
 10
-78.8352752531
 20
48.6510318427
 10
-78.9066306226
 20
48.783288969
 10
-78.9807763641
 20
48.9149846754
 10
-79.0576703326
 20
49.0460094998
 10
-79.1373810665
 20
49.176284017
 10
-79.2198996046
 20
49.3057898762
 10
-79.305050888
 20
49.4343109642
 10
-79.3926962712
 20
49.5614647331
 10
-79.4828911659
 20
49.6871486142
 10
-79.5755944374
 20
49.8112027037
 10
-79.6705116993
 20
49.9332111915
 10
-79.7676204759
 20
50.0530852968
 10
-79.8669191901
 20
50.1707392032
 10
-79.968124865
 20
50.2858270771
 10
-80.0712229261
 20
50.3983003777
 10
-80.1761685167
 20
50.5080481475
 10
-80.2826154302
 20
50.6146936324
 10
-80.3903907728
 20
50.7180560584
 10
-80.4995734922
 20
50.818191789
 10
-80.6101855966
 20
50.9151046415
 10
-80.7221376645
 20
51.008694991
 10
-80.8354103584
 20
51.0989179375
 10
-80.9501290945
 20
51.1858401972
 10
-81.0662499925
 20
51.2693972765
 10
-81.1836916672
 20
51.3495012149
 10
-81.3025200344
 20
51.4261575526
 10
-81.4228388188
 20
51.4993839934
 10
-81.5443935143
 20
51.5689815704
 10
-81.6667068372
 20
51.63466278
 10
-81.7897643172
 20
51.696424158
 10
-81.9134046639
 20
51.7541929603
 10
-82.0369302316
 20
51.8076878535
 10
-82.1600504661
 20
51.8568652029
 10
-82.2828768589
 20
51.901847539
 10
-82.4053176787
 20
51.942668165
  0
LINE
  5
36C
100
AcDbEntity
  8
IMPORT_IGES
100
AcDbLine
 62
253
  6
CONTINUOUS
 10
-62.7894841493
 20
-46.9682718438
 11
-62.8233484312
 21
-45.7723300908
  0
LINE
  5
36D
100
AcDbEntity
  8
IMPORT_IGES
100
AcDbLine
 62
253
  6
CONTINUOUS
 10
-62.764756248
 20
-48.0366881188
 11
-62.7894841493
 21
-46.9682718438
  0
LINE
  5
36E
100
AcDbEntity
  8
IMPORT_IGES
100
AcDbLine
 62
253
  6
CONTINUOUS
 10
-62.7468833566
 20
-49.0278975746
 11
-62.764756248
 21
-48.0366881188
  0
LWPOLYLINE
  5
36F
100
AcDbEntity
  8
IMPORT_IGES
100
AcDbPolyline
 62
253
  6
CONTINUOUS
 90
3
 70
0
 10
-62.7325640951
 20
-50.2707830056
 10
-62.7350638583
 20
-49.9730575324
 10
-62.7468833566
 20
-49.0278975746
  0
LINE
  5
370
100
AcDbEntity
  8
IMPORT_IGES
100
AcDbLine
 62
7
  6
CONTINUOUS
 10
-66.8866429373
 20
-55.5456264937
 11
-66.8866429373
 21
55.4936945312
  0
LINE
  5
371
100
AcDbEntity
  8
IMPORT_IGES
100
AcDbLine
 62
253
  6
CONTINUOUS
 10
-62.7375637358
 20
47.965089367
 11
-62.7452284583
 21
47.2409514259
  0
LINE
  5
372
100
AcDbEntity
  8
IMPORT_IGES
100
AcDbLine
 62
253
  6
CONTINUOUS
 10
-62.7452284583
 20
47.2409514259
 11
-62.7556807767
 21
46.4905130213
  0
LINE
  5
373
100
AcDbEntity
  8
IMPORT_IGES
100
AcDbLine
 62
253
  6
CONTINUOUS
 10
-62.7556807767
 20
46.4905130213
 11
-62.7688399742
 21
45.7191687223
  0
LINE
  5
374
100
AcDbEntity
  8
IMPORT_IGES
100
AcDbLine
 62
253
  6
CONTINUOUS
 10
-62.7688399742
 20
45.7191687223
 11
-62.7845967162
 21
44.9327063608
  0
LINE
  5
375
100
AcDbEntity
  8
IMPORT_IGES
100
AcDbLine
 62
253
  6
CONTINUOUS
 10
-62.7845967162
 20
44.9327063608
 11
-62.8028145784
 21
44.1371001388
  0
LINE
  5
376
100
AcDbEntity
  8
IMPORT_IGES
100
AcDbLine
 62
253
  6
CONTINUOUS
 10
-62.8028145784
 20
44.1371001388
 11
-62.8233480973
 21
43.3378012505
  0
LWPOLYLINE
  5
377
100
AcDbEntity
  8
IMPORT_IGES
100
AcDbPolyline
 62
253
  6
CONTINUOUS
 90
7
 70
0
 10
-83.7605062803
 20
-46.8995524363
 10
-83.7272385848
 20
-46.8165384656
 10
-83.6979986983
 20
-46.7284371781
 10
-83.6729431439
 20
-46.6354542127
 10
-83.6521002586
 20
-46.5378948092
 10
-83.6354133033
 20
-46.4362815613
 10
-83.6230342157
 20
-46.3308941616
  0
LINE
  5
378
100
AcDbEntity
  8
IMPORT_IGES
100
AcDbLine
 62
253
  6
CONTINUOUS
 10
-62.7513446985
 20
51.4847111177
 11
-62.742064773
 21
51.0169810546
  0
LINE
  5
379
100
AcDbEntity
  8
IMPORT_IGES
100
AcDbLine
 62
253
  6
CONTINUOUS
 10
-62.742064773
 20
51.0169810546
 11
-62.7354983178
 21
50.4970153037
  0
LINE
  5
37A
100
AcDbEntity
  8
IMPORT_IGES
100
AcDbLine
 62
253
  6
CONTINUOUS
 10
-62.7354983178
 20
50.4970153037
 11
-62.7317241786
 21
49.927878722
  0
LINE
  5
37B
100
AcDbEntity
  8
IMPORT_IGES
100
AcDbLine
 62
253
  6
CONTINUOUS
 10
-62.7297060346
 20
-50.8372209206
 11
-62.7325640951
 21
-50.2707830056
  0
LINE
  5
37C
100
AcDbEntity
  8
IMPORT_IGES
100
AcDbLine
 62
253
  6
CONTINUOUS
 10
-62.7317241786
 20
49.927878722
 11
-62.7307971451
 21
49.3133132638
  0
LINE
  5
37D
100
AcDbEntity
  8
IMPORT_IGES
100
AcDbLine
 62
253
  6
CONTINUOUS
 10
-62.8233480973
 20
55.3518023911
 11
-62.8233480973
 21
52.8862097643
  0
LINE
  5
37E
100
AcDbEntity
  8
IMPORT_IGES
100
AcDbLine
 62
253
  6
CONTINUOUS
 10
-62.8233480973
 20
-53.8332276365
 11
-62.8233480973
 21
-55.4116028198
  0
LINE
  5
37F
100
AcDbEntity
  8
IMPORT_IGES
100
AcDbLine
 62
253
  6
CONTINUOUS
 10
-62.8233480973
 20
-45.7723408809
 11
-62.8233480973
 21
43.3378012505
  0
LINE
  5
380
100
AcDbEntity
  8
IMPORT_IGES
100
AcDbLine
 62
7
  6
CONTINUOUS
 10
-60.2159593031
 20
-54.9096710004
 11
-60.2159583805
 21
-54.9821903132
  0
LINE
  5
381
100
AcDbEntity
  8
IMPORT_IGES
100
AcDbLine
 62
253
  6
CONTINUOUS
 10
-62.7296600784
 20
-51.3616749951
 11
-62.7297060346
 21
-50.8372209206
  0
LINE
  5
382
100
AcDbEntity
  8
IMPORT_IGES
100
AcDbLine
 62
253
  6
CONTINUOUS
 10
-62.7307971451
 20
49.3133132638
 11
-62.7327437759
 21
48.6575576728
  0
LINE
  5
383
100
AcDbEntity
  8
IMPORT_IGES
100
AcDbLine
 62
253
  6
CONTINUOUS
 10
-62.7323616995
 20
-51.842673637
 11
-62.7296600784
 21
-51.3616749951
  0
LINE
  5
384
100
AcDbEntity
  8
IMPORT_IGES
100
AcDbLine
 62
253
  6
CONTINUOUS
 10
-62.7327437759
 20
48.6575576728
 11
-62.7375637358
 21
47.965089367
  0
LWPOLYLINE
  5
385
100
AcDbEntity
  8
IMPORT_IGES
100
AcDbPolyline
 62
253
  6
CONTINUOUS
 90
9
 70
0
 10
-55.4100270742
 20
45.8671309236
 10
-55.4586126078
 20
45.5543881048
 10
-55.5182081762
 20
45.237653143
 10
-55.5888718247
 20
44.9170218553
 10
-55.6705095572
 20
44.593263528
 10
-55.7627782811
 20
44.2677940736
 10
-55.8654069522
 20
43.9414069839
 10
-55.9783032369
 20
43.6142502168
 10
-56.1012752525
 20
43.2867906508
  0
LWPOLYLINE
  5
386
100
AcDbEntity
  8
IMPORT_IGES
100
AcDbPolyline
 62
253
  6
CONTINUOUS
 90
10
 70
0
 10
-62.82334811
 20
52.8862098755
 10
-62.8131583903
 20
52.7892849509
 10
-62.8034682864
 20
52.6775352756
 10
-62.7942987206
 20
52.5509620215
 10
-62.7856684619
 20
52.4095618369
 10
-62.7775993171
 20
52.2534110043
 10
-62.7701148794
 20
52.0826941522
 10
-62.7632326895
 20
51.8975410525
 10
-62.7569695714
 20
51.6981085455
 10
-62.7513446985
 20
51.4847111177
  0
LINE
  5
387
100
AcDbEntity
  8
IMPORT_IGES
100
AcDbLine
 62
253
  6
CONTINUOUS
 10
-53.4724293828
 20
-42.990742622
 11
-53.4463084245
 21
-43.303408612
  0
LINE
  5
388
100
AcDbEntity
  8
IMPORT_IGES
100
AcDbLine
 62
253
  6
CONTINUOUS
 10
-53.4463084245
 20
-43.303408612
 11
-53.421990353
 21
-43.6139399718
  0
LINE
  5
389
100
AcDbEntity
  8
IMPORT_IGES
100
AcDbLine
 62
253
  6
CONTINUOUS
 10
-53.421990353
 20
-43.6139399718
 11
-53.3995659579
 21
-43.9204874642
  0
LINE
  5
38A
100
AcDbEntity
  8
IMPORT_IGES
100
AcDbLine
 62
253
  6
CONTINUOUS
 10
-53.3995659579
 20
-43.9204874642
 11
-53.3791713447
 21
-44.2195040166
  0
LINE
  5
38B
100
AcDbEntity
  8
IMPORT_IGES
100
AcDbLine
 62
253
  6
CONTINUOUS
 10
-53.3791713447
 20
-44.2195040166
 11
-53.3607929053
 21
-44.509901804
  0
LINE
  5
38C
100
AcDbEntity
  8
IMPORT_IGES
100
AcDbLine
 62
253
  6
CONTINUOUS
 10
-53.3607929053
 20
-44.509901804
 11
-53.3444092084
 21
-44.79090355
  0
LINE
  5
38D
100
AcDbEntity
  8
IMPORT_IGES
100
AcDbLine
 62
253
  6
CONTINUOUS
 10
-53.3444092084
 20
-44.79090355
 11
-53.329961928
 21
-45.0624052207
  0
LINE
  5
38E
100
AcDbEntity
  8
IMPORT_IGES
100
AcDbLine
 62
253
  6
CONTINUOUS
 10
-53.329961928
 20
-45.0624052207
 11
-53.3174000323
 21
-45.3243652598
  0
LINE
  5
38F
100
AcDbEntity
  8
IMPORT_IGES
100
AcDbLine
 62
253
  6
CONTINUOUS
 10
-53.3174000323
 20
-45.3243652598
 11
-53.306698619
 21
-45.5766221277
  0
LWPOLYLINE
  5
390
100
AcDbEntity
  8
IMPORT_IGES
100
AcDbPolyline
 62
253
  6
CONTINUOUS
 90
55
 70
0
 10
-56.0325566421
 20
-1.0378106668
 10
-56.0307424984
 20
-1.1055827116
 10
-56.0275332623
 20
-1.1736042649
 10
-56.0229289339
 20
-1.2418753266
 10
-56.0169422174
 20
-1.310423933
 10
-56.0095604084
 20
-1.3792220478
 10
-56.0007453945
 20
-1.4481855624
 10
-55.9904952063
 20
-1.5173206055
 10
-55.978811813
 20
-1.5866210484
 10
-55.9656630093
 20
-1.6559843967
 10
-55.951047833
 20
-1.725410999
 10
-55.9349672462
 20
-1.7949005067
 10
-55.91739193
 20
-1.86434938
 10
-55.8983370102
 20
-1.9337193498
 10
-55.8777873609
 20
-2.0030486852
 10
-55.8556682858
 20
-2.0723486535
 10
-55.8319946469
 20
-2.1416136974
 10
-55.8067515821
 20
-2.2108493741
 10
-55.7798198085
 20
-2.2800836238
 10
-55.7511995567
 20
-2.3493479418
 10
-55.7208905962
 20
-2.4186108327
 10
-55.6887729522
 20
-2.4878057498
 10
-55.6548430316
 20
-2.5569576999
 10
-55.6191044277
 20
-2.6260416761
 10
-55.5814479456
 20
-2.6949161116
 10
-55.5418754741
 20
-2.7635899911
 10
-55.5003851246
 20
-2.8320543297
 10
-55.4568620363
 20
-2.9001406066
 10
-55.4113019829
 20
-2.9678605188
 10
-55.3637091907
 20
-3.0352023693
 10
-55.3139814784
 20
-3.101962545
 10
-55.2621035789
 20
-3.1681395999
 10
-55.2080907591
 20
-3.2337349801
 10
-55.1518866385
 20
-3.2985494107
 10
-55.0934863948
 20
-3.3625848653
 10
-55.0328948503
 20
-3.4258393703
 10
-54.9700700907
 20
-3.4881077301
 10
-54.9050027903
 20
-3.5494035898
 10
-54.8377022748
 20
-3.6097133041
 10
-54.7681546073
 20
-3.6687907418
 10
-54.6963461571
 20
-3.7266497128
 10
-54.6222905549
 20
-3.783276407
 10
-54.5460147558
 20
-3.8383832629
 10
-54.4674813492
 20
-3.8919921073
 10
-54.3867277458
 20
-3.9440811133
 10
-54.3038931325
 20
-3.9942972386
 10
-54.2189589569
 20
-4.0426406742
 10
-54.1319437716
 20
-4.0891112292
 10
-54.0430424208
 20
-4.1333552889
 10
-53.9522452288
 20
-4.1753670658
 10
-53.8595618715
 20
-4.2151523475
 10
-53.7652162203
 20
-4.2523748811
 10
-53.6692828991
 20
-4.2869225827
 10
-53.5716872839
 20
-4.3189075363
 10
-53.472429375
 20
-4.3483297419
  0
LINE
  5
391
100
AcDbEntity
  8
IMPORT_IGES
100
AcDbLine
 62
253
  6
CONTINUOUS
 10
-56.1012752525
 20
43.2867906508
 11
-56.1012752525
 21
-45.3035028987
  0
LINE
  5
392
100
AcDbEntity
  8
IMPORT_IGES
100
AcDbLine
 62
253
  6
CONTINUOUS
 10
-56.1012752525
 20
-52.5003026974
 11
-56.1012752525
 21
-51.0092871849
  0
LINE
  5
393
100
AcDbEntity
  8
IMPORT_IGES
100
AcDbLine
 62
253
  6
CONTINUOUS
 10
-56.1012752525
 20
50.0426505479
 11
-56.1012752525
 21
52.4289619328
  0
LINE
  5
394
100
AcDbEntity
  8
IMPORT_IGES
100
AcDbLine
 62
7
  6
CONTINUOUS
 10
-58.7042449811
 20
-54.3754534348
 11
-58.7042079563
 21
-54.3025315774
  0
LINE
  5
395
100
AcDbEntity
  8
IMPORT_IGES
100
AcDbLine
 62
253
  6
CONTINUOUS
 10
-53.5480950815
 20
43.8441932577
 11
-53.5705192127
 21
43.2606680539
  0
LINE
  5
396
100
AcDbEntity
  8
IMPORT_IGES
100
AcDbLine
 62
253
  6
CONTINUOUS
 10
-53.5705192127
 20
43.2606680539
 11
-53.5984882193
 21
42.648156985
  0
LINE
  5
397
100
AcDbEntity
  8
IMPORT_IGES
100
AcDbLine
 62
253
  6
CONTINUOUS
 10
-53.5984882193
 20
42.648156985
 11
-53.6324090773
 21
42.0056634878
  0
LINE
  5
398
100
AcDbEntity
  8
IMPORT_IGES
100
AcDbLine
 62
253
  6
CONTINUOUS
 10
-53.6324090773
 20
42.0056634878
 11
-53.6724293816
 21
41.3366234991
  0
LINE
  5
399
100
AcDbEntity
  8
IMPORT_IGES
100
AcDbLine
 62
253
  6
CONTINUOUS
 10
-53.306698619
 20
-45.5766221277
 11
-53.2978316121
 21
-45.8194908206
  0
LINE
  5
39A
100
AcDbEntity
  8
IMPORT_IGES
100
AcDbLine
 62
253
  6
CONTINUOUS
 10
-53.2978316121
 20
-45.8194908206
 11
-53.2908484625
 21
-46.0522526324
  0
LWPOLYLINE
  5
39B
100
AcDbEntity
  8
IMPORT_IGES
100
AcDbPolyline
 62
253
  6
CONTINUOUS
 90
16
 70
0
 10
-53.0866429373
 20
46.7463861454
 10
-53.0893990353
 20
46.8490521484
 10
-53.0976271214
 20
46.9511323166
 10
-53.1112559557
 20
47.0523507242
 10
-53.1301639916
 20
47.1522712762
 10
-53.1542707782
 20
47.250802403
 10
-53.1836253128
 20
47.3481771243
 10
-53.2182409878
 20
47.4442802552
 10
-53.2580109296
 20
47.538678884
 10
-53.3028618101
 20
47.6311121878
 10
-53.352706256
 20
47.7213196257
 10
-53.4074346011
 20
47.8090300017
 10
-53.466917155
 20
47.8939722598
 10
-53.5310130592
 20
47.9758894692
 10
-53.5995726238
 20
48.0545383525
 10
-53.672429375
 20
48.1296785943
  0
LINE
  5
39C
100
AcDbEntity
  8
IMPORT_IGES
100
AcDbLine
 62
253
  6
CONTINUOUS
 10
-53.2908484625
 20
-46.0522526324
 11
-53.285754556
 21
-46.2745862348
  0
LWPOLYLINE
  5
39D
100
AcDbEntity
  8
IMPORT_IGES
100
AcDbPolyline
 62
253
  6
CONTINUOUS
 90
33
 70
0
 10
-53.285754556
 20
-46.2745862348
 10
-53.2825641371
 20
-46.4857297707
 10
-53.2816668767
 20
-46.5877642037
 10
-53.2812390725
 20
-46.6874214645
 10
-53.2812790112
 20
-46.7846580215
 10
-53.2817872874
 20
-46.8802037026
 10
-53.2827649962
 20
-46.9740269711
 10
-53.2842063778
 20
-47.0659556258
 10
-53.2861135397
 20
-47.1564440822
 10
-53.2884993422
 20
-47.2455905993
 10
-53.2913630647
 20
-47.3331238101
 10
-53.2946930781
 20
-47.4189200137
 10
-53.2984929791
 20
-47.5029267326
 10
-53.3027646174
 20
-47.5850923701
 10
-53.3074908314
 20
-47.6652957626
 10
-53.3126649508
 20
-47.7434087742
 10
-53.3182931502
 20
-47.8194262561
 10
-53.3243775848
 20
-47.893397507
 10
-53.3309153572
 20
-47.965235903
 10
-53.337909388
 20
-48.0348575922
 10
-53.3453734997
 20
-48.1022867455
 10
-53.3533064266
 20
-48.1674254598
 10
-53.3617088101
 20
-48.2301764998
 10
-53.3706003079
 20
-48.2905382559
 10
-53.3799841915
 20
-48.3484338027
 10
-53.3898556652
 20
-48.4037096506
 10
-53.4002231984
 20
-48.4562409204
 10
-53.4110929903
 20
-48.5059713048
 10
-53.4224520263
 20
-48.5527303268
 10
-53.434276102
 20
-48.596270811
 10
-53.4465501487
 20
-48.6364847806
 10
-53.4592711367
 20
-48.6733549922
 10
-53.4724293828
 20
-48.7068136135
  0
LINE
  5
39E
100
AcDbEntity
  8
IMPORT_IGES
100
AcDbLine
 62
253
  6
CONTINUOUS
 10
-53.672429375
 20
50.0001160553
 11
-53.672429375
 21
48.1296785943
  0
LINE
  5
39F
100
AcDbEntity
  8
IMPORT_IGES
100
AcDbLine
 62
253
  6
CONTINUOUS
 10
-53.672429375
 20
2.3326296719
 11
-53.672429375
 21
41.3366234993
  0
LINE
  5
3A0
100
AcDbEntity
  8
IMPORT_IGES
100
AcDbLine
 62
253
  6
CONTINUOUS
 10
-53.472429375
 20
-42.9907426218
 11
-53.472429375
 21
-4.3483297419
  0
LINE
  5
3A1
100
AcDbEntity
  8
IMPORT_IGES
100
AcDbLine
 62
253
  6
CONTINUOUS
 10
-53.472429375
 20
-48.706813626
 11
-53.472429375
 21
-49.8714568199
  0
LINE
  5
3A2
100
AcDbEntity
  8
IMPORT_IGES
100
AcDbLine
 62
7
  6
CONTINUOUS
 10
-53.0866429373
 20
48.5858759328
 11
-53.0866429373
 21
2.4463787377
  0
LINE
  5
3A3
100
AcDbEntity
  8
IMPORT_IGES
100
AcDbLine
 62
7
  6
CONTINUOUS
 10
-52.8866429373
 20
-4.4470085174
 11
-52.8866429373
 21
-48.4572229266
  0
LWPOLYLINE
  5
3A4
100
AcDbEntity
  8
IMPORT_IGES
100
AcDbPolyline
 62
253
  6
CONTINUOUS
 90
3
 70
0
 10
-53.5245970803
 20
44.667133758
 10
-53.5389193313
 20
44.1255433768
 10
-53.5480950815
 20
43.8441932577
  0
LWPOLYLINE
  5
3A5
100
AcDbEntity
  8
IMPORT_IGES
100
AcDbPolyline
 62
253
  6
CONTINUOUS
 90
14
 70
0
 10
-62.823348097
 20
-53.8332276364
 10
-62.8129549082
 20
-53.7789179009
 10
-62.8030614278
 20
-53.7097613103
 10
-62.793692306
 20
-53.6257218868
 10
-62.784820655
 20
-53.5261588251
 10
-62.7765280674
 20
-53.4115593459
 10
-62.7689678925
 20
-53.2844003595
 10
-62.7622073445
 20
-53.1472852763
 10
-62.7561378839
 20
-52.9995872806
 10
-62.7506468166
 20
-52.8390095175
 10
-62.7457211529
 20
-52.6645357827
 10
-62.7414143007
 20
-52.4773365469
 10
-62.7377437817
 20
-52.2777675051
 10
-62.7323616995
 20
-51.842673637
  0
LWPOLYLINE
  5
3A6
100
AcDbEntity
  8
IMPORT_IGES
100
AcDbPolyline
 62
253
  6
CONTINUOUS
 90
20
 70
0
 10
-53.6724293816
 20
48.1296785807
 10
-53.6521869098
 20
48.0331836769
 10
-53.6333439714
 20
47.9254175145
 10
-53.6159156165
 20
47.8070246138
 10
-53.5999513148
 20
47.6788745323
 10
-53.5854092773
 20
47.5413889565
 10
-53.5721799582
 20
47.3943535441
 10
-53.5602712589
 20
47.2382355336
 10
-53.5496987243
 20
47.0734336904
 10
-53.540401797
 20
46.8992782712
 10
-53.5323722062
 20
46.715790122
 10
-53.5256702453
 20
46.5234393047
 10
-53.5203658517
 20
46.3219171715
 10
-53.5165008901
 20
46.1113631682
 10
-53.514085227
 20
45.8916913889
 10
-53.5131689166
 20
45.662513468
 10
-53.5138037939
 20
45.4248181098
 10
-53.5159450353
 20
45.1798033931
 10
-53.5195446068
 20
44.9271870649
 10
-53.5245970803
 20
44.667133758
  0
LWPOLYLINE
  5
3A7
100
AcDbEntity
  8
IMPORT_IGES
100
AcDbPolyline
 62
253
  6
CONTINUOUS
 90
7
 70
0
 10
-52.9857393088
 20
-47.9198787155
 10
-52.9557725311
 20
-47.8201228679
 10
-52.93106435
 20
-47.7187302524
 10
-52.9117190103
 20
-47.6159865148
 10
-52.8978226488
 20
-47.5121750029
 10
-52.8894452871
 20
-47.4075754641
 10
-52.8866429373
 20
-47.3024773048
  0
LINE
  5
3A8
100
AcDbEntity
  8
IMPORT_IGES
100
AcDbLine
 62
253
  6
CONTINUOUS
 10
-78.952620987
 20
42.9824169131
 11
-78.2034176835
 21
42.6935925021
  0
LWPOLYLINE
  5
3A9
100
AcDbEntity
  8
IMPORT_IGES
100
AcDbPolyline
 62
253
  6
CONTINUOUS
 90
3
 70
0
 10
-79.6227665642
 20
43.2444065173
 10
-79.518531434
 20
43.2033725764
 10
-78.952620987
 20
42.9824169131
  0
LINE
  5
3AA
100
AcDbEntity
  8
IMPORT_IGES
100
AcDbLine
 62
253
  6
CONTINUOUS
 10
-73.3516394749
 20
-46.3071943636
 11
-73.1479859384
 21
-46.1887056498
  0
LINE
  5
3AB
100
AcDbEntity
  8
IMPORT_IGES
100
AcDbLine
 62
253
  6
CONTINUOUS
 10
-73.1479859384
 20
-46.1887056498
 11
-72.9317001759
 21
-46.0649489669
  0
LINE
  5
3AC
100
AcDbEntity
  8
IMPORT_IGES
100
AcDbLine
 62
253
  6
CONTINUOUS
 10
-72.9317001759
 20
-46.0649489669
 11
-72.7051635579
 21
-45.9372797887
  0
LINE
  5
3AD
100
AcDbEntity
  8
IMPORT_IGES
100
AcDbLine
 62
253
  6
CONTINUOUS
 10
-72.7051635579
 20
-45.9372797887
 11
-72.4688359519
 21
-45.8059872313
  0
LINE
  5
3AE
100
AcDbEntity
  8
IMPORT_IGES
100
AcDbLine
 62
253
  6
CONTINUOUS
 10
-72.4688359519
 20
-45.8059872313
 11
-72.2249388602
 21
-45.6723016661
  0
LINE
  5
3AF
100
AcDbEntity
  8
IMPORT_IGES
100
AcDbLine
 62
253
  6
CONTINUOUS
 10
-72.2249388602
 20
-45.6723016661
 11
-71.976454586
 21
-45.5378666535
  0
LINE
  5
3B0
100
AcDbEntity
  8
IMPORT_IGES
100
AcDbLine
 62
253
  6
CONTINUOUS
 10
-67.8866429373
 20
43.412172364
 11
-78.2034176697
 21
42.6935924954
  0
LINE
  5
3B1
100
AcDbEntity
  8
IMPORT_IGES
100
AcDbLine
 62
253
  6
CONTINUOUS
 10
-67.8866429373
 20
43.5177800645
 11
-66.8866429373
 21
43.5177800645
  0
LINE
  5
3B2
100
AcDbEntity
  8
IMPORT_IGES
100
AcDbLine
 62
253
  6
CONTINUOUS
 10
-62.8233480973
 20
43.3378012505
 11
-61.6139291793
 21
43.3357752469
  0
LINE
  5
3B3
100
AcDbEntity
  8
IMPORT_IGES
100
AcDbLine
 62
253
  6
CONTINUOUS
 10
-61.6139291793
 20
43.3357752469
 11
-60.4276865858
 21
43.3312053016
  0
LINE
  5
3B4
100
AcDbEntity
  8
IMPORT_IGES
100
AcDbLine
 62
253
  6
CONTINUOUS
 10
-60.4276865858
 20
43.3312053016
 11
-59.2820996817
 21
43.3241598649
  0
LINE
  5
3B5
100
AcDbEntity
  8
IMPORT_IGES
100
AcDbLine
 62
253
  6
CONTINUOUS
 10
-59.2820996817
 20
43.3241598649
 11
-57.9415185963
 21
43.3121272351
  0
LINE
  5
3B6
100
AcDbEntity
  8
IMPORT_IGES
100
AcDbLine
 62
253
  6
CONTINUOUS
 10
-57.9415185963
 20
43.3121272351
 11
-56.9786924563
 21
43.3004028903
  0
LINE
  5
3B7
100
AcDbEntity
  8
IMPORT_IGES
100
AcDbLine
 62
253
  6
CONTINUOUS
 10
-56.9786924563
 20
43.3004028903
 11
-56.1012752525
 21
43.2867906508
  0
LINE
  5
3B8
100
AcDbEntity
  8
IMPORT_IGES
100
AcDbLine
 62
253
  6
CONTINUOUS
 10
-53.672429375
 20
41.3366234993
 11
-53.4686476564
 21
41.3324595335
  0
LINE
  5
3B9
100
AcDbEntity
  8
IMPORT_IGES
100
AcDbLine
 62
253
  6
CONTINUOUS
 10
-62.8233480973
 20
43.3378012505
 11
-66.8866429373
 21
43.4502962058
  0
LWPOLYLINE
  5
3BA
100
AcDbEntity
  8
IMPORT_IGES
100
AcDbPolyline
 62
253
  6
CONTINUOUS
 90
12
 70
0
 10
-53.4686476564
 20
41.3324595335
 10
-53.3556004441
 20
41.3294249203
 10
-53.3059637893
 20
41.3278341293
 10
-53.2609665717
 20
41.3261944552
 10
-53.2208461778
 20
41.3245126788
 10
-53.1857393088
 20
41.3227929956
 10
-53.1557725311
 20
41.321039771
 10
-53.13106435
 20
41.3192577799
 10
-53.1117190103
 20
41.3174520427
 10
-53.0978226488
 20
41.3156275392
 10
-53.0894452871
 20
41.313789186
 10
-53.0866429373
 20
41.3119420695
  0
LWPOLYLINE
  5
3BB
100
AcDbEntity
  8
IMPORT_IGES
100
AcDbPolyline
 62
253
  6
CONTINUOUS
 90
17
 70
0
 10
-56.1012752525
 20
50.0426505479
 10
-55.979147484
 20
49.8384797603
 10
-55.8672195873
 20
49.6253179873
 10
-55.7656020403
 20
49.403502892
 10
-55.6743851164
 20
49.1733686708
 10
-55.5936545827
 20
48.9352840425
 10
-55.5234858906
 20
48.689656216
 10
-55.4639866967
 20
48.4371630611
 10
-55.415097062
 20
48.17790347
 10
-55.3767193658
 20
47.9113598897
 10
-55.3489372271
 20
47.6375870786
 10
-55.3318863649
 20
47.3571924375
 10
-55.325644119
 20
47.0704290751
 10
-55.3302870119
 20
46.7776036935
 10
-55.3458769259
 20
46.4791459461
 10
-55.3724514163
 20
46.1755085222
 10
-55.4100270742
 20
45.8671309236
  0
LWPOLYLINE
  5
3BC
100
AcDbEntity
  8
IMPORT_IGES
100
AcDbPolyline
 62
253
  6
CONTINUOUS
 90
25
 70
0
 10
-56.1012752525
 20
-51.0092871847
 10
-55.9848142907
 20
-50.8488291316
 10
-55.8776510661
 20
-50.67959509
 10
-55.7800480705
 20
-50.5020247444
 10
-55.6922974008
 20
-50.3167390791
 10
-55.6144489629
 20
-50.124142474
 10
-55.5464411192
 20
-49.9242576126
 10
-55.488480357
 20
-49.7178330155
 10
-55.4405281917
 20
-49.5052099584
 10
-55.4023937409
 20
-49.2855672064
 10
-55.3742353682
 20
-49.0591003608
 10
-55.3561915645
 20
-48.8265763153
 10
-55.3483087495
 20
-48.5878387058
 10
-55.3507236487
 20
-48.3433319076
 10
-55.3634811735
 20
-48.0936844783
 10
-55.3866310191
 20
-47.8389548439
 10
-55.4202112288
 20
-47.579792124
 10
-55.4641869663
 20
-47.3167549746
 10
-55.5186196642
 20
-47.0497479056
 10
-55.583556984
 20
-46.7791154836
 10
-55.6588297591
 20
-46.505835785
 10
-55.7441946475
 20
-46.2307820817
 10
-55.8394084817
 20
-45.9547293639
 10
-55.9442024213
 20
-45.6783152153
 10
-56.058231158
 20
-45.4022299708
  0
LINE
  5
3BD
100
AcDbEntity
  8
IMPORT_IGES
100
AcDbLine
 62
253
  6
CONTINUOUS
 10
-55.2237751596
 20
-44.5353208112
 11
-53.472429375
 21
-42.9907426218
  0
LINE
  5
3BE
100
AcDbEntity
  8
IMPORT_IGES
100
AcDbLine
 62
253
  6
CONTINUOUS
 10
-56.1012752525
 20
-45.3035028987
 11
-55.2237751596
 21
-44.5353208112
  0
LWPOLYLINE
  5
3BF
100
AcDbEntity
  8
IMPORT_IGES
100
AcDbPolyline
 62
253
  6
CONTINUOUS
 90
8
 70
0
 10
-84.34866124
 20
49.7862540948
 10
-84.9557311574
 20
49.9033816847
 10
-85.5389751998
 20
50.0186081957
 10
-86.097637324
 20
50.1319353056
 10
-86.6300894212
 20
50.2437523522
 10
-87.1365382889
 20
50.3536722631
 10
-87.6186700315
 20
50.460534987
 10
-88.0755114112
 20
50.5644449586
  0
LWPOLYLINE
  5
3C0
100
AcDbEntity
  8
IMPORT_IGES
100
AcDbPolyline
 62
253
  6
CONTINUOUS
 90
31
 70
0
 10
-84.3489590288
 20
49.7862422752
 10
-84.049983422
 20
49.7237844783
 10
-83.7593506109
 20
49.6501385618
 10
-83.478189197
 20
49.5664354558
 10
-83.2080193984
 20
49.4741054252
 10
-82.9489853979
 20
49.3740986826
 10
-82.6998889817
 20
49.2666273864
 10
-82.4609348246
 20
49.1524209271
 10
-82.2327260856
 20
49.0326868526
 10
-82.0145233496
 20
48.9080329189
 10
-81.8065160146
 20
48.7793861148
 10
-81.6087925055
 20
48.6475817858
 10
-81.4203991757
 20
48.5128084309
 10
-81.2413631913
 20
48.3757172955
 10
-81.0716073724
 20
48.2368555131
 10
-80.9100248698
 20
48.0959289716
 10
-80.756371397
 20
47.9532392208
 10
-80.6107542244
 20
47.8094532353
 10
-80.472965179
 20
47.664561649
 10
-80.3434917984
 20
47.5191248852
 10
-80.2224995732
 20
47.3732819357
 10
-80.1094756205
 20
47.2263740223
 10
-80.0046027017
 20
47.0788983705
 10
-79.9079217866
 20
46.9314346697
 10
-79.8187784419
 20
46.7832946369
 10
-79.7372147545
 20
46.6347887774
 10
-79.6631948819
 20
46.486295305
 10
-79.5960949808
 20
46.3369965833
 10
-79.5357570754
 20
46.1867299315
 10
-79.4823542877
 20
46.0360947573
 10
-79.4358303033
 20
45.8853139895
  0
LWPOLYLINE
  5
3C1
100
AcDbEntity
  8
IMPORT_IGES
100
AcDbPolyline
 62
253
  6
CONTINUOUS
 90
3
 70
0
 10
-88.0755114112
 20
50.5644449586
 10
-88.9110171305
 20
50.7616356843
 10
-89.2906522323
 20
50.8534679957
  0
LINE
  5
3C2
100
AcDbEntity
  8
IMPORT_IGES
100
AcDbLine
 62
253
  6
CONTINUOUS
 10
-89.2906522323
 20
50.8534679957
 11
-89.967573878
 21
51.0217632895
  0
LINE
  5
3C3
100
AcDbEntity
  8
IMPORT_IGES
100
AcDbLine
 62
253
  6
CONTINUOUS
 10
-89.967573878
 20
51.0217632895
 11
-90.5298361525
 21
51.1643609396
  0
LINE
  5
3C4
100
AcDbEntity
  8
IMPORT_IGES
100
AcDbLine
 62
253
  6
CONTINUOUS
 10
-90.5298361525
 20
51.1643609396
 11
-90.9754784627
 21
51.2797590362
  0
LINE
  5
3C5
100
AcDbEntity
  8
IMPORT_IGES
100
AcDbLine
 62
253
  6
CONTINUOUS
 10
-87.2146011667
 20
53.0686967103
 11
-86.5487318757
 21
52.8932500569
  0
LINE
  5
3C6
100
AcDbEntity
  8
IMPORT_IGES
100
AcDbLine
 62
253
  6
CONTINUOUS
 10
-90.9754784627
 20
51.2797590362
 11
-91.4237667089
 21
51.3988720252
  0
LINE
  5
3C7
100
AcDbEntity
  8
IMPORT_IGES
100
AcDbLine
 62
253
  6
CONTINUOUS
 10
-87.7794038475
 20
53.221622057
 11
-87.2146011667
 21
53.0686967103
  0
LINE
  5
3C8
100
AcDbEntity
  8
IMPORT_IGES
100
AcDbLine
 62
253
  6
CONTINUOUS
 10
-91.4237667089
 20
51.3988720252
 11
-91.6092775671
 21
51.4496309245
  0
LINE
  5
3C9
100
AcDbEntity
  8
IMPORT_IGES
100
AcDbLine
 62
253
  6
CONTINUOUS
 10
-88.2398414088
 20
53.3490123435
 11
-87.7794038475
 21
53.221622057
  0
LINE
  5
3CA
100
AcDbEntity
  8
IMPORT_IGES
100
AcDbLine
 62
253
  6
CONTINUOUS
 10
-88.5917736272
 20
53.4485336481
 11
-88.2398414088
 21
53.3490123435
  0
LINE
  5
3CB
100
AcDbEntity
  8
IMPORT_IGES
100
AcDbLine
 62
253
  6
CONTINUOUS
 10
-88.8353608119
 20
53.5188066641
 11
-88.5917736272
 21
53.4485336481
  0
LWPOLYLINE
  5
3CC
100
AcDbEntity
  8
IMPORT_IGES
100
AcDbPolyline
 62
253
  6
CONTINUOUS
 90
3
 70
0
 10
-89.0000077867
 20
53.5671495445
 10
-88.9969181162
 20
53.5662303425
 10
-88.8353608119
 20
53.5188066641
  0
LINE
  5
3CD
100
AcDbEntity
  8
IMPORT_IGES
100
AcDbLine
 62
253
  6
CONTINUOUS
 10
-55.0200460653
 20
42.424456294
 11
-56.1012752525
 21
43.2867906508
  0
LWPOLYLINE
  5
3CE
100
AcDbEntity
  8
IMPORT_IGES
100
AcDbPolyline
 62
253
  6
CONTINUOUS
 90
3
 70
0
 10
-53.672429375
 20
41.3366234993
 10
-53.9416028928
 20
41.5550702587
 10
-55.0200460653
 20
42.424456294
  0
LWPOLYLINE
  5
3CF
100
AcDbEntity
  8
IMPORT_IGES
100
AcDbPolyline
 62
253
  6
CONTINUOUS
 90
10
 70
0
 10
-53.472429375
 20
-48.706813626
 10
-53.4001596492
 20
-48.6311781627
 10
-53.3321827111
 20
-48.5521209932
 10
-53.2686476564
 20
-48.4698902171
 10
-53.2097837977
 20
-48.3848842375
 10
-53.1556004441
 20
-48.2972252789
 10
-53.1059637893
 20
-48.2067116605
 10
-53.0609665717
 20
-48.1134166656
 10
-53.0208461778
 20
-48.0177261093
 10
-52.9857393088
 20
-47.9198787155
  0
LINE
  5
3D0
100
AcDbEntity
  8
IMPORT_IGES
100
AcDbLine
 62
7
  6
CONTINUOUS
 10
-53.472429375
 20
-49.8714568199
 11
-56.1012752525
 21
-52.5003026974
  0
LINE
  5
3D1
100
AcDbEntity
  8
IMPORT_IGES
100
AcDbLine
 62
253
  6
CONTINUOUS
 10
-53.472429375
 20
-48.706813626
 11
-54.3447756668
 21
-49.4747838295
  0
LINE
  5
3D2
100
AcDbEntity
  8
IMPORT_IGES
100
AcDbLine
 62
253
  6
CONTINUOUS
 10
-54.3447756668
 20
-49.4747838295
 11
-55.2210620602
 21
-50.2422775882
  0
LINE
  5
3D3
100
AcDbEntity
  8
IMPORT_IGES
100
AcDbLine
 62
253
  6
CONTINUOUS
 10
-55.2210620602
 20
-50.2422775882
 11
-56.1012752525
 21
-51.0092871849
  0
LINE
  5
3D4
100
AcDbEntity
  8
IMPORT_IGES
100
AcDbLine
 62
253
  6
CONTINUOUS
 10
-82.4053176702
 20
51.9426681825
 11
-67.8866429373
 21
52.9279539395
  0
LINE
  5
3D5
100
AcDbEntity
  8
IMPORT_IGES
100
AcDbLine
 62
253
  6
CONTINUOUS
 10
-66.8866429373
 20
52.3451806057
 11
-67.8866429373
 21
52.3451806057
  0
LWPOLYLINE
  5
3D6
100
AcDbEntity
  8
IMPORT_IGES
100
AcDbPolyline
 62
253
  6
CONTINUOUS
 90
10
 70
0
 10
-86.5487318757
 20
52.8932500569
 10
-86.1808471853
 20
52.7988917682
 10
-85.7893116043
 20
52.700594457
 10
-85.3746087748
 20
52.5989116714
 10
-84.9367343252
 20
52.494331342
 10
-84.4756926269
 20
52.3872539806
 10
-83.9919804367
 20
52.2781246135
 10
-83.4857633399
 20
52.1673765052
 10
-82.9568757511
 20
52.0554218882
 10
-82.4053176702
 20
51.9426681825
  0
LINE
  5
3D7
100
AcDbEntity
  8
IMPORT_IGES
100
AcDbLine
 62
253
  6
CONTINUOUS
 10
-56.1012752525
 20
50.0426505479
 11
-55.2854623996
 21
49.4055412965
  0
LINE
  5
3D8
100
AcDbEntity
  8
IMPORT_IGES
100
AcDbLine
 62
253
  6
CONTINUOUS
 10
-55.2854623996
 20
49.4055412965
 11
-54.4758359402
 21
48.7678790492
  0
LINE
  5
3D9
100
AcDbEntity
  8
IMPORT_IGES
100
AcDbLine
 62
253
  6
CONTINUOUS
 10
-54.4758359402
 20
48.7678790492
 11
-53.672429375
 21
48.1296785943
  0
LWPOLYLINE
  5
3DA
100
AcDbEntity
  8
IMPORT_IGES
100
AcDbPolyline
 62
253
  6
CONTINUOUS
 90
22
 70
0
 10
-56.1012752525
 20
50.0426505479
 10
-56.3584401661
 20
50.2840547877
 10
-56.624306753
 20
50.5163655966
 10
-56.8985354892
 20
50.7392863029
 10
-57.1807761716
 20
50.9525322262
 10
-57.4706683657
 20
51.1558310417
 10
-57.7678418655
 20
51.3489231271
 10
-58.0719171667
 20
51.5315618948
 10
-58.3825059507
 20
51.7035141066
 10
-58.6992115812
 20
51.8645601714
 10
-59.0216296102
 20
52.0144944258
 10
-59.3493482947
 20
52.1531253969
 10
-59.6819491228
 20
52.2802760463
 10
-60.0190073474
 20
52.3957839967
 10
-60.3600925296
 20
52.499501739
 10
-60.7047690874
 20
52.5912968208
 10
-61.0525968529
 20
52.6710520156
 10
-61.4031316336
 20
52.7386654721
 10
-61.7559257802
 20
52.7940508448
 10
-62.110528758
 20
52.8371374041
 10
-62.4664877225
 20
52.8678701263
 10
-62.8233480973
 20
52.8862097643
  0
LINE
  5
3DB
100
AcDbEntity
  8
IMPORT_IGES
100
AcDbLine
 62
7
  6
CONTINUOUS
 10
-53.672429375
 20
50.0001160553
 11
-56.1012752525
 21
52.4289619328
  0
LWPOLYLINE
  5
3DC
100
AcDbEntity
  8
IMPORT_IGES
100
AcDbPolyline
 62
7
  6
CONTINUOUS
 90
10
 70
0
 10
-58.7042085914
 20
-54.3025214131
 10
-58.8671235543
 20
-54.3820821493
 10
-59.0313448762
 20
-54.4586302497
 10
-59.1968725572
 20
-54.5321657143
 10
-59.3637621444
 20
-54.6027108461
 10
-59.5319580906
 20
-54.6702433421
 10
-59.7012937541
 20
-54.7346962938
 10
-59.8717135876
 20
-54.7960473986
 10
-60.0432731384
 20
-54.8543189592
 10
-60.2159724065
 20
-54.9095109755
  0
LWPOLYLINE
  5
3DD
100
AcDbEntity
  8
IMPORT_IGES
100
AcDbPolyline
 62
7
  6
CONTINUOUS
 90
16
 70
0
 10
-88.9999878284
 20
53.5671514038
 10
-89.0810051813
 20
53.5589379007
 10
-89.3416193922
 20
53.517209383
 10
-89.5983548358
 20
53.4526483588
 10
-89.8470047329
 20
53.3662650947
 10
-90.0858759931
 20
53.2587775562
 10
-90.3154086744
 20
53.1304430048
 10
-90.5329972325
 20
52.9826405277
 10
-90.735851136
 20
52.8169384832
 10
-90.9240596722
 20
52.6333239077
 10
-91.0955291218
 20
52.4342292011
 10
-91.2483819798
 20
52.2219240527
 10
-91.3825158853
 20
51.9959240969
 10
-91.4969415112
 20
51.7577518423
 10
-91.589817278
 20
51.5113290089
 10
-91.6092347045
 20
51.4497737754
  0
LINE
  5
3DE
100
AcDbEntity
  8
IMPORT_IGES
100
AcDbLine
 62
7
  6
CONTINUOUS
 10
-88.9999877959
 20
53.5671512935
 11
-67.8866429373
 21
55.4143296177
  0
LINE
  5
3DF
100
AcDbEntity
  8
IMPORT_IGES
100
AcDbLine
 62
7
  6
CONTINUOUS
 10
-67.8866429373
 20
54.8469342214
 11
-66.8866429373
 21
54.8469342214
  0
LINE
  5
3E0
100
AcDbEntity
  8
IMPORT_IGES
100
AcDbLine
 62
253
  6
CONTINUOUS
 10
-66.886643013
 20
52.995552065
 11
-62.82334811
 21
52.8862098755
  0
LINE
  5
3E1
100
AcDbEntity
  8
IMPORT_IGES
100
AcDbLine
 62
7
  6
CONTINUOUS
 10
-62.8233480973
 20
55.3518023911
 11
-66.8866429373
 21
55.4936957736
  0
ARC
  5
3E2
100
AcDbEntity
  8
IMPORT_IGES
100
AcDbCircle
 62
7
  6
CONTINUOUS
 10
0.3739406367
 20
116.8809962844
 40
172.4460328226
100
AcDbArc
 50
262.1665669627
 51
269.1403367409
  0
ARC
  5
3E3
100
AcDbEntity
  8
IMPORT_IGES
100
AcDbCircle
 62
7
  6
CONTINUOUS
 10
0.3739406367
 20
116.8809962844
 40
172.4460328226
100
AcDbArc
 50
270.8596632594
 51
277.8334330373
  0
ARC
  5
3E4
100
AcDbEntity
  8
IMPORT_IGES
100
AcDbCircle
 62
7
  6
CONTINUOUS
 10
0.3739406367
 20
116.8809962844
 40
172.3666666667
100
AcDbArc
 50
262.1832033955
 51
277.8167966045
  0
ARC
  5
3E5
100
AcDbEntity
  8
IMPORT_IGES
100
AcDbCircle
 62
7
  6
CONTINUOUS
 10
0.3739406367
 20
-35.5465452713
 40
91.0402410449
100
AcDbArc
 50
76.5467387323
 51
103.4532612677
  0
ARC
  5
3E6
100
AcDbEntity
  8
IMPORT_IGES
100
AcDbCircle
 62
7
  6
CONTINUOUS
 10
0.3739406367
 20
-35.5465452713
 40
90.960874889
100
AcDbArc
 50
76.572722755
 51
103.427277245
  0
ARC
  5
3E7
100
AcDbEntity
  8
IMPORT_IGES
100
AcDbCircle
 62
7
  6
CONTINUOUS
 10
0.3739300047
 20
70.2824999906
 40
85.0
100
AcDbArc
 50
261.5515549544
 51
278.4484450456
  0
ARC
  5
3E8
100
AcDbEntity
  8
IMPORT_IGES
100
AcDbCircle
 62
7
  6
CONTINUOUS
 10
0.3739300047
 20
-45.2675000094
 40
35.05
100
AcDbArc
 50
68.9033692978
 51
111.0966307022
  0
ARC
  5
3E9
100
AcDbEntity
  8
IMPORT_IGES
100
AcDbCircle
 62
7
  6
CONTINUOUS
 10
-12.0260699953
 20
-13.1265214929
 40
0.6
100
AcDbArc
 50
111.0966307022
 51
180.0
  0
ARC
  5
3EA
100
AcDbEntity
  8
IMPORT_IGES
100
AcDbCircle
 62
7
  6
CONTINUOUS
 10
-12.0260699953
 20
-13.2016302378
 40
0.6
100
AcDbArc
 50
180.0
 51
261.5515549544
  0
ARC
  5
3EB
100
AcDbEntity
  8
IMPORT_IGES
100
AcDbCircle
 62
7
  6
CONTINUOUS
 10
12.7739300047
 20
-13.2016302378
 40
0.6
100
AcDbArc
 50
278.4484450456
 51
360.0
  0
ARC
  5
3EC
100
AcDbEntity
  8
IMPORT_IGES
100
AcDbCircle
 62
7
  6
CONTINUOUS
 10
12.7739300047
 20
-13.1265214929
 40
0.6
100
AcDbArc
 50
0.0
 51
68.9033692978
  0
ARC
  5
3ED
100
AcDbEntity
  8
IMPORT_IGES
100
AcDbCircle
 62
7
  6
CONTINUOUS
 10
-63.1723430643
 20
45.357894121
 40
10.0
100
AcDbArc
 50
45.0
 51
88.0
  0
ARC
  5
3EE
100
AcDbEntity
  8
IMPORT_IGES
100
AcDbCircle
 62
7
  6
CONTINUOUS
 10
-63.1723430643
 20
-45.4292348856
 40
10.0
100
AcDbArc
 50
296.5391463497
 51
315.0
  0
ARC
  5
3EF
100
AcDbEntity
  8
IMPORT_IGES
100
AcDbCircle
 62
7
  6
CONTINUOUS
 10
-63.1723430643
 20
-45.4292348856
 40
10.0
100
AcDbArc
 50
277.3869666338
 51
287.1958489245
  0
ARC
  5
3F0
100
AcDbEntity
  8
IMPORT_IGES
100
AcDbCircle
 62
7
  6
CONTINUOUS
 10
-52.8866429373
 20
-0.9829069023
 40
3.0
100
AcDbArc
 50
101.5369590328
 51
261.7867892983
  0
ARC
  5
3F1
100
AcDbEntity
  8
IMPORT_IGES
100
AcDbCircle
 62
7
  6
CONTINUOUS
 10
-55.0866429373
 20
48.585902493
 40
2.0
100
AcDbArc
 50
0.0
 51
45.0
  0
ARC
  5
3F2
100
AcDbEntity
  8
IMPORT_IGES
100
AcDbCircle
 62
7
  6
CONTINUOUS
 10
-54.8866429373
 20
-48.4572432576
 40
2.0
100
AcDbArc
 50
315.0
 51
360.0
  0
ARC
  5
3F3
100
AcDbEntity
  8
IMPORT_IGES
100
AcDbCircle
 62
7
  6
CONTINUOUS
 10
-53.3866429373
 20
-4.4470085174
 40
0.5
100
AcDbArc
 50
0.0
 51
81.7867892983
  0
ARC
  5
3F4
100
AcDbEntity
  8
IMPORT_IGES
100
AcDbCircle
 62
7
  6
CONTINUOUS
 10
-53.5866429373
 20
2.4463787376
 40
0.5
100
AcDbArc
 50
281.5369590328
 51
360.0
  0
ELLIPSE
  5
3F5
100
AcDbEntity
  8
0
100
AcDbEllipse
 62
7
  6
CONTINUOUS
 10
0.3735468377
 20
-769.3097160665
 30
0.0
 11
-23.9021130136
 21
1062.7099192928
 31
0.0
 40
0.0020317943
 41
0.790057079
 42
0.8197723295
  0
ELLIPSE
  5
3F6
100
AcDbEntity
  8
0
100
AcDbEllipse
 62
7
  6
CONTINUOUS
 10
0.3735468193
 20
-769.3444506256
 30
0.0
 11
23.9032348591
 21
1062.7593688173
 31
0.0
 40
0.0020316999
 41
-0.8197710521
 42
-0.7900571686
  0
ELLIPSE
  5
3F7
100
AcDbEntity
  8
0
100
AcDbEllipse
 62
7
  6
CONTINUOUS
 10
0.3739292979
 20
-44.6993673917
 30
0.0
 11
24.0
 21
-0.0000001834
 31
0.0
 40
0.0883754566
 41
-2.301542618
 42
-0.8400488459
  0
ENDSEC
  0
SECTION
  2
OBJECTS
  0
DICTIONARY
  5
C
100
AcDbDictionary
280
0
281
1
  3
ACAD_GROUP
350
D
  3
ACAD_MLINESTYLE
350
17
  3
ACAD_LAYOUT
350
1A
  3
ACAD_PLOTSETTINGS
350
19
  3
ACAD_PLOTSTYLENAME
350
E
  0
DICTIONARY
  5
D
102
{ACAD_REACTORS
330
C
102
}
100
AcDbDictionary
280
0
281
1
  0
ACDBDICTIONARYWDFLT
  5
E
102
{ACAD_REACTORS
330
C
102
}
100
AcDbDictionary
281
1
  3
Normal
350
F
100
AcDbDictionaryWithDefault
340
F
  0
DICTIONARY
  5
17
102
{ACAD_REACTORS
330
C
102
}
100
AcDbDictionary
280
0
281
1
  3
Standard
350
18
  0
DICTIONARY
  5
19
102
{ACAD_REACTORS
330
C
102
}
100
AcDbDictionary
281
1
  0
DICTIONARY
  5
1A
102
{ACAD_REACTORS
330
C
102
}
100
AcDbDictionary
281
1
  3
Model
350
3F8
  3
Layout1
350
3F9
  0
ACDBPLACEHOLDER
  5
F
102
{ACAD_REACTORS
330
E
102
}
  0
MLINESTYLE
  5
18
102
{ACAD_REACTORS
330
17
102
}
100
AcDbMlineStyle
  2
STANDARD
 70
0
  3

 62
256
 51
90.0
 52
90.0
 71
2
 49
0.5
 62
256
  6
BYLAYER
 49
-0.5
 62
256
  6
BYLAYER
  0
LAYOUT
  5
3F8
102
{ACAD_REACTORS
330
1A
102
}
100
AcDbPlotSettings
  1

  2
none_device
  4
ISO_A4_(297.00_x_210.00_MM)
  6

 40
0.0
 41
0.0
 42
0.0
 43
0.0
 44
297.0
 45
210.0
 46
0.0
 47
0.0
 48
0.0
 49
0.0
140
0.0
141
0.0
142
1.0
143
1.0
 70
1024
 72
1
 73
0
 74
0
  7

 75
0
147
1.0
148
0.0
149
0.0
100
AcDbLayout
  1
Model
 70
0
 71
0
 10
0.0
 20
0.0
 11
297.0
 21
210.0
 12
0.0
 22
0.0
 32
0.0
 14
0.0
 24
0.0
 34
0.0
 15
0.0
 25
0.0
 35
0.0
146
0.0
 13
0.0
 23
0.0
 33
0.0
 16
1.0
 26
0.0
 36
0.0
 17
0.0
 27
1.0
 37
0.0
 76
0
330
20F
345
0
346
0
  0
LAYOUT
  5
3F9
102
{ACAD_REACTORS
330
1A
102
}
100
AcDbPlotSettings
  1

  2
none_device
  4
ISO_A4_(297.00_x_210.00_MM)
  6

 40
0.0
 41
0.0
 42
0.0
 43
0.0
 44
297.0
 45
210.0
 46
0.0
 47
0.0
 48
0.0
 49
0.0
140
0.0
141
0.0
142
1.0
143
1.0
 70
0
 72
1
 73
0
 74
0
  7

 75
0
147
1.0
148
0.0
149
0.0
100
AcDbLayout
  1
Layout1
 70
0
 71
1
 10
0.0
 20
0.0
 11
297.0
 21
210.0
 12
0.0
 22
0.0
 32
0.0
 14
0.0
 24
0.0
 34
0.0
 15
0.0
 25
0.0
 35
0.0
146
0.0
 13
0.0
 23
0.0
 33
0.0
 16
1.0
 26
0.0
 36
0.0
 17
0.0
 27
1.0
 37
0.0
 76
0
330
210
345
0
346
0
  0
ENDSEC
  0
EOF
