  0
SECTION
  2
HEADER
  9
$ACADVER
  1
AC1024
  9
$DWGCODEPAGE
  3
ANSI_1252
  9
$EXTMAX
 10
420.0
 20
297.0
 30
0.0
  9
$EXTMIN
 10
0.0
 20
-0.0
 30
0.0
  9
$LIMMIN
 10
0.0
 20
-0.0
  9
$LIMMAX
 10
420.0
 20
297.0
  9
$VIEWCTR
 10
210.0
 20
148.5
  9
$VIEWSIZE
 40
297.0
  9
$CLAYER
  8
0
  9
$LTSCALE
 40
23.1
  9
$CELTYPE
  6
BYLAYER
  9
$DIMSCALE
 40
1.0
  9
$DIMASZ
 40
3.0
  9
$DIMEXO
 40
0.5
  9
$DIMDLI
 40
15.96
  9
$DIMEXE
 40
1.5
  9
$DIMCEN
 40
3.78
  9
$DIMLFAC
 40
1.0
  9
$DIMBLK
  1
_FILLED
  9
$DIMALT
 70
0
  9
$DIMALTF
 40
0.0393700787
  9
$DIMTXT
 40
3.0
  9
$DIMTOL
 70
1
  9
$DIMLIM
 70
0
  9
$DIMTFAC
 40
1.0
  9
$DIMTP
 40
0.01
  9
$DIMTM
 40
0.01
  9
$DIMGAP
 40
0.625
  9
$DIMDSEP
 70
44
  9
$AUNITS
 70
0
  9
$PDMODE
 70
3
  9
$PDSIZE
 40
3.0
  9
$HANDSEED
  5
2E0
  9
$TILEMODE
 70
1
  9
$MEASUREMENT
 70
1
  9
$INSUNITS
 70
4
  0
ENDSEC
  0
SECTION
  2
CLASSES
  0
CLASS
  1
ACDBDICTIONARYWDFLT
  2
AcDbDictionaryWithDefault
  3
AutoCAD 2000
 90
0
 91
1
280
0
281
0
  0
CLASS
  1
ACDBPLACEHOLDER
  2
AcDbPlaceHolder
  3
AutoCAD 2000
 90
0
 91
1
280
0
281
0
  0
CLASS
  1
LAYOUT
  2
AcDbLayout
  3
AutoCAD 2000
 90
0
 91
0
280
0
281
0
  0
ENDSEC
  0
SECTION
  2
TABLES
  0
TABLE
  2
VPORT
  5
8
100
AcDbSymbolTable
 70
2
  0
VPORT
  5
1F4
100
AcDbSymbolTableRecord
100
AcDbViewportTableRecord
  2
*ACTIVE
 70
0
 10
0.0
 20
0.0
 11
1.0
 21
1.0
 12
210.0
 22
148.5
 13
0.0
 23
0.0
 14
1.0
 24
1.0
 15
0.0
 25
0.0
 16
0.0
 26
0.0
 36
1.0
 17
0.0
 27
0.0
 37
0.0
 40
297.0
 41
1.4141414141
 42
50.0
 43
0.0
 44
0.0
 50
0.0
 51
0.0
 71
0
 72
100
 73
1
 74
1
 75
0
 76
0
 77
0
 78
0
  0
ENDTAB
  0
TABLE
  2
LTYPE
  5
5
100
AcDbSymbolTable
 70
6
  0
LTYPE
  5
14
100
AcDbSymbolTableRecord
100
AcDbLinetypeTableRecord
  2
BYBLOCK
 70
0
  3

 72
65
 73
0
 40
0.0
  0
LTYPE
  5
15
100
AcDbSymbolTableRecord
100
AcDbLinetypeTableRecord
  2
BYLAYER
 70
0
  3

 72
65
 73
0
 40
0.0
  0
LTYPE
  5
16
100
AcDbSymbolTableRecord
100
AcDbLinetypeTableRecord
  2
CONTINUOUS
 70
64
  3
Solid line
 72
65
 73
0
 40
0.0
  0
LTYPE
  5
1F5
100
AcDbSymbolTableRecord
100
AcDbLinetypeTableRecord
  2
CENTER
 70
64
  3
____ _ ____ _ ____ _ ____ _ ____ _ ____ _ ____
 72
65
 73
4
 40
0.6
 49
0.375
 74
0
 49
-0.075
 74
0
 49
0.075
 74
0
 49
-0.075
 74
0
  0
LTYPE
  5
1F6
100
AcDbSymbolTableRecord
100
AcDbLinetypeTableRecord
  2
HIDDEN
 70
64
  3
- - - - - - - - - - - - - - - - - - - -
 72
65
 73
2
 40
0.2
 49
0.1
 74
0
 49
-0.1
 74
0
  0
LTYPE
  5
1F7
100
AcDbSymbolTableRecord
100
AcDbLinetypeTableRecord
  2
PHANTOM
 70
64
  3
_____ _ _ _____ _ _ _____ _ _ _____
 72
65
 73
6
 40
0.8
 49
0.45
 74
0
 49
-0.05
 74
0
 49
0.1
 74
0
 49
-0.05
 74
0
 49
0.1
 74
0
 49
-0.05
 74
0
  0
LTYPE
  5
1F8
100
AcDbSymbolTableRecord
100
AcDbLinetypeTableRecord
  2
DOT
 70
64
  3
. . . . . . . . . . . . . . . . . . . .
 72
65
 73
2
 40
0.2
 49
0.1
 74
0
 49
-0.1
 74
0
  0
LTYPE
  5
1F9
100
AcDbSymbolTableRecord
100
AcDbLinetypeTableRecord
  2
DASHED
 70
64
  3
- - - - - - - - - - - - - - - - - - - -
 72
65
 73
2
 40
0.2
 49
0.1
 74
0
 49
-0.1
 74
0
  0
ENDTAB
  0
TABLE
  2
LAYER
  5
2
100
AcDbSymbolTable
 70
36
  0
LAYER
  5
10
100
AcDbSymbolTableRecord
100
AcDbLayerTableRecord
  2
0
 70
0
 62
7
  6
CONTINUOUS
370
-3
390
F
  0
LAYER
  5
1FA
100
AcDbSymbolTableRecord
100
AcDbLayerTableRecord
  2
DEFAULT_1
 70
0
 62
7
  6
CENTER
370
-3
390
F
  0
LAYER
  5
1FB
100
AcDbSymbolTableRecord
100
AcDbLayerTableRecord
  2
DEFAULT_2
 70
0
 62
7
  6
HIDDEN
370
-3
390
F
  0
LAYER
  5
1FC
100
AcDbSymbolTableRecord
100
AcDbLayerTableRecord
  2
DEFAULT_3
 70
0
 62
7
  6
PHANTOM
370
-3
390
F
  0
LAYER
  5
1FD
100
AcDbSymbolTableRecord
100
AcDbLayerTableRecord
  2
ASSI
 70
0
 62
7
  6
CONTINUOUS
370
-3
390
F
  0
LAYER
  5
1FE
100
AcDbSymbolTableRecord
100
AcDbLayerTableRecord
  2
COORDINATE
 70
0
 62
7
  6
CONTINUOUS
370
-3
390
F
  0
LAYER
  5
1FF
100
AcDbSymbolTableRecord
100
AcDbLayerTableRecord
  2
COPY_PUBLISH
 70
0
 62
7
  6
CONTINUOUS
370
-3
390
F
  0
LAYER
  5
200
100
AcDbSymbolTableRecord
100
AcDbLayerTableRecord
  2
COSMETICI
 70
0
 62
7
  6
CONTINUOUS
370
-3
390
F
  0
LAYER
  5
201
100
AcDbSymbolTableRecord
100
AcDbLayerTableRecord
  2
CURVE
 70
0
 62
7
  6
CONTINUOUS
370
-3
390
F
  0
LAYER
  5
202
100
AcDbSymbolTableRecord
100
AcDbLayerTableRecord
  2
DRAFT
 70
0
 62
7
  6
CONTINUOUS
370
-3
390
F
  0
LAYER
  5
203
100
AcDbSymbolTableRecord
100
AcDbLayerTableRecord
  2
IMPORT_IGES
 70
0
 62
7
  6
CONTINUOUS
370
-3
390
F
  0
LAYER
  5
204
100
AcDbSymbolTableRecord
100
AcDbLayerTableRecord
  2
NONE
 70
0
 62
7
  6
CONTINUOUS
370
-3
390
F
  0
LAYER
  5
205
100
AcDbSymbolTableRecord
100
AcDbLayerTableRecord
  2
NOTE
 70
0
 62
7
  6
CONTINUOUS
370
-3
390
F
  0
LAYER
  5
206
100
AcDbSymbolTableRecord
100
AcDbLayerTableRecord
  2
PIANI
 70
0
 62
7
  6
CONTINUOUS
370
-3
390
F
  0
LAYER
  5
207
100
AcDbSymbolTableRecord
100
AcDbLayerTableRecord
  2
PUNTI
 70
0
 62
7
  6
CONTINUOUS
370
-3
390
F
  0
LAYER
  5
208
100
AcDbSymbolTableRecord
100
AcDbLayerTableRecord
  2
RACCORDO
 70
0
 62
7
  6
CONTINUOUS
370
-3
390
F
  0
LAYER
  5
209
100
AcDbSymbolTableRecord
100
AcDbLayerTableRecord
  2
SIMBOLI
 70
0
 62
7
  6
CONTINUOUS
370
-3
390
F
  0
LAYER
  5
20A
100
AcDbSymbolTableRecord
100
AcDbLayerTableRecord
  2
SMUSSO
 70
0
 62
7
  6
CONTINUOUS
370
-3
390
F
  0
LAYER
  5
20B
100
AcDbSymbolTableRecord
100
AcDbLayerTableRecord
  2
SUPERFICI
 70
0
 62
7
  6
CONTINUOUS
370
-3
390
F
  0
LAYER
  5
20C
100
AcDbSymbolTableRecord
100
AcDbLayerTableRecord
  2
TRASH
 70
0
 62
7
  6
CONTINUOUS
370
-3
390
F
  0
ENDTAB
  0
TABLE
  2
STYLE
  5
3
100
AcDbSymbolTable
 70
1
  0
STYLE
  5
11
100
AcDbSymbolTableRecord
100
AcDbTextStyleTableRecord
  2
STANDARD
 70
0
 40
0.0
 41
0.8
 50
0.0
 71
0
 42
0.2
  3
txt
  4

  0
STYLE
  5
20D
100
AcDbSymbolTableRecord
100
AcDbTextStyleTableRecord
  2
TEXTSTYLE_1
 70
0
 40
0.0
 41
0.8
 50
0.0
 71
0
 42
0.2
  3
gdt
  4

  0
ENDTAB
  0
TABLE
  2
VIEW
  5
6
100
AcDbSymbolTable
 70
0
  0
ENDTAB
  0
TABLE
  2
UCS
  5
7
100
AcDbSymbolTable
 70
0
  0
ENDTAB
  0
TABLE
  2
APPID
  5
9
100
AcDbSymbolTable
 70
1
  0
APPID
  5
20E
100
AcDbSymbolTableRecord
100
AcDbRegAppTableRecord
  2
ACAD
 70
0
  0
ENDTAB
  0
TABLE
  2
BLOCK_RECORD
  5
1
100
AcDbSymbolTable
 70
0
  0
BLOCK_RECORD
  5
20F
100
AcDbSymbolTableRecord
100
AcDbBlockTableRecord
  2
*Model_Space
  0
BLOCK_RECORD
  5
210
100
AcDbSymbolTableRecord
100
AcDbBlockTableRecord
  2
*Paper_Space
  0
BLOCK_RECORD
  5
211
100
AcDbSymbolTableRecord
100
AcDbBlockTableRecord
  2
_FILLED
  0
BLOCK_RECORD
  5
212
100
AcDbSymbolTableRecord
100
AcDbBlockTableRecord
  2
*D0
  0
BLOCK_RECORD
  5
213
100
AcDbSymbolTableRecord
100
AcDbBlockTableRecord
  2
*D1
  0
BLOCK_RECORD
  5
214
100
AcDbSymbolTableRecord
100
AcDbBlockTableRecord
  2
*D2
  0
ENDTAB
  0
TABLE
  2
DIMSTYLE
  5
A
100
AcDbSymbolTable
 70
1
100
AcDbDimStyleTable
 71
0
  0
DIMSTYLE
105
215
100
AcDbSymbolTableRecord
100
AcDbDimStyleTableRecord
  2
STANDARD
 70
0
  3

  4

 40
1.0
 41
3.0
 42
0.5
 43
0.38
 44
1.5
 45
0.0
 46
0.0
 47
0.01
 48
0.01
140
3.0
141
0.09
142
0.0
143
25.4
144
1.0
145
0.0
146
1.0
147
0.625
 71
1
 72
0
 73
0
 74
0
 75
0
 76
0
 77
1
 78
8
 79
2
170
0
171
1
172
0
173
0
174
0
175
0
176
0
177
0
178
0
270
2
179
2
271
2
272
2
273
2
274
2
275
0
280
0
281
0
282
0
283
1
284
8
285
0
286
0
287
3
288
0
340
11
278
44
341
211
342
211
343
211
344
211
  0
DIMSTYLE
105
216
100
AcDbSymbolTableRecord
100
AcDbDimStyleTableRecord
  2
DIMSTYLE_1
 70
0
  3

  4

 40
1.0
 41
3.0
 42
0.5
 43
0.38
 44
1.5
 45
0.0
 46
0.0
 47
0.0
 48
0.0
140
3.0
141
0.09
142
0.0
143
25.4
144
1.0
145
0.0
146
1.0
147
0.75
 71
0
 72
0
 73
0
 74
0
 75
0
 76
0
 77
1
 78
8
 79
2
170
0
171
1
172
0
173
0
174
0
175
0
176
0
177
0
178
0
270
2
179
2
271
2
272
2
273
2
274
2
275
0
280
0
281
0
282
0
283
1
284
8
285
0
286
0
287
3
288
0
340
11
278
44
341
211
342
211
343
211
344
211
  0
ENDTAB
  0
ENDSEC
  0
SECTION
  2
BLOCKS
  0
BLOCK
  5
20
100
AcDbEntity
  8
0
100
AcDbBlockBegin
  2
*Model_Space
 70
0
 10
0.0
 20
0.0
 30
0.0
  3
*Model_Space
  1

  0
ENDBLK
  5
21
100
AcDbEntity
  8
0
100
AcDbBlockEnd
  0
BLOCK
  5
1C
100
AcDbEntity
  8
0
100
AcDbBlockBegin
  2
*Paper_Space
 70
0
 10
0.0
 20
0.0
 30
0.0
  3
*Paper_Space
  1

  0
ENDBLK
  5
1D
100
AcDbEntity
  8
0
100
AcDbBlockEnd
  0
BLOCK
  5
217
100
AcDbEntity
  8
0
100
AcDbBlockBegin
  2
_FILLED
 70
64
 10
0.0
 20
0.0
  3
_FILLED
  1

  0
SOLID
  5
218
100
AcDbEntity
  8
0
  6
BYBLOCK
 62
0
100
AcDbTrace
 10
0.0
 20
0.0
 11
-1.0
 21
0.3166666667
 12
-1.0
 22
-0.3166666667
 13
-1.0
 23
-0.3166666667
  0
ENDBLK
  5
219
100
AcDbEntity
  8
0
  6
BYBLOCK
 62
0
100
AcDbBlockEnd
  0
BLOCK
  5
21A
100
AcDbEntity
  8
0
100
AcDbBlockBegin
 62
7
  6
CONTINUOUS
  2
*D0
 70
65
 10
0.0
 20
0.0
  3
*D0
  1

  0
MTEXT
  5
21B
100
AcDbEntity
  8
0
100
AcDbMText
 62
7
  6
CONTINUOUS
  7
STANDARD
 71
2
 72
1
 10
0.0
 20
120.1222730088
 30
0.0
 11
1.0
 21
0.0
 31
0.0
 73
2
 44
0.9
  1
{\ftxt;\W0.0001;\H0.0001;\~}{\ftxt;\W2.3571428571;\H3.0; }{\ftxt;\W0.0001;\H0.0001;\~}
 40
3.0
 41
10.6071428571
  0
LINE
  5
21C
100
AcDbEntity
  8
0
100
AcDbLine
 62
7
  6
CONTINUOUS
 10
138.0
 20
96.5895815004
 11
138.0
 21
117.8722730088
  0
LINE
  5
21D
100
AcDbEntity
  8
0
100
AcDbLine
 62
7
  6
CONTINUOUS
 10
-138.0
 20
91.1339320755
 11
-138.0
 21
117.8722730088
  0
LINE
  5
21E
100
AcDbEntity
  8
0
100
AcDbLine
 62
7
  6
CONTINUOUS
 10
138.0
 20
116.3722730088
 11
0.0
 21
116.3722730088
  0
LINE
  5
21F
100
AcDbEntity
  8
0
100
AcDbLine
 62
7
  6
CONTINUOUS
 10
-138.0
 20
116.3722730088
 11
0.0
 21
116.3722730088
  0
INSERT
  5
220
100
AcDbEntity
  8
0
100
AcDbBlockReference
 62
7
  6
CONTINUOUS
  2
_FILLED
 10
138.0
 20
116.3722730088
 41
3.0
 42
3.0
 43
3.0
  0
INSERT
  5
221
100
AcDbEntity
  8
0
100
AcDbBlockReference
 62
7
  6
CONTINUOUS
  2
_FILLED
 10
-138.0
 20
116.3722730088
 41
3.0
 42
3.0
 43
3.0
 50
180.0
  0
ENDBLK
  5
222
100
AcDbEntity
  8
0
  6
BYBLOCK
 62
0
100
AcDbBlockEnd
  0
BLOCK
  5
223
100
AcDbEntity
  8
0
100
AcDbBlockBegin
 62
7
  6
CONTINUOUS
  2
*D1
 70
65
 10
0.0
 20
0.0
  3
*D1
  1

  0
MTEXT
  5
224
100
AcDbEntity
  8
0
100
AcDbMText
 62
7
  6
CONTINUOUS
  7
STANDARD
 71
2
 72
1
 10
153.8373974023
 20
0.0
 30
0.0
 11
0.0
 21
1.0
 31
0.0
 73
2
 44
0.9
  1
{\ftxt;\W0.0001;\H0.0001;\~}{\ftxt;\W2.1428571429;\H3.0; }{\ftxt;\W0.0001;\H0.0001;\~}
 40
3.0
 41
9.6428571429
  0
LINE
  5
225
100
AcDbEntity
  8
0
100
AcDbLine
 62
7
  6
CONTINUOUS
 10
140.8716140438
 20
95.0
 11
159.0873974023
 21
95.0
  0
LINE
  5
226
100
AcDbEntity
  8
0
100
AcDbLine
 62
7
  6
CONTINUOUS
 10
134.6347260377
 20
-95.0
 11
159.0873974023
 21
-95.0
  0
LINE
  5
227
100
AcDbEntity
  8
0
100
AcDbLine
 62
7
  6
CONTINUOUS
 10
157.5873974023
 20
95.0
 11
157.5873974023
 21
0.0
  0
LINE
  5
228
100
AcDbEntity
  8
0
100
AcDbLine
 62
7
  6
CONTINUOUS
 10
157.5873974023
 20
-95.0
 11
157.5873974023
 21
0.0
  0
INSERT
  5
229
100
AcDbEntity
  8
0
100
AcDbBlockReference
 62
7
  6
CONTINUOUS
  2
_FILLED
 10
157.5873974023
 20
95.0
 41
3.0
 42
3.0
 43
3.0
 50
90.0
  0
INSERT
  5
22A
100
AcDbEntity
  8
0
100
AcDbBlockReference
 62
7
  6
CONTINUOUS
  2
_FILLED
 10
157.5873974023
 20
-95.0
 41
3.0
 42
3.0
 43
3.0
 50
270.0
  0
ENDBLK
  5
22B
100
AcDbEntity
  8
0
  6
BYBLOCK
 62
0
100
AcDbBlockEnd
  0
BLOCK
  5
22C
100
AcDbEntity
  8
0
100
AcDbBlockBegin
 62
7
  6
CONTINUOUS
  2
*D2
 70
65
 10
0.0
 20
0.0
  3
*D2
  1

  0
MTEXT
  5
22D
100
AcDbEntity
  8
0
100
AcDbMText
 62
7
  6
CONTINUOUS
  7
STANDARD
 71
1
 72
1
 10
-183.2155439292
 20
120.420731799
 30
0.0
 11
1.0
 21
0.0
 31
0.0
 73
2
 44
0.9
  1
{\ftxt;\W0.0001;\H0.0001;\~}{\ftxt;\W2.4285714286;\H3.0; }{\ftxt;\W0.0001;\H0.0001;\~}
 40
3.0
 41
10.9285714286
  0
LINE
  5
22E
100
AcDbEntity
  8
0
100
AcDbLine
 62
7
  6
CONTINUOUS
 10
-197.5119392641
 20
85.5
 11
-197.5119392641
 21
118.170731799
  0
LINE
  5
22F
100
AcDbEntity
  8
0
100
AcDbLine
 62
7
  6
CONTINUOUS
 10
-186.0119392641
 20
80.0
 11
-186.0119392641
 21
118.170731799
  0
LINE
  5
230
100
AcDbEntity
  8
0
100
AcDbLine
 62
7
  6
CONTINUOUS
 10
-197.5119392641
 20
116.670731799
 11
-191.7619392641
 21
116.670731799
  0
LINE
  5
231
100
AcDbEntity
  8
0
100
AcDbLine
 62
7
  6
CONTINUOUS
 10
-186.0119392641
 20
116.670731799
 11
-191.7619392641
 21
116.670731799
  0
LINE
  5
232
100
AcDbEntity
  8
0
100
AcDbLine
 62
7
  6
CONTINUOUS
 10
-191.7619392641
 20
116.670731799
 11
-175.9298296435
 21
116.670731799
  0
INSERT
  5
233
100
AcDbEntity
  8
0
100
AcDbBlockReference
 62
7
  6
CONTINUOUS
  2
_FILLED
 10
-197.5119392641
 20
116.670731799
 41
3.0
 42
3.0
 43
3.0
 50
180.0
  0
INSERT
  5
234
100
AcDbEntity
  8
0
100
AcDbBlockReference
 62
7
  6
CONTINUOUS
  2
_FILLED
 10
-186.0119392641
 20
116.670731799
 41
3.0
 42
3.0
 43
3.0
  0
ENDBLK
  5
235
100
AcDbEntity
  8
0
  6
BYBLOCK
 62
0
100
AcDbBlockEnd
  0
ENDSEC
  0
SECTION
  2
ENTITIES
  0
DIMENSION
  5
236
100
AcDbEntity
  8
0
100
AcDbDimension
 62
7
  6
CONTINUOUS
  2
*D0
 10
-138.0
 20
116.3722730088
 11
-0.4285714245
 21
116.3722730088
 70
160
 71
2
 72
2
 41
0.9
 42
276.0
  1
{\ftxt;\W0.0001;\H0.0001;\~}{\ftxt;\W2.3571428571;\H3.0; }{\ftxt;\W0.0001;\H0.0001;\~}
  3
DIMSTYLE_1
100
AcDbAlignedDimension
 13
138.0
 23
96.0895815004
 14
-138.0
 24
90.6339320755
 50
180.0
100
AcDbRotatedDimension
  0
DIMENSION
  5
237
100
AcDbEntity
  8
0
100
AcDbDimension
 62
7
  6
CONTINUOUS
  2
*D1
 10
157.5873974023
 20
-95.0
 11
157.5873974023
 21
-0.4285733753
 70
160
 71
2
 72
2
 41
0.9
 42
190.0
  1
{\ftxt;\W0.0001;\H0.0001;\~}{\ftxt;\W2.1428571429;\H3.0; }{\ftxt;\W0.0001;\H0.0001;\~}
  3
DIMSTYLE_1
100
AcDbAlignedDimension
 13
140.3716140438
 23
95.0
 14
134.1347260377
 24
-95.0
 50
270.0
100
AcDbRotatedDimension
  0
DIMENSION
  5
238
100
AcDbEntity
  8
0
100
AcDbDimension
 62
7
  6
CONTINUOUS
  2
*D2
 10
-186.0119392641
 20
116.670731799
 11
-180.001255188
 21
116.670731799
 70
160
 71
1
 72
2
 41
0.9
 42
11.5
  1
{\ftxt;\W0.0001;\H0.0001;\~}{\ftxt;\W2.4285714286;\H3.0; }{\ftxt;\W0.0001;\H0.0001;\~}
  3
DIMSTYLE_1
100
AcDbAlignedDimension
 13
-197.5119392641
 23
85.0
 14
-186.0119392641
 24
79.5
100
AcDbRotatedDimension
  0
LINE
  5
239
100
AcDbEntity
  8
IMPORT_IGES
100
AcDbLine
 62
7
  6
CONTINUOUS
 10
-138.0
 20
85.0
 11
-138.0
 21
-85.0
  0
LINE
  5
23A
100
AcDbEntity
  8
IMPORT_IGES
100
AcDbLine
 62
7
  6
CONTINUOUS
 10
-137.0
 20
-85.0
 11
-137.0
 21
85.0
  0
LINE
  5
23B
100
AcDbEntity
  8
IMPORT_IGES
100
AcDbLine
 62
250
  6
CONTINUOUS
 10
-128.0
 20
-95.0
 11
-128.0
 21
-94.0
  0
LINE
  5
23C
100
AcDbEntity
  8
IMPORT_IGES
100
AcDbLine
 62
250
  6
CONTINUOUS
 10
-128.0
 20
94.0
 11
-128.0
 21
95.0
  0
LINE
  5
23D
100
AcDbEntity
  8
IMPORT_IGES
100
AcDbLine
 62
7
  6
CONTINUOUS
 10
-121.55
 20
77.0
 11
-121.55
 21
-77.0
  0
LINE
  5
23E
100
AcDbEntity
  8
IMPORT_IGES
100
AcDbLine
 62
7
  6
CONTINUOUS
 10
-115.0
 20
-71.0
 11
-115.0
 21
19.0835121611
  0
LINE
  5
23F
100
AcDbEntity
  8
IMPORT_IGES
100
AcDbLine
 62
7
  6
CONTINUOUS
 10
-115.0
 20
57.9164878389
 11
-115.0
 21
65.6200222717
  0
LINE
  5
240
100
AcDbEntity
  8
IMPORT_IGES
100
AcDbLine
 62
7
  6
CONTINUOUS
 10
-128.0
 20
-95.0
 11
128.0
 21
-95.0
  0
LINE
  5
241
100
AcDbEntity
  8
IMPORT_IGES
100
AcDbLine
 62
7
  6
CONTINUOUS
 10
128.0
 20
-94.0
 11
-128.0
 21
-94.0
  0
LWPOLYLINE
  5
242
100
AcDbEntity
  8
0
100
AcDbPolyline
 62
7
  6
CONTINUOUS
 90
10
 70
0
 43
0.3499999917
 10
2.2500000286
 20
120.122276001
 10
1.6071428919
 20
119.479420166
 10
1.1785714674
 20
118.6222705078
 10
1.1785714674
 20
117.5508398437
 10
1.6071428919
 20
117.122277832
 10
2.2500000286
 20
117.122277832
 10
2.6785714531
 20
117.5508398437
 10
2.6785714531
 20
118.407989502
 10
2.2500000286
 20
118.8365643311
 10
1.3214286089
 20
118.8365643311
  0
LINE
  5
243
100
AcDbEntity
  8
IMPORT_IGES
100
AcDbLine
 62
7
  6
CONTINUOUS
 10
-111.55
 20
-87.0
 11
111.55
 21
-87.0
  0
LINE
  5
244
100
AcDbEntity
  8
IMPORT_IGES
100
AcDbLine
 62
250
  6
CONTINUOUS
 10
138.0
 20
-85.0
 11
137.0
 21
-85.0
  0
LINE
  5
245
100
AcDbEntity
  8
IMPORT_IGES
100
AcDbLine
 62
250
  6
CONTINUOUS
 10
-137.0
 20
-85.0
 11
-138.0
 21
-85.0
  0
LINE
  5
246
100
AcDbEntity
  8
IMPORT_IGES
100
AcDbLine
 62
7
  6
CONTINUOUS
 10
71.8134665205
 20
-78.0
 11
-71.8134665205
 21
-78.0
  0
LINE
  5
247
100
AcDbEntity
  8
IMPORT_IGES
100
AcDbLine
 62
7
  6
CONTINUOUS
 10
119.0
 20
-40.0
 11
116.0
 21
-40.0
  0
LWPOLYLINE
  5
248
100
AcDbEntity
  8
0
100
AcDbPolyline
 62
7
  6
CONTINUOUS
 90
4
 70
0
 43
0.3499999917
 10
-1.1785714674
 20
119.479420166
 10
-1.1785714674
 20
120.122276001
 10
0.3214285684
 20
120.122276001
 10
-0.5357142806
 20
117.122277832
  0
LINE
  5
249
100
AcDbEntity
  8
IMPORT_IGES
100
AcDbLine
 62
7
  6
CONTINUOUS
 10
116.0
 20
-8.0
 11
119.0
 21
-8.0
  0
LINE
  5
24A
100
AcDbEntity
  8
IMPORT_IGES
100
AcDbLine
 62
7
  6
CONTINUOUS
 10
121.55
 20
-5.0
 11
120.0
 21
-5.0
  0
LWPOLYLINE
  5
24B
100
AcDbEntity
  8
0
100
AcDbPolyline
 62
7
  6
CONTINUOUS
 90
13
 70
0
 43
0.3499999917
 10
155.9802557373
 20
0.857144165
 10
154.6945440674
 20
0.857144165
 10
154.2659692383
 20
1.0714283752
 10
153.8373944092
 20
1.5
 10
153.8373944092
 20
1.7142842102
 10
154.2659692383
 20
2.142855835
 10
154.6945440674
 20
2.3571432495
 10
155.9802557373
 20
2.3571432495
 10
156.4088305664
 20
2.142855835
 10
156.8373925781
 20
1.7142842102
 10
156.8373925781
 20
1.5
 10
156.4088305664
 20
1.0714283752
 10
155.9802557373
 20
0.857144165
  0
LINE
  5
24C
100
AcDbEntity
  8
IMPORT_IGES
100
AcDbLine
 62
7
  6
CONTINUOUS
 10
120.0
 20
5.0
 11
121.55
 21
5.0
  0
LINE
  5
24D
100
AcDbEntity
  8
IMPORT_IGES
100
AcDbLine
 62
7
  6
CONTINUOUS
 10
-97.3816806499
 20
78.0
 11
71.8134665205
 21
78.0
  0
LINE
  5
24E
100
AcDbEntity
  8
IMPORT_IGES
100
AcDbLine
 62
250
  6
CONTINUOUS
 10
-138.0
 20
85.0
 11
-137.0
 21
85.0
  0
LINE
  5
24F
100
AcDbEntity
  8
IMPORT_IGES
100
AcDbLine
 62
250
  6
CONTINUOUS
 10
137.0
 20
85.0
 11
138.0
 21
85.0
  0
LINE
  5
250
100
AcDbEntity
  8
IMPORT_IGES
100
AcDbLine
 62
7
  6
CONTINUOUS
 10
111.55
 20
87.0
 11
-111.55
 21
87.0
  0
LINE
  5
251
100
AcDbEntity
  8
IMPORT_IGES
100
AcDbLine
 62
7
  6
CONTINUOUS
 10
-128.0
 20
94.0
 11
128.0
 21
94.0
  0
LINE
  5
252
100
AcDbEntity
  8
IMPORT_IGES
100
AcDbLine
 62
7
  6
CONTINUOUS
 10
128.0
 20
95.0
 11
-128.0
 21
95.0
  0
LWPOLYLINE
  5
253
100
AcDbEntity
  8
0
100
AcDbPolyline
 62
7
  6
CONTINUOUS
 90
3
 70
0
 43
0.3499999917
 10
154.6945440674
 20
-3.2142862701
 10
153.8373944092
 20
-2.3571430206
 10
156.8373925781
 20
-2.3571430206
  0
LWPOLYLINE
  5
254
100
AcDbEntity
  8
0
100
AcDbPolyline
 62
7
  6
CONTINUOUS
 90
10
 70
0
 43
0.3499999917
 10
156.8373925781
 20
-1.0714297485
 10
155.9802557373
 20
-0.214286499
 10
155.1231060791
 20
0.0000009155
 10
154.2659692383
 20
0.0000009155
 10
153.8373944092
 20
-0.4285707092
 10
153.8373944092
 20
-1.0714297485
 10
154.2659692383
 20
-1.5000013733
 10
155.1231060791
 20
-1.5000013733
 10
155.5516809082
 20
-1.0714297485
 10
155.5516809082
 20
-0.142858429
  0
LINE
  5
255
100
AcDbEntity
  8
IMPORT_IGES
100
AcDbLine
 62
7
  6
CONTINUOUS
 10
115.0
 20
71.0
 11
115.0
 21
-7.0
  0
LINE
  5
256
100
AcDbEntity
  8
IMPORT_IGES
100
AcDbLine
 62
7
  6
CONTINUOUS
 10
115.0
 20
-41.0
 11
115.0
 21
-71.0
  0
LINE
  5
257
100
AcDbEntity
  8
IMPORT_IGES
100
AcDbLine
 62
7
  6
CONTINUOUS
 10
119.0
 20
-4.0
 11
119.0
 21
4.0
  0
LINE
  5
258
100
AcDbEntity
  8
IMPORT_IGES
100
AcDbLine
 62
7
  6
CONTINUOUS
 10
121.55
 20
-77.0
 11
121.55
 21
77.0
  0
LWPOLYLINE
  5
259
100
AcDbEntity
  8
0
100
AcDbPolyline
 62
7
  6
CONTINUOUS
 90
7
 70
0
 43
0.3499999917
 10
-2.0357142162
 20
117.122277832
 10
-3.5357143021
 20
117.122277832
 10
-2.0357142162
 20
119.2651263428
 10
-2.0357142162
 20
119.6937011719
 10
-2.4642856407
 20
120.122276001
 10
-3.1071428776
 20
120.122276001
 10
-3.5357143021
 20
119.479420166
  0
LINE
  5
25A
100
AcDbEntity
  8
IMPORT_IGES
100
AcDbLine
 62
250
  6
CONTINUOUS
 10
128.0
 20
95.0
 11
128.0
 21
94.0
  0
LINE
  5
25B
100
AcDbEntity
  8
IMPORT_IGES
100
AcDbLine
 62
250
  6
CONTINUOUS
 10
128.0
 20
-94.0
 11
128.0
 21
-95.0
  0
LINE
  5
25C
100
AcDbEntity
  8
IMPORT_IGES
100
AcDbLine
 62
7
  6
CONTINUOUS
 10
137.0
 20
85.0
 11
137.0
 21
-85.0
  0
LINE
  5
25D
100
AcDbEntity
  8
IMPORT_IGES
100
AcDbLine
 62
7
  6
CONTINUOUS
 10
138.0
 20
-85.0
 11
138.0
 21
85.0
  0
LINE
  5
25E
100
AcDbEntity
  8
IMPORT_IGES
100
AcDbLine
 62
7
  6
CONTINUOUS
 10
-196.5119392641
 20
-95.0
 11
-189.0119392641
 21
-95.0
  0
LINE
  5
25F
100
AcDbEntity
  8
IMPORT_IGES
100
AcDbLine
 62
7
  6
CONTINUOUS
 10
-189.0119392641
 20
-93.5
 11
-187.0119392641
 21
-93.5
  0
LINE
  5
260
100
AcDbEntity
  8
IMPORT_IGES
100
AcDbLine
 62
7
  6
CONTINUOUS
 10
-187.0119392641
 20
-89.5
 11
-186.0119392641
 21
-89.5
  0
LINE
  5
261
100
AcDbEntity
  8
IMPORT_IGES
100
AcDbLine
 62
250
  6
CONTINUOUS
 10
-187.0119392641
 20
-85.0
 11
-197.5119392641
 21
-85.0
  0
LWPOLYLINE
  5
262
100
AcDbEntity
  8
0
100
AcDbPolyline
 62
7
  6
CONTINUOUS
 90
3
 70
0
 43
0.3499999917
 10
-183.2155407715
 20
119.5635919189
 10
-182.3584039307
 20
120.4207287598
 10
-182.3584039307
 20
117.4207305908
  0
LWPOLYLINE
  5
263
100
AcDbEntity
  8
0
100
AcDbPolyline
 62
7
  6
CONTINUOUS
 90
3
 70
0
 43
0.3499999917
 10
-181.5012542725
 20
119.5635919189
 10
-180.6441174316
 20
120.4207287598
 10
-180.6441174316
 20
117.4207305908
  0
LINE
  5
264
100
AcDbEntity
  8
IMPORT_IGES
100
AcDbLine
 62
250
  6
CONTINUOUS
 10
-186.0119392641
 20
-79.5
 11
-187.0119392641
 21
-79.5
  0
LINE
  5
265
100
AcDbEntity
  8
IMPORT_IGES
100
AcDbLine
 62
7
  6
CONTINUOUS
 10
-196.5119392641
 20
95.0
 11
-197.5119392641
 21
94.0
  0
LINE
  5
266
100
AcDbEntity
  8
0
100
AcDbLine
 62
7
  6
CONTINUOUS
 10
-194.0186352641
 20
-74.440019
 11
-192.2979892641
 21
-73.963524
  0
LINE
  5
267
100
AcDbEntity
  8
0
100
AcDbLine
 62
7
  6
CONTINUOUS
 10
-194.0186352641
 20
-69.653297
 11
-191.5188992641
 21
-69.419544
  0
LINE
  5
268
100
AcDbEntity
  8
0
100
AcDbLine
 62
7
  6
CONTINUOUS
 10
-191.5188992641
 20
-69.929996
 11
-193.1443752641
 21
-70.0372
  0
LINE
  5
269
100
AcDbEntity
  8
0
100
AcDbLine
 62
7
  6
CONTINUOUS
 10
-194.0187842641
 20
-72.757398
 11
-191.5188992641
 21
-72.757398
  0
LINE
  5
26A
100
AcDbEntity
  8
0
100
AcDbLine
 62
7
  6
CONTINUOUS
 10
-191.5188992641
 20
-72.235605
 11
-194.0187842641
 21
-72.235605
  0
LINE
  5
26B
100
AcDbEntity
  8
0
100
AcDbLine
 62
7
  6
CONTINUOUS
 10
-193.1511792641
 20
-71.342919
 11
-191.5188992641
 21
-71.455522
  0
LINE
  5
26C
100
AcDbEntity
  8
0
100
AcDbLine
 62
7
  6
CONTINUOUS
 10
-191.5188992641
 20
-71.954708
 11
-194.0186352641
 21
-71.728996
  0
LINE
  5
26D
100
AcDbEntity
  8
0
100
AcDbLine
 62
7
  6
CONTINUOUS
 10
-192.2979892641
 20
-73.963524
 11
-194.0186352641
 21
-73.472473
  0
LINE
  5
26E
100
AcDbEntity
  8
0
100
AcDbLine
 62
7
  6
CONTINUOUS
 10
-194.0186352641
 20
-72.951037
 11
-191.5188992641
 21
-73.754552
  0
LINE
  5
26F
100
AcDbEntity
  8
IMPORT_IGES
100
AcDbLine
 62
7
  6
CONTINUOUS
 10
-197.5119392641
 20
-94.0
 11
-196.5119392641
 21
-95.0
  0
LINE
  5
270
100
AcDbEntity
  8
0
100
AcDbLine
 62
7
  6
CONTINUOUS
 10
-191.9608051329
 20
-65.9377182594
 11
-191.854359575
 21
-65.907534002
  0
LWPOLYLINE
  5
271
100
AcDbEntity
  8
0
100
AcDbPolyline
 62
7
  6
CONTINUOUS
 90
45
 70
0
 10
-192.2535527043
 20
-65.5020331232
 10
-192.272877384
 20
-65.5074110228
 10
-192.2922512711
 20
-65.5129778129
 10
-192.3117145971
 20
-65.5188084012
 10
-192.3313075933
 20
-65.5249776956
 10
-192.3420751194
 20
-65.5285154344
 10
-192.3528824669
 20
-65.5321788401
 10
-192.3637187739
 20
-65.5359701946
 10
-192.3745731786
 20
-65.5398917796
 10
-192.385434819
 20
-65.5439458767
 10
-192.3962928331
 20
-65.5481347679
 10
-192.4071363592
 20
-65.5524607348
 10
-192.4179545352
 20
-65.5569260593
 10
-192.4287364993
 20
-65.561533023
 10
-192.4394713895
 20
-65.5662839077
 10
-192.4501483439
 20
-65.5711809952
 10
-192.4607565006
 20
-65.5762265673
 10
-192.4712849976
 20
-65.5814229056
 10
-192.4817229732
 20
-65.586772292
 10
-192.4920595653
 20
-65.5922770082
 10
-192.502283912
 20
-65.597939336
 10
-192.5123851514
 20
-65.6037615571
 10
-192.5223524216
 20
-65.6097459533
 10
-192.5321748607
 20
-65.6158948064
 10
-192.5418416067
 20
-65.622210398
 10
-192.5513417978
 20
-65.62869501
 10
-192.5606645721
 20
-65.6353509241
 10
-192.5697990675
 20
-65.6421804221
 10
-192.5787344222
 20
-65.6491857857
 10
-192.5874597744
 20
-65.6563692967
 10
-192.5959642619
 20
-65.6637332369
 10
-192.6042370231
 20
-65.671279888
 10
-192.6122671958
 20
-65.6790115317
 10
-192.6200439183
 20
-65.6869304498
 10
-192.6275563285
 20
-65.6950389241
 10
-192.6347935647
 20
-65.7033392364
 10
-192.6417447648
 20
-65.7118336683
 10
-192.6483990669
 20
-65.7205245017
 10
-192.6547456092
 20
-65.7294140183
 10
-192.6607735297
 20
-65.7385044999
 10
-192.6664719665
 20
-65.7477982281
 10
-192.6718300576
 20
-65.7572974849
 10
-192.6768369413
 20
-65.7670045519
 10
-192.6814817555
 20
-65.7769217109
 10
-192.6857536383
 20
-65.7870512436
  0
LINE
  5
272
100
AcDbEntity
  8
0
100
AcDbLine
 62
7
  6
CONTINUOUS
 10
-191.5188992641
 20
-67.831727
 11
-192.0179352641
 21
-67.966899
  0
LINE
  5
273
100
AcDbEntity
  8
0
100
AcDbLine
 62
7
  6
CONTINUOUS
 10
-192.1051795228
 20
-65.4619131419
 11
-192.2535527043
 21
-65.5020331232
  0
LINE
  5
274
100
AcDbEntity
  8
0
100
AcDbLine
 62
7
  6
CONTINUOUS
 10
-191.5188992476
 20
-65.3079038802
 11
-191.60814434
 21
-65.3317103572
  0
LINE
  5
275
100
AcDbEntity
  8
0
100
AcDbLine
 62
7
  6
CONTINUOUS
 10
-191.9243340933
 20
-65.4141482465
 11
-192.1051795228
 21
-65.4619131419
  0
LINE
  5
276
100
AcDbEntity
  8
0
100
AcDbLine
 62
7
  6
CONTINUOUS
 10
-191.60814434
 20
-65.3317103572
 11
-191.9243340933
 21
-65.4141482465
  0
LINE
  5
277
100
AcDbEntity
  8
0
100
AcDbLine
 62
7
  6
CONTINUOUS
 10
-192.4040872641
 20
-68.071179
 11
-193.3317712641
 21
-68.31095
  0
LWPOLYLINE
  5
278
100
AcDbEntity
  8
0
100
AcDbPolyline
 62
7
  6
CONTINUOUS
 90
59
 70
0
 10
-193.2950117896
 20
-65.9226356449
 10
-193.2841583317
 20
-65.9226069612
 10
-193.2732209445
 20
-65.9228544869
 10
-193.2622146078
 20
-65.9233783442
 10
-193.2511543016
 20
-65.9241786553
 10
-193.2400550057
 20
-65.9252555424
 10
-193.2289317
 20
-65.9266091279
 10
-193.2177993642
 20
-65.9282395339
 10
-193.2066729782
 20
-65.9301468827
 10
-193.195567522
 20
-65.9323312964
 10
-193.1844979753
 20
-65.9347928975
 10
-193.173479318
 20
-65.937531808
 10
-193.16252653
 20
-65.9405481502
 10
-193.1516545912
 20
-65.9438420464
 10
-193.1408784813
 20
-65.9474136188
 10
-193.1302131802
 20
-65.9512629897
 10
-193.1196736678
 20
-65.9553902812
 10
-193.109274924
 20
-65.9597956156
 10
-193.0990319285
 20
-65.9644791152
 10
-193.0889596613
 20
-65.9694409021
 10
-193.0790731023
 20
-65.9746810987
 10
-193.0693872311
 20
-65.9801998271
 10
-193.0599170278
 20
-65.9859972096
 10
-193.0506774722
 20
-65.9920733685
 10
-193.0416835441
 20
-65.9984284259
 10
-193.0329502234
 20
-66.0050625042
 10
-193.0244924899
 20
-66.0119757254
 10
-193.0163253235
 20
-66.019168212
 10
-193.0084637041
 20
-66.0266400861
 10
-193.0009226114
 20
-66.0343914699
 10
-192.9937170255
 20
-66.0424224857
 10
-192.9869481011
 20
-66.0506174953
 10
-192.9805130274
 20
-66.0590719673
 10
-192.9744045307
 20
-66.0677730826
 10
-192.9686153373
 20
-66.0767080222
 10
-192.9631381733
 20
-66.085863967
 10
-192.9579657651
 20
-66.0952280979
 10
-192.953090839
 20
-66.1047875957
 10
-192.9485061211
 20
-66.1145296415
 10
-192.9442043378
 20
-66.124441416
 10
-192.9401782153
 20
-66.1345101002
 10
-192.9364204799
 20
-66.1447228751
 10
-192.9329238578
 20
-66.1550669214
 10
-192.9296810754
 20
-66.1655294202
 10
-192.9266848588
 20
-66.1760975523
 10
-192.9239279344
 20
-66.1867584987
 10
-192.9214030283
 20
-66.1974994402
 10
-192.919102867
 20
-66.2083075577
 10
-192.9170201765
 20
-66.2191700322
 10
-192.9151476833
 20
-66.2300740446
 10
-192.9134781135
 20
-66.2410067757
 10
-192.9120041934
 20
-66.2519554065
 10
-192.9107186493
 20
-66.262907118
 10
-192.9096142074
 20
-66.2738490909
 10
-192.9086835941
 20
-66.2847685061
 10
-192.9079195355
 20
-66.2956525448
 10
-192.9073147579
 20
-66.3064883876
 10
-192.9068619877
 20
-66.3172632155
 10
-192.906553951
 20
-66.3279642095
  0
LINE
  5
279
100
AcDbEntity
  8
0
100
AcDbLine
 62
7
  6
CONTINUOUS
 10
-193.9894296167
 20
-67.1285551388
 11
-191.5188992476
 21
-67.1285551388
  0
LINE
  5
27A
100
AcDbEntity
  8
0
100
AcDbLine
 62
7
  6
CONTINUOUS
 10
-192.906553951
 20
-66.626163664
 11
-193.5927801034
 21
-66.626163664
  0
LINE
  5
27B
100
AcDbEntity
  8
0
100
AcDbLine
 62
7
  6
CONTINUOUS
 10
-191.5188992476
 20
-66.6088617972
 11
-192.4971576669
 21
-66.6088617972
  0
LINE
  5
27C
100
AcDbEntity
  8
0
100
AcDbLine
 62
7
  6
CONTINUOUS
 10
-192.6857536383
 20
-65.7870512436
 11
-192.7005248961
 21
-65.7870512436
  0
LINE
  5
27D
100
AcDbEntity
  8
0
100
AcDbLine
 62
7
  6
CONTINUOUS
 10
-193.3317712641
 20
-68.31095
 11
-192.4040872641
 21
-68.570759
  0
LINE
  5
27E
100
AcDbEntity
  8
0
100
AcDbLine
 62
7
  6
CONTINUOUS
 10
-192.0179352641
 20
-68.677494
 11
-191.5188992641
 21
-68.821477
  0
LINE
  5
27F
100
AcDbEntity
  8
0
100
AcDbLine
 62
7
  6
CONTINUOUS
 10
-191.5188992641
 20
-69.337608
 11
-194.0186352641
 21
-68.553532
  0
LINE
  5
280
100
AcDbEntity
  8
0
100
AcDbLine
 62
7
  6
CONTINUOUS
 10
-192.6307742641
 20
-70.691353
 11
-194.0186352641
 21
-70.16956
  0
LINE
  5
281
100
AcDbEntity
  8
0
100
AcDbLine
 62
7
  6
CONTINUOUS
 10
-193.1443752641
 20
-70.0372
 11
-191.5188992641
 21
-70.657611
  0
LWPOLYLINE
  5
282
100
AcDbEntity
  8
0
100
AcDbPolyline
 62
7
  6
CONTINUOUS
 90
3
 70
0
 43
0.3499999917
 10
-179.0726806641
 20
117.7064428711
 10
-179.1441119385
 20
117.4921618652
 10
-179.2869744873
 20
117.206449585
  0
LWPOLYLINE
  5
283
100
AcDbEntity
  8
0
100
AcDbPolyline
 62
7
  6
CONTINUOUS
 90
73
 70
0
 10
-192.7005248961
 20
-65.7870512436
 10
-192.7020877216
 20
-65.7785372004
 10
-192.7044833079
 20
-65.7702734255
 10
-192.7076192163
 20
-65.7622389999
 10
-192.7114030083
 20
-65.7544130044
 10
-192.7157422456
 20
-65.7467745197
 10
-192.7205444895
 20
-65.7393026267
 10
-192.7257173015
 20
-65.7319764062
 10
-192.7311682431
 20
-65.7247749391
 10
-192.7368048759
 20
-65.7176773061
 10
-192.7425347612
 20
-65.710662588
 10
-192.7570190824
 20
-65.6932845632
 10
-192.7715824654
 20
-65.6763222047
 10
-192.7862988094
 20
-65.6597980104
 10
-192.8012420136
 20
-65.643734478
 10
-192.816485977
 20
-65.6281541054
 10
-192.8321045987
 20
-65.6130793902
 10
-192.8481717779
 20
-65.5985328302
 10
-192.8647614137
 20
-65.5845369234
 10
-192.8833268317
 20
-65.5700624751
 10
-192.9025369176
 20
-65.5562677012
 10
-192.9223407072
 20
-65.5431637119
 10
-192.9426872362
 20
-65.5307616174
 10
-192.9635255406
 20
-65.5190725279
 10
-192.9848046562
 20
-65.5081075538
 10
-193.0064736189
 20
-65.4978778051
 10
-193.0284814644
 20
-65.4883943921
 10
-193.0507772286
 20
-65.4796684252
 10
-193.0733099474
 20
-65.4717110143
 10
-193.0960143664
 20
-65.464535883
 10
-193.1188913395
 20
-65.4581290207
 10
-193.1419277662
 20
-65.4524804372
 10
-193.1651105458
 20
-65.4475801423
 10
-193.1884265779
 20
-65.4434181457
 10
-193.2118627617
 20
-65.4399844572
 10
-193.2387828435
 20
-65.4369382549
 10
-193.2658086482
 20
-65.4348146158
 10
-193.2929059938
 20
-65.4335973367
 10
-193.3200406983
 20
-65.4332702142
 10
-193.3471785799
 20
-65.433817045
 10
-193.3742854565
 20
-65.4352216257
 10
-193.4006537142
 20
-65.437409052
 10
-193.426927971
 20
-65.4404260832
 10
-193.4530762021
 20
-65.4443022316
 10
-193.4790663823
 20
-65.4490670099
 10
-193.5048664866
 20
-65.4547499304
 10
-193.5278689357
 20
-65.4606636642
 10
-193.5506639661
 20
-65.4673488373
 10
-193.5732236241
 20
-65.4748111535
 10
-193.5955199555
 20
-65.4830563168
 10
-193.6175250064
 20
-65.4920900312
 10
-193.6411156742
 20
-65.5028224101
 10
-193.6642887767
 20
-65.5144733362
 10
-193.6870050688
 20
-65.5270200968
 10
-193.7092253052
 20
-65.5404399787
 10
-193.7309102409
 20
-65.5547102691
 10
-193.7520206306
 20
-65.569808255
 10
-193.7725172293
 20
-65.5857112234
 10
-193.7923607918
 20
-65.6023964613
 10
-193.8104706238
 20
-65.6188524083
 10
-193.8279487059
 20
-65.6359627953
 10
-193.8447808239
 20
-65.6537045158
 10
-193.8609527634
 20
-65.6720544628
 10
-193.8764503099
 20
-65.6909895296
 10
-193.8912592491
 20
-65.7104866096
 10
-193.9053653665
 20
-65.7305225958
 10
-193.9151883266
 20
-65.7454548683
 10
-193.9245764921
 20
-65.7606620192
 10
-193.9334760313
 20
-65.7761448819
 10
-193.941833112
 20
-65.7919042894
 10
-193.9495939024
 20
-65.8079410752
 10
-193.9567045704
 20
-65.8242560724
 10
-193.9631112841
 20
-65.8408501143
  0
LWPOLYLINE
  5
284
100
AcDbEntity
  8
0
100
AcDbPolyline
 62
7
  6
CONTINUOUS
 90
22
 70
0
 10
-193.5927801034
 20
-66.626163664
 10
-193.5958260557
 20
-66.607944195
 10
-193.5987340604
 20
-66.5897025706
 10
-193.6014808148
 20
-66.5714356261
 10
-193.6040430162
 20
-66.5531401966
 10
-193.6063973619
 20
-66.5348131175
 10
-193.6085205493
 20
-66.516451224
 10
-193.6105307783
 20
-66.4965919368
 10
-193.6122444838
 20
-66.4766946025
 10
-193.6136615693
 20
-66.4567654168
 10
-193.6147819383
 20
-66.4368105752
 10
-193.6156054945
 20
-66.4168362733
 10
-193.6161321413
 20
-66.3968487068
 10
-193.6163617823
 20
-66.3768540712
 10
-193.616294321
 20
-66.3568585621
 10
-193.615929661
 20
-66.3368683753
 10
-193.6152677058
 20
-66.3168897061
 10
-193.6143083589
 20
-66.2969287504
 10
-193.6130515239
 20
-66.2769917036
 10
-193.6114971043
 20
-66.2570847614
 10
-193.6096450036
 20
-66.2372141194
 10
-193.6074951255
 20
-66.2173859732
  0
LINE
  5
285
100
AcDbEntity
  8
IMPORT_IGES
100
AcDbLine
 62
7
  6
CONTINUOUS
 10
-197.5119392641
 20
-94.0
 11
-197.5119392641
 21
94.0
  0
LINE
  5
286
100
AcDbEntity
  8
IMPORT_IGES
100
AcDbLine
 62
7
  6
CONTINUOUS
 10
-196.5119392641
 20
-95.0
 11
-196.5119392641
 21
95.0
  0
LINE
  5
287
100
AcDbEntity
  8
0
100
AcDbLine
 62
7
  6
CONTINUOUS
 10
-194.0187842641
 20
-72.235605
 11
-194.0187842641
 21
-72.757398
  0
LINE
  5
288
100
AcDbEntity
  8
0
100
AcDbLine
 62
7
  6
CONTINUOUS
 10
-194.0186352641
 20
-75.006847
 11
-194.0186352641
 21
-74.440019
  0
LINE
  5
289
100
AcDbEntity
  8
0
100
AcDbLine
 62
7
  6
CONTINUOUS
 10
-194.0186352641
 20
-73.472473
 11
-194.0186352641
 21
-72.951037
  0
LINE
  5
28A
100
AcDbEntity
  8
0
100
AcDbLine
 62
7
  6
CONTINUOUS
 10
-194.0186352641
 20
-71.728996
 11
-194.0186352641
 21
-71.207635
  0
LINE
  5
28B
100
AcDbEntity
  8
0
100
AcDbLine
 62
7
  6
CONTINUOUS
 10
-194.0186352641
 20
-70.16956
 11
-194.0186352641
 21
-69.653297
  0
LINE
  5
28C
100
AcDbEntity
  8
0
100
AcDbLine
 62
7
  6
CONTINUOUS
 10
-194.0186352641
 20
-68.553532
 11
-194.0186352641
 21
-68.04876
  0
LINE
  5
28D
100
AcDbEntity
  8
0
100
AcDbLine
 62
7
  6
CONTINUOUS
 10
-192.906553951
 20
-66.3279642095
 11
-192.906553951
 21
-66.626163664
  0
LINE
  5
28E
100
AcDbEntity
  8
0
100
AcDbLine
 62
7
  6
CONTINUOUS
 10
-192.4971576669
 20
-66.6088617972
 11
-192.4971576669
 21
-66.3290889245
  0
LINE
  5
28F
100
AcDbEntity
  8
0
100
AcDbLine
 62
7
  6
CONTINUOUS
 10
-192.4040872641
 20
-68.570759
 11
-192.4040872641
 21
-68.071179
  0
LINE
  5
290
100
AcDbEntity
  8
0
100
AcDbLine
 62
7
  6
CONTINUOUS
 10
-192.0179352641
 20
-67.966899
 11
-192.0179352641
 21
-68.677494
  0
LINE
  5
291
100
AcDbEntity
  8
0
100
AcDbLine
 62
7
  6
CONTINUOUS
 10
-191.5188992641
 20
-72.757398
 11
-191.5188992641
 21
-72.235605
  0
LINE
  5
292
100
AcDbEntity
  8
0
100
AcDbLine
 62
7
  6
CONTINUOUS
 10
-191.5188992476
 20
-67.1285551388
 11
-191.5188992476
 21
-66.6088617972
  0
LINE
  5
293
100
AcDbEntity
  8
0
100
AcDbLine
 62
7
  6
CONTINUOUS
 10
-191.5188992476
 20
-65.8098079785
 11
-191.5188992476
 21
-65.3079038802
  0
LINE
  5
294
100
AcDbEntity
  8
0
100
AcDbLine
 62
7
  6
CONTINUOUS
 10
-191.5188992641
 20
-67.281779
 11
-191.5188992641
 21
-67.831727
  0
LINE
  5
295
100
AcDbEntity
  8
0
100
AcDbLine
 62
7
  6
CONTINUOUS
 10
-191.5188992641
 20
-68.821477
 11
-191.5188992641
 21
-69.337608
  0
LINE
  5
296
100
AcDbEntity
  8
0
100
AcDbLine
 62
7
  6
CONTINUOUS
 10
-191.5188992641
 20
-69.419544
 11
-191.5188992641
 21
-69.929996
  0
LINE
  5
297
100
AcDbEntity
  8
0
100
AcDbLine
 62
7
  6
CONTINUOUS
 10
-191.5188992641
 20
-70.657611
 11
-191.5188992641
 21
-70.730793
  0
LINE
  5
298
100
AcDbEntity
  8
0
100
AcDbLine
 62
7
  6
CONTINUOUS
 10
-191.5188992641
 20
-71.455522
 11
-191.5188992641
 21
-71.954708
  0
LINE
  5
299
100
AcDbEntity
  8
0
100
AcDbLine
 62
7
  6
CONTINUOUS
 10
-191.5188992641
 20
-73.754552
 11
-191.5188992641
 21
-74.214382
  0
LWPOLYLINE
  5
29A
100
AcDbEntity
  8
0
100
AcDbPolyline
 62
7
  6
CONTINUOUS
 90
48
 70
0
 10
-192.4971576669
 20
-66.3290889245
 10
-192.497055662
 20
-66.3210548328
 10
-192.4967485346
 20
-66.3130064764
 10
-192.4962346158
 20
-66.304952124
 10
-192.4955122365
 20
-66.2969000444
 10
-192.4945797279
 20
-66.2888585064
 10
-192.4934354208
 20
-66.2808357788
 10
-192.4920776465
 20
-66.2728401303
 10
-192.4905047357
 20
-66.2648798296
 10
-192.4887150197
 20
-66.2569631455
 10
-192.4867068294
 20
-66.2490983469
 10
-192.4844784959
 20
-66.2412937024
 10
-192.4820283501
 20
-66.2335574809
 10
-192.4793547231
 20
-66.225897951
 10
-192.4764559459
 20
-66.2183233816
 10
-192.4733303496
 20
-66.2108420414
 10
-192.4699762651
 20
-66.2034621992
 10
-192.4663920235
 20
-66.1961921237
 10
-192.4624772494
 20
-66.1888582855
 10
-192.4583262501
 20
-66.1816503098
 10
-192.4539465897
 20
-66.1745699327
 10
-192.4493458322
 20
-66.1676188901
 10
-192.4445315417
 20
-66.160798918
 10
-192.4395112823
 20
-66.1541117522
 10
-192.434292618
 20
-66.1475591288
 10
-192.428883113
 20
-66.1411427837
 10
-192.4232903313
 20
-66.1348644528
 10
-192.4175218369
 20
-66.1287258722
 10
-192.411585194
 20
-66.1227287778
 10
-192.4054879666
 20
-66.1168749054
 10
-192.3992377187
 20
-66.1111659912
 10
-192.3928420146
 20
-66.105603771
 10
-192.3863084181
 20
-66.1001899807
 10
-192.3796444934
 20
-66.0949263565
 10
-192.3728578046
 20
-66.0898146341
 10
-192.3659559158
 20
-66.0848565495
 10
-192.3589463909
 20
-66.0800538388
 10
-192.3518367941
 20
-66.0754082378
 10
-192.3446346895
 20
-66.0709214826
 10
-192.3373476411
 20
-66.066595309
 10
-192.329983213
 20
-66.062431453
 10
-192.3225489693
 20
-66.0584316506
 10
-192.315052474
 20
-66.0545976378
 10
-192.3075012912
 20
-66.0509311504
 10
-192.2999029849
 20
-66.0474339245
 10
-192.2922651194
 20
-66.044107696
 10
-192.2845952585
 20
-66.0409542008
 10
-192.2769009665
 20
-66.0379751749
  0
LINE
  5
29B
100
AcDbEntity
  8
IMPORT_IGES
100
AcDbLine
 62
7
  6
CONTINUOUS
 10
-189.0119392641
 20
-95.0
 11
-189.0119392641
 21
95.0
  0
LINE
  5
29C
100
AcDbEntity
  8
IMPORT_IGES
100
AcDbLine
 62
7
  6
CONTINUOUS
 10
-187.0119392641
 20
-93.5
 11
-187.0119392641
 21
93.5
  0
LINE
  5
29D
100
AcDbEntity
  8
IMPORT_IGES
100
AcDbLine
 62
7
  6
CONTINUOUS
 10
-186.0119392641
 20
-89.5
 11
-186.0119392641
 21
89.5
  0
LWPOLYLINE
  5
29E
100
AcDbEntity
  8
0
100
AcDbPolyline
 62
7
  6
CONTINUOUS
 90
49
 70
0
 10
-193.6074951255
 20
-66.2173859732
 10
-193.6062557955
 20
-66.2078227954
 10
-193.6047579647
 20
-66.1982589655
 10
-193.6030023598
 20
-66.1887050169
 10
-193.6009897075
 20
-66.1791714829
 10
-193.5987207344
 20
-66.1696688966
 10
-193.5961961674
 20
-66.1602077914
 10
-193.593416733
 20
-66.1507987005
 10
-193.5903831581
 20
-66.1414521572
 10
-193.5870961692
 20
-66.1321786947
 10
-193.5835564932
 20
-66.1229888463
 10
-193.5797648567
 20
-66.1138931453
 10
-193.5757219865
 20
-66.1049021249
 10
-193.5714286092
 20
-66.0960263183
 10
-193.5668854516
 20
-66.087276259
 10
-193.5620932403
 20
-66.07866248
 10
-193.5570527021
 20
-66.0701955147
 10
-193.5517645636
 20
-66.0618858963
 10
-193.5462295517
 20
-66.0537441581
 10
-193.5404483929
 20
-66.0457808334
 10
-193.534421814
 20
-66.0380064553
 10
-193.5281505417
 20
-66.0304315573
 10
-193.5216353028
 20
-66.0230666725
 10
-193.5148768239
 20
-66.0159223342
 10
-193.5078758316
 20
-66.0090090756
 10
-193.5006744989
 20
-66.0023714982
 10
-193.4932452762
 20
-65.9959759626
 10
-193.4855994605
 20
-65.9898254949
 10
-193.4777483493
 20
-65.9839231213
 10
-193.4697032396
 20
-65.9782718679
 10
-193.4614754288
 20
-65.9728747607
 10
-193.4530762142
 20
-65.967734826
 10
-193.4445168928
 20
-65.9628550899
 10
-193.435808762
 20
-65.9582385786
 10
-193.426963119
 20
-65.953888318
 10
-193.4179912611
 20
-65.9498073345
 10
-193.4089044854
 20
-65.9459986541
 10
-193.3997140893
 20
-65.9424653029
 10
-193.3904313699
 20
-65.9392103071
 10
-193.3810676245
 20
-65.9362366929
 10
-193.3716341504
 20
-65.9335474862
 10
-193.3621422446
 20
-65.9311457134
 10
-193.3526032046
 20
-65.9290344005
 10
-193.3430283276
 20
-65.9272165737
 10
-193.3334289107
 20
-65.925695259
 10
-193.3238162512
 20
-65.9244734827
 10
-193.3142016464
 20
-65.9235542708
 10
-193.3045963934
 20
-65.9229406495
 10
-193.2950117896
 20
-65.9226356449
  0
LINE
  5
29F
100
AcDbEntity
  8
IMPORT_IGES
100
AcDbLine
 62
250
  6
CONTINUOUS
 10
-187.0119392641
 20
8.5
 11
-186.0119392641
 21
8.5
  0
LINE
  5
2A0
100
AcDbEntity
  8
IMPORT_IGES
100
AcDbLine
 62
7
  6
CONTINUOUS
 10
-186.0119392641
 20
9.5
 11
-187.0119392641
 21
9.5
  0
LINE
  5
2A1
100
AcDbEntity
  8
IMPORT_IGES
100
AcDbLine
 62
7
  6
CONTINUOUS
 10
-186.0119392641
 20
11.0
 11
-187.0119392641
 21
11.0
  0
LWPOLYLINE
  5
2A2
100
AcDbEntity
  8
0
100
AcDbPolyline
 62
7
  6
CONTINUOUS
 90
32
 70
0
 10
-193.9631112841
 20
-65.8408501143
 10
-193.9735066827
 20
-65.8710546827
 10
-193.9830082787
 20
-65.9015492389
 10
-193.9916594306
 20
-65.9323081711
 10
-193.9995034966
 20
-65.9633058676
 10
-194.006583835
 20
-65.9945167169
 10
-194.0129438041
 20
-66.0259151072
 10
-194.0186267622
 20
-66.0574754269
 10
-194.0236760676
 20
-66.0891720642
 10
-194.0281350786
 20
-66.1209794075
 10
-194.0320471535
 20
-66.1528718452
 10
-194.0354556507
 20
-66.1848237655
 10
-194.0384039284
 20
-66.2168095567
 10
-194.042048599
 20
-66.2649371944
 10
-194.0447880641
 20
-66.3130783618
 10
-194.0466600606
 20
-66.361227906
 10
-194.0477023254
 20
-66.4093806743
 10
-194.0479525954
 20
-66.4575315137
 10
-194.0474486076
 20
-66.5056752715
 10
-194.046228099
 20
-66.5538067947
 10
-194.0443288064
 20
-66.6019209305
 10
-194.0417884669
 20
-66.6500125261
 10
-194.0386448174
 20
-66.6980764285
 10
-194.0349355948
 20
-66.746107485
 10
-194.0306985361
 20
-66.7941005426
 10
-194.0259713781
 20
-66.8420504485
 10
-194.020791858
 20
-66.8899520499
 10
-194.0151977125
 20
-66.9378001939
 10
-194.0092266787
 20
-66.9855897277
 10
-194.0029164935
 20
-67.0333154983
 10
-193.9963048939
 20
-67.080972353
 10
-193.9894296167
 20
-67.1285551388
  0
LINE
  5
2A3
100
AcDbEntity
  8
IMPORT_IGES
100
AcDbLine
 62
7
  6
CONTINUOUS
 10
-187.0119392641
 20
14.0
 11
-186.0119392641
 21
14.0
  0
LINE
  5
2A4
100
AcDbEntity
  8
IMPORT_IGES
100
AcDbLine
 62
7
  6
CONTINUOUS
 10
-186.0119392641
 20
24.0
 11
-187.0119392641
 21
24.0
  0
LINE
  5
2A5
100
AcDbEntity
  8
IMPORT_IGES
100
AcDbLine
 62
7
  6
CONTINUOUS
 10
-187.0119392641
 20
27.0
 11
-186.0119392641
 21
27.0
  0
LINE
  5
2A6
100
AcDbEntity
  8
IMPORT_IGES
100
AcDbLine
 62
7
  6
CONTINUOUS
 10
-187.0119392641
 20
28.5
 11
-186.0119392641
 21
28.5
  0
LINE
  5
2A7
100
AcDbEntity
  8
IMPORT_IGES
100
AcDbLine
 62
250
  6
CONTINUOUS
 10
-186.0119392641
 20
29.5
 11
-187.0119392641
 21
29.5
  0
LWPOLYLINE
  5
2A8
100
AcDbEntity
  8
0
100
AcDbPolyline
 62
7
  6
CONTINUOUS
 90
8
 70
0
 10
-192.2769009665
 20
-66.0379751749
 10
-192.2423080387
 20
-66.0252922476
 10
-192.2075369624
 20
-66.0131262995
 10
-192.1726074265
 20
-66.0014211183
 10
-192.1375391199
 20
-65.9901204921
 10
-192.1023517312
 20
-65.9791682086
 10
-192.0670649493
 20
-65.9685080557
 10
-192.0316984631
 20
-65.9580838213
  0
LINE
  5
2A9
100
AcDbEntity
  8
0
100
AcDbLine
 62
7
  6
CONTINUOUS
 10
-191.854359575
 20
-65.907534002
 11
-191.5188992476
 21
-65.8098079785
  0
LINE
  5
2AA
100
AcDbEntity
  8
0
100
AcDbLine
 62
7
  6
CONTINUOUS
 10
-192.0316984631
 20
-65.9580838213
 11
-191.9608051329
 21
-65.9377182594
  0
LWPOLYLINE
  5
2AB
100
AcDbEntity
  8
0
100
AcDbPolyline
 62
7
  6
CONTINUOUS
 90
10
 70
0
 43
0.3499999917
 10
-179.1441119385
 20
117.9207366943
 10
-179.0726806641
 20
117.7778741455
 10
-179.0726806641
 20
117.7064428711
 10
-179.2155432129
 20
117.5635931396
 10
-179.2869744873
 20
117.5635931396
 10
-179.3584057617
 20
117.6350115967
 10
-179.3584057617
 20
117.7064428711
 10
-179.2869744873
 20
117.8493054199
 10
-179.2155432129
 20
117.9207366943
 10
-179.1441119385
 20
117.9207366943
  0
LINE
  5
2AC
100
AcDbEntity
  8
0
100
AcDbLine
 62
7
  6
CONTINUOUS
 10
-191.5188992641
 20
-70.730793
 11
-193.1511792641
 21
-71.342919
  0
LINE
  5
2AD
100
AcDbEntity
  8
0
100
AcDbLine
 62
7
  6
CONTINUOUS
 10
-194.0186352641
 20
-71.207635
 11
-192.6307742641
 21
-70.691353
  0
LINE
  5
2AE
100
AcDbEntity
  8
0
100
AcDbLine
 62
7
  6
CONTINUOUS
 10
-194.0186352641
 20
-68.04876
 11
-191.5188992641
 21
-67.281779
  0
LINE
  5
2AF
100
AcDbEntity
  8
0
100
AcDbLine
 62
7
  6
CONTINUOUS
 10
-191.5188992641
 20
-74.214382
 11
-194.0186352641
 21
-75.006847
  0
LINE
  5
2B0
100
AcDbEntity
  8
IMPORT_IGES
100
AcDbLine
 62
250
  6
CONTINUOUS
 10
-187.0119392641
 20
79.5
 11
-186.0119392641
 21
79.5
  0
LINE
  5
2B1
100
AcDbEntity
  8
IMPORT_IGES
100
AcDbLine
 62
250
  6
CONTINUOUS
 10
-197.5119392641
 20
85.0
 11
-187.0119392641
 21
85.0
  0
LINE
  5
2B2
100
AcDbEntity
  8
IMPORT_IGES
100
AcDbLine
 62
7
  6
CONTINUOUS
 10
-186.0119392641
 20
89.5
 11
-187.0119392641
 21
89.5
  0
LINE
  5
2B3
100
AcDbEntity
  8
IMPORT_IGES
100
AcDbLine
 62
7
  6
CONTINUOUS
 10
-187.0119392641
 20
93.5
 11
-189.0119392641
 21
93.5
  0
LINE
  5
2B4
100
AcDbEntity
  8
IMPORT_IGES
100
AcDbLine
 62
7
  6
CONTINUOUS
 10
-189.0119392641
 20
95.0
 11
-196.5119392641
 21
95.0
  0
LWPOLYLINE
  5
2B5
100
AcDbEntity
  8
0
100
AcDbPolyline
 62
7
  6
CONTINUOUS
 90
8
 70
0
 43
0.3499999917
 10
-178.0726812744
 20
117.4207305908
 10
-177.2155444336
 20
117.4207305908
 10
-176.7869696045
 20
117.8493054199
 10
-176.7869696045
 20
118.7064422607
 10
-177.2155444336
 20
119.1350170898
 10
-178.0726812744
 20
119.1350170898
 10
-178.0726812744
 20
120.4207287598
 10
-176.7869696045
 20
120.4207287598
  0
ARC
  5
2B6
100
AcDbEntity
  8
IMPORT_IGES
100
AcDbCircle
 62
7
  6
CONTINUOUS
 10
-90.0
 20
-78.5
 40
11.0
100
AcDbArc
 50
30.0000000055
 51
150.005541121
  0
ARC
  5
2B7
100
AcDbEntity
  8
IMPORT_IGES
100
AcDbCircle
 62
7
  6
CONTINUOUS
 10
-108.1875488579
 20
-68.0017588834
 40
10.0
100
AcDbArc
 50
271.0746388071
 51
330.0055411209
  0
ARC
  5
2B8
100
AcDbEntity
  8
IMPORT_IGES
100
AcDbCircle
 62
7
  6
CONTINUOUS
 10
-71.8134665205
 20
-68.0
 40
10.0
100
AcDbArc
 50
209.9999999939
 51
270.0
  0
ARC
  5
2B9
100
AcDbEntity
  8
IMPORT_IGES
100
AcDbCircle
 62
7
  6
CONTINUOUS
 10
-111.55
 20
-77.0
 40
10.0
100
AcDbArc
 50
180.0
 51
270.0
  0
ARC
  5
2BA
100
AcDbEntity
  8
IMPORT_IGES
100
AcDbCircle
 62
7
  6
CONTINUOUS
 10
-128.0
 20
-85.0
 40
10.0
100
AcDbArc
 50
180.0
 51
270.0
  0
ARC
  5
2BB
100
AcDbEntity
  8
IMPORT_IGES
100
AcDbCircle
 62
7
  6
CONTINUOUS
 10
-128.0
 20
-85.0
 40
9.0
100
AcDbArc
 50
180.0
 51
270.0
  0
ARC
  5
2BC
100
AcDbEntity
  8
IMPORT_IGES
100
AcDbCircle
 62
7
  6
CONTINUOUS
 10
-108.0
 20
-71.0
 40
7.0
100
AcDbArc
 50
180.0
 51
270.0
  0
ARC
  5
2BD
100
AcDbEntity
  8
IMPORT_IGES
100
AcDbCircle
 62
7
  6
CONTINUOUS
 10
-124.0
 20
-81.5
 40
3.75
100
AcDbArc
 50
354.0232865921
 51
45.733514259
  0
ARC
  5
2BE
100
AcDbEntity
  8
IMPORT_IGES
100
AcDbCircle
 62
7
  6
CONTINUOUS
 10
-113.0
 20
38.5
 40
11.0
100
AcDbArc
 50
292.3926878054
 51
67.6073121946
  0
ARC
  5
2BF
100
AcDbEntity
  8
IMPORT_IGES
100
AcDbCircle
 62
7
  6
CONTINUOUS
 10
-97.3816806499
 20
88.0
 40
10.0
100
AcDbArc
 50
228.111403085
 51
270.0
  0
ARC
  5
2C0
100
AcDbEntity
  8
IMPORT_IGES
100
AcDbCircle
 62
7
  6
CONTINUOUS
 10
-125.0
 20
65.6200222717
 40
10.0
100
AcDbArc
 50
0.0
 51
29.9264348666
  0
ARC
  5
2C1
100
AcDbEntity
  8
IMPORT_IGES
100
AcDbCircle
 62
7
  6
CONTINUOUS
 10
-105.0
 20
57.9164878389
 40
10.0
100
AcDbArc
 50
180.0
 51
247.6073121946
  0
ARC
  5
2C2
100
AcDbEntity
  8
IMPORT_IGES
100
AcDbCircle
 62
7
  6
CONTINUOUS
 10
-105.0
 20
19.0835121611
 40
10.0
100
AcDbArc
 50
112.3926878054
 51
180.0
  0
ARC
  5
2C3
100
AcDbEntity
  8
IMPORT_IGES
100
AcDbCircle
 62
7
  6
CONTINUOUS
 10
-111.55
 20
77.0
 40
10.0
100
AcDbArc
 50
90.0
 51
180.0
  0
ARC
  5
2C4
100
AcDbEntity
  8
IMPORT_IGES
100
AcDbCircle
 62
7
  6
CONTINUOUS
 10
-128.0
 20
85.0
 40
10.0
100
AcDbArc
 50
90.0
 51
180.0
  0
ARC
  5
2C5
100
AcDbEntity
  8
IMPORT_IGES
100
AcDbCircle
 62
7
  6
CONTINUOUS
 10
-128.0
 20
85.0
 40
9.0
100
AcDbArc
 50
90.0
 51
180.0
  0
ARC
  5
2C6
100
AcDbEntity
  8
IMPORT_IGES
100
AcDbCircle
 62
7
  6
CONTINUOUS
 10
-109.4
 20
74.6
 40
8.0
100
AcDbArc
 50
48.1114030849
 51
209.9264348666
  0
ARC
  5
2C7
100
AcDbEntity
  8
IMPORT_IGES
100
AcDbCircle
 62
7
  6
CONTINUOUS
 10
-124.0
 20
81.5
 40
3.75
100
AcDbArc
 50
314.2671338637
 51
5.9755234594
  0
ARC
  5
2C8
100
AcDbEntity
  8
IMPORT_IGES
100
AcDbCircle
 62
7
  6
CONTINUOUS
 10
90.0
 20
-78.5
 40
11.0
100
AcDbArc
 50
29.994458879
 51
150.0000000016
  0
ARC
  5
2C9
100
AcDbEntity
  8
IMPORT_IGES
100
AcDbCircle
 62
7
  6
CONTINUOUS
 10
71.8134665205
 20
-68.0
 40
10.0
100
AcDbArc
 50
270.0
 51
329.9999999983
  0
ARC
  5
2CA
100
AcDbEntity
  8
IMPORT_IGES
100
AcDbCircle
 62
7
  6
CONTINUOUS
 10
108.1875488579
 20
-68.0017588834
 40
10.0
100
AcDbArc
 50
209.9944588791
 51
268.9253611929
  0
ARC
  5
2CB
100
AcDbEntity
  8
IMPORT_IGES
100
AcDbCircle
 62
7
  6
CONTINUOUS
 10
111.55
 20
-77.0
 40
10.0
100
AcDbArc
 50
270.0
 51
360.0
  0
ARC
  5
2CC
100
AcDbEntity
  8
IMPORT_IGES
100
AcDbCircle
 62
7
  6
CONTINUOUS
 10
128.0
 20
-85.0
 40
10.0
100
AcDbArc
 50
270.0
 51
360.0
  0
ARC
  5
2CD
100
AcDbEntity
  8
IMPORT_IGES
100
AcDbCircle
 62
7
  6
CONTINUOUS
 10
128.0
 20
-85.0
 40
9.0
100
AcDbArc
 50
270.0
 51
360.0
  0
ARC
  5
2CE
100
AcDbEntity
  8
IMPORT_IGES
100
AcDbCircle
 62
7
  6
CONTINUOUS
 10
108.0
 20
-71.0
 40
7.0
100
AcDbArc
 50
270.0
 51
360.0
  0
ARC
  5
2CF
100
AcDbEntity
  8
IMPORT_IGES
100
AcDbCircle
 62
7
  6
CONTINUOUS
 10
119.0
 20
-33.0
 40
7.0
100
AcDbArc
 50
270.0
 51
291.3664825144
  0
ARC
  5
2D0
100
AcDbEntity
  8
IMPORT_IGES
100
AcDbCircle
 62
7
  6
CONTINUOUS
 10
119.0
 20
-15.0
 40
7.0
100
AcDbArc
 50
68.6335028762
 51
90.0
  0
ARC
  5
2D1
100
AcDbEntity
  8
IMPORT_IGES
100
AcDbCircle
 62
7
  6
CONTINUOUS
 10
124.0
 20
-81.5
 40
3.75
100
AcDbArc
 50
134.2671338637
 51
185.9755234594
  0
ARC
  5
2D2
100
AcDbEntity
  8
IMPORT_IGES
100
AcDbCircle
 62
7
  6
CONTINUOUS
 10
120.0
 20
-4.0
 40
1.0
100
AcDbArc
 50
180.0
 51
270.0
  0
ARC
  5
2D3
100
AcDbEntity
  8
IMPORT_IGES
100
AcDbCircle
 62
7
  6
CONTINUOUS
 10
116.0
 20
-41.0
 40
1.0
100
AcDbArc
 50
90.0
 51
180.0
  0
ARC
  5
2D4
100
AcDbEntity
  8
IMPORT_IGES
100
AcDbCircle
 62
7
  6
CONTINUOUS
 10
116.0
 20
-7.0
 40
1.0
100
AcDbArc
 50
180.0
 51
270.0
  0
ARC
  5
2D5
100
AcDbEntity
  8
IMPORT_IGES
100
AcDbCircle
 62
7
  6
CONTINUOUS
 10
90.0
 20
78.5
 40
11.0
100
AcDbArc
 50
210.0
 51
330.0055411209
  0
ARC
  5
2D6
100
AcDbEntity
  8
IMPORT_IGES
100
AcDbCircle
 62
7
  6
CONTINUOUS
 10
108.1875488579
 20
68.0017588834
 40
10.0
100
AcDbArc
 50
91.0746388071
 51
150.0055411209
  0
ARC
  5
2D7
100
AcDbEntity
  8
IMPORT_IGES
100
AcDbCircle
 62
7
  6
CONTINUOUS
 10
71.8134665205
 20
68.0
 40
10.0
100
AcDbArc
 50
30.0
 51
90.0
  0
ARC
  5
2D8
100
AcDbEntity
  8
IMPORT_IGES
100
AcDbCircle
 62
7
  6
CONTINUOUS
 10
111.55
 20
77.0
 40
10.0
100
AcDbArc
 50
0.0
 51
90.0
  0
ARC
  5
2D9
100
AcDbEntity
  8
IMPORT_IGES
100
AcDbCircle
 62
7
  6
CONTINUOUS
 10
128.0
 20
85.0
 40
10.0
100
AcDbArc
 50
0.0
 51
90.0
  0
ARC
  5
2DA
100
AcDbEntity
  8
IMPORT_IGES
100
AcDbCircle
 62
7
  6
CONTINUOUS
 10
128.0
 20
85.0
 40
9.0
100
AcDbArc
 50
0.0
 51
90.0
  0
ARC
  5
2DB
100
AcDbEntity
  8
IMPORT_IGES
100
AcDbCircle
 62
7
  6
CONTINUOUS
 10
108.0
 20
71.0
 40
7.0
100
AcDbArc
 50
0.0
 51
90.0
  0
ARC
  5
2DC
100
AcDbEntity
  8
IMPORT_IGES
100
AcDbCircle
 62
7
  6
CONTINUOUS
 10
124.0
 20
81.5
 40
3.75
100
AcDbArc
 50
174.0232865921
 51
225.733514259
  0
ARC
  5
2DD
100
AcDbEntity
  8
IMPORT_IGES
100
AcDbCircle
 62
7
  6
CONTINUOUS
 10
120.0
 20
4.0
 40
1.0
100
AcDbArc
 50
90.0
 51
180.0
  0
ENDSEC
  0
SECTION
  2
OBJECTS
  0
DICTIONARY
  5
C
100
AcDbDictionary
280
0
281
1
  3
ACAD_GROUP
350
D
  3
ACAD_MLINESTYLE
350
17
  3
ACAD_LAYOUT
350
1A
  3
ACAD_PLOTSETTINGS
350
19
  3
ACAD_PLOTSTYLENAME
350
E
  0
DICTIONARY
  5
D
102
{ACAD_REACTORS
330
C
102
}
100
AcDbDictionary
280
0
281
1
  0
ACDBDICTIONARYWDFLT
  5
E
102
{ACAD_REACTORS
330
C
102
}
100
AcDbDictionary
281
1
  3
Normal
350
F
100
AcDbDictionaryWithDefault
340
F
  0
DICTIONARY
  5
17
102
{ACAD_REACTORS
330
C
102
}
100
AcDbDictionary
280
0
281
1
  3
Standard
350
18
  0
DICTIONARY
  5
19
102
{ACAD_REACTORS
330
C
102
}
100
AcDbDictionary
281
1
  0
DICTIONARY
  5
1A
102
{ACAD_REACTORS
330
C
102
}
100
AcDbDictionary
281
1
  3
Model
350
2DE
  3
Layout1
350
2DF
  0
ACDBPLACEHOLDER
  5
F
102
{ACAD_REACTORS
330
E
102
}
  0
MLINESTYLE
  5
18
102
{ACAD_REACTORS
330
17
102
}
100
AcDbMlineStyle
  2
STANDARD
 70
0
  3

 62
256
 51
90.0
 52
90.0
 71
2
 49
0.5
 62
256
  6
BYLAYER
 49
-0.5
 62
256
  6
BYLAYER
  0
LAYOUT
  5
2DE
102
{ACAD_REACTORS
330
1A
102
}
100
AcDbPlotSettings
  1

  2
none_device
  4
ISO_A3_(420.00_x_297.00_MM)
  6

 40
0.0
 41
0.0
 42
0.0
 43
0.0
 44
420.0
 45
297.0
 46
0.0
 47
0.0
 48
0.0
 49
0.0
140
0.0
141
0.0
142
1.0
143
1.0
 70
1024
 72
1
 73
0
 74
0
  7

 75
0
147
1.0
148
0.0
149
0.0
100
AcDbLayout
  1
Model
 70
0
 71
0
 10
0.0
 20
0.0
 11
420.0
 21
297.0
 12
0.0
 22
0.0
 32
0.0
 14
0.0
 24
0.0
 34
0.0
 15
0.0
 25
0.0
 35
0.0
146
0.0
 13
0.0
 23
0.0
 33
0.0
 16
1.0
 26
0.0
 36
0.0
 17
0.0
 27
1.0
 37
0.0
 76
0
330
20F
345
0
346
0
  0
LAYOUT
  5
2DF
102
{ACAD_REACTORS
330
1A
102
}
100
AcDbPlotSettings
  1

  2
none_device
  4
ISO_A3_(420.00_x_297.00_MM)
  6

 40
0.0
 41
0.0
 42
0.0
 43
0.0
 44
420.0
 45
297.0
 46
0.0
 47
0.0
 48
0.0
 49
0.0
140
0.0
141
0.0
142
1.0
143
1.0
 70
0
 72
1
 73
0
 74
0
  7

 75
0
147
1.0
148
0.0
149
0.0
100
AcDbLayout
  1
Layout1
 70
0
 71
1
 10
0.0
 20
0.0
 11
420.0
 21
297.0
 12
0.0
 22
0.0
 32
0.0
 14
0.0
 24
0.0
 34
0.0
 15
0.0
 25
0.0
 35
0.0
146
0.0
 13
0.0
 23
0.0
 33
0.0
 16
1.0
 26
0.0
 36
0.0
 17
0.0
 27
1.0
 37
0.0
 76
0
330
210
345
0
346
0
  0
ENDSEC
  0
EOF
