  0
SECTION
  2
HEADER
  9
$ACADVER
  1
AC1024
  9
$DWGCODEPAGE
  3
ANSI_1252
  9
$EXTMAX
 10
558.8
 20
431.8
 30
0.0
  9
$EXTMIN
 10
0.0
 20
0.0
 30
0.0
  9
$LIMMIN
 10
0.0
 20
0.0
  9
$LIMMAX
 10
558.8
 20
431.8
  9
$VIEWCTR
 10
279.4
 20
215.9
  9
$VIEWSIZE
 40
431.8
  9
$CLAYER
  8
0
  9
$LTSCALE
 40
30.734
  9
$CELTYPE
  6
BYLAYER
  9
$DIMSCALE
 40
1.0
  9
$DIMASZ
 40
3.0
  9
$DIMEXO
 40
0.5
  9
$DIMDLI
 40
21.2344
  9
$DIMEXE
 40
1.5
  9
$DIMCEN
 40
5.0292
  9
$DIMLFAC
 40
1.0
  9
$DIMBLK
  1
_FILLED
  9
$DIMALT
 70
0
  9
$DIMALTF
 40
0.0393700787
  9
$DIMTXT
 40
3.0
  9
$DIMTOL
 70
1
  9
$DIMLIM
 70
0
  9
$DIMTFAC
 40
1.0
  9
$DIMTP
 40
0.01
  9
$DIMTM
 40
0.01
  9
$DIMGAP
 40
0.625
  9
$DIMDSEP
 70
44
  9
$AUNITS
 70
0
  9
$PDMODE
 70
3
  9
$PDSIZE
 40
3.0
  9
$HANDSEED
  5
5A7
  9
$TILEMODE
 70
1
  9
$MEASUREMENT
 70
1
  9
$INSUNITS
 70
4
  0
ENDSEC
  0
SECTION
  2
CLASSES
  0
CLASS
  1
ACDBDICTIONARYWDFLT
  2
AcDbDictionaryWithDefault
  3
AutoCAD 2000
 90
0
 91
1
280
0
281
0
  0
CLASS
  1
ACDBPLACEHOLDER
  2
AcDbPlaceHolder
  3
AutoCAD 2000
 90
0
 91
1
280
0
281
0
  0
CLASS
  1
LAYOUT
  2
AcDbLayout
  3
AutoCAD 2000
 90
0
 91
0
280
0
281
0
  0
ENDSEC
  0
SECTION
  2
TABLES
  0
TABLE
  2
VPORT
  5
8
100
AcDbSymbolTable
 70
2
  0
VPORT
  5
1F4
100
AcDbSymbolTableRecord
100
AcDbViewportTableRecord
  2
*ACTIVE
 70
0
 10
0.0
 20
0.0
 11
1.0
 21
1.0
 12
279.4
 22
215.9
 13
0.0
 23
0.0
 14
1.0
 24
1.0
 15
0.0
 25
0.0
 16
0.0
 26
0.0
 36
1.0
 17
0.0
 27
0.0
 37
0.0
 40
431.8
 41
1.2941176471
 42
50.0
 43
0.0
 44
0.0
 50
0.0
 51
0.0
 71
0
 72
100
 73
1
 74
1
 75
0
 76
0
 77
0
 78
0
  0
ENDTAB
  0
TABLE
  2
LTYPE
  5
5
100
AcDbSymbolTable
 70
6
  0
LTYPE
  5
14
100
AcDbSymbolTableRecord
100
AcDbLinetypeTableRecord
  2
BYBLOCK
 70
0
  3

 72
65
 73
0
 40
0.0
  0
LTYPE
  5
15
100
AcDbSymbolTableRecord
100
AcDbLinetypeTableRecord
  2
BYLAYER
 70
0
  3

 72
65
 73
0
 40
0.0
  0
LTYPE
  5
16
100
AcDbSymbolTableRecord
100
AcDbLinetypeTableRecord
  2
CONTINUOUS
 70
64
  3
Solid line
 72
65
 73
0
 40
0.0
  0
LTYPE
  5
1F5
100
AcDbSymbolTableRecord
100
AcDbLinetypeTableRecord
  2
CENTER
 70
64
  3
____ _ ____ _ ____ _ ____ _ ____ _ ____ _ ____
 72
65
 73
4
 40
0.6
 49
0.375
 74
0
 49
-0.075
 74
0
 49
0.075
 74
0
 49
-0.075
 74
0
  0
LTYPE
  5
1F6
100
AcDbSymbolTableRecord
100
AcDbLinetypeTableRecord
  2
HIDDEN
 70
64
  3
- - - - - - - - - - - - - - - - - - - -
 72
65
 73
2
 40
0.2
 49
0.1
 74
0
 49
-0.1
 74
0
  0
LTYPE
  5
1F7
100
AcDbSymbolTableRecord
100
AcDbLinetypeTableRecord
  2
PHANTOM
 70
64
  3
_____ _ _ _____ _ _ _____ _ _ _____
 72
65
 73
6
 40
0.8
 49
0.45
 74
0
 49
-0.05
 74
0
 49
0.1
 74
0
 49
-0.05
 74
0
 49
0.1
 74
0
 49
-0.05
 74
0
  0
LTYPE
  5
1F8
100
AcDbSymbolTableRecord
100
AcDbLinetypeTableRecord
  2
DOT
 70
64
  3
. . . . . . . . . . . . . . . . . . . .
 72
65
 73
2
 40
0.2
 49
0.1
 74
0
 49
-0.1
 74
0
  0
LTYPE
  5
1F9
100
AcDbSymbolTableRecord
100
AcDbLinetypeTableRecord
  2
DASHED
 70
64
  3
- - - - - - - - - - - - - - - - - - - -
 72
65
 73
2
 40
0.2
 49
0.1
 74
0
 49
-0.1
 74
0
  0
ENDTAB
  0
TABLE
  2
LAYER
  5
2
100
AcDbSymbolTable
 70
36
  0
LAYER
  5
10
100
AcDbSymbolTableRecord
100
AcDbLayerTableRecord
  2
0
 70
0
 62
7
  6
CONTINUOUS
370
-3
390
F
  0
LAYER
  5
1FA
100
AcDbSymbolTableRecord
100
AcDbLayerTableRecord
  2
DEFAULT_1
 70
0
 62
7
  6
CENTER
370
-3
390
F
  0
LAYER
  5
1FB
100
AcDbSymbolTableRecord
100
AcDbLayerTableRecord
  2
DEFAULT_2
 70
0
 62
7
  6
HIDDEN
370
-3
390
F
  0
LAYER
  5
1FC
100
AcDbSymbolTableRecord
100
AcDbLayerTableRecord
  2
DEFAULT_3
 70
0
 62
7
  6
PHANTOM
370
-3
390
F
  0
LAYER
  5
1FD
100
AcDbSymbolTableRecord
100
AcDbLayerTableRecord
  2
ASSI
 70
0
 62
7
  6
CONTINUOUS
370
-3
390
F
  0
LAYER
  5
1FE
100
AcDbSymbolTableRecord
100
AcDbLayerTableRecord
  2
COORDINATE
 70
0
 62
7
  6
CONTINUOUS
370
-3
390
F
  0
LAYER
  5
1FF
100
AcDbSymbolTableRecord
100
AcDbLayerTableRecord
  2
COORD_ORIGINE
 70
0
 62
7
  6
CONTINUOUS
370
-3
390
F
  0
LAYER
  5
200
100
AcDbSymbolTableRecord
100
AcDbLayerTableRecord
  2
COPY_PUBLISH
 70
0
 62
7
  6
CONTINUOUS
370
-3
390
F
  0
LAYER
  5
201
100
AcDbSymbolTableRecord
100
AcDbLayerTableRecord
  2
COSMETIC
 70
0
 62
7
  6
CONTINUOUS
370
-3
390
F
  0
LAYER
  5
202
100
AcDbSymbolTableRecord
100
AcDbLayerTableRecord
  2
COSMETICI
 70
0
 62
7
  6
CONTINUOUS
370
-3
390
F
  0
LAYER
  5
203
100
AcDbSymbolTableRecord
100
AcDbLayerTableRecord
  2
CURVE
 70
0
 62
7
  6
CONTINUOUS
370
-3
390
F
  0
LAYER
  5
204
100
AcDbSymbolTableRecord
100
AcDbLayerTableRecord
  2
CURVE1
 70
0
 62
7
  6
CONTINUOUS
370
-3
390
F
  0
LAYER
  5
205
100
AcDbSymbolTableRecord
100
AcDbLayerTableRecord
  2
DRAFT
 70
0
 62
7
  6
CONTINUOUS
370
-3
390
F
  0
LAYER
  5
206
100
AcDbSymbolTableRecord
100
AcDbLayerTableRecord
  2
IGES
 70
0
 62
7
  6
CONTINUOUS
370
-3
390
F
  0
LAYER
  5
207
100
AcDbSymbolTableRecord
100
AcDbLayerTableRecord
  2
IMPORT_IGES
 70
0
 62
7
  6
CONTINUOUS
370
-3
390
F
  0
LAYER
  5
208
100
AcDbSymbolTableRecord
100
AcDbLayerTableRecord
  2
INTF_1
 70
0
 62
7
  6
CONTINUOUS
370
-3
390
F
  0
LAYER
  5
209
100
AcDbSymbolTableRecord
100
AcDbLayerTableRecord
  2
INTF_11
 70
0
 62
7
  6
CONTINUOUS
370
-3
390
F
  0
LAYER
  5
20A
100
AcDbSymbolTableRecord
100
AcDbLayerTableRecord
  2
NOTE
 70
0
 62
7
  6
CONTINUOUS
370
-3
390
F
  0
LAYER
  5
20B
100
AcDbSymbolTableRecord
100
AcDbLayerTableRecord
  2
PIANI
 70
0
 62
7
  6
CONTINUOUS
370
-3
390
F
  0
LAYER
  5
20C
100
AcDbSymbolTableRecord
100
AcDbLayerTableRecord
  2
PIANI_ORIGINE
 70
0
 62
7
  6
CONTINUOUS
370
-3
390
F
  0
LAYER
  5
20D
100
AcDbSymbolTableRecord
100
AcDbLayerTableRecord
  2
PIANI_SFORMI
 70
0
 62
7
  6
CONTINUOUS
370
-3
390
F
  0
LAYER
  5
20E
100
AcDbSymbolTableRecord
100
AcDbLayerTableRecord
  2
PUNTI
 70
0
 62
7
  6
CONTINUOUS
370
-3
390
F
  0
LAYER
  5
20F
100
AcDbSymbolTableRecord
100
AcDbLayerTableRecord
  2
P_SFORMI
 70
0
 62
7
  6
CONTINUOUS
370
-3
390
F
  0
LAYER
  5
210
100
AcDbSymbolTableRecord
100
AcDbLayerTableRecord
  2
RACCORDO
 70
0
 62
7
  6
CONTINUOUS
370
-3
390
F
  0
LAYER
  5
211
100
AcDbSymbolTableRecord
100
AcDbLayerTableRecord
  2
SIMBOLI
 70
0
 62
7
  6
CONTINUOUS
370
-3
390
F
  0
LAYER
  5
212
100
AcDbSymbolTableRecord
100
AcDbLayerTableRecord
  2
SMUSSO
 70
0
 62
7
  6
CONTINUOUS
370
-3
390
F
  0
LAYER
  5
213
100
AcDbSymbolTableRecord
100
AcDbLayerTableRecord
  2
SNAPLINE
 70
0
 62
7
  6
CONTINUOUS
370
-3
390
F
  0
LAYER
  5
214
100
AcDbSymbolTableRecord
100
AcDbLayerTableRecord
  2
SUPERFICI
 70
0
 62
7
  6
CONTINUOUS
370
-3
390
F
  0
LAYER
  5
215
100
AcDbSymbolTableRecord
100
AcDbLayerTableRecord
  2
TRASH
 70
0
 62
7
  6
CONTINUOUS
370
-3
390
F
  0
LAYER
  5
216
100
AcDbSymbolTableRecord
100
AcDbLayerTableRecord
  2
XSEC_DATUMS
 70
0
 62
7
  6
CONTINUOUS
370
-3
390
F
  0
ENDTAB
  0
TABLE
  2
STYLE
  5
3
100
AcDbSymbolTable
 70
1
  0
STYLE
  5
11
100
AcDbSymbolTableRecord
100
AcDbTextStyleTableRecord
  2
STANDARD
 70
0
 40
0.0
 41
0.8
 50
0.0
 71
0
 42
0.2
  3
txt
  4

  0
STYLE
  5
217
100
AcDbSymbolTableRecord
100
AcDbTextStyleTableRecord
  2
TEXTSTYLE_1
 70
0
 40
0.0
 41
0.8
 50
0.0
 71
0
 42
0.2
  3
gdt
  4

  0
ENDTAB
  0
TABLE
  2
VIEW
  5
6
100
AcDbSymbolTable
 70
0
  0
ENDTAB
  0
TABLE
  2
UCS
  5
7
100
AcDbSymbolTable
 70
0
  0
ENDTAB
  0
TABLE
  2
APPID
  5
9
100
AcDbSymbolTable
 70
1
  0
APPID
  5
218
100
AcDbSymbolTableRecord
100
AcDbRegAppTableRecord
  2
ACAD
 70
0
  0
ENDTAB
  0
TABLE
  2
BLOCK_RECORD
  5
1
100
AcDbSymbolTable
 70
0
  0
BLOCK_RECORD
  5
219
100
AcDbSymbolTableRecord
100
AcDbBlockTableRecord
  2
*Model_Space
  0
BLOCK_RECORD
  5
21A
100
AcDbSymbolTableRecord
100
AcDbBlockTableRecord
  2
*Paper_Space
  0
BLOCK_RECORD
  5
21B
100
AcDbSymbolTableRecord
100
AcDbBlockTableRecord
  2
_FILLED
  0
BLOCK_RECORD
  5
21C
100
AcDbSymbolTableRecord
100
AcDbBlockTableRecord
  2
*D0
  0
BLOCK_RECORD
  5
21D
100
AcDbSymbolTableRecord
100
AcDbBlockTableRecord
  2
*D1
  0
BLOCK_RECORD
  5
21E
100
AcDbSymbolTableRecord
100
AcDbBlockTableRecord
  2
*D2
  0
BLOCK_RECORD
  5
21F
100
AcDbSymbolTableRecord
100
AcDbBlockTableRecord
  2
*D3
  0
ENDTAB
  0
TABLE
  2
DIMSTYLE
  5
A
100
AcDbSymbolTable
 70
1
100
AcDbDimStyleTable
 71
0
  0
DIMSTYLE
105
220
100
AcDbSymbolTableRecord
100
AcDbDimStyleTableRecord
  2
STANDARD
 70
0
  3

  4

 40
1.0
 41
3.0
 42
0.5
 43
0.38
 44
1.5
 45
0.0
 46
0.0
 47
0.01
 48
0.01
140
3.0
141
0.09
142
0.0
143
25.4
144
1.0
145
0.0
146
1.0
147
0.625
 71
1
 72
0
 73
0
 74
0
 75
0
 76
0
 77
1
 78
8
 79
2
170
0
171
1
172
0
173
0
174
0
175
0
176
0
177
0
178
0
270
2
179
2
271
2
272
2
273
2
274
2
275
0
280
0
281
0
282
0
283
1
284
8
285
0
286
0
287
3
288
0
340
11
278
44
341
21B
342
21B
343
21B
344
21B
  0
DIMSTYLE
105
221
100
AcDbSymbolTableRecord
100
AcDbDimStyleTableRecord
  2
DIMSTYLE_1
 70
0
  3

  4

 40
1.0
 41
3.0
 42
0.5
 43
0.38
 44
1.5
 45
0.0
 46
0.0
 47
0.0
 48
0.0
140
3.0
141
0.09
142
0.0
143
25.4
144
1.0
145
0.0
146
1.0
147
0.75
 71
0
 72
0
 73
0
 74
0
 75
0
 76
0
 77
1
 78
8
 79
2
170
0
171
1
172
0
173
0
174
0
175
0
176
0
177
0
178
0
270
2
179
2
271
2
272
2
273
2
274
2
275
0
280
0
281
0
282
0
283
1
284
8
285
0
286
0
287
3
288
0
340
11
278
44
341
21B
342
21B
343
21B
344
21B
  0
ENDTAB
  0
ENDSEC
  0
SECTION
  2
BLOCKS
  0
BLOCK
  5
20
100
AcDbEntity
  8
0
100
AcDbBlockBegin
  2
*Model_Space
 70
0
 10
0.0
 20
0.0
 30
0.0
  3
*Model_Space
  1

  0
ENDBLK
  5
21
100
AcDbEntity
  8
0
100
AcDbBlockEnd
  0
BLOCK
  5
1C
100
AcDbEntity
  8
0
100
AcDbBlockBegin
  2
*Paper_Space
 70
0
 10
0.0
 20
0.0
 30
0.0
  3
*Paper_Space
  1

  0
ENDBLK
  5
1D
100
AcDbEntity
  8
0
100
AcDbBlockEnd
  0
BLOCK
  5
222
100
AcDbEntity
  8
0
100
AcDbBlockBegin
  2
_FILLED
 70
64
 10
0.0
 20
0.0
  3
_FILLED
  1

  0
SOLID
  5
223
100
AcDbEntity
  8
0
  6
BYBLOCK
 62
0
100
AcDbTrace
 10
0.0
 20
0.0
 11
-1.0
 21
0.3166666667
 12
-1.0
 22
-0.3166666667
 13
-1.0
 23
-0.3166666667
  0
ENDBLK
  5
224
100
AcDbEntity
  8
0
  6
BYBLOCK
 62
0
100
AcDbBlockEnd
  0
BLOCK
  5
225
100
AcDbEntity
  8
0
100
AcDbBlockBegin
 62
7
  6
CONTINUOUS
  2
*D0
 70
65
 10
0.0
 20
0.0
  3
*D0
  1

  0
MTEXT
  5
226
100
AcDbEntity
  8
0
100
AcDbMText
 62
7
  6
CONTINUOUS
  7
STANDARD
 71
2
 72
1
 10
142.017020235
 20
249.7129732376
 30
0.0
 11
0.0
 21
1.0
 31
0.0
 73
2
 44
0.9
  1
{\ftxt;\W0.0001;\H0.0001;\~}{\ftxt;\W1.5714285714;\H3.0; }{\ftxt;\W0.0001;\H0.0001;\~}
 40
3.0
 41
7.0714285714
  0
LINE
  5
227
100
AcDbEntity
  8
0
100
AcDbLine
 62
7
  6
CONTINUOUS
 10
159.3552095279
 20
238.7129732376
 11
144.267020235
 21
238.7129732376
  0
LINE
  5
228
100
AcDbEntity
  8
0
100
AcDbLine
 62
7
  6
CONTINUOUS
 10
159.3552095308
 20
260.7129732376
 11
144.267020235
 21
260.7129732376
  0
LINE
  5
229
100
AcDbEntity
  8
0
100
AcDbLine
 62
7
  6
CONTINUOUS
 10
145.767020235
 20
238.7129732376
 11
145.767020235
 21
249.7129732376
  0
LINE
  5
22A
100
AcDbEntity
  8
0
100
AcDbLine
 62
7
  6
CONTINUOUS
 10
145.767020235
 20
260.7129732376
 11
145.767020235
 21
249.7129732376
  0
INSERT
  5
22B
100
AcDbEntity
  8
0
100
AcDbBlockReference
 62
7
  6
CONTINUOUS
  2
_FILLED
 10
145.767020235
 20
238.7129732376
 41
3.0
 42
3.0
 43
3.0
 50
270.0
  0
INSERT
  5
22C
100
AcDbEntity
  8
0
100
AcDbBlockReference
 62
7
  6
CONTINUOUS
  2
_FILLED
 10
145.767020235
 20
260.7129732376
 41
3.0
 42
3.0
 43
3.0
 50
90.0
  0
ENDBLK
  5
22D
100
AcDbEntity
  8
0
  6
BYBLOCK
 62
0
100
AcDbBlockEnd
  0
BLOCK
  5
22E
100
AcDbEntity
  8
0
100
AcDbBlockBegin
 62
7
  6
CONTINUOUS
  2
*D1
 70
65
 10
0.0
 20
0.0
  3
*D1
  1

  0
MTEXT
  5
22F
100
AcDbEntity
  8
0
100
AcDbMText
 62
7
  6
CONTINUOUS
  7
STANDARD
 71
2
 72
1
 10
132.017020235
 20
240.7129732376
 30
0.0
 11
0.0
 21
1.0
 31
0.0
 73
2
 44
0.9
  1
{\ftxt;\W0.0001;\H0.0001;\~}{\ftxt;\W1.5714285714;\H3.0; }{\ftxt;\W0.0001;\H0.0001;\~}
 40
3.0
 41
7.0714285714
  0
LINE
  5
230
100
AcDbEntity
  8
0
100
AcDbLine
 62
7
  6
CONTINUOUS
 10
159.3552095308
 20
260.7129732376
 11
134.267020235
 21
260.7129732376
  0
LINE
  5
231
100
AcDbEntity
  8
0
100
AcDbLine
 62
7
  6
CONTINUOUS
 10
181.8649378564
 20
220.7129732376
 11
134.267020235
 21
220.7129732376
  0
LINE
  5
232
100
AcDbEntity
  8
0
100
AcDbLine
 62
7
  6
CONTINUOUS
 10
135.767020235
 20
260.7129732376
 11
135.767020235
 21
240.7129732376
  0
LINE
  5
233
100
AcDbEntity
  8
0
100
AcDbLine
 62
7
  6
CONTINUOUS
 10
135.767020235
 20
220.7129732376
 11
135.767020235
 21
240.7129732376
  0
INSERT
  5
234
100
AcDbEntity
  8
0
100
AcDbBlockReference
 62
7
  6
CONTINUOUS
  2
_FILLED
 10
135.767020235
 20
260.7129732376
 41
3.0
 42
3.0
 43
3.0
 50
90.0
  0
INSERT
  5
235
100
AcDbEntity
  8
0
100
AcDbBlockReference
 62
7
  6
CONTINUOUS
  2
_FILLED
 10
135.767020235
 20
220.7129732376
 41
3.0
 42
3.0
 43
3.0
 50
270.0
  0
ENDBLK
  5
236
100
AcDbEntity
  8
0
  6
BYBLOCK
 62
0
100
AcDbBlockEnd
  0
BLOCK
  5
237
100
AcDbEntity
  8
0
100
AcDbBlockBegin
 62
7
  6
CONTINUOUS
  2
*D2
 70
65
 10
0.0
 20
0.0
  3
*D2
  1

  0
MTEXT
  5
238
100
AcDbEntity
  8
0
100
AcDbMText
 62
7
  6
CONTINUOUS
  7
STANDARD
 71
2
 72
1
 10
198.767020235
 20
272.6129732376
 30
0.0
 11
1.0
 21
0.0
 31
0.0
 73
2
 44
0.9
  1
{\ftxt;\W0.0001;\H0.0001;\~}{\ftxt;\W1.5714285714;\H3.0; }{\ftxt;\W0.0001;\H0.0001;\~}
 40
3.0
 41
7.0714285714
  0
LINE
  5
239
100
AcDbEntity
  8
0
100
AcDbLine
 62
7
  6
CONTINUOUS
 10
153.767020235
 20
250.2129732376
 11
153.767020235
 21
270.3629732376
  0
LINE
  5
23A
100
AcDbEntity
  8
0
100
AcDbLine
 62
7
  6
CONTINUOUS
 10
243.767020235
 20
250.2129732376
 11
243.767020235
 21
270.3629732376
  0
LINE
  5
23B
100
AcDbEntity
  8
0
100
AcDbLine
 62
7
  6
CONTINUOUS
 10
153.767020235
 20
268.8629732376
 11
198.767020235
 21
268.8629732376
  0
LINE
  5
23C
100
AcDbEntity
  8
0
100
AcDbLine
 62
7
  6
CONTINUOUS
 10
243.767020235
 20
268.8629732376
 11
198.767020235
 21
268.8629732376
  0
INSERT
  5
23D
100
AcDbEntity
  8
0
100
AcDbBlockReference
 62
7
  6
CONTINUOUS
  2
_FILLED
 10
153.767020235
 20
268.8629732376
 41
3.0
 42
3.0
 43
3.0
 50
180.0
  0
INSERT
  5
23E
100
AcDbEntity
  8
0
100
AcDbBlockReference
 62
7
  6
CONTINUOUS
  2
_FILLED
 10
243.767020235
 20
268.8629732376
 41
3.0
 42
3.0
 43
3.0
  0
ENDBLK
  5
23F
100
AcDbEntity
  8
0
  6
BYBLOCK
 62
0
100
AcDbBlockEnd
  0
BLOCK
  5
240
100
AcDbEntity
  8
0
100
AcDbBlockBegin
 62
7
  6
CONTINUOUS
  2
*D3
 70
65
 10
0.0
 20
0.0
  3
*D3
  1

  0
MTEXT
  5
241
100
AcDbEntity
  8
0
100
AcDbMText
 62
7
  6
CONTINUOUS
  7
STANDARD
 71
2
 72
1
 10
313.0565750653
 20
272.6129732376
 30
0.0
 11
1.0
 21
0.0
 31
0.0
 73
2
 44
0.9
  1
{\ftxt;\W0.0001;\H0.0001;\~}{\ftxt;\W1.5714285714;\H3.0; }{\ftxt;\W0.0001;\H0.0001;\~}
 40
3.0
 41
7.0714285714
  0
LINE
  5
242
100
AcDbEntity
  8
0
100
AcDbLine
 62
7
  6
CONTINUOUS
 10
291.0565750653
 20
250.2129732376
 11
291.0565750653
 21
270.3629732376
  0
LINE
  5
243
100
AcDbEntity
  8
0
100
AcDbLine
 62
7
  6
CONTINUOUS
 10
335.0565750653
 20
250.2129732376
 11
335.0565750653
 21
270.3629732376
  0
LINE
  5
244
100
AcDbEntity
  8
0
100
AcDbLine
 62
7
  6
CONTINUOUS
 10
291.0565750653
 20
268.8629732376
 11
313.0565750653
 21
268.8629732376
  0
LINE
  5
245
100
AcDbEntity
  8
0
100
AcDbLine
 62
7
  6
CONTINUOUS
 10
335.0565750653
 20
268.8629732376
 11
313.0565750653
 21
268.8629732376
  0
INSERT
  5
246
100
AcDbEntity
  8
0
100
AcDbBlockReference
 62
7
  6
CONTINUOUS
  2
_FILLED
 10
291.0565750653
 20
268.8629732376
 41
3.0
 42
3.0
 43
3.0
 50
180.0
  0
INSERT
  5
247
100
AcDbEntity
  8
0
100
AcDbBlockReference
 62
7
  6
CONTINUOUS
  2
_FILLED
 10
335.0565750653
 20
268.8629732376
 41
3.0
 42
3.0
 43
3.0
  0
ENDBLK
  5
248
100
AcDbEntity
  8
0
  6
BYBLOCK
 62
0
100
AcDbBlockEnd
  0
ENDSEC
  0
SECTION
  2
ENTITIES
  0
DIMENSION
  5
249
100
AcDbEntity
  8
0
100
AcDbDimension
 62
7
  6
CONTINUOUS
  2
*D0
 10
145.767020235
 20
260.7129732376
 11
145.767020235
 21
249.2844004409
 70
160
 71
2
 72
2
 41
0.9
 42
22.0
  1
{\ftxt;\W0.0001;\H0.0001;\~}{\ftxt;\W1.5714285714;\H3.0; }{\ftxt;\W0.0001;\H0.0001;\~}
  3
DIMSTYLE_1
100
AcDbAlignedDimension
 13
159.8552095279
 23
238.7129732376
 14
159.8552095308
 24
260.7129732376
 50
90.0
100
AcDbRotatedDimension
  0
DIMENSION
  5
24A
100
AcDbEntity
  8
0
100
AcDbDimension
 62
7
  6
CONTINUOUS
  2
*D1
 10
135.767020235
 20
220.7129732376
 11
135.767020235
 21
240.2844034652
 70
160
 71
2
 72
2
 41
0.9
 42
40.0
  1
{\ftxt;\W0.0001;\H0.0001;\~}{\ftxt;\W1.5714285714;\H3.0; }{\ftxt;\W0.0001;\H0.0001;\~}
  3
DIMSTYLE_1
100
AcDbAlignedDimension
 13
159.8552095308
 23
260.7129732376
 14
182.3649378564
 24
220.7129732376
 50
270.0
100
AcDbRotatedDimension
  0
DIMENSION
  5
24B
100
AcDbEntity
  8
0
100
AcDbDimension
 62
7
  6
CONTINUOUS
  2
*D2
 10
243.767020235
 20
268.8629732376
 11
198.3384525574
 21
268.8629732376
 70
160
 71
2
 72
2
 41
0.9
 42
90.0
  1
{\ftxt;\W0.0001;\H0.0001;\~}{\ftxt;\W1.5714285714;\H3.0; }{\ftxt;\W0.0001;\H0.0001;\~}
  3
DIMSTYLE_1
100
AcDbAlignedDimension
 13
153.767020235
 23
249.7129732376
 14
243.767020235
 24
249.7129732376
100
AcDbRotatedDimension
  0
DIMENSION
  5
24C
100
AcDbEntity
  8
0
100
AcDbDimension
 62
7
  6
CONTINUOUS
  2
*D3
 10
335.0565750653
 20
268.8629732376
 11
312.627999707
 21
268.8629732376
 70
160
 71
2
 72
2
 41
0.9
 42
44.0
  1
{\ftxt;\W0.0001;\H0.0001;\~}{\ftxt;\W1.5714285714;\H3.0; }{\ftxt;\W0.0001;\H0.0001;\~}
  3
DIMSTYLE_1
100
AcDbAlignedDimension
 13
291.0565750653
 23
249.7129732376
 14
335.0565750653
 24
249.7129732376
100
AcDbRotatedDimension
  0
LWPOLYLINE
  5
24D
100
AcDbEntity
  8
0
100
AcDbPolyline
 62
7
  6
CONTINUOUS
 90
3
 70
0
 43
0.3500000087
 10
134.3741591919
 20
239.8558385376
 10
134.3741591919
 20
238.3558370728
 10
132.0170201233
 20
238.9986924072
  0
LWPOLYLINE
  5
24E
100
AcDbEntity
  8
0
100
AcDbPolyline
 62
7
  6
CONTINUOUS
 90
7
 70
0
 43
0.3500000087
 10
145.017024292
 20
251.2129778687
 10
145.017024292
 20
249.7129764038
 10
142.8741589661
 20
251.2129778687
 10
142.4455944275
 20
251.2129778687
 10
142.0170213623
 20
250.7843962769
 10
142.0170213623
 20
250.1415409424
 10
142.6598766968
 20
249.7129764038
  0
LWPOLYLINE
  5
24F
100
AcDbEntity
  8
0
100
AcDbPolyline
 62
7
  6
CONTINUOUS
 90
7
 70
0
 43
0.3500000087
 10
145.017024292
 20
248.8558302734
 10
145.017024292
 20
247.3558288086
 10
142.8741589661
 20
248.8558302734
 10
142.4455944275
 20
248.8558302734
 10
142.0170213623
 20
248.4272657349
 10
142.0170213623
 20
247.7843933472
 10
142.6598766968
 20
247.3558288086
  0
LINE
  5
250
100
AcDbEntity
  8
RACCORDO
100
AcDbLine
 62
7
  6
CONTINUOUS
 10
153.767020235
 20
249.7129732376
 11
153.856123357
 21
244.608258799
  0
LINE
  5
251
100
AcDbEntity
  8
RACCORDO
100
AcDbLine
 62
250
  6
CONTINUOUS
 10
155.7667156253
 20
249.7129732376
 11
155.8558187473
 21
244.608258799
  0
LINE
  5
252
100
AcDbEntity
  8
RACCORDO
100
AcDbLine
 62
7
  6
CONTINUOUS
 10
153.856123357
 20
254.8176876762
 11
153.767020235
 21
249.7129732376
  0
LINE
  5
253
100
AcDbEntity
  8
RACCORDO
100
AcDbLine
 62
250
  6
CONTINUOUS
 10
155.8558187473
 20
254.8176876762
 11
155.7667156253
 21
249.7129732376
  0
LWPOLYLINE
  5
254
100
AcDbEntity
  8
RACCORDO
100
AcDbPolyline
 62
250
  6
CONTINUOUS
 90
34
 70
0
 10
155.8558187473
 20
244.608258799
 10
155.8635992167
 20
244.4196681226
 10
155.8801204266
 20
244.2324166402
 10
155.905382377
 20
244.0465043519
 10
155.9394795701
 20
243.8615077839
 10
155.9823175038
 20
243.6778504099
 10
156.0336126712
 20
243.4968026511
 10
156.0934220468
 20
243.3183973372
 10
156.1616886562
 20
243.1426016385
 10
156.2379580688
 20
242.9705874872
 10
156.3222818327
 20
242.8023842527
 10
156.4146083998
 20
242.6379625657
 10
156.5143286953
 20
242.4784062504
 10
156.6214927622
 20
242.3237453007
 10
156.7360505576
 20
242.1739497229
 10
156.8572428773
 20
242.0300133599
 10
156.9851141633
 20
241.891975199
 10
157.1196199738
 20
241.759796253
 10
157.2598677796
 20
241.6343534031
 10
157.4058958962
 20
241.5156917044
 10
157.5576660082
 20
241.4037661019
 10
157.7141706398
 20
241.2993183119
 10
157.8754387613
 20
241.2023990658
 10
158.0414414024
 20
241.1129576322
 10
158.2110841768
 20
241.031583533
 10
158.3843954667
 20
240.9583287409
 10
158.5613468897
 20
240.8931412831
 10
158.7407589131
 20
240.8364547628
 10
158.9226581764
 20
240.7883268297
 10
159.1070180399
 20
240.748699834
 10
159.292579052
 20
240.7178344303
 10
159.4789213954
 20
240.6958175032
 10
159.6664648874
 20
240.682562168
 10
159.8552095279
 20
240.6780684247
  0
LINE
  5
255
100
AcDbEntity
  8
RACCORDO
100
AcDbLine
 62
250
  6
CONTINUOUS
 10
157.8294792351
 20
248.7173365469
 11
157.8297583955
 21
248.6533580828
  0
LINE
  5
256
100
AcDbEntity
  8
RACCORDO
100
AcDbLine
 62
7
  6
CONTINUOUS
 10
158.1333279941
 20
247.8346170623
 11
158.1338858978
 21
247.706755767
  0
LINE
  5
257
100
AcDbEntity
  8
RACCORDO
100
AcDbLine
 62
7
  6
CONTINUOUS
 10
158.167020235
 20
251.7959561223
 11
158.167020235
 21
251.6712813331
  0
LINE
  5
258
100
AcDbEntity
  8
0
100
AcDbLine
 62
7
  6
CONTINUOUS
 10
158.367020235
 20
252.1892925281
 11
158.367020235
 21
252.0871480331
  0
LINE
  5
259
100
AcDbEntity
  8
0
100
AcDbLine
 62
7
  6
CONTINUOUS
 10
158.367020235
 20
247.3387984421
 11
158.367020235
 21
247.2370011285
  0
LINE
  5
25A
100
AcDbEntity
  8
0
100
AcDbLine
 62
7
  6
CONTINUOUS
 10
158.767020235
 20
252.7938976931
 11
158.767020235
 21
252.7129732376
  0
LINE
  5
25B
100
AcDbEntity
  8
0
100
AcDbLine
 62
7
  6
CONTINUOUS
 10
158.767020235
 20
246.7129732376
 11
158.767020235
 21
246.6332301544
  0
LINE
  5
25C
100
AcDbEntity
  8
DRAFT
100
AcDbLine
 62
7
  6
CONTINUOUS
 10
158.767020235
 20
246.6332301544
 11
158.767020235
 21
246.7129732376
  0
LINE
  5
25D
100
AcDbEntity
  8
DRAFT
100
AcDbLine
 62
7
  6
CONTINUOUS
 10
158.767020235
 20
252.7129732376
 11
158.767020235
 21
252.7938976931
  0
LINE
  5
25E
100
AcDbEntity
  8
DRAFT
100
AcDbLine
 62
7
  6
CONTINUOUS
 10
158.7844739706
 20
246.6104948978
 11
158.7844739706
 21
246.7187968018
  0
LINE
  5
25F
100
AcDbEntity
  8
DRAFT
100
AcDbLine
 62
7
  6
CONTINUOUS
 10
158.7844739706
 20
252.7071496734
 11
158.7844739706
 21
252.8172148367
  0
LINE
  5
260
100
AcDbEntity
  8
DRAFT
100
AcDbLine
 62
7
  6
CONTINUOUS
 10
159.6381226656
 20
245.8129732376
 11
159.644264756
 21
245.8304269732
  0
LINE
  5
261
100
AcDbEntity
  8
RACCORDO
100
AcDbLine
 62
7
  6
CONTINUOUS
 10
159.8640339686
 20
253.7657133019
 11
159.7950613223
 21
253.7170858324
  0
LWPOLYLINE
  5
262
100
AcDbEntity
  8
RACCORDO
100
AcDbPolyline
 62
7
  6
CONTINUOUS
 90
7
 70
0
 10
159.7950613223
 20
253.7170858324
 10
159.7903357961
 20
253.713798353
 10
159.7864797259
 20
253.711153233
 10
159.7834881631
 20
253.7091284805
 10
159.7813385716
 20
253.7077167647
 10
159.7800009148
 20
253.7069254165
 10
159.7794481705
 20
253.7067544356
  0
LINE
  5
263
100
AcDbEntity
  8
RACCORDO
100
AcDbLine
 62
7
  6
CONTINUOUS
 10
159.8898789675
 20
253.7837257903
 11
159.8640339686
 21
253.7657133019
  0
LINE
  5
264
100
AcDbEntity
  8
RACCORDO
100
AcDbLine
 62
7
  6
CONTINUOUS
 10
159.9194127467
 20
253.8040844689
 11
159.8898789675
 21
253.7837257903
  0
LWPOLYLINE
  5
265
100
AcDbEntity
  8
RACCORDO
100
AcDbPolyline
 62
7
  6
CONTINUOUS
 90
3
 70
0
 10
159.9705455265
 20
253.8387178478
 10
159.9526118946
 20
253.8266744019
 10
159.9194127467
 20
253.8040844689
  0
LWPOLYLINE
  5
266
100
AcDbEntity
  8
RACCORDO
100
AcDbPolyline
 62
7
  6
CONTINUOUS
 90
3
 70
0
 10
160.0294291321
 20
253.8776063973
 10
160.0089752106
 20
253.8641707508
 10
159.9705455265
 20
253.8387178478
  0
LWPOLYLINE
  5
267
100
AcDbEntity
  8
RACCORDO
100
AcDbPolyline
 62
7
  6
CONTINUOUS
 90
3
 70
0
 10
160.2068626649
 20
253.9879890802
 10
160.1874148302
 20
253.9763892381
 10
160.1684485668
 20
253.9649161336
  0
LINE
  5
268
100
AcDbEntity
  8
RACCORDO
100
AcDbLine
 62
7
  6
CONTINUOUS
 10
159.767020235
 20
245.6517653721
 11
159.767020235
 21
245.7129732376
  0
LINE
  5
269
100
AcDbEntity
  8
RACCORDO
100
AcDbLine
 62
7
  6
CONTINUOUS
 10
159.767020235
 20
253.7129732376
 11
159.767020235
 21
253.7735506646
  0
LINE
  5
26A
100
AcDbEntity
  8
RACCORDO
100
AcDbLine
 62
250
  6
CONTINUOUS
 10
159.7794481705
 20
245.6422262837
 11
159.7794481705
 21
245.7191920396
  0
LINE
  5
26B
100
AcDbEntity
  8
RACCORDO
100
AcDbLine
 62
250
  6
CONTINUOUS
 10
159.7794481705
 20
253.7067544356
 11
159.7794481705
 21
253.7828546457
  0
LINE
  5
26C
100
AcDbEntity
  8
RACCORDO
100
AcDbLine
 62
250
  6
CONTINUOUS
 10
159.8552095279
 20
240.6780684247
 11
159.8552095279
 21
238.7129732376
  0
LINE
  5
26D
100
AcDbEntity
  8
RACCORDO
100
AcDbLine
 62
250
  6
CONTINUOUS
 10
159.8552095279
 20
258.7478780505
 11
159.8552095308
 21
260.7129732376
  0
LINE
  5
26E
100
AcDbEntity
  8
RACCORDO
100
AcDbLine
 62
250
  6
CONTINUOUS
 10
160.0294291321
 20
245.4698879096
 11
160.0294291321
 21
245.5483400779
  0
LINE
  5
26F
100
AcDbEntity
  8
RACCORDO
100
AcDbLine
 62
250
  6
CONTINUOUS
 10
160.0294291321
 20
253.8776063973
 11
160.0294291321
 21
253.9563161123
  0
LINE
  5
270
100
AcDbEntity
  8
RACCORDO
100
AcDbLine
 62
250
  6
CONTINUOUS
 10
160.1684485668
 20
254.0415529143
 11
160.1684485668
 21
253.9649161336
  0
LINE
  5
271
100
AcDbEntity
  8
RACCORDO
100
AcDbLine
 62
250
  6
CONTINUOUS
 10
160.1684485668
 20
245.4610303416
 11
160.1684485668
 21
245.3847065207
  0
LINE
  5
272
100
AcDbEntity
  8
RACCORDO
100
AcDbLine
 62
250
  6
CONTINUOUS
 10
160.4184485668
 20
254.1827248759
 11
160.4184485668
 21
254.107285288
  0
LINE
  5
273
100
AcDbEntity
  8
RACCORDO
100
AcDbLine
 62
250
  6
CONTINUOUS
 10
160.4184485668
 20
245.3186611872
 11
160.4184485668
 21
245.2437698293
  0
LINE
  5
274
100
AcDbEntity
  8
RACCORDO
100
AcDbLine
 62
250
  6
CONTINUOUS
 10
162.767020235
 20
244.7304269732
 11
162.767020235
 21
244.9505063848
  0
LINE
  5
275
100
AcDbEntity
  8
RACCORDO
100
AcDbLine
 62
250
  6
CONTINUOUS
 10
162.767020235
 20
254.4754400904
 11
162.767020235
 21
254.695519502
  0
LINE
  5
276
100
AcDbEntity
  8
RACCORDO
100
AcDbLine
 62
250
  6
CONTINUOUS
 10
164.6882406709
 20
251.7498610687
 11
164.6908556998
 21
251.7618118705
  0
LINE
  5
277
100
AcDbEntity
  8
RACCORDO
100
AcDbLine
 62
250
  6
CONTINUOUS
 10
165.1241464707
 20
247.4777175944
 11
165.2607134116
 21
247.7448179818
  0
LINE
  5
278
100
AcDbEntity
  8
RACCORDO
100
AcDbLine
 62
250
  6
CONTINUOUS
 10
164.896203386
 20
251.9805022316
 11
164.6908556998
 21
251.7618118705
  0
LWPOLYLINE
  5
279
100
AcDbEntity
  8
RACCORDO
100
AcDbPolyline
 62
7
  6
CONTINUOUS
 90
4
 70
0
 10
160.2887809004
 20
254.0356558232
 10
160.2677792058
 20
254.0236178918
 10
160.2470800751
 20
254.011603407
 10
160.2068626649
 20
253.9879890802
  0
LWPOLYLINE
  5
27A
100
AcDbEntity
  8
RACCORDO
100
AcDbPolyline
 62
7
  6
CONTINUOUS
 90
3
 70
0
 10
160.3531628012
 20
254.0718070062
 10
160.3315329807
 20
254.0597986409
 10
160.2887809004
 20
254.0356558232
  0
LWPOLYLINE
  5
27B
100
AcDbEntity
  8
RACCORDO
100
AcDbPolyline
 62
7
  6
CONTINUOUS
 90
3
 70
0
 10
160.4184485668
 20
254.107285288
 10
160.3966558507
 20
254.0955339609
 10
160.3531628012
 20
254.0718070062
  0
LINE
  5
27C
100
AcDbEntity
  8
RACCORDO
100
AcDbLine
 62
250
  6
CONTINUOUS
 10
165.2601321689
 20
247.7569117809
 11
165.2607217152
 21
247.7448137362
  0
LINE
  5
27D
100
AcDbEntity
  8
0
100
AcDbLine
 62
7
  6
CONTINUOUS
 10
163.517020235
 20
252.1553979162
 11
163.517020235
 21
252.3832182326
  0
LINE
  5
27E
100
AcDbEntity
  8
0
100
AcDbLine
 62
7
  6
CONTINUOUS
 10
165.7051366239
 20
238.5129732376
 11
165.7051366239
 21
238.7129732376
  0
LINE
  5
27F
100
AcDbEntity
  8
0
100
AcDbLine
 62
7
  6
CONTINUOUS
 10
165.7083937013
 20
238.7129732376
 11
165.7083937013
 21
238.5129732376
  0
LINE
  5
280
100
AcDbEntity
  8
0
100
AcDbLine
 62
7
  6
CONTINUOUS
 10
165.767020235
 20
238.7129732376
 11
165.767020235
 21
238.5129732376
  0
LINE
  5
281
100
AcDbEntity
  8
RACCORDO
100
AcDbLine
 62
250
  6
CONTINUOUS
 10
165.2601321689
 20
251.6690346943
 11
165.2607134115
 21
251.6811284934
  0
LINE
  5
282
100
AcDbEntity
  8
0
100
AcDbLine
 62
250
  6
CONTINUOUS
 10
167.3688588147
 20
251.6140573071
 11
167.3676698796
 21
251.6055975944
  0
LWPOLYLINE
  5
283
100
AcDbEntity
  8
RACCORDO
100
AcDbPolyline
 62
7
  6
CONTINUOUS
 90
28
 70
0
 10
164.6882406709
 20
247.6760854065
 10
164.7051577727
 20
247.6913277439
 10
164.7226904388
 20
247.7057404535
 10
164.7408386692
 20
247.7193235353
 10
164.7596545537
 20
247.7321087257
 10
164.7790860025
 20
247.7440642882
 10
164.7989767466
 20
247.7550950138
 10
164.8192976026
 20
247.765180614
 10
164.840077754
 20
247.7743413773
 10
164.8612484821
 20
247.7825429599
 10
164.8828313863
 20
247.7897924169
 10
164.9048048671
 20
247.7960826932
 10
164.9270354077
 20
247.8013582792
 10
164.9495521007
 20
247.8056111573
 10
164.9723258535
 20
247.8088493451
 10
164.9951358707
 20
247.8110413861
 10
165.0179454592
 20
247.8121737134
 10
165.0407913121
 20
247.8122598938
 10
165.0635627137
 20
247.8113091716
 10
165.086257123
 20
247.8093217135
 10
165.1088770809
 20
247.8062973529
 10
165.131319495
 20
247.8022448339
 10
165.1536206381
 20
247.7971464824
 10
165.1757442374
 20
247.7910199726
 10
165.1974783813
 20
247.7839270709
 10
165.2187524326
 20
247.7758883662
 10
165.2396370285
 20
247.7668832695
 10
165.2601321689
 20
247.7569117809
  0
LWPOLYLINE
  5
284
100
AcDbEntity
  8
RACCORDO
100
AcDbPolyline
 62
7
  6
CONTINUOUS
 90
28
 70
0
 10
165.2601321689
 20
251.6690346943
 10
165.2396646354
 20
251.6590756861
 10
165.2188077368
 20
251.6500803528
 10
165.1975614732
 20
251.6420486942
 10
165.1758549638
 20
251.6349600379
 10
165.1537590893
 20
251.6288350563
 10
165.131486492
 20
251.6237357672
 10
165.1090735745
 20
251.6196800469
 10
165.0864839341
 20
251.6166500189
 10
165.0638210053
 20
251.6146540721
 10
165.041083302
 20
251.6136919563
 10
165.0182723102
 20
251.6137639216
 10
164.9954959222
 20
251.614879107
 10
164.9727164506
 20
251.6170509449
 10
164.9499715828
 20
251.6202660029
 10
164.9274822732
 20
251.6244931234
 10
164.9052880612
 20
251.62973497
 10
164.8833494074
 20
251.6359888791
 10
164.8617686483
 20
251.6432157027
 10
164.8405476089
 20
251.6514147421
 10
164.8196844642
 20
251.660586696
 10
164.7992760756
 20
251.6706945118
 10
164.7792928292
 20
251.6817650732
 10
164.7597643388
 20
251.6937714964
 10
164.7408763074
 20
251.706596078
 10
164.7226906362
 20
251.7201995833
 10
164.705145424
 20
251.7346212468
 10
164.6882406709
 20
251.7498610687
  0
LWPOLYLINE
  5
285
100
AcDbEntity
  8
DRAFT
100
AcDbPolyline
 62
250
  6
CONTINUOUS
 90
8
 70
0
 10
167.3531380634
 20
251.607641238
 10
167.3963864855
 20
251.2028525137
 10
167.439593788
 20
250.7938380043
 10
167.4827394411
 20
250.3806140089
 10
167.5258576766
 20
249.9632037302
 10
167.5688739483
 20
249.5416058286
 10
167.6116051172
 20
249.1157903216
 10
167.6539778865
 20
248.6857440603
  0
LINE
  5
286
100
AcDbEntity
  8
DRAFT
100
AcDbLine
 62
250
  6
CONTINUOUS
 10
167.6539778865
 20
248.6857440603
 11
167.7145619697
 21
248.0566376728
  0
LINE
  5
287
100
AcDbEntity
  8
0
100
AcDbLine
 62
7
  6
CONTINUOUS
 10
167.235940235
 20
238.7129732376
 11
167.235940235
 21
238.5129732376
  0
LINE
  5
288
100
AcDbEntity
  8
0
100
AcDbLine
 62
7
  6
CONTINUOUS
 10
167.767020235
 20
238.7129732376
 11
167.767020235
 21
238.6629732376
  0
LINE
  5
289
100
AcDbEntity
  8
0
100
AcDbLine
 62
7
  6
CONTINUOUS
 10
168.0534584344
 20
238.6629732376
 11
168.0534584344
 21
238.5129732376
  0
LINE
  5
28A
100
AcDbEntity
  8
0
100
AcDbLine
 62
7
  6
CONTINUOUS
 10
168.105567235
 20
238.6629732376
 11
168.105567235
 21
238.5129732376
  0
LINE
  5
28B
100
AcDbEntity
  8
0
100
AcDbLine
 62
7
  6
CONTINUOUS
 10
168.773809235
 20
238.7129732376
 11
168.773809235
 21
238.6629732376
  0
LINE
  5
28C
100
AcDbEntity
  8
0
100
AcDbLine
 62
7
  6
CONTINUOUS
 10
169.2170081998
 20
238.7129732376
 11
169.2170081998
 21
238.6629732376
  0
LINE
  5
28D
100
AcDbEntity
  8
ASSI
100
AcDbLine
 62
7
  6
CONTINUOUS
 10
169.538002235
 20
238.7129732376
 11
169.538002235
 21
238.5129732376
  0
LINE
  5
28E
100
AcDbEntity
  8
0
100
AcDbLine
 62
7
  6
CONTINUOUS
 10
169.7847601837
 20
238.7129732376
 11
169.7847601837
 21
238.6629732376
  0
LINE
  5
28F
100
AcDbEntity
  8
0
100
AcDbLine
 62
7
  6
CONTINUOUS
 10
169.8670526208
 20
238.7129732376
 11
169.8670526208
 21
238.6629732376
  0
LINE
  5
290
100
AcDbEntity
  8
ASSI
100
AcDbLine
 62
7
  6
CONTINUOUS
 10
170.1432778024
 20
238.6629732376
 11
170.1432778024
 21
238.5129732376
  0
LWPOLYLINE
  5
291
100
AcDbEntity
  8
0
100
AcDbPolyline
 62
7
  6
CONTINUOUS
 90
10
 70
0
 43
0.3500000087
 10
196.8384425659
 20
269.6129787842
 10
197.6955886963
 20
270.4701078613
 10
197.9098794922
 20
271.3272710449
 10
197.9098794922
 20
272.1844001221
 10
197.4812979004
 20
272.6129817139
 10
196.8384425659
 20
272.6129817139
 10
196.4098780273
 20
272.1844001221
 10
196.4098780273
 20
271.3272710449
 10
196.8384425659
 20
270.8986894531
 10
197.767024646
 20
270.8986894531
  0
LINE
  5
292
100
AcDbEntity
  8
RACCORDO
100
AcDbLine
 62
7
  6
CONTINUOUS
 10
159.767020235
 20
245.7129732376
 11
159.7794481705
 21
245.7191920396
  0
LWPOLYLINE
  5
293
100
AcDbEntity
  8
RACCORDO
100
AcDbPolyline
 62
250
  6
CONTINUOUS
 90
8
 70
0
 10
157.7694366554
 20
248.9971240457
 10
157.7754462392
 20
248.9839716275
 10
157.7916353112
 20
248.9412718224
 10
157.8050718839
 20
248.897435693
 10
157.8155910531
 20
248.8530640224
 10
157.8231378506
 20
248.8083570717
 10
157.8277672446
 20
248.7631145799
 10
157.8294792351
 20
248.7173365469
  0
LINE
  5
294
100
AcDbEntity
  8
DRAFT
100
AcDbLine
 62
7
  6
CONTINUOUS
 10
159.6381226656
 20
253.6129732376
 11
159.644264756
 21
253.595519502
  0
LINE
  5
295
100
AcDbEntity
  8
RACCORDO
100
AcDbLine
 62
250
  6
CONTINUOUS
 10
164.6882406709
 20
247.6760854065
 11
164.6908556998
 21
247.6641346047
  0
LINE
  5
296
100
AcDbEntity
  8
0
100
AcDbLine
 62
7
  6
CONTINUOUS
 10
171.3644698369
 20
238.7129732376
 11
171.3644698369
 21
238.6629732376
  0
LINE
  5
297
100
AcDbEntity
  8
0
100
AcDbLine
 62
7
  6
CONTINUOUS
 10
171.603727491
 20
238.5129732376
 11
171.603727491
 21
238.6629732376
  0
LINE
  5
298
100
AcDbEntity
  8
0
100
AcDbLine
 62
7
  6
CONTINUOUS
 10
171.642119235
 20
238.6629732376
 11
171.642119235
 21
238.5129732376
  0
LINE
  5
299
100
AcDbEntity
  8
0
100
AcDbLine
 62
7
  6
CONTINUOUS
 10
173.0952242434
 20
238.6629732379
 11
173.095224235
 21
238.5129732376
  0
LINE
  5
29A
100
AcDbEntity
  8
0
100
AcDbLine
 62
7
  6
CONTINUOUS
 10
173.2085500321
 20
238.7129732376
 11
173.2085500321
 21
238.6629732376
  0
LINE
  5
29B
100
AcDbEntity
  8
0
100
AcDbLine
 62
7
  6
CONTINUOUS
 10
173.3670722709
 20
238.6629732431
 11
173.367072235
 21
238.5129732376
  0
LINE
  5
29C
100
AcDbEntity
  8
0
100
AcDbLine
 62
7
  6
CONTINUOUS
 10
173.942056235
 20
238.6629732376
 11
173.942056235
 21
238.5129732376
  0
LINE
  5
29D
100
AcDbEntity
  8
DRAFT
100
AcDbLine
 62
7
  6
CONTINUOUS
 10
158.767020235
 20
246.7129732376
 11
158.7844739706
 21
246.7187968018
  0
LINE
  5
29E
100
AcDbEntity
  8
0
100
AcDbLine
 62
7
  6
CONTINUOUS
 10
196.367020235
 20
203.5129732376
 11
201.167020235
 21
203.5129732376
  0
LINE
  5
29F
100
AcDbEntity
  8
0
100
AcDbLine
 62
7
  6
CONTINUOUS
 10
174.6852389928
 20
238.7129732376
 11
174.6852389928
 21
238.6629732376
  0
LINE
  5
2A0
100
AcDbEntity
  8
0
100
AcDbLine
 62
7
  6
CONTINUOUS
 10
174.8478626741
 20
238.7129732376
 11
174.8478626741
 21
238.6629732376
  0
LINE
  5
2A1
100
AcDbEntity
  8
0
100
AcDbLine
 62
7
  6
CONTINUOUS
 10
174.8670202332
 20
238.7129732376
 11
174.8670202332
 21
238.6629732376
  0
LINE
  5
2A2
100
AcDbEntity
  8
ASSI
100
AcDbLine
 62
7
  6
CONTINUOUS
 10
175.3907626676
 20
238.7129732376
 11
175.3907626676
 21
238.5129732376
  0
LWPOLYLINE
  5
2A3
100
AcDbEntity
  8
RACCORDO
100
AcDbPolyline
 62
7
  6
CONTINUOUS
 90
28
 70
0
 10
186.845799799
 20
251.7498610687
 10
186.8288826973
 20
251.7346187313
 10
186.8113500312
 20
251.7202060217
 10
186.7932018008
 20
251.7066229399
 10
186.7743859163
 20
251.6938377495
 10
186.7549544675
 20
251.681882187
 10
186.7350637234
 20
251.6708514614
 10
186.7147428673
 20
251.6607658612
 10
186.693962716
 20
251.6516050979
 10
186.6727919879
 20
251.6434035153
 10
186.6512090837
 20
251.6361540583
 10
186.6292356028
 20
251.629863782
 10
186.6070050623
 20
251.624588196
 10
186.5844883692
 20
251.6203353179
 10
186.5617146165
 20
251.6170971301
 10
186.5389045993
 20
251.6149050891
 10
186.5160950108
 20
251.6137727618
 10
186.4932491579
 20
251.6136865814
 10
186.4704777562
 20
251.6146373036
 10
186.447783347
 20
251.6166247616
 10
186.4251633891
 20
251.6196491223
 10
186.402720975
 20
251.6237016413
 10
186.3804198318
 20
251.6287999928
 10
186.3582962325
 20
251.6349265026
 10
186.3365620887
 20
251.6420194043
 10
186.3152880374
 20
251.650058109
 10
186.2944034415
 20
251.6590632057
 10
186.2739083011
 20
251.6690346943
  0
LINE
  5
2A4
100
AcDbEntity
  8
RACCORDO
100
AcDbLine
 62
7
  6
CONTINUOUS
 10
191.767020235
 20
253.7129732376
 11
191.7545922994
 21
253.7067544356
  0
LINE
  5
2A5
100
AcDbEntity
  8
DRAFT
100
AcDbLine
 62
7
  6
CONTINUOUS
 10
192.767020235
 20
252.7129732376
 11
192.7495664994
 21
252.7071496734
  0
LINE
  5
2A6
100
AcDbEntity
  8
RACCORDO
100
AcDbLine
 62
7
  6
CONTINUOUS
 10
180.5637959359
 20
237.7129732376
 11
180.8541597408
 21
222.1867946279
  0
LINE
  5
2A7
100
AcDbEntity
  8
RACCORDO
100
AcDbLine
 62
7
  6
CONTINUOUS
 10
180.4844752999
 20
237.7129732376
 11
180.4721653646
 21
238.4182089595
  0
LINE
  5
2A8
100
AcDbEntity
  8
RACCORDO
100
AcDbLine
 62
250
  6
CONTINUOUS
 10
186.4098939993
 20
251.9482288808
 11
186.2733270584
 21
251.6811284934
  0
LINE
  5
2A9
100
AcDbEntity
  8
RACCORDO
100
AcDbLine
 62
250
  6
CONTINUOUS
 10
186.637837084
 20
247.4454442436
 11
186.8431847701
 21
247.6641346047
  0
LWPOLYLINE
  5
2AA
100
AcDbEntity
  8
RACCORDO
100
AcDbPolyline
 62
7
  6
CONTINUOUS
 90
28
 70
0
 10
186.2739083011
 20
247.7569117809
 10
186.2943758346
 20
247.7668707891
 10
186.3152327332
 20
247.7758661224
 10
186.3364789968
 20
247.783897781
 10
186.3581855062
 20
247.7909864373
 10
186.3802813806
 20
247.7971114189
 10
186.4025539779
 20
247.802210708
 10
186.4249668955
 20
247.8062664283
 10
186.4475565358
 20
247.8092964563
 10
186.4702194647
 20
247.8112924031
 10
186.492957168
 20
247.8122545189
 10
186.5157681597
 20
247.8121825536
 10
186.5385445477
 20
247.8110673681
 10
186.5613240193
 20
247.8088955303
 10
186.5840688872
 20
247.8056804723
 10
186.6065581968
 20
247.8014533518
 10
186.6287524088
 20
247.7962115052
 10
186.6506910626
 20
247.7899575961
 10
186.6722718216
 20
247.7827307725
 10
186.693492861
 20
247.7745317331
 10
186.7143560057
 20
247.7653597792
 10
186.7347643944
 20
247.7552519634
 10
186.7547476408
 20
247.744181402
 10
186.7742761312
 20
247.7321749788
 10
186.7931641625
 20
247.7193503972
 10
186.8113498338
 20
247.7057468919
 10
186.828895046
 20
247.6913252284
 10
186.845799799
 20
247.6760854065
  0
LINE
  5
2AB
100
AcDbEntity
  8
RACCORDO
100
AcDbLine
 62
250
  6
CONTINUOUS
 10
162.7009635791
 20
252.2700871998
 11
162.578810894
 21
252.4557122993
  0
LINE
  5
2AC
100
AcDbEntity
  8
RACCORDO
100
AcDbLine
 62
250
  6
CONTINUOUS
 10
165.1241464707
 20
251.9482288808
 11
165.2607134115
 21
251.6811284934
  0
LINE
  5
2AD
100
AcDbEntity
  8
0
100
AcDbLine
 62
250
  6
CONTINUOUS
 10
184.1651816553
 20
247.8118891681
 11
184.1663705904
 21
247.8203488808
  0
LINE
  5
2AE
100
AcDbEntity
  8
RACCORDO
100
AcDbLine
 62
250
  6
CONTINUOUS
 10
186.845799799
 20
247.6760854065
 11
186.8431847701
 21
247.6641346047
  0
LINE
  5
2AF
100
AcDbEntity
  8
DRAFT
100
AcDbLine
 62
7
  6
CONTINUOUS
 10
191.8959178044
 20
253.6129732376
 11
191.889775714
 21
253.595519502
  0
LINE
  5
2B0
100
AcDbEntity
  8
RACCORDO
100
AcDbLine
 62
7
  6
CONTINUOUS
 10
191.6700065014
 20
245.6602331733
 11
191.7389791476
 21
245.7088606428
  0
LINE
  5
2B1
100
AcDbEntity
  8
RACCORDO
100
AcDbLine
 62
7
  6
CONTINUOUS
 10
205.8640339686
 20
253.7657133019
 11
205.7950613223
 21
253.7170858324
  0
LWPOLYLINE
  5
2B2
100
AcDbEntity
  8
RACCORDO
100
AcDbPolyline
 62
7
  6
CONTINUOUS
 90
7
 70
0
 10
191.7389791476
 20
245.7088606428
 10
191.7437046738
 20
245.7121481222
 10
191.747560744
 20
245.7147932422
 10
191.7505523068
 20
245.7168179947
 10
191.7527018984
 20
245.7182297105
 10
191.7540395552
 20
245.7190210587
 10
191.7545922994
 20
245.7191920396
  0
LWPOLYLINE
  5
2B3
100
AcDbEntity
  8
RACCORDO
100
AcDbPolyline
 62
7
  6
CONTINUOUS
 90
7
 70
0
 10
205.7950613223
 20
253.7170858324
 10
205.7903357961
 20
253.713798353
 10
205.7864797259
 20
253.711153233
 10
205.7834881631
 20
253.7091284805
 10
205.7813385716
 20
253.7077167647
 10
205.7800009148
 20
253.7069254165
 10
205.7794481705
 20
253.7067544356
  0
LINE
  5
2B4
100
AcDbEntity
  8
RACCORDO
100
AcDbLine
 62
7
  6
CONTINUOUS
 10
191.6441615025
 20
245.6422206849
 11
191.6700065014
 21
245.6602331733
  0
LINE
  5
2B5
100
AcDbEntity
  8
RACCORDO
100
AcDbLine
 62
7
  6
CONTINUOUS
 10
205.8898789675
 20
253.7837257903
 11
205.8640339686
 21
253.7657133019
  0
LINE
  5
2B6
100
AcDbEntity
  8
RACCORDO
100
AcDbLine
 62
7
  6
CONTINUOUS
 10
191.6146277232
 20
245.6218620063
 11
191.6441615025
 21
245.6422206849
  0
LINE
  5
2B7
100
AcDbEntity
  8
RACCORDO
100
AcDbLine
 62
7
  6
CONTINUOUS
 10
205.9194127467
 20
253.8040844689
 11
205.8898789675
 21
253.7837257903
  0
LWPOLYLINE
  5
2B8
100
AcDbEntity
  8
RACCORDO
100
AcDbPolyline
 62
7
  6
CONTINUOUS
 90
3
 70
0
 10
191.5634949435
 20
245.5872286274
 10
191.5814285753
 20
245.5992720733
 10
191.6146277232
 20
245.6218620063
  0
LWPOLYLINE
  5
2B9
100
AcDbEntity
  8
RACCORDO
100
AcDbPolyline
 62
7
  6
CONTINUOUS
 90
3
 70
0
 10
205.9705455265
 20
253.8387178478
 10
205.9526118946
 20
253.8266744019
 10
205.9194127467
 20
253.8040844689
  0
LWPOLYLINE
  5
2BA
100
AcDbEntity
  8
RACCORDO
100
AcDbPolyline
 62
7
  6
CONTINUOUS
 90
3
 70
0
 10
191.5046113379
 20
245.5483400779
 10
191.5250652593
 20
245.5617757244
 10
191.5634949435
 20
245.5872286274
  0
LWPOLYLINE
  5
2BB
100
AcDbEntity
  8
RACCORDO
100
AcDbPolyline
 62
7
  6
CONTINUOUS
 90
3
 70
0
 10
206.0294291321
 20
253.8776063973
 10
206.0089752106
 20
253.8641707508
 10
205.9705455265
 20
253.8387178478
  0
LWPOLYLINE
  5
2BC
100
AcDbEntity
  8
RACCORDO
100
AcDbPolyline
 62
7
  6
CONTINUOUS
 90
3
 70
0
 10
191.327177805
 20
245.437957395
 10
191.3466256398
 20
245.4495572371
 10
191.3655919032
 20
245.4610303416
  0
LWPOLYLINE
  5
2BD
100
AcDbEntity
  8
RACCORDO
100
AcDbPolyline
 62
7
  6
CONTINUOUS
 90
3
 70
0
 10
206.2068626649
 20
253.9879890802
 10
206.1874148302
 20
253.9763892381
 10
206.1684485668
 20
253.9649161336
  0
LWPOLYLINE
  5
2BE
100
AcDbEntity
  8
RACCORDO
100
AcDbPolyline
 62
7
  6
CONTINUOUS
 90
4
 70
0
 10
206.2887809004
 20
254.0356558232
 10
206.2677792058
 20
254.0236178918
 10
206.2470800751
 20
254.011603407
 10
206.2068626649
 20
253.9879890802
  0
LWPOLYLINE
  5
2BF
100
AcDbEntity
  8
RACCORDO
100
AcDbPolyline
 62
7
  6
CONTINUOUS
 90
4
 70
0
 10
191.2452595696
 20
245.390290652
 10
191.2662612642
 20
245.4023285834
 10
191.2869603949
 20
245.4143430682
 10
191.327177805
 20
245.437957395
  0
LWPOLYLINE
  5
2C0
100
AcDbEntity
  8
RACCORDO
100
AcDbPolyline
 62
7
  6
CONTINUOUS
 90
3
 70
0
 10
206.3531628012
 20
254.0718070062
 10
206.3315329807
 20
254.0597986409
 10
206.2887809004
 20
254.0356558232
  0
LWPOLYLINE
  5
2C1
100
AcDbEntity
  8
RACCORDO
100
AcDbPolyline
 62
7
  6
CONTINUOUS
 90
3
 70
0
 10
191.1808776687
 20
245.354139469
 10
191.2025074893
 20
245.3661478343
 10
191.2452595696
 20
245.390290652
  0
LWPOLYLINE
  5
2C2
100
AcDbEntity
  8
RACCORDO
100
AcDbPolyline
 62
7
  6
CONTINUOUS
 90
3
 70
0
 10
206.4184485668
 20
254.107285288
 10
206.3966558507
 20
254.0955339609
 10
206.3531628012
 20
254.0718070062
  0
LWPOLYLINE
  5
2C3
100
AcDbEntity
  8
RACCORDO
100
AcDbPolyline
 62
7
  6
CONTINUOUS
 90
3
 70
0
 10
191.1155919032
 20
245.3186611872
 10
191.1373846193
 20
245.3304125143
 10
191.1808776687
 20
245.354139469
  0
LWPOLYLINE
  5
2C4
100
AcDbEntity
  8
DRAFT
100
AcDbPolyline
 62
250
  6
CONTINUOUS
 90
8
 70
0
 10
184.1809024116
 20
247.8183052352
 10
184.1376039176
 20
248.2235739861
 10
184.0943594622
 20
248.632944869
 10
184.0511896693
 20
249.0464032252
 10
184.0080610246
 20
249.4639275149
 10
183.9650474338
 20
249.8855206274
 10
183.9223300397
 20
250.3112139027
 10
183.8799814342
 20
250.7410218315
  0
LINE
  5
2C5
100
AcDbEntity
  8
DRAFT
100
AcDbLine
 62
250
  6
CONTINUOUS
 10
183.8799814342
 20
250.7410218315
 11
183.8194776594
 21
251.369308054
  0
LINE
  5
2C6
100
AcDbEntity
  8
RACCORDO
100
AcDbLine
 62
250
  6
CONTINUOUS
 10
186.2739083011
 20
251.6690346943
 11
186.2733187547
 21
251.681132739
  0
LINE
  5
2C7
100
AcDbEntity
  8
ASSI
100
AcDbLine
 62
7
  6
CONTINUOUS
 10
185.066916235
 20
260.7129732376
 11
185.066916235
 21
260.8629732376
  0
LINE
  5
2C8
100
AcDbEntity
  8
RACCORDO
100
AcDbLine
 62
250
  6
CONTINUOUS
 10
186.2739083011
 20
247.7569117809
 11
186.2733270584
 21
247.7448179818
  0
LWPOLYLINE
  5
2C9
100
AcDbEntity
  8
RACCORDO
100
AcDbPolyline
 62
7
  6
CONTINUOUS
 90
28
 70
0
 10
211.2601321689
 20
251.6690346943
 10
211.2396646354
 20
251.6590756861
 10
211.2188077368
 20
251.6500803528
 10
211.1975614732
 20
251.6420486942
 10
211.1758549638
 20
251.6349600379
 10
211.1537590893
 20
251.6288350563
 10
211.131486492
 20
251.6237357672
 10
211.1090735745
 20
251.6196800469
 10
211.0864839341
 20
251.6166500189
 10
211.0638210053
 20
251.6146540721
 10
211.041083302
 20
251.6136919563
 10
211.0182723102
 20
251.6137639216
 10
210.9954959222
 20
251.614879107
 10
210.9727164506
 20
251.6170509449
 10
210.9499715828
 20
251.6202660029
 10
210.9274822732
 20
251.6244931234
 10
210.9052880612
 20
251.62973497
 10
210.8833494074
 20
251.6359888791
 10
210.8617686483
 20
251.6432157027
 10
210.8405476089
 20
251.6514147421
 10
210.8196844642
 20
251.660586696
 10
210.7992760756
 20
251.6706945118
 10
210.7792928292
 20
251.6817650732
 10
210.7597643388
 20
251.6937714964
 10
210.7408763074
 20
251.706596078
 10
210.7226906362
 20
251.7201995833
 10
210.705145424
 20
251.7346212468
 10
210.6882406709
 20
251.7498610687
  0
LINE
  5
2CA
100
AcDbEntity
  8
DRAFT
100
AcDbLine
 62
7
  6
CONTINUOUS
 10
204.767020235
 20
246.7129732376
 11
204.7844739706
 21
246.7187968018
  0
LINE
  5
2CB
100
AcDbEntity
  8
RACCORDO
100
AcDbLine
 62
7
  6
CONTINUOUS
 10
215.169085475
 20
220.7129732376
 11
182.3649581211
 21
220.7129732376
  0
LWPOLYLINE
  5
2CC
100
AcDbEntity
  8
RACCORDO
100
AcDbPolyline
 62
7
  6
CONTINUOUS
 90
25
 70
0
 10
182.3649375844
 20
220.7129732376
 10
182.2671394862
 20
220.716094579
 10
182.170275677
 20
220.7254400356
 10
182.0743461568
 20
220.7410096072
 10
181.9787738581
 20
220.7629754135
 10
181.8841358484
 20
220.7911653349
 10
181.7921633302
 20
220.8250630127
 10
181.7032428754
 20
220.8645964842
 10
181.6169879121
 20
220.9098377121
 10
181.5339699268
 20
220.9604862261
 10
181.4539589101
 20
221.0167489266
 10
181.3771848713
 20
221.0784189133
 10
181.3049093244
 20
221.1445750143
 10
181.2372534599
 20
221.2153246166
 10
181.1740960874
 20
221.2905603334
 10
181.116335149
 20
221.3690388318
 10
181.0641773787
 20
221.4505347837
 10
181.0174160426
 20
221.5352735172
 10
180.9763288808
 20
221.6226876843
 10
180.940836596
 20
221.7131595564
 10
180.9110184857
 20
221.806306862
 10
180.8873901817
 20
221.9004154382
 10
180.8701235617
 20
221.9949138975
 10
180.859046748
 20
222.0903736274
 10
180.8541597408
 20
222.1867946279
  0
LWPOLYLINE
  5
2CD
100
AcDbEntity
  8
RACCORDO
100
AcDbPolyline
 62
250
  6
CONTINUOUS
 90
25
 70
0
 10
191.0992701597
 20
220.7129732376
 10
191.0617084014
 20
220.7160543542
 10
191.024199992
 20
220.7253206566
 10
190.9869293223
 20
220.7407872034
 10
190.9500906864
 20
220.7624572211
 10
190.9138621951
 20
220.7902853384
 10
190.8783979151
 20
220.8241419738
 10
190.8438677843
 20
220.863901259
 10
190.8104491799
 20
220.9094163961
 10
190.7782873488
 20
220.960430147
 10
190.7475472526
 20
221.0166929511
 10
190.7183600677
 20
221.0779820409
 10
190.6907996114
 20
221.1440188304
 10
190.6649964417
 20
221.2144867798
 10
190.641062582
 20
221.2891067759
 10
190.6190350249
 20
221.3676390442
 10
190.5989961033
 20
221.4498434865
 10
190.5810708457
 20
221.5352986676
 10
190.565336441
 20
221.6234627668
 10
190.5518514067
 20
221.7138973311
 10
190.5406624882
 20
221.8062634474
 10
190.5317940579
 20
221.9001383191
 10
190.5252654132
 20
221.9951135039
 10
190.5210936207
 20
222.0907984839
 10
190.3079058805
 20
231.8836080459
  0
LWPOLYLINE
  5
2CE
100
AcDbEntity
  8
RACCORDO
100
AcDbPolyline
 62
250
  6
CONTINUOUS
 90
25
 70
0
 10
191.0992701597
 20
220.7129732376
 10
191.0913348358
 20
220.7160543534
 10
191.0834804357
 20
220.7253206548
 10
191.0757069593
 20
220.740787202
 10
191.0679754987
 20
220.7624572264
 10
191.0603249619
 20
220.7902853572
 10
191.0528720725
 20
220.8241420028
 10
191.0456253863
 20
220.8639012798
 10
191.0385763476
 20
220.9094163949
 10
191.0318160133
 20
220.9604301318
 10
191.0253483454
 20
221.0166929521
 10
191.019169382
 20
221.0779820774
 10
191.013358294
 20
221.1440188948
 10
191.0079235145
 20
221.2144868431
 10
191.0028566104
 20
221.2891068229
 10
190.9982114534
 20
221.3676390842
 10
190.9939887174
 20
221.4498435496
 10
190.9901877285
 20
221.5352987676
 10
190.9868603373
 20
221.6234628863
 10
190.9840171587
 20
221.7138974299
 10
190.9816475778
 20
221.8062635039
 10
190.9797716
 20
221.9001383407
 10
190.9783958937
 20
221.995113509
 10
190.9775137905
 20
222.0907984818
 10
190.9770698626
 20
222.1998834344
  0
LINE
  5
2CF
100
AcDbEntity
  8
RACCORDO
100
AcDbLine
 62
7
  6
CONTINUOUS
 10
159.8764847937
 20
245.6515330955
 11
159.9041863882
 21
245.6323170284
  0
LINE
  5
2D0
100
AcDbEntity
  8
RACCORDO
100
AcDbLine
 62
7
  6
CONTINUOUS
 10
159.7950613223
 20
245.7088606428
 11
159.8071748159
 21
245.7003231487
  0
LWPOLYLINE
  5
2D1
100
AcDbEntity
  8
RACCORDO
100
AcDbPolyline
 62
7
  6
CONTINUOUS
 90
3
 70
0
 10
159.8071748159
 20
245.7003231487
 10
159.8318441769
 20
245.6828782986
 10
159.8764847937
 20
245.6515330955
  0
LINE
  5
2D2
100
AcDbEntity
  8
RACCORDO
100
AcDbLine
 62
250
  6
CONTINUOUS
 10
164.896203386
 20
247.4454442436
 11
164.6908556998
 21
247.6641346047
  0
LINE
  5
2D3
100
AcDbEntity
  8
RACCORDO
100
AcDbLine
 62
250
  6
CONTINUOUS
 10
190.3079058805
 20
231.8836080459
 11
190.203645966
 21
236.7129732376
  0
LINE
  5
2D4
100
AcDbEntity
  8
RACCORDO
100
AcDbLine
 62
250
  6
CONTINUOUS
 10
190.9770698626
 20
222.1998834344
 11
190.8747155983
 21
227.048806315
  0
LWPOLYLINE
  5
2D5
100
AcDbEntity
  8
RACCORDO
100
AcDbPolyline
 62
250
  6
CONTINUOUS
 90
3
 70
0
 10
190.8747155983
 20
227.048806315
 10
190.7732344798
 20
231.8865031343
 10
190.6725957389
 20
236.7129732376
  0
LINE
  5
2D6
100
AcDbEntity
  8
RACCORDO
100
AcDbLine
 62
250
  6
CONTINUOUS
 10
188.767020235
 20
244.7304269732
 11
188.767020235
 21
244.9505063848
  0
LINE
  5
2D7
100
AcDbEntity
  8
RACCORDO
100
AcDbLine
 62
250
  6
CONTINUOUS
 10
188.767020235
 20
254.4754400904
 11
188.767020235
 21
254.695519502
  0
LINE
  5
2D8
100
AcDbEntity
  8
ASSI
100
AcDbLine
 62
7
  6
CONTINUOUS
 10
190.267163235
 20
260.7129732376
 11
190.267163235
 21
260.8629732376
  0
LINE
  5
2D9
100
AcDbEntity
  8
RACCORDO
100
AcDbLine
 62
250
  6
CONTINUOUS
 10
191.1155919032
 20
245.2437698287
 11
191.1155919032
 21
245.3186611872
  0
LINE
  5
2DA
100
AcDbEntity
  8
RACCORDO
100
AcDbLine
 62
250
  6
CONTINUOUS
 10
191.1155919032
 20
254.107285288
 11
191.1155919032
 21
254.1827246913
  0
LINE
  5
2DB
100
AcDbEntity
  8
RACCORDO
100
AcDbLine
 62
250
  6
CONTINUOUS
 10
191.3655919032
 20
245.3847065202
 11
191.3655919032
 21
245.4610303416
  0
LINE
  5
2DC
100
AcDbEntity
  8
RACCORDO
100
AcDbLine
 62
250
  6
CONTINUOUS
 10
191.3655919032
 20
253.9649161336
 11
191.3655919032
 21
254.0415528581
  0
LINE
  5
2DD
100
AcDbEntity
  8
RACCORDO
100
AcDbLine
 62
250
  6
CONTINUOUS
 10
191.5046113379
 20
253.9563158683
 11
191.5046113379
 21
253.8776063973
  0
LINE
  5
2DE
100
AcDbEntity
  8
RACCORDO
100
AcDbLine
 62
250
  6
CONTINUOUS
 10
191.5046113379
 20
245.5483400779
 11
191.5046113379
 21
245.4698879102
  0
LINE
  5
2DF
100
AcDbEntity
  8
RACCORDO
100
AcDbLine
 62
250
  6
CONTINUOUS
 10
191.7545922994
 20
253.7828544843
 11
191.7545922994
 21
253.7067544356
  0
LINE
  5
2E0
100
AcDbEntity
  8
RACCORDO
100
AcDbLine
 62
250
  6
CONTINUOUS
 10
191.7545922994
 20
245.7191920396
 11
191.7545922994
 21
245.6422262832
  0
LINE
  5
2E1
100
AcDbEntity
  8
RACCORDO
100
AcDbLine
 62
7
  6
CONTINUOUS
 10
191.767020235
 20
253.7735505313
 11
191.767020235
 21
253.7129732376
  0
LINE
  5
2E2
100
AcDbEntity
  8
RACCORDO
100
AcDbLine
 62
7
  6
CONTINUOUS
 10
191.767020235
 20
245.7129732376
 11
191.767020235
 21
245.6517653717
  0
LINE
  5
2E3
100
AcDbEntity
  8
RACCORDO
100
AcDbLine
 62
7
  6
CONTINUOUS
 10
205.767020235
 20
245.7129732376
 11
205.7794481705
 21
245.7191920396
  0
LINE
  5
2E4
100
AcDbEntity
  8
DRAFT
100
AcDbLine
 62
7
  6
CONTINUOUS
 10
238.767020235
 20
252.7129732376
 11
238.7495664994
 21
252.7071496734
  0
LINE
  5
2E5
100
AcDbEntity
  8
RACCORDO
100
AcDbLine
 62
250
  6
CONTINUOUS
 10
190.5192240794
 20
222.1911575634
 11
190.9770698626
 21
222.1998834343
  0
LINE
  5
2E6
100
AcDbEntity
  8
RACCORDO
100
AcDbLine
 62
250
  6
CONTINUOUS
 10
200.7292423364
 20
222.1870713754
 11
200.6918734193
 21
222.186638642
  0
LINE
  5
2E7
100
AcDbEntity
  8
RACCORDO
100
AcDbLine
 62
250
  6
CONTINUOUS
 10
200.6918734193
 20
222.186638642
 11
200.6463463427
 21
222.1864134388
  0
LINE
  5
2E8
100
AcDbEntity
  8
RACCORDO
100
AcDbLine
 62
250
  6
CONTINUOUS
 10
197.0251162683
 20
222.1867947886
 11
196.9396272643
 21
222.1864044514
  0
LINE
  5
2E9
100
AcDbEntity
  8
RACCORDO
100
AcDbLine
 62
250
  6
CONTINUOUS
 10
190.7159842454
 20
222.1859860701
 11
190.9771252904
 21
222.1867946291
  0
LINE
  5
2EA
100
AcDbEntity
  8
RACCORDO
100
AcDbLine
 62
250
  6
CONTINUOUS
 10
207.0147552702
 20
222.1867948004
 11
206.8180548514
 21
222.1862957612
  0
LINE
  5
2EB
100
AcDbEntity
  8
RACCORDO
100
AcDbLine
 62
250
  6
CONTINUOUS
 10
216.6798807291
 20
222.1867946279
 11
207.0147211668
 21
222.1867946279
  0
LINE
  5
2EC
100
AcDbEntity
  8
RACCORDO
100
AcDbLine
 62
250
  6
CONTINUOUS
 10
200.5089250842
 20
222.1867946279
 11
197.0251153857
 21
222.1867946279
  0
LINE
  5
2ED
100
AcDbEntity
  8
RACCORDO
100
AcDbLine
 62
250
  6
CONTINUOUS
 10
190.5193193032
 20
222.1867946279
 11
180.8541597408
 21
222.1867946279
  0
LINE
  5
2EE
100
AcDbEntity
  8
RACCORDO
100
AcDbLine
 62
250
  6
CONTINUOUS
 10
206.5569706074
 20
222.1998834344
 11
200.7799963037
 21
222.1998834344
  0
LINE
  5
2EF
100
AcDbEntity
  8
RACCORDO
100
AcDbLine
 62
250
  6
CONTINUOUS
 10
196.7540441663
 20
222.1998834344
 11
190.9770698626
 21
222.1998834344
  0
LINE
  5
2F0
100
AcDbEntity
  8
RACCORDO
100
AcDbLine
 62
250
  6
CONTINUOUS
 10
196.9396272643
 20
222.1864044514
 11
196.887694408
 21
222.1864134549
  0
LINE
  5
2F1
100
AcDbEntity
  8
RACCORDO
100
AcDbLine
 62
250
  6
CONTINUOUS
 10
200.6463463427
 20
222.1864134388
 11
200.5666618539
 21
222.1864814417
  0
LWPOLYLINE
  5
2F2
100
AcDbEntity
  8
RACCORDO
100
AcDbPolyline
 62
250
  6
CONTINUOUS
 90
3
 70
0
 10
206.8180548514
 20
222.1862957612
 10
206.6097311524
 20
222.1865957292
 10
206.5569151796
 20
222.186794781
  0
LINE
  5
2F3
100
AcDbEntity
  8
RACCORDO
100
AcDbLine
 62
250
  6
CONTINUOUS
 10
200.5666618539
 20
222.1864814417
 11
200.5089242992
 21
222.1867947709
  0
LINE
  5
2F4
100
AcDbEntity
  8
RACCORDO
100
AcDbLine
 62
250
  6
CONTINUOUS
 10
196.887694408
 20
222.1864134549
 11
196.8421673572
 21
222.1866386559
  0
LINE
  5
2F5
100
AcDbEntity
  8
RACCORDO
100
AcDbLine
 62
250
  6
CONTINUOUS
 10
190.6653638666
 20
222.1863457921
 11
190.7159842454
 21
222.1859860701
  0
LWPOLYLINE
  5
2F6
100
AcDbEntity
  8
RACCORDO
100
AcDbPolyline
 62
250
  6
CONTINUOUS
 90
8
 70
0
 10
196.8421673572
 20
222.1866386559
 10
196.8047984277
 20
222.1870713864
 10
196.7896366036
 20
222.1873606669
 10
196.777025933
 20
222.1876949909
 10
196.7670880541
 20
222.1880711336
 10
196.7599188241
 20
222.1884854668
 10
196.7555873948
 20
222.1889339942
 10
196.7541355458
 20
222.1894123892
  0
LINE
  5
2F7
100
AcDbEntity
  8
RACCORDO
100
AcDbLine
 62
250
  6
CONTINUOUS
 10
190.5192622063
 20
222.1889760401
 11
190.6653638666
 21
222.1863457921
  0
LINE
  5
2F8
100
AcDbEntity
  8
RACCORDO
100
AcDbLine
 62
250
  6
CONTINUOUS
 10
206.8181235922
 20
222.1949660135
 11
206.6624582121
 21
222.197698285
  0
LINE
  5
2F9
100
AcDbEntity
  8
RACCORDO
100
AcDbLine
 62
250
  6
CONTINUOUS
 10
206.6624582121
 20
222.197698285
 11
206.5569706074
 21
222.1998834376
  0
LINE
  5
2FA
100
AcDbEntity
  8
RACCORDO
100
AcDbLine
 62
250
  6
CONTINUOUS
 10
206.8687360063
 20
222.1937168003
 11
206.8181235922
 21
222.1949660135
  0
LINE
  5
2FB
100
AcDbEntity
  8
RACCORDO
100
AcDbLine
 62
250
  6
CONTINUOUS
 10
207.0147782637
 20
222.1889760408
 11
206.8687360063
 21
222.1937168003
  0
LWPOLYLINE
  5
2FC
100
AcDbEntity
  8
RACCORDO
100
AcDbPolyline
 62
7
  6
CONTINUOUS
 90
7
 70
0
 10
160.2677792058
 20
245.4023285834
 10
160.2887809004
 20
245.390290652
 10
160.3100456427
 20
245.3782309665
 10
160.3315329807
 20
245.3661478343
 10
160.3531628012
 20
245.354139469
 10
160.3748800318
 20
245.3422386083
 10
160.4184485668
 20
245.3186611872
  0
LWPOLYLINE
  5
2FD
100
AcDbEntity
  8
RACCORDO
100
AcDbPolyline
 62
7
  6
CONTINUOUS
 90
5
 70
0
 10
160.1684485668
 20
245.4610303416
 10
160.1874148302
 20
245.4495572371
 10
160.2068626649
 20
245.437957395
 10
160.22675859
 20
245.4262308155
 10
160.2677792058
 20
245.4023285834
  0
LWPOLYLINE
  5
2FE
100
AcDbEntity
  8
RACCORDO
100
AcDbPolyline
 62
7
  6
CONTINUOUS
 90
4
 70
0
 10
159.9526118946
 20
245.5992720733
 10
159.9705455265
 20
245.5872286274
 10
159.9893390405
 20
245.5747385743
 10
160.0294291321
 20
245.5483400779
  0
LWPOLYLINE
  5
2FF
100
AcDbEntity
  8
RACCORDO
100
AcDbPolyline
 62
7
  6
CONTINUOUS
 90
3
 70
0
 10
159.9041863882
 20
245.6323170284
 10
159.9194127467
 20
245.6218620063
 10
159.9526118946
 20
245.5992720733
  0
LWPOLYLINE
  5
300
100
AcDbEntity
  8
RACCORDO
100
AcDbPolyline
 62
250
  6
CONTINUOUS
 90
28
 70
0
 10
164.896203386
 20
251.9805022316
 10
164.9029859565
 20
251.9744204466
 10
164.9100084087
 20
251.9686735704
 10
164.9172707424
 20
251.963261603
 10
164.9247892173
 20
251.9581744507
 10
164.9325475738
 20
251.9534222072
 10
164.9404970333
 20
251.949035154
 10
164.9486384975
 20
251.9450158128
 10
164.9569710647
 20
251.9413616619
 10
164.9654432521
 20
251.9380954173
 10
164.9740559305
 20
251.9352195114
 10
164.9828082289
 20
251.9327315119
 10
164.9916460523
 20
251.9306468379
 10
165.0005700114
 20
251.9289680042
 10
165.0095794953
 20
251.9276924962
 10
165.0186185761
 20
251.9268281885
 10
165.0276872846
 20
251.9263776487
 10
165.0367855899
 20
251.9263383093
 10
165.0458574717
 20
251.9267103428
 10
165.0549028391
 20
251.927496316
 10
165.063921783
 20
251.9286936622
 10
165.0728585553
 20
251.9302948537
 10
165.0817129296
 20
251.9323025228
 10
165.0904851324
 20
251.9347140373
 10
165.0991200947
 20
251.9375139727
 10
165.1075994604
 20
251.9406971877
 10
165.1159415857
 20
251.9442688238
 10
165.1241464707
 20
251.9482288808
  0
LWPOLYLINE
  5
301
100
AcDbEntity
  8
RACCORDO
100
AcDbPolyline
 62
250
  6
CONTINUOUS
 90
28
 70
0
 10
164.6908556998
 20
251.7618118705
 10
164.7077594721
 20
251.746647818
 10
164.7253348135
 20
251.7322665679
 10
164.7435455186
 20
251.7186978473
 10
164.7623540815
 20
251.7059697004
 10
164.7817217293
 20
251.6941084631
 10
164.8016084981
 20
251.6831387013
 10
164.8219735894
 20
251.6730830189
 10
164.842774824
 20
251.6639623394
 10
164.8639686392
 20
251.6557957912
 10
164.8855109728
 20
251.648600302
 10
164.9073576767
 20
251.6423905675
 10
164.9294639559
 20
251.6371793166
 10
164.9517843755
 20
251.6329772889
 10
164.9742727099
 20
251.629793215
 10
164.9968823217
 20
251.6276336978
 10
165.0195663733
 20
251.6265031827
 10
165.0422782397
 20
251.6264039643
 10
165.0649713683
 20
251.6273362505
 10
165.0875992883
 20
251.6292981832
 10
165.110114948
 20
251.6322857335
 10
165.1324711377
 20
251.6362926103
 10
165.1546213925
 20
251.6413103832
 10
165.1765203829
 20
251.6473286796
 10
165.1981232484
 20
251.6543351116
 10
165.2193855288
 20
251.6623152313
 10
165.2402632692
 20
251.6712525146
 10
165.2607134115
 20
251.6811284934
  0
LINE
  5
302
100
AcDbEntity
  8
RACCORDO
100
AcDbLine
 62
250
  6
CONTINUOUS
 10
186.845799799
 20
251.7498610687
 11
186.8431847701
 21
251.7618118705
  0
LINE
  5
303
100
AcDbEntity
  8
DRAFT
100
AcDbLine
 62
7
  6
CONTINUOUS
 10
192.7495664994
 20
252.8172149759
 11
192.7495664994
 21
252.7071496734
  0
LINE
  5
304
100
AcDbEntity
  8
DRAFT
100
AcDbLine
 62
7
  6
CONTINUOUS
 10
192.7495664994
 20
246.7187968018
 11
192.7495664994
 21
246.6104948979
  0
LINE
  5
305
100
AcDbEntity
  8
DRAFT
100
AcDbLine
 62
7
  6
CONTINUOUS
 10
192.767020235
 20
252.7938977615
 11
192.767020235
 21
252.7129732376
  0
LINE
  5
306
100
AcDbEntity
  8
0
100
AcDbLine
 62
7
  6
CONTINUOUS
 10
192.767020235
 20
252.7938977615
 11
192.767020235
 21
252.7129732376
  0
LINE
  5
307
100
AcDbEntity
  8
DRAFT
100
AcDbLine
 62
7
  6
CONTINUOUS
 10
192.767020235
 20
246.7129732376
 11
192.767020235
 21
246.6332301543
  0
LINE
  5
308
100
AcDbEntity
  8
0
100
AcDbLine
 62
7
  6
CONTINUOUS
 10
192.767020235
 20
246.7129732376
 11
192.767020235
 21
246.6332301543
  0
LINE
  5
309
100
AcDbEntity
  8
0
100
AcDbLine
 62
7
  6
CONTINUOUS
 10
193.167020235
 20
247.2370011292
 11
193.167020235
 21
247.3387984421
  0
LINE
  5
30A
100
AcDbEntity
  8
0
100
AcDbLine
 62
7
  6
CONTINUOUS
 10
193.167020235
 20
252.0871480331
 11
193.167020235
 21
252.1892928302
  0
LINE
  5
30B
100
AcDbEntity
  8
RACCORDO
100
AcDbLine
 62
250
  6
CONTINUOUS
 10
210.896203386
 20
251.9805022316
 11
210.6908556998
 21
251.7618118705
  0
LWPOLYLINE
  5
30C
100
AcDbEntity
  8
RACCORDO
100
AcDbPolyline
 62
7
  6
CONTINUOUS
 90
28
 70
0
 10
210.6882406709
 20
247.6760854065
 10
210.7051577727
 20
247.6913277439
 10
210.7226904388
 20
247.7057404535
 10
210.7408386692
 20
247.7193235353
 10
210.7596545537
 20
247.7321087257
 10
210.7790860025
 20
247.7440642882
 10
210.7989767466
 20
247.7550950138
 10
210.8192976026
 20
247.765180614
 10
210.840077754
 20
247.7743413773
 10
210.8612484821
 20
247.7825429599
 10
210.8828313863
 20
247.7897924169
 10
210.9048048671
 20
247.7960826932
 10
210.9270354077
 20
247.8013582792
 10
210.9495521007
 20
247.8056111573
 10
210.9723258535
 20
247.8088493451
 10
210.9951358707
 20
247.8110413861
 10
211.0179454592
 20
247.8121737134
 10
211.0407913121
 20
247.8122598938
 10
211.0635627137
 20
247.8113091716
 10
211.086257123
 20
247.8093217135
 10
211.1088770809
 20
247.8062973529
 10
211.131319495
 20
247.8022448339
 10
211.1536206381
 20
247.7971464824
 10
211.1757442374
 20
247.7910199726
 10
211.1974783813
 20
247.7839270709
 10
211.2187524326
 20
247.7758883662
 10
211.2396370285
 20
247.7668832695
 10
211.2601321689
 20
247.7569117809
  0
LINE
  5
30D
100
AcDbEntity
  8
RACCORDO
100
AcDbLine
 62
250
  6
CONTINUOUS
 10
186.4098939993
 20
247.4777175944
 11
186.2733270584
 21
247.7448179818
  0
LWPOLYLINE
  5
30E
100
AcDbEntity
  8
RACCORDO
100
AcDbPolyline
 62
250
  6
CONTINUOUS
 90
9
 70
0
 10
197.04822825
 20
220.9102068189
 10
197.0501921129
 20
220.864805274
 10
197.0522069928
 20
220.8250539389
 10
197.05423837
 20
220.7911238819
 10
197.0562604988
 20
220.7631587548
 10
197.0583169601
 20
220.7412782367
 10
197.0603981385
 20
220.7255780088
 10
197.0624426963
 20
220.716128422
 10
197.0644135982
 20
220.7129732376
  0
LINE
  5
30F
100
AcDbEntity
  8
RACCORDO
100
AcDbLine
 62
250
  6
CONTINUOUS
 10
197.0443696042
 20
221.0171479805
 11
197.04822825
 21
220.9102068189
  0
LINE
  5
310
100
AcDbEntity
  8
RACCORDO
100
AcDbLine
 62
250
  6
CONTINUOUS
 10
197.0407180958
 20
221.1440519898
 11
197.0443696042
 21
221.0171479805
  0
LINE
  5
311
100
AcDbEntity
  8
RACCORDO
100
AcDbLine
 62
250
  6
CONTINUOUS
 10
197.0372946769
 20
221.2887730667
 11
197.0407180958
 21
221.1440519898
  0
LINE
  5
312
100
AcDbEntity
  8
RACCORDO
100
AcDbLine
 62
250
  6
CONTINUOUS
 10
197.0326911193
 20
221.5338882827
 11
197.0372946769
 21
221.2887730667
  0
LINE
  5
313
100
AcDbEntity
  8
RACCORDO
100
AcDbLine
 62
250
  6
CONTINUOUS
 10
197.0288501605
 20
221.8043178411
 11
197.0326911193
 21
221.5338882827
  0
LINE
  5
314
100
AcDbEntity
  8
RACCORDO
100
AcDbLine
 62
7
  6
CONTINUOUS
 10
196.6273903503
 20
236.7129732376
 11
196.7644250212
 21
221.0103552769
  0
LWPOLYLINE
  5
315
100
AcDbEntity
  8
RACCORDO
100
AcDbPolyline
 62
250
  6
CONTINUOUS
 90
3
 70
0
 10
196.89663955
 20
236.7129732376
 10
197.0258877224
 20
222.0900047615
 10
197.0288501605
 20
221.8043178411
  0
LINE
  5
316
100
AcDbEntity
  8
0
100
AcDbLine
 62
7
  6
CONTINUOUS
 10
196.367020235
 20
220.7129732376
 11
196.367020235
 21
203.5129732376
  0
LWPOLYLINE
  5
317
100
AcDbEntity
  8
0
100
AcDbPolyline
 62
7
  6
CONTINUOUS
 90
13
 70
0
 43
0.3500000087
 10
198.7670256226
 20
270.4701078613
 10
198.7670256226
 20
271.7558185303
 10
198.9812993652
 20
272.1844001221
 10
199.409880957
 20
272.6129817139
 10
199.6241546997
 20
272.6129817139
 10
200.0527362915
 20
272.1844001221
 10
200.2670270874
 20
271.7558185303
 10
200.2670270874
 20
270.4701078613
 10
200.0527362915
 20
270.041560376
 10
199.6241546997
 20
269.6129787842
 10
199.409880957
 20
269.6129787842
 10
198.9812993652
 20
270.041560376
 10
198.7670256226
 20
270.4701078613
  0
LINE
  5
318
100
AcDbEntity
  8
RACCORDO
100
AcDbLine
 62
7
  6
CONTINUOUS
 10
237.767020235
 20
253.7129732376
 11
237.7545922994
 21
253.7067544356
  0
LWPOLYLINE
  5
319
100
AcDbEntity
  8
RACCORDO
100
AcDbPolyline
 62
7
  6
CONTINUOUS
 90
28
 70
0
 10
232.2739083011
 20
247.7569117809
 10
232.2943758346
 20
247.7668707891
 10
232.3152327332
 20
247.7758661224
 10
232.3364789968
 20
247.783897781
 10
232.3581855062
 20
247.7909864373
 10
232.3802813806
 20
247.7971114189
 10
232.4025539779
 20
247.802210708
 10
232.4249668955
 20
247.8062664283
 10
232.4475565358
 20
247.8092964563
 10
232.4702194647
 20
247.8112924031
 10
232.492957168
 20
247.8122545189
 10
232.5157681597
 20
247.8121825536
 10
232.5385445477
 20
247.8110673681
 10
232.5613240193
 20
247.8088955303
 10
232.5840688872
 20
247.8056804723
 10
232.6065581968
 20
247.8014533518
 10
232.6287524088
 20
247.7962115052
 10
232.6506910626
 20
247.7899575961
 10
232.6722718216
 20
247.7827307725
 10
232.693492861
 20
247.7745317331
 10
232.7143560057
 20
247.7653597792
 10
232.7347643944
 20
247.7552519634
 10
232.7547476408
 20
247.744181402
 10
232.7742761312
 20
247.7321749788
 10
232.7931641625
 20
247.7193503972
 10
232.8113498338
 20
247.7057468919
 10
232.828895046
 20
247.6913252284
 10
232.845799799
 20
247.6760854065
  0
LWPOLYLINE
  5
31A
100
AcDbEntity
  8
RACCORDO
100
AcDbPolyline
 62
250
  6
CONTINUOUS
 90
28
 70
0
 10
165.1241464707
 20
247.4777175944
 10
165.1159420495
 20
247.4816775146
 10
165.1076001036
 20
247.485249094
 10
165.0991206331
 20
247.4884323326
 10
165.0904852082
 20
247.4912324226
 10
165.0817122586
 20
247.4936441719
 10
165.0728570733
 20
247.4956520038
 10
165.0639194681
 20
247.4972532351
 10
165.0548996272
 20
247.498450549
 10
165.0458533916
 20
247.4992364186
 10
165.0367805757
 20
247.4996082507
 10
165.0276813652
 20
247.4995686385
 10
165.0186121581
 20
247.4991178345
 10
165.0095731895
 20
247.4982532665
 10
165.0005642245
 20
247.4969775067
 10
164.9916409564
 20
247.495298525
 10
164.9828039948
 20
247.4932138526
 10
164.9740527303
 20
247.4907259582
 10
164.9654410276
 20
247.4878502174
 10
164.9569696896
 20
247.4845841886
 10
164.9486379135
 20
247.4809303135
 10
164.9404971556
 20
247.4769112924
 10
164.932548402
 20
247.472524702
 10
164.9247906667
 20
247.4677729656
 10
164.9172724476
 20
247.4626860545
 10
164.9100099108
 20
247.457273959
 10
164.9029868903
 20
247.4515266887
 10
164.896203386
 20
247.4454442436
  0
LWPOLYLINE
  5
31B
100
AcDbEntity
  8
RACCORDO
100
AcDbPolyline
 62
250
  6
CONTINUOUS
 90
28
 70
0
 10
165.2607217152
 20
247.7448137365
 10
165.2402693207
 20
247.7546912058
 10
165.2193898134
 20
247.7636295239
 10
165.198126297
 20
247.7716102978
 10
165.1765229485
 20
247.7786170275
 10
165.1546240808
 20
247.7846354185
 10
165.1324740151
 20
247.7896532815
 10
165.1101179253
 20
247.7936602777
 10
165.0876024313
 20
247.7966479475
 10
165.0649746457
 20
247.7986100155
 10
165.0422815751
 20
247.7995424497
 10
165.0195697335
 20
247.7994433836
 10
164.9968857063
 20
247.7983130232
 10
164.9742761314
 20
247.7961536656
 10
164.9517878328
 20
247.7929697561
 10
164.9294674422
 20
247.7887678972
 10
164.9073611887
 20
247.7835568202
 10
164.8855145029
 20
247.7773472638
 10
164.8639721624
 20
247.7701519504
 10
164.8427782903
 20
247.7619855626
 10
164.8219769759
 20
247.7528650338
 10
164.8016118403
 20
247.7428095197
 10
164.7817252415
 20
247.7318400548
 10
164.7623577828
 20
247.7199791587
 10
164.7435489612
 20
247.7072510733
 10
164.7253374415
 20
247.6936819598
 10
164.7077609354
 20
247.679299911
 10
164.6908556998
 20
247.6641346047
  0
LINE
  5
31C
100
AcDbEntity
  8
DRAFT
100
AcDbLine
 62
7
  6
CONTINUOUS
 10
191.8959178044
 20
245.8129732376
 11
191.889775714
 21
245.8304269732
  0
LINE
  5
31D
100
AcDbEntity
  8
0
100
AcDbLine
 62
7
  6
CONTINUOUS
 10
201.167020235
 20
220.7129732376
 11
201.167020235
 21
203.5129732376
  0
LINE
  5
31E
100
AcDbEntity
  8
RACCORDO
100
AcDbLine
 62
7
  6
CONTINUOUS
 10
200.9066501196
 20
236.7129732376
 11
200.7696154487
 21
221.0103552769
  0
LINE
  5
31F
100
AcDbEntity
  8
RACCORDO
100
AcDbLine
 62
250
  6
CONTINUOUS
 10
200.6374009194
 20
236.7129732376
 11
200.5081527476
 21
222.0900026144
  0
LINE
  5
320
100
AcDbEntity
  8
RACCORDO
100
AcDbLine
 62
250
  6
CONTINUOUS
 10
200.5081527476
 20
222.0900026144
 11
200.5062794067
 21
221.8983593294
  0
LINE
  5
321
100
AcDbEntity
  8
RACCORDO
100
AcDbLine
 62
250
  6
CONTINUOUS
 10
200.5062794067
 20
221.8983593294
 11
200.5040048797
 21
221.7119742167
  0
LINE
  5
322
100
AcDbEntity
  8
RACCORDO
100
AcDbLine
 62
250
  6
CONTINUOUS
 10
200.5040048797
 20
221.7119742167
 11
200.5013492569
 21
221.5338860122
  0
LINE
  5
323
100
AcDbEntity
  8
RACCORDO
100
AcDbLine
 62
250
  6
CONTINUOUS
 10
200.5013492569
 20
221.5338860122
 11
200.4983578557
 21
221.3670637052
  0
LINE
  5
324
100
AcDbEntity
  8
RACCORDO
100
AcDbLine
 62
250
  6
CONTINUOUS
 10
200.4983578557
 20
221.3670637052
 11
200.4950733298
 21
221.2143265544
  0
LINE
  5
325
100
AcDbEntity
  8
RACCORDO
100
AcDbLine
 62
250
  6
CONTINUOUS
 10
200.4950733298
 20
221.2143265544
 11
200.4915164426
 21
221.0782256802
  0
LWPOLYLINE
  5
326
100
AcDbEntity
  8
RACCORDO
100
AcDbPolyline
 62
250
  6
CONTINUOUS
 90
11
 70
0
 10
200.4915164426
 20
221.0782256802
 10
200.4877599234
 20
220.9610559037
 10
200.4858122543
 20
220.9102021537
 10
200.4838483528
 20
220.8648009803
 10
200.4818334357
 20
220.8250500713
 10
200.479802024
 20
220.7911203368
 10
200.47777986
 20
220.7631556562
 10
200.4757233782
 20
220.7412759959
 10
200.4736422099
 20
220.7255768226
 10
200.4715976951
 20
220.7161280781
 10
200.4696268718
 20
220.7129732376
  0
LINE
  5
327
100
AcDbEntity
  8
DRAFT
100
AcDbLine
 62
7
  6
CONTINUOUS
 10
205.6381226656
 20
245.8129732376
 11
205.644264756
 21
245.8304269732
  0
LINE
  5
328
100
AcDbEntity
  8
RACCORDO
100
AcDbLine
 62
250
  6
CONTINUOUS
 10
211.1241464707
 20
247.4777175944
 11
211.2607134116
 21
247.7448179818
  0
LWPOLYLINE
  5
329
100
AcDbEntity
  8
RACCORDO
100
AcDbPolyline
 62
7
  6
CONTINUOUS
 90
7
 70
0
 10
159.7794481705
 20
245.7191920396
 10
159.7800009148
 20
245.7190210587
 10
159.7813385716
 20
245.7182297105
 10
159.7834881631
 20
245.7168179947
 10
159.7864797259
 20
245.7147932422
 10
159.7903357961
 20
245.7121481222
 10
159.7950613223
 20
245.7088606428
  0
LINE
  5
32A
100
AcDbEntity
  8
RACCORDO
100
AcDbLine
 62
7
  6
CONTINUOUS
 10
159.767020235
 20
253.7129732376
 11
159.7794481705
 21
253.7067544356
  0
LWPOLYLINE
  5
32B
100
AcDbEntity
  8
RACCORDO
100
AcDbPolyline
 62
250
  6
CONTINUOUS
 90
28
 70
0
 10
186.637837084
 20
247.4454442436
 10
186.6310545134
 20
247.4515260286
 10
186.6240320613
 20
247.4572729048
 10
186.6167697275
 20
247.4626848722
 10
186.6092512527
 20
247.4677720245
 10
186.6014928962
 20
247.472524268
 10
186.5935434366
 20
247.4769113212
 10
186.5854019725
 20
247.4809306624
 10
186.5770694052
 20
247.4845848133
 10
186.5685972178
 20
247.4878510579
 10
186.5599845395
 20
247.4907269638
 10
186.551232241
 20
247.4932149633
 10
186.5423944177
 20
247.4952996373
 10
186.5334704586
 20
247.496978471
 10
186.5244609746
 20
247.498253979
 10
186.5154218938
 20
247.4991182867
 10
186.5063531854
 20
247.4995688265
 10
186.49725488
 20
247.4996081659
 10
186.4881829983
 20
247.4992361324
 10
186.4791376308
 20
247.4984501592
 10
186.4701186869
 20
247.497252813
 10
186.4611819146
 20
247.4956516215
 10
186.4523275403
 20
247.4936439524
 10
186.4435553376
 20
247.4912324379
 10
186.4349203753
 20
247.4884325025
 10
186.4264410096
 20
247.4852492875
 10
186.4180988842
 20
247.4816776514
 10
186.4098939993
 20
247.4777175944
  0
LINE
  5
32C
100
AcDbEntity
  8
0
100
AcDbLine
 62
7
  6
CONTINUOUS
 10
204.367020235
 20
252.1892925281
 11
204.367020235
 21
252.0871480331
  0
LINE
  5
32D
100
AcDbEntity
  8
0
100
AcDbLine
 62
7
  6
CONTINUOUS
 10
204.367020235
 20
247.3387984421
 11
204.367020235
 21
247.2370011285
  0
LINE
  5
32E
100
AcDbEntity
  8
DRAFT
100
AcDbLine
 62
7
  6
CONTINUOUS
 10
204.767020235
 20
246.6332301544
 11
204.767020235
 21
246.7129732376
  0
LINE
  5
32F
100
AcDbEntity
  8
0
100
AcDbLine
 62
7
  6
CONTINUOUS
 10
204.767020235
 20
246.6332301544
 11
204.767020235
 21
246.7129732376
  0
LINE
  5
330
100
AcDbEntity
  8
DRAFT
100
AcDbLine
 62
7
  6
CONTINUOUS
 10
204.767020235
 20
252.7129732376
 11
204.767020235
 21
252.7938976931
  0
LINE
  5
331
100
AcDbEntity
  8
0
100
AcDbLine
 62
7
  6
CONTINUOUS
 10
204.767020235
 20
252.7129732376
 11
204.767020235
 21
252.7938976931
  0
LINE
  5
332
100
AcDbEntity
  8
DRAFT
100
AcDbLine
 62
7
  6
CONTINUOUS
 10
204.7844739706
 20
246.6104948978
 11
204.7844739706
 21
246.7187968018
  0
LINE
  5
333
100
AcDbEntity
  8
DRAFT
100
AcDbLine
 62
7
  6
CONTINUOUS
 10
204.7844739706
 20
252.7071496734
 11
204.7844739706
 21
252.8172148367
  0
LINE
  5
334
100
AcDbEntity
  8
RACCORDO
100
AcDbLine
 62
7
  6
CONTINUOUS
 10
205.767020235
 20
245.6517653721
 11
205.767020235
 21
245.7129732376
  0
LINE
  5
335
100
AcDbEntity
  8
RACCORDO
100
AcDbLine
 62
7
  6
CONTINUOUS
 10
205.767020235
 20
253.7129732376
 11
205.767020235
 21
253.7735506646
  0
LINE
  5
336
100
AcDbEntity
  8
RACCORDO
100
AcDbLine
 62
250
  6
CONTINUOUS
 10
205.7794481705
 20
245.6422262837
 11
205.7794481705
 21
245.7191920396
  0
LINE
  5
337
100
AcDbEntity
  8
RACCORDO
100
AcDbLine
 62
250
  6
CONTINUOUS
 10
205.7794481705
 20
253.7067544356
 11
205.7794481705
 21
253.7828546457
  0
LINE
  5
338
100
AcDbEntity
  8
RACCORDO
100
AcDbLine
 62
250
  6
CONTINUOUS
 10
206.0294291321
 20
245.4698879096
 11
206.0294291321
 21
245.5483400779
  0
LINE
  5
339
100
AcDbEntity
  8
RACCORDO
100
AcDbLine
 62
250
  6
CONTINUOUS
 10
206.0294291321
 20
253.8776063973
 11
206.0294291321
 21
253.9563161123
  0
LINE
  5
33A
100
AcDbEntity
  8
RACCORDO
100
AcDbLine
 62
250
  6
CONTINUOUS
 10
206.1684485668
 20
254.0415529143
 11
206.1684485668
 21
253.9649161336
  0
LINE
  5
33B
100
AcDbEntity
  8
RACCORDO
100
AcDbLine
 62
250
  6
CONTINUOUS
 10
206.1684485668
 20
245.4610303416
 11
206.1684485668
 21
245.3847065207
  0
LINE
  5
33C
100
AcDbEntity
  8
RACCORDO
100
AcDbLine
 62
250
  6
CONTINUOUS
 10
206.4184485668
 20
254.1827248759
 11
206.4184485668
 21
254.107285288
  0
LINE
  5
33D
100
AcDbEntity
  8
RACCORDO
100
AcDbLine
 62
250
  6
CONTINUOUS
 10
206.4184485668
 20
245.3186611872
 11
206.4184485668
 21
245.2437698293
  0
LINE
  5
33E
100
AcDbEntity
  8
RACCORDO
100
AcDbLine
 62
250
  6
CONTINUOUS
 10
210.6882406709
 20
251.7498610687
 11
210.6908556998
 21
251.7618118705
  0
LWPOLYLINE
  5
33F
100
AcDbEntity
  8
RACCORDO
100
AcDbPolyline
 62
7
  6
CONTINUOUS
 90
28
 70
0
 10
232.845799799
 20
251.7498610687
 10
232.8288826973
 20
251.7346187313
 10
232.8113500312
 20
251.7202060217
 10
232.7932018008
 20
251.7066229399
 10
232.7743859163
 20
251.6938377495
 10
232.7549544675
 20
251.681882187
 10
232.7350637234
 20
251.6708514614
 10
232.7147428673
 20
251.6607658612
 10
232.693962716
 20
251.6516050979
 10
232.6727919879
 20
251.6434035153
 10
232.6512090837
 20
251.6361540583
 10
232.6292356028
 20
251.629863782
 10
232.6070050623
 20
251.624588196
 10
232.5844883692
 20
251.6203353179
 10
232.5617146165
 20
251.6170971301
 10
232.5389045993
 20
251.6149050891
 10
232.5160950108
 20
251.6137727618
 10
232.4932491579
 20
251.6136865814
 10
232.4704777562
 20
251.6146373036
 10
232.447783347
 20
251.6166247616
 10
232.4251633891
 20
251.6196491223
 10
232.402720975
 20
251.6237016413
 10
232.3804198318
 20
251.6287999928
 10
232.3582962325
 20
251.6349265026
 10
232.3365620887
 20
251.6420194043
 10
232.3152880374
 20
251.650058109
 10
232.2944034415
 20
251.6590632057
 10
232.2739083011
 20
251.6690346943
  0
LWPOLYLINE
  5
340
100
AcDbEntity
  8
RACCORDO
100
AcDbPolyline
 62
7
  6
CONTINUOUS
 90
3
 70
0
 10
237.327177805
 20
245.437957395
 10
237.3466256398
 20
245.4495572371
 10
237.3655919032
 20
245.4610303416
  0
LWPOLYLINE
  5
341
100
AcDbEntity
  8
RACCORDO
100
AcDbPolyline
 62
7
  6
CONTINUOUS
 90
4
 70
0
 10
237.2452595696
 20
245.390290652
 10
237.2662612642
 20
245.4023285834
 10
237.2869603949
 20
245.4143430682
 10
237.327177805
 20
245.437957395
  0
LWPOLYLINE
  5
342
100
AcDbEntity
  8
RACCORDO
100
AcDbPolyline
 62
7
  6
CONTINUOUS
 90
3
 70
0
 10
237.1808776687
 20
245.354139469
 10
237.2025074893
 20
245.3661478343
 10
237.2452595696
 20
245.390290652
  0
LWPOLYLINE
  5
343
100
AcDbEntity
  8
RACCORDO
100
AcDbPolyline
 62
7
  6
CONTINUOUS
 90
3
 70
0
 10
237.1155919032
 20
245.3186611872
 10
237.1373846193
 20
245.3304125143
 10
237.1808776687
 20
245.354139469
  0
LINE
  5
344
100
AcDbEntity
  8
RACCORDO
100
AcDbLine
 62
7
  6
CONTINUOUS
 10
190.2036501835
 20
236.7129732376
 11
196.896640189
 21
236.7129732376
  0
LINE
  5
345
100
AcDbEntity
  8
RACCORDO
100
AcDbLine
 62
7
  6
CONTINUOUS
 10
200.637400281
 20
236.7129732376
 11
207.3303902865
 21
236.7129732376
  0
LINE
  5
346
100
AcDbEntity
  8
DRAFT
100
AcDbLine
 62
7
  6
CONTINUOUS
 10
217.0495651701
 20
237.7129732376
 11
216.9702445341
 21
237.7129732376
  0
LINE
  5
347
100
AcDbEntity
  8
DRAFT
100
AcDbLine
 62
7
  6
CONTINUOUS
 10
180.5637959359
 20
237.7129732376
 11
180.4844752999
 21
237.7129732376
  0
LINE
  5
348
100
AcDbEntity
  8
RACCORDO
100
AcDbLine
 62
250
  6
CONTINUOUS
 10
217.0618751054
 20
238.4182089595
 11
180.4721653646
 21
238.4182089595
  0
LINE
  5
349
100
AcDbEntity
  8
ASSI
100
AcDbLine
 62
7
  6
CONTINUOUS
 10
236.367124235
 20
238.5129732376
 11
231.166877235
 21
238.5129732376
  0
LINE
  5
34A
100
AcDbEntity
  8
0
100
AcDbLine
 62
7
  6
CONTINUOUS
 10
228.792020235
 20
238.5129732376
 11
226.742020235
 21
238.5129732376
  0
LINE
  5
34B
100
AcDbEntity
  8
ASSI
100
AcDbLine
 62
7
  6
CONTINUOUS
 10
175.3907626536
 20
238.5129732376
 11
173.9420566362
 21
238.5129732376
  0
LINE
  5
34C
100
AcDbEntity
  8
0
100
AcDbLine
 62
7
  6
CONTINUOUS
 10
173.942056235
 20
238.5129732376
 11
171.6037275117
 21
238.5129732376
  0
LINE
  5
34D
100
AcDbEntity
  8
ASSI
100
AcDbLine
 62
7
  6
CONTINUOUS
 10
171.6037275117
 20
238.5129732376
 11
169.538002235
 21
238.5129732376
  0
LINE
  5
34E
100
AcDbEntity
  8
0
100
AcDbLine
 62
7
  6
CONTINUOUS
 10
168.105567235
 20
238.5129732376
 11
165.705136642
 21
238.5129732376
  0
LINE
  5
34F
100
AcDbEntity
  8
0
100
AcDbLine
 62
7
  6
CONTINUOUS
 10
225.1994476189
 20
238.6629732376
 11
224.1613417069
 21
238.6629732376
  0
LINE
  5
350
100
AcDbEntity
  8
0
100
AcDbLine
 62
7
  6
CONTINUOUS
 10
223.7326502235
 20
238.6629732376
 11
222.6945442847
 21
238.6629732376
  0
LINE
  5
351
100
AcDbEntity
  8
0
100
AcDbLine
 62
7
  6
CONTINUOUS
 10
222.271924077
 20
238.6629732376
 11
221.2338174472
 21
238.6629732376
  0
LINE
  5
352
100
AcDbEntity
  8
0
100
AcDbLine
 62
7
  6
CONTINUOUS
 10
220.7687013782
 20
238.6629732376
 11
219.767020235
 21
238.6629732376
  0
LINE
  5
353
100
AcDbEntity
  8
0
100
AcDbLine
 62
7
  6
CONTINUOUS
 10
174.8670202332
 20
238.6629732376
 11
169.7847601837
 21
238.6629732376
  0
LINE
  5
354
100
AcDbEntity
  8
0
100
AcDbLine
 62
7
  6
CONTINUOUS
 10
169.538002235
 20
238.6629732376
 11
169.2170083901
 21
238.6629732376
  0
LINE
  5
355
100
AcDbEntity
  8
0
100
AcDbLine
 62
7
  6
CONTINUOUS
 10
168.773809235
 20
238.6629732376
 11
167.767020235
 21
238.6629732376
  0
LINE
  5
356
100
AcDbEntity
  8
RACCORDO
100
AcDbLine
 62
7
  6
CONTINUOUS
 10
159.8552095279
 20
238.7129732376
 11
237.6788309421
 21
238.7129732376
  0
LWPOLYLINE
  5
357
100
AcDbEntity
  8
RACCORDO
100
AcDbPolyline
 62
250
  6
CONTINUOUS
 90
28
 70
0
 10
186.8431847701
 20
247.6641346047
 10
186.8262809979
 20
247.6792986572
 10
186.8087056565
 20
247.6936799073
 10
186.7904949513
 20
247.7072486279
 10
186.7716863885
 20
247.7199767748
 10
186.7523187407
 20
247.7318380121
 10
186.7324319719
 20
247.7428077739
 10
186.7120668806
 20
247.7528634563
 10
186.691265646
 20
247.7619841358
 10
186.6700718308
 20
247.770150684
 10
186.6485294972
 20
247.7773461732
 10
186.6266827933
 20
247.7835559077
 10
186.6045765141
 20
247.7887671586
 10
186.5822560945
 20
247.7929691863
 10
186.5597677601
 20
247.7961532602
 10
186.5371581483
 20
247.7983127774
 10
186.5144740966
 20
247.7994432925
 10
186.4917622303
 20
247.7995425109
 10
186.4690691016
 20
247.7986102247
 10
186.4464411817
 20
247.796648292
 10
186.423925522
 20
247.7936607417
 10
186.4015693323
 20
247.7896538649
 10
186.3794190774
 20
247.784636092
 10
186.357520087
 20
247.7786177956
 10
186.3359172216
 20
247.7716113636
 10
186.3146549411
 20
247.7636312439
 10
186.2937772008
 20
247.7546939606
 10
186.2733270584
 20
247.7448179818
  0
LINE
  5
358
100
AcDbEntity
  8
RACCORDO
100
AcDbLine
 62
250
  6
CONTINUOUS
 10
186.637837084
 20
251.9805022316
 11
186.8431847701
 21
251.7618118705
  0
LINE
  5
359
100
AcDbEntity
  8
0
100
AcDbLine
 62
7
  6
CONTINUOUS
 10
207.267834235
 20
260.7129732376
 11
207.267834235
 21
260.8629732376
  0
LINE
  5
35A
100
AcDbEntity
  8
RACCORDO
100
AcDbLine
 62
250
  6
CONTINUOUS
 10
208.767020235
 20
244.7304269732
 11
208.767020235
 21
244.9505063848
  0
LINE
  5
35B
100
AcDbEntity
  8
RACCORDO
100
AcDbLine
 62
250
  6
CONTINUOUS
 10
208.767020235
 20
254.4754400904
 11
208.767020235
 21
254.695519502
  0
LINE
  5
35C
100
AcDbEntity
  8
RACCORDO
100
AcDbLine
 62
250
  6
CONTINUOUS
 10
206.5569706074
 20
222.1998834344
 11
206.5565266784
 21
222.0907984818
  0
LWPOLYLINE
  5
35D
100
AcDbEntity
  8
RACCORDO
100
AcDbPolyline
 62
250
  6
CONTINUOUS
 90
24
 70
0
 10
206.5565266784
 20
222.0907984818
 10
206.5556445747
 20
221.995113509
 10
206.5542688685
 20
221.9001383407
 10
206.5523928917
 20
221.8062635039
 10
206.5500233124
 20
221.7138974299
 10
206.5471801346
 20
221.6234628863
 10
206.5438527423
 20
221.5352987676
 10
206.5400517515
 20
221.4498435497
 10
206.5358290146
 20
221.3676390843
 10
206.5311838594
 20
221.2891068229
 10
206.5261169579
 20
221.214486843
 10
206.5206821793
 20
221.1440188947
 10
206.5148710878
 20
221.0779820774
 10
206.5086921191
 20
221.0166929523
 10
206.5022244491
 20
220.9604301321
 10
206.4954641186
 20
220.909416395
 10
206.4884150868
 20
220.8639012797
 10
206.4811684078
 20
220.8241420025
 10
206.4737155272
 20
220.7902853567
 10
206.4660649994
 20
220.7624572259
 10
206.458333542
 20
220.7407872016
 10
206.450560061
 20
220.7253206545
 10
206.4427056504
 20
220.7160543534
 10
206.4347703102
 20
220.7129732376
  0
LINE
  5
35E
100
AcDbEntity
  8
RACCORDO
100
AcDbLine
 62
250
  6
CONTINUOUS
 10
206.8614447311
 20
236.7129732376
 11
206.7944458346
 21
233.4965739149
  0
LINE
  5
35F
100
AcDbEntity
  8
RACCORDO
100
AcDbLine
 62
250
  6
CONTINUOUS
 10
206.7944458346
 20
233.4965739149
 11
206.6593248717
 21
227.048806315
  0
LINE
  5
360
100
AcDbEntity
  8
RACCORDO
100
AcDbLine
 62
250
  6
CONTINUOUS
 10
206.6593248717
 20
227.048806315
 11
206.5569706074
 21
222.1998834344
  0
LINE
  5
361
100
AcDbEntity
  8
RACCORDO
100
AcDbLine
 62
250
  6
CONTINUOUS
 10
207.3303945039
 20
236.7129732376
 11
207.1911813186
 21
230.2714833825
  0
LINE
  5
362
100
AcDbEntity
  8
RACCORDO
100
AcDbLine
 62
250
  6
CONTINUOUS
 10
207.1911813186
 20
230.2714833825
 11
207.0856588801
 21
225.42600023
  0
LINE
  5
363
100
AcDbEntity
  8
RACCORDO
100
AcDbLine
 62
250
  6
CONTINUOUS
 10
207.0856588801
 20
225.42600023
 11
207.0129468528
 21
222.090798484
  0
LWPOLYLINE
  5
364
100
AcDbEntity
  8
RACCORDO
100
AcDbPolyline
 62
250
  6
CONTINUOUS
 90
24
 70
0
 10
207.0129468528
 20
222.090798484
 10
207.0087750623
 20
221.995113504
 10
207.0022464178
 20
221.9001383192
 10
206.9933779849
 20
221.8062634474
 10
206.9821890622
 20
221.713897331
 10
206.9687040252
 20
221.6234627667
 10
206.952969622
 20
221.5352986675
 10
206.9350443676
 20
221.4498434866
 10
206.9150054477
 20
221.3676390443
 10
206.8929778887
 20
221.2891067759
 10
206.8690440257
 20
221.2144867797
 10
206.8432408547
 20
221.1440188302
 10
206.8156804022
 20
221.0779820409
 10
206.786493223
 20
221.0166929514
 10
206.7557531292
 20
220.9604301474
 10
206.7235912941
 20
220.9094163963
 10
206.6901726825
 20
220.8639012589
 10
206.6556425444
 20
220.8241419734
 10
206.6201782564
 20
220.7902853379
 10
206.5839497572
 20
220.7624572205
 10
206.5471111188
 20
220.7407872029
 10
206.5098404536
 20
220.7253206564
 10
206.4723320539
 20
220.7160543542
 10
206.4347703102
 20
220.7129732376
  0
LINE
  5
365
100
AcDbEntity
  8
RACCORDO
100
AcDbLine
 62
7
  6
CONTINUOUS
 10
237.6700065014
 20
245.6602331733
 11
237.7389791476
 21
245.7088606428
  0
LWPOLYLINE
  5
366
100
AcDbEntity
  8
RACCORDO
100
AcDbPolyline
 62
7
  6
CONTINUOUS
 90
7
 70
0
 10
237.7389791476
 20
245.7088606428
 10
237.7437046738
 20
245.7121481222
 10
237.747560744
 20
245.7147932422
 10
237.7505523068
 20
245.7168179947
 10
237.7527018984
 20
245.7182297105
 10
237.7540395552
 20
245.7190210587
 10
237.7545922994
 20
245.7191920396
  0
LINE
  5
367
100
AcDbEntity
  8
RACCORDO
100
AcDbLine
 62
7
  6
CONTINUOUS
 10
237.6441615025
 20
245.6422206849
 11
237.6700065014
 21
245.6602331733
  0
LINE
  5
368
100
AcDbEntity
  8
RACCORDO
100
AcDbLine
 62
7
  6
CONTINUOUS
 10
237.6146277232
 20
245.6218620063
 11
237.6441615025
 21
245.6422206849
  0
LWPOLYLINE
  5
369
100
AcDbEntity
  8
RACCORDO
100
AcDbPolyline
 62
7
  6
CONTINUOUS
 90
3
 70
0
 10
237.5634949435
 20
245.5872286274
 10
237.5814285753
 20
245.5992720733
 10
237.6146277232
 20
245.6218620063
  0
LWPOLYLINE
  5
36A
100
AcDbEntity
  8
RACCORDO
100
AcDbPolyline
 62
7
  6
CONTINUOUS
 90
3
 70
0
 10
237.5046113379
 20
245.5483400779
 10
237.5250652593
 20
245.5617757244
 10
237.5634949435
 20
245.5872286274
  0
LWPOLYLINE
  5
36B
100
AcDbEntity
  8
RACCORDO
100
AcDbPolyline
 62
250
  6
CONTINUOUS
 90
7
 70
0
 10
200.7799049242
 20
222.1894123892
 10
200.7784531505
 20
222.1889339923
 10
200.7741217866
 20
222.188485463
 10
200.7669526113
 20
222.1880711278
 10
200.7570147762
 20
222.1876949832
 10
200.7444041385
 20
222.1873606575
 10
200.7292423364
 20
222.1870713754
  0
LWPOLYLINE
  5
36C
100
AcDbEntity
  8
RACCORDO
100
AcDbPolyline
 62
250
  6
CONTINUOUS
 90
34
 70
0
 10
237.6788309421
 20
240.6780684247
 10
237.867512609
 20
240.6825554466
 10
238.0550086627
 20
240.6958039862
 10
238.2413191032
 20
240.7178140434
 10
238.4268688243
 20
240.7486725726
 10
238.6112329323
 20
240.7882926194
 10
238.7931367459
 20
240.8364133211
 10
238.972548519
 20
240.8930921755
 10
239.1494999977
 20
240.9582716847
 10
239.3228117395
 20
241.0315184924
 10
239.492455339
 20
241.1128846246
 10
239.6584592015
 20
241.2023180553
 10
239.8197291003
 20
241.2992293496
 10
239.9762359945
 20
241.4036690641
 10
240.1280089249
 20
241.5155866422
 10
240.2740407875
 20
241.6342409783
 10
240.4142934738
 20
241.7596772467
 10
240.5488050924
 20
241.8918502731
 10
240.6766828652
 20
242.0298834292
 10
240.7978824732
 20
242.1738159067
 10
240.9124482355
 20
242.3236085138
 10
241.0196203312
 20
242.4782670467
 10
241.1193485412
 20
242.6378214307
 10
241.2116830846
 20
242.8022417406
 10
241.296014798
 20
242.9704439968
 10
241.3722921867
 20
243.1424575446
 10
241.4405667454
 20
243.3182530388
 10
241.5003837946
 20
243.4966584633
 10
241.5516861191
 20
243.6777015431
 10
241.5945309342
 20
243.8613545531
 10
241.6286352056
 20
244.0463623028
 10
241.6539045884
 20
244.2323063953
 10
241.6704334274
 20
244.4196052273
 10
241.6782217227
 20
244.608258799
  0
LWPOLYLINE
  5
36D
100
AcDbEntity
  8
0
100
AcDbPolyline
 62
7
  6
CONTINUOUS
 90
2
 70
0
 43
0.3500000087
 10
135.017023053
 20
239.3558380493
 10
133.5170215881
 20
239.3558380493
  0
LINE
  5
36E
100
AcDbEntity
  8
RACCORDO
100
AcDbLine
 62
250
  6
CONTINUOUS
 10
159.8552095279
 20
240.6780684247
 11
237.6788309421
 21
240.6780684247
  0
LWPOLYLINE
  5
36F
100
AcDbEntity
  8
0
100
AcDbPolyline
 62
7
  6
CONTINUOUS
 90
13
 70
0
 43
0.3500000087
 10
134.1598769226
 20
240.7129676147
 10
132.8741662537
 20
240.7129676147
 10
132.4455931885
 20
240.9272584106
 10
132.0170201233
 20
241.3558229492
 10
132.0170201233
 20
241.5701137451
 10
132.4455931885
 20
241.9986953369
 10
132.8741662537
 20
242.2129690796
 10
134.1598769226
 20
242.2129690796
 10
134.5884499878
 20
241.9986953369
 10
135.017023053
 20
241.5701137451
 10
135.017023053
 20
241.3558229492
 10
134.5884499878
 20
240.9272584106
 10
134.1598769226
 20
240.7129676147
  0
LINE
  5
370
100
AcDbEntity
  8
DRAFT
100
AcDbLine
 62
7
  6
CONTINUOUS
 10
158.767020235
 20
252.7129732376
 11
158.7844739706
 21
252.7071496734
  0
LINE
  5
371
100
AcDbEntity
  8
RACCORDO
100
AcDbLine
 62
7
  6
CONTINUOUS
 10
191.767020235
 20
245.7129732376
 11
191.7545922994
 21
245.7191920396
  0
LINE
  5
372
100
AcDbEntity
  8
RACCORDO
100
AcDbLine
 62
250
  6
CONTINUOUS
 10
211.2601321689
 20
247.7569117809
 11
211.2607217152
 21
247.7448137362
  0
LINE
  5
373
100
AcDbEntity
  8
0
100
AcDbLine
 62
7
  6
CONTINUOUS
 10
211.398634235
 20
260.7129732376
 11
211.398634235
 21
260.8629732376
  0
LINE
  5
374
100
AcDbEntity
  8
0
100
AcDbLine
 62
7
  6
CONTINUOUS
 10
211.4758308152
 20
260.8629732376
 11
211.4758308152
 21
260.7129732376
  0
LINE
  5
375
100
AcDbEntity
  8
RACCORDO
100
AcDbLine
 62
250
  6
CONTINUOUS
 10
211.2601321689
 20
251.6690346943
 11
211.2607134115
 21
251.6811284934
  0
LINE
  5
376
100
AcDbEntity
  8
0
100
AcDbLine
 62
250
  6
CONTINUOUS
 10
213.3688588147
 20
251.6140573071
 11
213.3676698796
 21
251.6055975944
  0
LINE
  5
377
100
AcDbEntity
  8
RACCORDO
100
AcDbLine
 62
250
  6
CONTINUOUS
 10
232.637837084
 20
247.4454442436
 11
232.8431847701
 21
247.6641346047
  0
LINE
  5
378
100
AcDbEntity
  8
RACCORDO
100
AcDbLine
 62
250
  6
CONTINUOUS
 10
155.8558187473
 20
244.608258799
 11
155.5948566637
 21
244.6040035737
  0
LWPOLYLINE
  5
379
100
AcDbEntity
  8
RACCORDO
100
AcDbPolyline
 62
250
  6
CONTINUOUS
 90
9
 70
0
 10
243.4098057484
 20
244.5954893622
 10
243.4715032337
 20
244.5964265431
 10
243.5255245889
 20
244.5975637818
 10
243.571638576
 20
244.5988962102
 10
243.6096478043
 20
244.600418125
 10
243.6393895757
 20
244.6021230116
 10
243.6607365806
 20
244.6040035722
 10
243.6735974433
 20
244.606051757
 10
243.677917113
 20
244.608258799
  0
LINE
  5
37A
100
AcDbEntity
  8
RACCORDO
100
AcDbLine
 62
250
  6
CONTINUOUS
 10
155.5948566637
 20
244.6040035737
 11
155.3383579282
 21
244.6004181265
  0
LINE
  5
37B
100
AcDbEntity
  8
RACCORDO
100
AcDbLine
 62
250
  6
CONTINUOUS
 10
155.3383579282
 20
244.6004181265
 11
155.0907096041
 21
244.5975637821
  0
LINE
  5
37C
100
AcDbEntity
  8
RACCORDO
100
AcDbLine
 62
250
  6
CONTINUOUS
 10
155.0907096041
 20
244.5975637821
 11
154.8561473851
 21
244.5954893604
  0
LINE
  5
37D
100
AcDbEntity
  8
RACCORDO
100
AcDbLine
 62
250
  6
CONTINUOUS
 10
243.2644704977
 20
244.5942303463
 11
243.4098057484
 21
244.5954893622
  0
LINE
  5
37E
100
AcDbEntity
  8
RACCORDO
100
AcDbLine
 62
250
  6
CONTINUOUS
 10
154.8561473851
 20
244.5954893604
 11
154.6386831499
 21
244.5942303421
  0
LINE
  5
37F
100
AcDbEntity
  8
RACCORDO
100
AcDbLine
 62
250
  6
CONTINUOUS
 10
243.0920046003
 20
244.593808268
 11
243.2644704977
 21
244.5942303463
  0
LINE
  5
380
100
AcDbEntity
  8
RACCORDO
100
AcDbLine
 62
250
  6
CONTINUOUS
 10
154.6386831499
 20
244.5942303421
 11
154.4420363415
 21
244.5938082614
  0
LINE
  5
381
100
AcDbEntity
  8
ASSI
100
AcDbLine
 62
7
  6
CONTINUOUS
 10
162.767020235
 20
244.6629732376
 11
188.767020235
 21
244.6629732376
  0
LINE
  5
382
100
AcDbEntity
  8
ASSI
100
AcDbLine
 62
7
  6
CONTINUOUS
 10
208.767020235
 20
244.6629732376
 11
234.767020235
 21
244.6629732376
  0
LINE
  5
383
100
AcDbEntity
  8
DRAFT
100
AcDbLine
 62
7
  6
CONTINUOUS
 10
162.767020235
 20
244.7304269732
 11
188.767020235
 21
244.7304269732
  0
LINE
  5
384
100
AcDbEntity
  8
DRAFT
100
AcDbLine
 62
7
  6
CONTINUOUS
 10
208.767020235
 20
244.7304269732
 11
234.767020235
 21
244.7304269732
  0
LINE
  5
385
100
AcDbEntity
  8
RACCORDO
100
AcDbLine
 62
250
  6
CONTINUOUS
 10
162.767020235
 20
244.7505140002
 11
188.767020235
 21
244.7505140002
  0
LINE
  5
386
100
AcDbEntity
  8
RACCORDO
100
AcDbLine
 62
250
  6
CONTINUOUS
 10
208.767020235
 20
244.7505140002
 11
234.767020235
 21
244.7505140002
  0
LINE
  5
387
100
AcDbEntity
  8
RACCORDO
100
AcDbLine
 62
250
  6
CONTINUOUS
 10
162.767020235
 20
244.9505063848
 11
188.767020235
 21
244.9505063848
  0
LINE
  5
388
100
AcDbEntity
  8
RACCORDO
100
AcDbLine
 62
250
  6
CONTINUOUS
 10
208.767020235
 20
244.9505063848
 11
234.767020235
 21
244.9505063848
  0
LINE
  5
389
100
AcDbEntity
  8
DRAFT
100
AcDbLine
 62
7
  6
CONTINUOUS
 10
237.9737712294
 20
245.8129732376
 11
237.8959178044
 21
245.8129732376
  0
LINE
  5
38A
100
AcDbEntity
  8
DRAFT
100
AcDbLine
 62
7
  6
CONTINUOUS
 10
205.6381226656
 20
245.8129732376
 11
205.560269241
 21
245.8129732376
  0
LINE
  5
38B
100
AcDbEntity
  8
DRAFT
100
AcDbLine
 62
7
  6
CONTINUOUS
 10
191.9737712294
 20
245.8129732376
 11
191.8959178044
 21
245.8129732376
  0
LINE
  5
38C
100
AcDbEntity
  8
DRAFT
100
AcDbLine
 62
7
  6
CONTINUOUS
 10
159.6381226656
 20
245.8129732376
 11
159.560269241
 21
245.8129732376
  0
LINE
  5
38D
100
AcDbEntity
  8
DRAFT
100
AcDbLine
 62
7
  6
CONTINUOUS
 10
237.9942090159
 20
245.8304269732
 11
237.889775714
 21
245.8304269732
  0
LINE
  5
38E
100
AcDbEntity
  8
DRAFT
100
AcDbLine
 62
7
  6
CONTINUOUS
 10
205.644264756
 20
245.8304269732
 11
205.5398314545
 21
245.8304269732
  0
LINE
  5
38F
100
AcDbEntity
  8
DRAFT
100
AcDbLine
 62
7
  6
CONTINUOUS
 10
191.9942090159
 20
245.8304269732
 11
191.889775714
 21
245.8304269732
  0
LINE
  5
390
100
AcDbEntity
  8
DRAFT
100
AcDbLine
 62
7
  6
CONTINUOUS
 10
159.644264756
 20
245.8304269732
 11
159.5398314545
 21
245.8304269732
  0
LINE
  5
391
100
AcDbEntity
  8
RACCORDO
100
AcDbLine
 62
250
  6
CONTINUOUS
 10
242.8953578528
 20
244.5942303463
 11
243.0920046003
 21
244.593808268
  0
LINE
  5
392
100
AcDbEntity
  8
RACCORDO
100
AcDbLine
 62
250
  6
CONTINUOUS
 10
154.4420363415
 20
244.5938082614
 11
154.269570352
 21
244.594230338
  0
LINE
  5
393
100
AcDbEntity
  8
RACCORDO
100
AcDbLine
 62
250
  6
CONTINUOUS
 10
242.6778936328
 20
244.5954893622
 11
242.8953578528
 21
244.5942303463
  0
LINE
  5
394
100
AcDbEntity
  8
RACCORDO
100
AcDbLine
 62
250
  6
CONTINUOUS
 10
242.4433313724
 20
244.5975637818
 11
242.6778936328
 21
244.5954893622
  0
LWPOLYLINE
  5
395
100
AcDbEntity
  8
RACCORDO
100
AcDbPolyline
 62
250
  6
CONTINUOUS
 90
10
 70
0
 10
154.269570352
 20
244.594230338
 10
154.1242349949
 20
244.5954893529
 10
154.0625374557
 20
244.5964265339
 10
154.0085160493
 20
244.5975637729
 10
153.9624020152
 20
244.598896202
 10
153.9243927455
 20
244.6004181178
 10
153.8946509404
 20
244.6021230057
 10
153.8733039105
 20
244.6040035679
 10
153.8604430321
 20
244.6060517548
 10
153.856123357
 20
244.6082587991
  0
LINE
  5
396
100
AcDbEntity
  8
RACCORDO
100
AcDbLine
 62
250
  6
CONTINUOUS
 10
242.068268286
 20
244.6021230116
 11
242.4433313724
 21
244.5975637818
  0
LINE
  5
397
100
AcDbEntity
  8
RACCORDO
100
AcDbLine
 62
250
  6
CONTINUOUS
 10
241.6782217227
 20
244.608258799
 11
242.068268286
 21
244.6021230116
  0
LINE
  5
398
100
AcDbEntity
  8
DRAFT
100
AcDbLine
 62
7
  6
CONTINUOUS
 10
184.1412426995
 20
247.8231138261
 11
184.1663705904
 21
247.8203488808
  0
LINE
  5
399
100
AcDbEntity
  8
ASSI
100
AcDbLine
 62
7
  6
CONTINUOUS
 10
191.849643679
 20
245.7151831724
 11
191.7814487897
 21
245.7238561371
  0
LINE
  5
39A
100
AcDbEntity
  8
0
100
AcDbLine
 62
7
  6
CONTINUOUS
 10
189.6181521761
 20
247.0455241395
 11
187.2136556993
 21
247.3834540814
  0
LINE
  5
39B
100
AcDbEntity
  8
0
100
AcDbLine
 62
7
  6
CONTINUOUS
 10
185.8084187878
 20
247.5809472499
 11
184.1651816553
 21
247.8118891681
  0
LINE
  5
39C
100
AcDbEntity
  8
DRAFT
100
AcDbLine
 62
7
  6
CONTINUOUS
 10
189.6362687542
 20
247.0515574093
 11
187.1977942464
 21
247.3942832493
  0
LINE
  5
39D
100
AcDbEntity
  8
DRAFT
100
AcDbLine
 62
7
  6
CONTINUOUS
 10
185.8306501452
 20
247.5864343704
 11
184.1663705904
 21
247.8203488808
  0
LINE
  5
39E
100
AcDbEntity
  8
ASSI
100
AcDbLine
 62
7
  6
CONTINUOUS
 10
188.8950036916
 20
246.9160022463
 11
187.8544091753
 21
247.0661991274
  0
LINE
  5
39F
100
AcDbEntity
  8
DRAFT
100
AcDbLine
 62
7
  6
CONTINUOUS
 10
192.767020235
 20
246.7129732376
 11
192.7495664994
 21
246.7187968018
  0
LWPOLYLINE
  5
3A0
100
AcDbEntity
  8
RACCORDO
100
AcDbPolyline
 62
250
  6
CONTINUOUS
 90
28
 70
0
 10
186.4098939993
 20
251.9482288808
 10
186.4180984205
 20
251.9442689606
 10
186.4264403663
 20
251.9406973812
 10
186.4349198369
 20
251.9375141426
 10
186.4435552618
 20
251.9347140526
 10
186.4523282114
 20
251.9323023033
 10
186.4611833967
 20
251.9302944714
 10
186.4701210019
 20
251.9286932401
 10
186.4791408428
 20
251.9274959262
 10
186.4881870784
 20
251.9267100566
 10
186.4972598943
 20
251.9263382245
 10
186.5063591048
 20
251.9263778367
 10
186.5154283118
 20
251.9268286407
 10
186.5244672804
 20
251.9276932087
 10
186.5334762455
 20
251.9289689685
 10
186.5423995136
 20
251.9306479502
 10
186.5512364751
 20
251.9327326226
 10
186.5599877397
 20
251.935220517
 10
186.5685994424
 20
251.9380962578
 10
186.5770707804
 20
251.9413622866
 10
186.5854025565
 20
251.9450161617
 10
186.5935433144
 20
251.9490351828
 10
186.6014920679
 20
251.9534217732
 10
186.6092498033
 20
251.9581735095
 10
186.6167680223
 20
251.9632604207
 10
186.6240305591
 20
251.9686725162
 10
186.6310535797
 20
251.9744197865
 10
186.637837084
 20
251.9805022316
  0
LWPOLYLINE
  5
3A1
100
AcDbEntity
  8
RACCORDO
100
AcDbPolyline
 62
250
  6
CONTINUOUS
 90
28
 70
0
 10
186.2733187548
 20
251.6811327387
 10
186.2937711493
 20
251.6712552694
 10
186.3146506566
 20
251.6623169513
 10
186.3359141729
 20
251.6543361774
 10
186.3575175215
 20
251.6473294477
 10
186.3794163892
 20
251.6413110567
 10
186.4015664549
 20
251.6362931937
 10
186.4239225447
 20
251.6322861975
 10
186.4464380386
 20
251.6292985277
 10
186.4690658243
 20
251.6273364597
 10
186.4917588949
 20
251.6264040254
 10
186.5144707364
 20
251.6265030916
 10
186.5371547636
 20
251.6276334519
 10
186.5597643386
 20
251.6297928096
 10
186.5822526372
 20
251.6329767191
 10
186.6045730278
 20
251.637178578
 10
186.6266792812
 20
251.642389655
 10
186.6485259671
 20
251.6485992114
 10
186.6700683076
 20
251.6557945248
 10
186.6912621797
 20
251.6639609126
 10
186.712063494
 20
251.6730814414
 10
186.7324286297
 20
251.6831369555
 10
186.7523152285
 20
251.6941064204
 10
186.7716826872
 20
251.7059673165
 10
186.7904915088
 20
251.7186954019
 10
186.8087030285
 20
251.7322645154
 10
186.8262795346
 20
251.7466465642
 10
186.8431847701
 20
251.7618118705
  0
LWPOLYLINE
  5
3A2
100
AcDbEntity
  8
RACCORDO
100
AcDbPolyline
 62
7
  6
CONTINUOUS
 90
4
 70
0
 10
191.5814285753
 20
253.8266744019
 10
191.5634949435
 20
253.8387178478
 10
191.5447014294
 20
253.8512079009
 10
191.5046113379
 20
253.8776063973
  0
LINE
  5
3A3
100
AcDbEntity
  8
RACCORDO
100
AcDbLine
 62
7
  6
CONTINUOUS
 10
191.6146277232
 20
253.8040844689
 11
191.5814285753
 21
253.8266744019
  0
LINE
  5
3A4
100
AcDbEntity
  8
RACCORDO
100
AcDbLine
 62
7
  6
CONTINUOUS
 10
191.6441615025
 20
253.7837257903
 11
191.6146277232
 21
253.8040844689
  0
LINE
  5
3A5
100
AcDbEntity
  8
RACCORDO
100
AcDbLine
 62
7
  6
CONTINUOUS
 10
191.6700065014
 20
253.7657133019
 11
191.6441615025
 21
253.7837257903
  0
LINE
  5
3A6
100
AcDbEntity
  8
RACCORDO
100
AcDbLine
 62
7
  6
CONTINUOUS
 10
191.7389791476
 20
253.7170858324
 11
191.7268656541
 21
253.7256233265
  0
LINE
  5
3A7
100
AcDbEntity
  8
RACCORDO
100
AcDbLine
 62
7
  6
CONTINUOUS
 10
191.7268656541
 20
253.7256233265
 11
191.6700065014
 21
253.7657133019
  0
LINE
  5
3A8
100
AcDbEntity
  8
DRAFT
100
AcDbLine
 62
7
  6
CONTINUOUS
 10
205.6381226656
 20
253.6129732376
 11
205.644264756
 21
253.595519502
  0
LWPOLYLINE
  5
3A9
100
AcDbEntity
  8
DRAFT
100
AcDbPolyline
 62
250
  6
CONTINUOUS
 90
8
 70
0
 10
213.3531380584
 20
251.60764124
 10
213.3964365524
 20
251.2023724891
 10
213.4396810078
 20
250.7930016062
 10
213.4828508007
 20
250.37954325
 10
213.5259794454
 20
249.9620189603
 10
213.5689930362
 20
249.5404258478
 10
213.6117104303
 20
249.1147325725
 10
213.6540590357
 20
248.6849246437
  0
LINE
  5
3AA
100
AcDbEntity
  8
DRAFT
100
AcDbLine
 62
250
  6
CONTINUOUS
 10
213.6540590357
 20
248.6849246437
 11
213.7145628106
 21
248.0566384212
  0
LINE
  5
3AB
100
AcDbEntity
  8
RACCORDO
100
AcDbLine
 62
7
  6
CONTINUOUS
 10
217.0495651701
 20
237.7129732376
 11
217.0618751054
 21
238.4182089595
  0
LINE
  5
3AC
100
AcDbEntity
  8
RACCORDO
100
AcDbLine
 62
7
  6
CONTINUOUS
 10
216.9702445341
 20
237.7129732376
 11
216.6798807291
 21
222.1867946279
  0
LWPOLYLINE
  5
3AD
100
AcDbEntity
  8
RACCORDO
100
AcDbPolyline
 62
7
  6
CONTINUOUS
 90
25
 70
0
 10
216.6798807291
 20
222.1867946279
 10
216.674993722
 20
222.0903736274
 10
216.6639169083
 20
221.9949138975
 10
216.6466502882
 20
221.9004154382
 10
216.6230219843
 20
221.806306862
 10
216.5932038739
 20
221.7131595564
 10
216.5577115892
 20
221.6226876843
 10
216.5166244274
 20
221.5352735172
 10
216.4698630913
 20
221.4505347837
 10
216.417705321
 20
221.3690388318
 10
216.3599443826
 20
221.2905603334
 10
216.29678701
 20
221.2153246166
 10
216.2291311456
 20
221.1445750143
 10
216.1568555987
 20
221.0784189133
 10
216.0800815599
 20
221.0167489266
 10
216.0000705432
 20
220.9604862261
 10
215.9170525578
 20
220.9098377121
 10
215.8307975946
 20
220.8645964842
 10
215.7418771398
 20
220.8250630127
 10
215.6499046216
 20
220.7911653349
 10
215.5552666119
 20
220.7629754135
 10
215.4596943132
 20
220.7410096072
 10
215.363764793
 20
220.7254400356
 10
215.2669009837
 20
220.716094579
 10
215.1691028855
 20
220.7129732376
  0
LINE
  5
3AE
100
AcDbEntity
  8
RACCORDO
100
AcDbLine
 62
250
  6
CONTINUOUS
 10
157.8676444225
 20
248.7174911968
 11
157.8294792351
 21
248.7173365469
  0
LINE
  5
3AF
100
AcDbEntity
  8
RACCORDO
100
AcDbLine
 62
7
  6
CONTINUOUS
 10
234.017020235
 20
247.2323520912
 11
234.2888022253
 21
247.2323520912
  0
LINE
  5
3B0
100
AcDbEntity
  8
DRAFT
100
AcDbLine
 62
7
  6
CONTINUOUS
 10
213.3759557319
 20
247.8129732376
 11
206.7107137318
 21
247.8129732376
  0
LINE
  5
3B1
100
AcDbEntity
  8
DRAFT
100
AcDbLine
 62
7
  6
CONTINUOUS
 10
167.3759557319
 20
247.8129732376
 11
160.7107137318
 21
247.8129732376
  0
LINE
  5
3B2
100
AcDbEntity
  8
RACCORDO
100
AcDbLine
 62
7
  6
CONTINUOUS
 10
243.767020235
 20
249.7129732376
 11
239.817020235
 21
249.7129732376
  0
LINE
  5
3B3
100
AcDbEntity
  8
ASSI
100
AcDbLine
 62
7
  6
CONTINUOUS
 10
203.717020235
 20
249.7129732376
 11
193.817020235
 21
249.7129732376
  0
LINE
  5
3B4
100
AcDbEntity
  8
RACCORDO
100
AcDbLine
 62
7
  6
CONTINUOUS
 10
157.717020235
 20
249.7129732376
 11
153.767020235
 21
249.7129732376
  0
LINE
  5
3B5
100
AcDbEntity
  8
DRAFT
100
AcDbLine
 62
7
  6
CONTINUOUS
 10
193.817020235
 20
249.7129732376
 11
203.717020235
 21
249.7129732376
  0
LINE
  5
3B6
100
AcDbEntity
  8
RACCORDO
100
AcDbLine
 62
250
  6
CONTINUOUS
 10
239.6663960475
 20
248.7174911969
 11
239.7045612349
 21
248.7173365469
  0
LINE
  5
3B7
100
AcDbEntity
  8
DRAFT
100
AcDbLine
 62
7
  6
CONTINUOUS
 10
167.3927977704
 20
251.6028326492
 11
167.3676698796
 21
251.6055975944
  0
LINE
  5
3B8
100
AcDbEntity
  8
ASSI
100
AcDbLine
 62
7
  6
CONTINUOUS
 10
159.6834142097
 20
253.7109603106
 11
159.753020446
 21
253.7024137394
  0
LINE
  5
3B9
100
AcDbEntity
  8
DRAFT
100
AcDbLine
 62
7
  6
CONTINUOUS
 10
161.8977717158
 20
252.3743890659
 11
164.3362462235
 21
252.0316632259
  0
LINE
  5
3BA
100
AcDbEntity
  8
0
100
AcDbLine
 62
7
  6
CONTINUOUS
 10
161.9158882939
 20
252.3804223357
 11
164.3203847707
 21
252.0424923938
  0
LINE
  5
3BB
100
AcDbEntity
  8
0
100
AcDbLine
 62
7
  6
CONTINUOUS
 10
165.7256216821
 20
251.8449992253
 11
167.3688588147
 21
251.6140573071
  0
LINE
  5
3BC
100
AcDbEntity
  8
DRAFT
100
AcDbLine
 62
7
  6
CONTINUOUS
 10
165.7033903248
 20
251.8395121048
 11
167.3676698796
 21
251.6055975944
  0
LINE
  5
3BD
100
AcDbEntity
  8
ASSI
100
AcDbLine
 62
7
  6
CONTINUOUS
 10
162.6390367784
 20
252.5099442289
 11
163.6796312947
 21
252.3597473478
  0
LWPOLYLINE
  5
3BE
100
AcDbEntity
  8
RACCORDO
100
AcDbPolyline
 62
7
  6
CONTINUOUS
 90
7
 70
0
 10
205.7794481705
 20
245.7191920396
 10
205.7800009148
 20
245.7190210587
 10
205.7813385716
 20
245.7182297105
 10
205.7834881631
 20
245.7168179947
 10
205.7864797259
 20
245.7147932422
 10
205.7903357961
 20
245.7121481222
 10
205.7950613223
 20
245.7088606428
  0
LWPOLYLINE
  5
3BF
100
AcDbEntity
  8
RACCORDO
100
AcDbPolyline
 62
7
  6
CONTINUOUS
 90
4
 70
0
 10
206.3315329807
 20
245.3661478343
 10
206.3531628012
 20
245.354139469
 10
206.3748800318
 20
245.3422386083
 10
206.4184485668
 20
245.3186611872
  0
LWPOLYLINE
  5
3C0
100
AcDbEntity
  8
RACCORDO
100
AcDbPolyline
 62
7
  6
CONTINUOUS
 90
4
 70
0
 10
191.2025074893
 20
254.0597986409
 10
191.1808776687
 20
254.0718070062
 10
191.1591604382
 20
254.0837078669
 10
191.1155919032
 20
254.107285288
  0
LWPOLYLINE
  5
3C1
100
AcDbEntity
  8
RACCORDO
100
AcDbPolyline
 62
7
  6
CONTINUOUS
 90
3
 70
0
 10
206.2677792058
 20
245.4023285834
 10
206.2887809004
 20
245.390290652
 10
206.3315329807
 20
245.3661478343
  0
LWPOLYLINE
  5
3C2
100
AcDbEntity
  8
RACCORDO
100
AcDbPolyline
 62
7
  6
CONTINUOUS
 90
3
 70
0
 10
191.2662612642
 20
254.0236178918
 10
191.2452595696
 20
254.0356558232
 10
191.2025074893
 20
254.0597986409
  0
LWPOLYLINE
  5
3C3
100
AcDbEntity
  8
RACCORDO
100
AcDbPolyline
 62
7
  6
CONTINUOUS
 90
5
 70
0
 10
191.3655919032
 20
253.9649161336
 10
191.3466256398
 20
253.9763892381
 10
191.327177805
 20
253.9879890802
 10
191.30728188
 20
253.9997156597
 10
191.2662612642
 20
254.0236178918
  0
LWPOLYLINE
  5
3C4
100
AcDbEntity
  8
RACCORDO
100
AcDbPolyline
 62
7
  6
CONTINUOUS
 90
5
 70
0
 10
206.1684485668
 20
245.4610303416
 10
206.1874148302
 20
245.4495572371
 10
206.2068626649
 20
245.437957395
 10
206.22675859
 20
245.4262308155
 10
206.2677792058
 20
245.4023285834
  0
LWPOLYLINE
  5
3C5
100
AcDbEntity
  8
RACCORDO
100
AcDbPolyline
 62
7
  6
CONTINUOUS
 90
4
 70
0
 10
205.9526118946
 20
245.5992720733
 10
205.9705455265
 20
245.5872286274
 10
205.9893390405
 20
245.5747385743
 10
206.0294291321
 20
245.5483400779
  0
LINE
  5
3C6
100
AcDbEntity
  8
RACCORDO
100
AcDbLine
 62
7
  6
CONTINUOUS
 10
205.9194127467
 20
245.6218620063
 11
205.9526118946
 21
245.5992720733
  0
LINE
  5
3C7
100
AcDbEntity
  8
RACCORDO
100
AcDbLine
 62
7
  6
CONTINUOUS
 10
205.8898789675
 20
245.6422206849
 11
205.9194127467
 21
245.6218620063
  0
LINE
  5
3C8
100
AcDbEntity
  8
RACCORDO
100
AcDbLine
 62
7
  6
CONTINUOUS
 10
205.8640339686
 20
245.6602331733
 11
205.8898789675
 21
245.6422206849
  0
LINE
  5
3C9
100
AcDbEntity
  8
RACCORDO
100
AcDbLine
 62
7
  6
CONTINUOUS
 10
205.7950613223
 20
245.7088606428
 11
205.8640339686
 21
245.6602331733
  0
LINE
  5
3CA
100
AcDbEntity
  8
RACCORDO
100
AcDbLine
 62
250
  6
CONTINUOUS
 10
210.6882406709
 20
247.6760854065
 11
210.6908556998
 21
247.6641346047
  0
LINE
  5
3CB
100
AcDbEntity
  8
0
100
AcDbLine
 62
7
  6
CONTINUOUS
 10
219.767020235
 20
238.7129732376
 11
219.767020235
 21
238.6629732376
  0
LINE
  5
3CC
100
AcDbEntity
  8
0
100
AcDbLine
 62
7
  6
CONTINUOUS
 10
220.7687013782
 20
238.7129732376
 11
220.7687013782
 21
238.6629732376
  0
LINE
  5
3CD
100
AcDbEntity
  8
RACCORDO
100
AcDbLine
 62
250
  6
CONTINUOUS
 10
232.4098939993
 20
251.9482288808
 11
232.2733270584
 21
251.6811284934
  0
LINE
  5
3CE
100
AcDbEntity
  8
RACCORDO
100
AcDbLine
 62
250
  6
CONTINUOUS
 10
157.960266402
 20
251.0882249755
 11
157.9088240686
 21
251.088120895
  0
LINE
  5
3CF
100
AcDbEntity
  8
DRAFT
100
AcDbLine
 62
7
  6
CONTINUOUS
 10
184.1580847381
 20
251.6129732376
 11
190.8233267382
 21
251.6129732376
  0
LINE
  5
3D0
100
AcDbEntity
  8
DRAFT
100
AcDbLine
 62
7
  6
CONTINUOUS
 10
230.1580847381
 20
251.6129732376
 11
236.8233267382
 21
251.6129732376
  0
LINE
  5
3D1
100
AcDbEntity
  8
RACCORDO
100
AcDbLine
 62
7
  6
CONTINUOUS
 10
163.2452382447
 20
252.193594384
 11
163.517020235
 21
252.193594384
  0
LINE
  5
3D2
100
AcDbEntity
  8
RACCORDO
100
AcDbLine
 62
250
  6
CONTINUOUS
 10
239.573774068
 20
251.0882249753
 11
239.6252164986
 21
251.0881208948
  0
LINE
  5
3D3
100
AcDbEntity
  8
DRAFT
100
AcDbLine
 62
7
  6
CONTINUOUS
 10
230.1412426996
 20
247.823113826
 11
230.1663705904
 21
247.8203488808
  0
LINE
  5
3D4
100
AcDbEntity
  8
DRAFT
100
AcDbLine
 62
7
  6
CONTINUOUS
 10
213.3927977705
 20
251.6028326491
 11
213.3676698796
 21
251.6055975944
  0
LINE
  5
3D5
100
AcDbEntity
  8
ASSI
100
AcDbLine
 62
7
  6
CONTINUOUS
 10
237.8495579114
 20
245.7151173413
 11
237.781020024
 21
245.7235327357
  0
LINE
  5
3D6
100
AcDbEntity
  8
0
100
AcDbLine
 62
7
  6
CONTINUOUS
 10
235.6181521761
 20
247.0455241395
 11
233.2136556993
 21
247.3834540814
  0
LINE
  5
3D7
100
AcDbEntity
  8
0
100
AcDbLine
 62
7
  6
CONTINUOUS
 10
231.8084187878
 20
247.5809472499
 11
230.1651816553
 21
247.8118891681
  0
LINE
  5
3D8
100
AcDbEntity
  8
DRAFT
100
AcDbLine
 62
7
  6
CONTINUOUS
 10
235.6362687542
 20
247.0515574093
 11
233.1977942464
 21
247.3942832493
  0
LINE
  5
3D9
100
AcDbEntity
  8
DRAFT
100
AcDbLine
 62
7
  6
CONTINUOUS
 10
231.8306501452
 20
247.5864343704
 11
230.1663705904
 21
247.8203488808
  0
LINE
  5
3DA
100
AcDbEntity
  8
ASSI
100
AcDbLine
 62
7
  6
CONTINUOUS
 10
234.8950036916
 20
246.9160022463
 11
233.8544091753
 21
247.0661991274
  0
LWPOLYLINE
  5
3DB
100
AcDbEntity
  8
RACCORDO
100
AcDbPolyline
 62
7
  6
CONTINUOUS
 90
7
 70
0
 10
191.7545922994
 20
253.7067544356
 10
191.7540395552
 20
253.7069254165
 10
191.7527018984
 20
253.7077167647
 10
191.7505523068
 20
253.7091284805
 10
191.747560744
 20
253.711153233
 10
191.7437046738
 20
253.713798353
 10
191.7389791476
 20
253.7170858324
  0
LWPOLYLINE
  5
3DC
100
AcDbEntity
  8
RACCORDO
100
AcDbPolyline
 62
250
  6
CONTINUOUS
 90
28
 70
0
 10
211.1241464707
 20
247.4777175944
 10
211.1159420495
 20
247.4816775146
 10
211.1076001036
 20
247.485249094
 10
211.0991206331
 20
247.4884323326
 10
211.0904852082
 20
247.4912324226
 10
211.0817122586
 20
247.4936441719
 10
211.0728570733
 20
247.4956520038
 10
211.0639194681
 20
247.4972532351
 10
211.0548996272
 20
247.498450549
 10
211.0458533916
 20
247.4992364186
 10
211.0367805757
 20
247.4996082507
 10
211.0276813652
 20
247.4995686385
 10
211.0186121581
 20
247.4991178345
 10
211.0095731895
 20
247.4982532665
 10
211.0005642245
 20
247.4969775067
 10
210.9916409564
 20
247.495298525
 10
210.9828039948
 20
247.4932138526
 10
210.9740527303
 20
247.4907259582
 10
210.9654410276
 20
247.4878502174
 10
210.9569696896
 20
247.4845841886
 10
210.9486379135
 20
247.4809303135
 10
210.9404971556
 20
247.4769112924
 10
210.932548402
 20
247.472524702
 10
210.9247906667
 20
247.4677729656
 10
210.9172724476
 20
247.4626860545
 10
210.9100099108
 20
247.457273959
 10
210.9029868903
 20
247.4515266887
 10
210.896203386
 20
247.4454442436
  0
LWPOLYLINE
  5
3DD
100
AcDbEntity
  8
RACCORDO
100
AcDbPolyline
 62
250
  6
CONTINUOUS
 90
28
 70
0
 10
211.2607217152
 20
247.7448137365
 10
211.2402693207
 20
247.7546912058
 10
211.2193898134
 20
247.7636295239
 10
211.198126297
 20
247.7716102978
 10
211.1765229485
 20
247.7786170275
 10
211.1546240808
 20
247.7846354185
 10
211.1324740151
 20
247.7896532815
 10
211.1101179253
 20
247.7936602777
 10
211.0876024313
 20
247.7966479475
 10
211.0649746457
 20
247.7986100155
 10
211.0422815751
 20
247.7995424497
 10
211.0195697335
 20
247.7994433836
 10
210.9968857063
 20
247.7983130232
 10
210.9742761314
 20
247.7961536656
 10
210.9517878328
 20
247.7929697561
 10
210.9294674422
 20
247.7887678972
 10
210.9073611887
 20
247.7835568202
 10
210.8855145029
 20
247.7773472638
 10
210.8639721624
 20
247.7701519504
 10
210.8427782903
 20
247.7619855626
 10
210.8219769759
 20
247.7528650338
 10
210.8016118403
 20
247.7428095197
 10
210.7817252415
 20
247.7318400548
 10
210.7623577828
 20
247.7199791587
 10
210.7435489612
 20
247.7072510733
 10
210.7253374415
 20
247.6936819598
 10
210.7077609354
 20
247.679299911
 10
210.6908556998
 20
247.6641346047
  0
LINE
  5
3DE
100
AcDbEntity
  8
RACCORDO
100
AcDbLine
 62
250
  6
CONTINUOUS
 10
210.896203386
 20
247.4454442436
 11
210.6908556998
 21
247.6641346047
  0
LINE
  5
3DF
100
AcDbEntity
  8
RACCORDO
100
AcDbLine
 62
250
  6
CONTINUOUS
 10
211.1241464707
 20
251.9482288808
 11
211.2607134115
 21
251.6811284934
  0
LINE
  5
3E0
100
AcDbEntity
  8
0
100
AcDbLine
 62
7
  6
CONTINUOUS
 10
221.2338170148
 20
238.7129732376
 11
221.2338170148
 21
238.6629732376
  0
LINE
  5
3E1
100
AcDbEntity
  8
0
100
AcDbLine
 62
7
  6
CONTINUOUS
 10
221.5130742184
 20
238.7129732376
 11
221.5130742184
 21
238.6629732376
  0
LINE
  5
3E2
100
AcDbEntity
  8
0
100
AcDbLine
 62
7
  6
CONTINUOUS
 10
221.5312866028
 20
238.7129732376
 11
221.5312866028
 21
238.6629732376
  0
LINE
  5
3E3
100
AcDbEntity
  8
0
100
AcDbLine
 62
7
  6
CONTINUOUS
 10
221.7255520366
 20
238.7129732376
 11
221.7255520366
 21
238.6629732376
  0
LINE
  5
3E4
100
AcDbEntity
  8
0
100
AcDbLine
 62
7
  6
CONTINUOUS
 10
221.8348263431
 20
238.7129732376
 11
221.8348263431
 21
238.6629732376
  0
LINE
  5
3E5
100
AcDbEntity
  8
0
100
AcDbLine
 62
250
  6
CONTINUOUS
 10
221.8743339845
 20
238.7129732376
 11
221.8743339845
 21
238.6629732376
  0
LINE
  5
3E6
100
AcDbEntity
  8
0
100
AcDbLine
 62
7
  6
CONTINUOUS
 10
221.9805254185
 20
238.7129732376
 11
221.9805254185
 21
238.6629732376
  0
LINE
  5
3E7
100
AcDbEntity
  8
0
100
AcDbLine
 62
7
  6
CONTINUOUS
 10
221.9987378029
 20
238.7129732376
 11
221.9987378029
 21
238.6629732376
  0
LINE
  5
3E8
100
AcDbEntity
  8
0
100
AcDbLine
 62
7
  6
CONTINUOUS
 10
222.2597824121
 20
238.6629732376
 11
222.2597824121
 21
238.7129732376
  0
LINE
  5
3E9
100
AcDbEntity
  8
0
100
AcDbLine
 62
7
  6
CONTINUOUS
 10
222.2719240812
 20
238.6629732376
 11
222.2719240598
 21
238.7129732376
  0
LINE
  5
3EA
100
AcDbEntity
  8
0
100
AcDbLine
 62
7
  6
CONTINUOUS
 10
222.6945442847
 20
238.7129732376
 11
222.6945442847
 21
238.6629732376
  0
LINE
  5
3EB
100
AcDbEntity
  8
0
100
AcDbLine
 62
7
  6
CONTINUOUS
 10
222.7127566691
 20
238.7129732376
 11
222.7127566691
 21
238.6629732376
  0
LINE
  5
3EC
100
AcDbEntity
  8
0
100
AcDbLine
 62
7
  6
CONTINUOUS
 10
223.7144378123
 20
238.7129732376
 11
223.7144378123
 21
238.6629732376
  0
LINE
  5
3ED
100
AcDbEntity
  8
0
100
AcDbLine
 62
7
  6
CONTINUOUS
 10
223.7326502258
 20
238.6629732376
 11
223.7326502257
 21
238.7129732376
  0
LINE
  5
3EE
100
AcDbEntity
  8
0
100
AcDbLine
 62
7
  6
CONTINUOUS
 10
224.1613417069
 20
238.7129732376
 11
224.1613417069
 21
238.6629732376
  0
LINE
  5
3EF
100
AcDbEntity
  8
0
100
AcDbLine
 62
7
  6
CONTINUOUS
 10
224.1795540913
 20
238.7129732376
 11
224.1795540913
 21
238.6629732376
  0
LINE
  5
3F0
100
AcDbEntity
  8
RACCORDO
100
AcDbLine
 62
250
  6
CONTINUOUS
 10
241.6782217227
 20
254.8176876762
 11
242.0253965737
 21
254.8232157314
  0
LINE
  5
3F1
100
AcDbEntity
  8
RACCORDO
100
AcDbLine
 62
250
  6
CONTINUOUS
 10
242.0253965737
 20
254.8232157314
 11
242.3620274483
 21
254.8275157471
  0
LINE
  5
3F2
100
AcDbEntity
  8
RACCORDO
100
AcDbLine
 62
250
  6
CONTINUOUS
 10
242.3620274483
 20
254.8275157471
 11
242.6778899386
 21
254.8304571146
  0
LWPOLYLINE
  5
3F3
100
AcDbEntity
  8
RACCORDO
100
AcDbPolyline
 62
250
  6
CONTINUOUS
 90
12
 70
0
 10
242.6778899386
 20
254.8304571146
 10
242.9633903326
 20
254.8319504899
 10
243.0920014096
 20
254.8321382391
 10
243.2098570108
 20
254.8319505085
 10
243.3160605055
 20
254.8313887256
 10
243.4098038936
 20
254.8304571638
 10
243.490373986
 20
254.8291629093
 10
243.5571578085
 20
254.8275158081
 10
243.6096472593
 20
254.8255283908
 10
243.6474429984
 20
254.8232157771
 10
243.6702574764
 20
254.8205955601
 10
243.6779171131
 20
254.8176876734
  0
LINE
  5
3F4
100
AcDbEntity
  8
DRAFT
100
AcDbLine
 62
7
  6
CONTINUOUS
 10
159.5399719833
 20
253.595519502
 11
159.644264756
 21
253.595519502
  0
LINE
  5
3F5
100
AcDbEntity
  8
DRAFT
100
AcDbLine
 62
7
  6
CONTINUOUS
 10
191.889775714
 20
253.595519502
 11
191.9940684592
 21
253.595519502
  0
LINE
  5
3F6
100
AcDbEntity
  8
DRAFT
100
AcDbLine
 62
7
  6
CONTINUOUS
 10
205.5399719833
 20
253.595519502
 11
205.644264756
 21
253.595519502
  0
LINE
  5
3F7
100
AcDbEntity
  8
DRAFT
100
AcDbLine
 62
7
  6
CONTINUOUS
 10
237.889775714
 20
253.595519502
 11
237.9940684592
 21
253.595519502
  0
LINE
  5
3F8
100
AcDbEntity
  8
DRAFT
100
AcDbLine
 62
7
  6
CONTINUOUS
 10
159.561119216
 20
253.6129732376
 11
159.6381226656
 21
253.6129732376
  0
LINE
  5
3F9
100
AcDbEntity
  8
DRAFT
100
AcDbLine
 62
7
  6
CONTINUOUS
 10
191.8959178044
 20
253.6129732376
 11
191.9729211837
 21
253.6129732376
  0
LINE
  5
3FA
100
AcDbEntity
  8
DRAFT
100
AcDbLine
 62
7
  6
CONTINUOUS
 10
205.561119216
 20
253.6129732376
 11
205.6381226656
 21
253.6129732376
  0
LINE
  5
3FB
100
AcDbEntity
  8
DRAFT
100
AcDbLine
 62
7
  6
CONTINUOUS
 10
237.8959178044
 20
253.6129732376
 11
237.9729211837
 21
253.6129732376
  0
LINE
  5
3FC
100
AcDbEntity
  8
RACCORDO
100
AcDbLine
 62
250
  6
CONTINUOUS
 10
234.767020235
 20
254.4754400904
 11
208.767020235
 21
254.4754400904
  0
LINE
  5
3FD
100
AcDbEntity
  8
RACCORDO
100
AcDbLine
 62
250
  6
CONTINUOUS
 10
188.767020235
 20
254.4754400904
 11
162.767020235
 21
254.4754400904
  0
LINE
  5
3FE
100
AcDbEntity
  8
RACCORDO
100
AcDbLine
 62
250
  6
CONTINUOUS
 10
234.767020235
 20
254.675432475
 11
208.767020235
 21
254.675432475
  0
LINE
  5
3FF
100
AcDbEntity
  8
RACCORDO
100
AcDbLine
 62
250
  6
CONTINUOUS
 10
188.767020235
 20
254.675432475
 11
162.767020235
 21
254.675432475
  0
LINE
  5
400
100
AcDbEntity
  8
DRAFT
100
AcDbLine
 62
7
  6
CONTINUOUS
 10
234.767020235
 20
254.695519502
 11
208.767020235
 21
254.695519502
  0
LINE
  5
401
100
AcDbEntity
  8
DRAFT
100
AcDbLine
 62
7
  6
CONTINUOUS
 10
188.767020235
 20
254.695519502
 11
162.767020235
 21
254.695519502
  0
LINE
  5
402
100
AcDbEntity
  8
DRAFT
100
AcDbLine
 62
7
  6
CONTINUOUS
 10
234.767020235
 20
254.7629732376
 11
208.767020235
 21
254.7629732376
  0
LINE
  5
403
100
AcDbEntity
  8
DRAFT
100
AcDbLine
 62
7
  6
CONTINUOUS
 10
188.767020235
 20
254.7629732376
 11
162.767020235
 21
254.7629732376
  0
LWPOLYLINE
  5
404
100
AcDbEntity
  8
RACCORDO
100
AcDbPolyline
 62
250
  6
CONTINUOUS
 90
11
 70
0
 10
154.5706466494
 20
254.8319504677
 10
154.4420358697
 20
254.8321382068
 10
154.3241806616
 20
254.8319504675
 10
154.2179776269
 20
254.8313886781
 10
154.1242347215
 20
254.8304571125
 10
154.0436651092
 20
254.8291628575
 10
153.9768817356
 20
254.8275157597
 10
153.9243926656
 20
254.8255283495
 10
153.886597218
 20
254.8232157465
 10
153.8637829273
 20
254.8205955442
 10
153.856123357
 20
254.8176876762
  0
LINE
  5
405
100
AcDbEntity
  8
RACCORDO
100
AcDbLine
 62
250
  6
CONTINUOUS
 10
154.8561468372
 20
254.8304571129
 11
154.5706466494
 21
254.8319504677
  0
LINE
  5
406
100
AcDbEntity
  8
RACCORDO
100
AcDbLine
 62
250
  6
CONTINUOUS
 10
155.1720098016
 20
254.8275157603
 11
154.8561468372
 21
254.8304571129
  0
LINE
  5
407
100
AcDbEntity
  8
RACCORDO
100
AcDbLine
 62
250
  6
CONTINUOUS
 10
155.5086419184
 20
254.8232157471
 11
155.1720098016
 21
254.8275157603
  0
LINE
  5
408
100
AcDbEntity
  8
RACCORDO
100
AcDbLine
 62
250
  6
CONTINUOUS
 10
155.8558187473
 20
254.8176876762
 11
155.5086419184
 21
254.8232157471
  0
LINE
  5
409
100
AcDbEntity
  8
ASSI
100
AcDbLine
 62
7
  6
CONTINUOUS
 10
205.6833319502
 20
253.7108987283
 11
205.7525916803
 21
253.7020903381
  0
LINE
  5
40A
100
AcDbEntity
  8
DRAFT
100
AcDbLine
 62
7
  6
CONTINUOUS
 10
207.8977717158
 20
252.3743890659
 11
210.3362462235
 21
252.0316632259
  0
LINE
  5
40B
100
AcDbEntity
  8
0
100
AcDbLine
 62
7
  6
CONTINUOUS
 10
207.9158882939
 20
252.3804223357
 11
210.3203847707
 21
252.0424923938
  0
LINE
  5
40C
100
AcDbEntity
  8
0
100
AcDbLine
 62
7
  6
CONTINUOUS
 10
211.7256216821
 20
251.8449992253
 11
213.3688588147
 21
251.6140573071
  0
LINE
  5
40D
100
AcDbEntity
  8
DRAFT
100
AcDbLine
 62
7
  6
CONTINUOUS
 10
211.7033903248
 20
251.8395121048
 11
213.3676698796
 21
251.6055975944
  0
LINE
  5
40E
100
AcDbEntity
  8
ASSI
100
AcDbLine
 62
7
  6
CONTINUOUS
 10
208.6390367784
 20
252.5099442289
 11
209.6796312947
 21
252.3597473478
  0
LINE
  5
40F
100
AcDbEntity
  8
DRAFT
100
AcDbLine
 62
7
  6
CONTINUOUS
 10
204.767020235
 20
252.7129732376
 11
204.7844739706
 21
252.7071496734
  0
LINE
  5
410
100
AcDbEntity
  8
RACCORDO
100
AcDbLine
 62
7
  6
CONTINUOUS
 10
205.767020235
 20
253.7129732376
 11
205.7794481705
 21
253.7067544356
  0
LWPOLYLINE
  5
411
100
AcDbEntity
  8
RACCORDO
100
AcDbPolyline
 62
250
  6
CONTINUOUS
 90
28
 70
0
 10
210.896203386
 20
251.9805022316
 10
210.9029859565
 20
251.9744204466
 10
210.9100084087
 20
251.9686735704
 10
210.9172707424
 20
251.963261603
 10
210.9247892173
 20
251.9581744507
 10
210.9325475738
 20
251.9534222072
 10
210.9404970333
 20
251.949035154
 10
210.9486384975
 20
251.9450158128
 10
210.9569710647
 20
251.9413616619
 10
210.9654432521
 20
251.9380954173
 10
210.9740559305
 20
251.9352195114
 10
210.9828082289
 20
251.9327315119
 10
210.9916460523
 20
251.9306468379
 10
211.0005700114
 20
251.9289680042
 10
211.0095794953
 20
251.9276924962
 10
211.0186185761
 20
251.9268281885
 10
211.0276872846
 20
251.9263776487
 10
211.0367855899
 20
251.9263383093
 10
211.0458574717
 20
251.9267103428
 10
211.0549028391
 20
251.927496316
 10
211.063921783
 20
251.9286936622
 10
211.0728585553
 20
251.9302948537
 10
211.0817129296
 20
251.9323025228
 10
211.0904851324
 20
251.9347140373
 10
211.0991200947
 20
251.9375139727
 10
211.1075994604
 20
251.9406971877
 10
211.1159415857
 20
251.9442688238
 10
211.1241464707
 20
251.9482288808
  0
LWPOLYLINE
  5
412
100
AcDbEntity
  8
RACCORDO
100
AcDbPolyline
 62
250
  6
CONTINUOUS
 90
28
 70
0
 10
210.6908556998
 20
251.7618118705
 10
210.7077594721
 20
251.746647818
 10
210.7253348135
 20
251.7322665679
 10
210.7435455186
 20
251.7186978473
 10
210.7623540815
 20
251.7059697004
 10
210.7817217293
 20
251.6941084631
 10
210.8016084981
 20
251.6831387013
 10
210.8219735894
 20
251.6730830189
 10
210.842774824
 20
251.6639623394
 10
210.8639686392
 20
251.6557957912
 10
210.8855109728
 20
251.648600302
 10
210.9073576767
 20
251.6423905675
 10
210.9294639559
 20
251.6371793166
 10
210.9517843755
 20
251.6329772889
 10
210.9742727099
 20
251.629793215
 10
210.9968823217
 20
251.6276336978
 10
211.0195663733
 20
251.6265031827
 10
211.0422782397
 20
251.6264039643
 10
211.0649713683
 20
251.6273362505
 10
211.0875992883
 20
251.6292981832
 10
211.110114948
 20
251.6322857335
 10
211.1324711377
 20
251.6362926103
 10
211.1546213925
 20
251.6413103832
 10
211.1765203829
 20
251.6473286796
 10
211.1981232484
 20
251.6543351116
 10
211.2193855288
 20
251.6623152313
 10
211.2402632692
 20
251.6712525146
 10
211.2607134115
 20
251.6811284934
  0
LINE
  5
413
100
AcDbEntity
  8
0
100
AcDbLine
 62
7
  6
CONTINUOUS
 10
225.1812352345
 20
238.7129732376
 11
225.1812352345
 21
238.6629732376
  0
LINE
  5
414
100
AcDbEntity
  8
0
100
AcDbLine
 62
7
  6
CONTINUOUS
 10
225.1994476189
 20
238.7129732376
 11
225.1994476189
 21
238.6629732376
  0
LINE
  5
415
100
AcDbEntity
  8
0
100
AcDbLine
 62
7
  6
CONTINUOUS
 10
226.742020235
 20
238.7129732376
 11
226.742020235
 21
238.5129732376
  0
LINE
  5
416
100
AcDbEntity
  8
0
100
AcDbLine
 62
250
  6
CONTINUOUS
 10
230.1651816553
 20
247.8118891681
 11
230.1663705904
 21
247.8203488808
  0
LWPOLYLINE
  5
417
100
AcDbEntity
  8
RACCORDO
100
AcDbPolyline
 62
250
  6
CONTINUOUS
 90
25
 70
0
 10
159.8552095279
 20
258.7478780505
 10
159.5954305738
 20
258.7393257717
 10
159.3386723184
 20
258.7143717204
 10
159.0849347617
 20
258.6730158963
 10
158.8331284493
 20
258.6149549265
 10
158.5843428356
 20
258.5404921841
 10
158.3418462838
 20
258.4505377883
 10
158.1057511642
 20
258.3448821296
 10
157.8759451066
 20
258.2237348175
 10
157.6553593638
 20
258.0886348008
 10
157.4441401544
 20
257.9394211138
 10
157.2421412598
 20
257.7762547222
 10
157.0518552775
 20
257.6011574711
 10
156.8734213045
 20
257.4139830456
 10
156.7067002439
 20
257.2148777607
 10
156.5537674024
 20
257.0063024066
 10
156.4147829793
 20
256.7881081727
 10
156.2895867754
 20
256.5604438696
 10
156.1797734999
 20
256.3262167189
 10
156.0855527229
 20
256.0853276754
 10
156.0067148744
 20
255.8378757843
 10
155.9442259527
 20
255.5870654032
 10
155.8984079573
 20
255.333964651
 10
155.8689388889
 20
255.0775054087
 10
155.8558187473
 20
254.8176876762
  0
LINE
  5
418
100
AcDbEntity
  8
RACCORDO
100
AcDbLine
 62
250
  6
CONTINUOUS
 10
237.6788309421
 20
258.7478780505
 11
159.8552095279
 21
258.7478780505
  0
LINE
  5
419
100
AcDbEntity
  8
DRAFT
100
AcDbLine
 62
7
  6
CONTINUOUS
 10
238.767020235
 20
246.7129732376
 11
238.7495664994
 21
246.7187968018
  0
LINE
  5
41A
100
AcDbEntity
  8
0
100
AcDbLine
 62
7
  6
CONTINUOUS
 10
228.792020235
 20
238.7129732376
 11
228.792020235
 21
238.5129732376
  0
LINE
  5
41B
100
AcDbEntity
  8
ASSI
100
AcDbLine
 62
7
  6
CONTINUOUS
 10
231.166877235
 20
238.7129732376
 11
231.166877235
 21
238.5129732376
  0
LINE
  5
41C
100
AcDbEntity
  8
RACCORDO
100
AcDbLine
 62
250
  6
CONTINUOUS
 10
232.2739083011
 20
247.7569117809
 11
232.2733270584
 21
247.7448179818
  0
LINE
  5
41D
100
AcDbEntity
  8
RACCORDO
100
AcDbLine
 62
250
  6
CONTINUOUS
 10
232.845799799
 20
247.6760854065
 11
232.8431847701
 21
247.6641346047
  0
LINE
  5
41E
100
AcDbEntity
  8
DRAFT
100
AcDbLine
 62
7
  6
CONTINUOUS
 10
237.8959178044
 20
253.6129732376
 11
237.889775714
 21
253.595519502
  0
LINE
  5
41F
100
AcDbEntity
  8
RACCORDO
100
AcDbLine
 62
7
  6
CONTINUOUS
 10
237.6788309421
 20
260.7129732376
 11
159.8552095279
 21
260.7129732376
  0
LINE
  5
420
100
AcDbEntity
  8
ASSI
100
AcDbLine
 62
7
  6
CONTINUOUS
 10
185.066916235
 20
260.8629732376
 11
190.267163235
 21
260.8629732376
  0
LINE
  5
421
100
AcDbEntity
  8
0
100
AcDbLine
 62
7
  6
CONTINUOUS
 10
207.267834235
 20
260.8629732376
 11
211.4758306591
 21
260.8629732376
  0
LINE
  5
422
100
AcDbEntity
  8
RACCORDO
100
AcDbLine
 62
7
  6
CONTINUOUS
 10
237.767020235
 20
245.7129732376
 11
237.7545922994
 21
245.7191920396
  0
LWPOLYLINE
  5
423
100
AcDbEntity
  8
DRAFT
100
AcDbPolyline
 62
250
  6
CONTINUOUS
 90
8
 70
0
 10
230.1809024066
 20
247.8183052372
 10
230.1376539844
 20
248.2230939615
 10
230.0944466819
 20
248.6321084709
 10
230.0513010289
 20
249.0453324663
 10
230.0081827934
 20
249.4627427449
 10
229.9651665216
 20
249.8843406466
 10
229.9224353528
 20
250.3101561536
 10
229.8800625835
 20
250.7402024149
  0
LINE
  5
424
100
AcDbEntity
  8
DRAFT
100
AcDbLine
 62
250
  6
CONTINUOUS
 10
229.8800625835
 20
250.7402024149
 11
229.8194785003
 21
251.3693088024
  0
LINE
  5
425
100
AcDbEntity
  8
RACCORDO
100
AcDbLine
 62
250
  6
CONTINUOUS
 10
232.2739083011
 20
251.6690346943
 11
232.2733187547
 21
251.681132739
  0
LINE
  5
426
100
AcDbEntity
  8
0
100
AcDbLine
 62
7
  6
CONTINUOUS
 10
234.017020235
 20
247.0427282426
 11
234.017020235
 21
247.2705485589
  0
LINE
  5
427
100
AcDbEntity
  8
RACCORDO
100
AcDbLine
 62
250
  6
CONTINUOUS
 10
234.767020235
 20
244.7304269732
 11
234.767020235
 21
244.9505063848
  0
LINE
  5
428
100
AcDbEntity
  8
RACCORDO
100
AcDbLine
 62
250
  6
CONTINUOUS
 10
234.767020235
 20
254.4754400904
 11
234.767020235
 21
254.695519502
  0
LWPOLYLINE
  5
429
100
AcDbEntity
  8
RACCORDO
100
AcDbPolyline
 62
7
  6
CONTINUOUS
 90
7
 70
0
 10
237.7545922994
 20
253.7067544356
 10
237.7540395552
 20
253.7069254165
 10
237.7527018984
 20
253.7077167647
 10
237.7505523068
 20
253.7091284805
 10
237.747560744
 20
253.711153233
 10
237.7437046738
 20
253.713798353
 10
237.7389791476
 20
253.7170858324
  0
LWPOLYLINE
  5
42A
100
AcDbEntity
  8
RACCORDO
100
AcDbPolyline
 62
250
  6
CONTINUOUS
 90
28
 70
0
 10
232.4098939993
 20
251.9482288808
 10
232.4180984205
 20
251.9442689606
 10
232.4264403663
 20
251.9406973812
 10
232.4349198369
 20
251.9375141426
 10
232.4435552618
 20
251.9347140526
 10
232.4523282114
 20
251.9323023033
 10
232.4611833967
 20
251.9302944714
 10
232.4701210019
 20
251.9286932401
 10
232.4791408428
 20
251.9274959262
 10
232.4881870784
 20
251.9267100566
 10
232.4972598943
 20
251.9263382245
 10
232.5063591048
 20
251.9263778367
 10
232.5154283118
 20
251.9268286407
 10
232.5244672804
 20
251.9276932087
 10
232.5334762455
 20
251.9289689685
 10
232.5423995136
 20
251.9306479502
 10
232.5512364751
 20
251.9327326226
 10
232.5599877397
 20
251.935220517
 10
232.5685994424
 20
251.9380962578
 10
232.5770707804
 20
251.9413622866
 10
232.5854025565
 20
251.9450161617
 10
232.5935433144
 20
251.9490351828
 10
232.6014920679
 20
251.9534217732
 10
232.6092498033
 20
251.9581735095
 10
232.6167680223
 20
251.9632604207
 10
232.6240305591
 20
251.9686725162
 10
232.6310535797
 20
251.9744197865
 10
232.637837084
 20
251.9805022316
  0
LWPOLYLINE
  5
42B
100
AcDbEntity
  8
RACCORDO
100
AcDbPolyline
 62
250
  6
CONTINUOUS
 90
28
 70
0
 10
232.2733187548
 20
251.6811327387
 10
232.2937711493
 20
251.6712552694
 10
232.3146506566
 20
251.6623169513
 10
232.3359141729
 20
251.6543361774
 10
232.3575175215
 20
251.6473294477
 10
232.3794163892
 20
251.6413110567
 10
232.4015664549
 20
251.6362931937
 10
232.4239225447
 20
251.6322861975
 10
232.4464380386
 20
251.6292985277
 10
232.4690658243
 20
251.6273364597
 10
232.4917588949
 20
251.6264040254
 10
232.5144707364
 20
251.6265030916
 10
232.5371547636
 20
251.6276334519
 10
232.5597643386
 20
251.6297928096
 10
232.5822526372
 20
251.6329767191
 10
232.6045730278
 20
251.637178578
 10
232.6266792812
 20
251.642389655
 10
232.6485259671
 20
251.6485992114
 10
232.6700683076
 20
251.6557945248
 10
232.6912621797
 20
251.6639609126
 10
232.712063494
 20
251.6730814414
 10
232.7324286297
 20
251.6831369555
 10
232.7523152285
 20
251.6941064204
 10
232.7716826872
 20
251.7059673165
 10
232.7904915088
 20
251.7186954019
 10
232.8087030285
 20
251.7322645154
 10
232.8262795346
 20
251.7466465642
 10
232.8431847701
 20
251.7618118705
  0
LWPOLYLINE
  5
42C
100
AcDbEntity
  8
RACCORDO
100
AcDbPolyline
 62
250
  6
CONTINUOUS
 90
28
 70
0
 10
232.637837084
 20
247.4454442436
 10
232.6310545134
 20
247.4515260286
 10
232.6240320613
 20
247.4572729048
 10
232.6167697275
 20
247.4626848722
 10
232.6092512527
 20
247.4677720245
 10
232.6014928962
 20
247.472524268
 10
232.5935434366
 20
247.4769113212
 10
232.5854019725
 20
247.4809306624
 10
232.5770694052
 20
247.4845848133
 10
232.5685972178
 20
247.4878510579
 10
232.5599845395
 20
247.4907269638
 10
232.551232241
 20
247.4932149633
 10
232.5423944177
 20
247.4952996373
 10
232.5334704586
 20
247.496978471
 10
232.5244609746
 20
247.498253979
 10
232.5154218938
 20
247.4991182867
 10
232.5063531854
 20
247.4995688265
 10
232.49725488
 20
247.4996081659
 10
232.4881829983
 20
247.4992361324
 10
232.4791376308
 20
247.4984501592
 10
232.4701186869
 20
247.497252813
 10
232.4611819146
 20
247.4956516215
 10
232.4523275403
 20
247.4936439524
 10
232.4435553376
 20
247.4912324379
 10
232.4349203753
 20
247.4884325025
 10
232.4264410096
 20
247.4852492875
 10
232.4180988842
 20
247.4816776514
 10
232.4098939993
 20
247.4777175944
  0
LWPOLYLINE
  5
42D
100
AcDbEntity
  8
RACCORDO
100
AcDbPolyline
 62
250
  6
CONTINUOUS
 90
28
 70
0
 10
232.8431847701
 20
247.6641346047
 10
232.8262809979
 20
247.6792986572
 10
232.8087056565
 20
247.6936799073
 10
232.7904949513
 20
247.7072486279
 10
232.7716863885
 20
247.7199767748
 10
232.7523187407
 20
247.7318380121
 10
232.7324319719
 20
247.7428077739
 10
232.7120668806
 20
247.7528634563
 10
232.691265646
 20
247.7619841358
 10
232.6700718308
 20
247.770150684
 10
232.6485294972
 20
247.7773461732
 10
232.6266827933
 20
247.7835559077
 10
232.6045765141
 20
247.7887671586
 10
232.5822560945
 20
247.7929691863
 10
232.5597677601
 20
247.7961532602
 10
232.5371581483
 20
247.7983127774
 10
232.5144740966
 20
247.7994432925
 10
232.4917622303
 20
247.7995425109
 10
232.4690691016
 20
247.7986102247
 10
232.4464411817
 20
247.796648292
 10
232.423925522
 20
247.7936607417
 10
232.4015693323
 20
247.7896538649
 10
232.3794190774
 20
247.784636092
 10
232.357520087
 20
247.7786177956
 10
232.3359172216
 20
247.7716113636
 10
232.3146549411
 20
247.7636312439
 10
232.2937772008
 20
247.7546939606
 10
232.2733270584
 20
247.7448179818
  0
LINE
  5
42E
100
AcDbEntity
  8
ASSI
100
AcDbLine
 62
7
  6
CONTINUOUS
 10
236.367124235
 20
238.7129732376
 11
236.367124235
 21
238.5129732376
  0
LINE
  5
42F
100
AcDbEntity
  8
RACCORDO
100
AcDbLine
 62
250
  6
CONTINUOUS
 10
237.1155919032
 20
245.2437698287
 11
237.1155919032
 21
245.3186611872
  0
LINE
  5
430
100
AcDbEntity
  8
RACCORDO
100
AcDbLine
 62
250
  6
CONTINUOUS
 10
237.1155919032
 20
254.107285288
 11
237.1155919032
 21
254.1827246913
  0
LINE
  5
431
100
AcDbEntity
  8
RACCORDO
100
AcDbLine
 62
250
  6
CONTINUOUS
 10
237.3655919032
 20
245.3847065202
 11
237.3655919032
 21
245.4610303416
  0
LINE
  5
432
100
AcDbEntity
  8
RACCORDO
100
AcDbLine
 62
250
  6
CONTINUOUS
 10
237.3655919032
 20
253.9649161336
 11
237.3655919032
 21
254.0415528581
  0
LINE
  5
433
100
AcDbEntity
  8
RACCORDO
100
AcDbLine
 62
250
  6
CONTINUOUS
 10
237.5046113379
 20
253.9563158683
 11
237.5046113379
 21
253.8776063973
  0
LINE
  5
434
100
AcDbEntity
  8
RACCORDO
100
AcDbLine
 62
250
  6
CONTINUOUS
 10
237.5046113379
 20
245.5483400779
 11
237.5046113379
 21
245.4698879102
  0
LINE
  5
435
100
AcDbEntity
  8
RACCORDO
100
AcDbLine
 62
250
  6
CONTINUOUS
 10
237.6788309421
 20
240.6780684247
 11
237.6788309419
 21
238.7129732376
  0
LINE
  5
436
100
AcDbEntity
  8
RACCORDO
100
AcDbLine
 62
250
  6
CONTINUOUS
 10
237.6788309421
 20
258.7478780505
 11
237.6788309421
 21
260.7129732376
  0
LINE
  5
437
100
AcDbEntity
  8
RACCORDO
100
AcDbLine
 62
250
  6
CONTINUOUS
 10
237.7545922994
 20
253.7828544843
 11
237.7545922994
 21
253.7067544356
  0
LINE
  5
438
100
AcDbEntity
  8
RACCORDO
100
AcDbLine
 62
250
  6
CONTINUOUS
 10
237.7545922994
 20
245.7191920396
 11
237.7545922994
 21
245.6422262832
  0
LINE
  5
439
100
AcDbEntity
  8
RACCORDO
100
AcDbLine
 62
7
  6
CONTINUOUS
 10
237.767020235
 20
253.7735505313
 11
237.767020235
 21
253.7129732376
  0
LINE
  5
43A
100
AcDbEntity
  8
RACCORDO
100
AcDbLine
 62
7
  6
CONTINUOUS
 10
237.767020235
 20
245.7129732376
 11
237.767020235
 21
245.6517653717
  0
LWPOLYLINE
  5
43B
100
AcDbEntity
  8
RACCORDO
100
AcDbPolyline
 62
7
  6
CONTINUOUS
 90
4
 70
0
 10
237.2025074893
 20
254.0597986409
 10
237.1808776687
 20
254.0718070062
 10
237.1591604382
 20
254.0837078669
 10
237.1155919032
 20
254.107285288
  0
LWPOLYLINE
  5
43C
100
AcDbEntity
  8
RACCORDO
100
AcDbPolyline
 62
7
  6
CONTINUOUS
 90
3
 70
0
 10
237.2662612642
 20
254.0236178918
 10
237.2452595696
 20
254.0356558232
 10
237.2025074893
 20
254.0597986409
  0
LWPOLYLINE
  5
43D
100
AcDbEntity
  8
RACCORDO
100
AcDbPolyline
 62
7
  6
CONTINUOUS
 90
5
 70
0
 10
237.3655919032
 20
253.9649161336
 10
237.3466256398
 20
253.9763892381
 10
237.327177805
 20
253.9879890802
 10
237.30728188
 20
253.9997156597
 10
237.2662612642
 20
254.0236178918
  0
LINE
  5
43E
100
AcDbEntity
  8
RACCORDO
100
AcDbLine
 62
250
  6
CONTINUOUS
 10
232.637837084
 20
251.9805022316
 11
232.8431847701
 21
251.7618118705
  0
LINE
  5
43F
100
AcDbEntity
  8
RACCORDO
100
AcDbLine
 62
250
  6
CONTINUOUS
 10
234.8330768909
 20
247.1558592754
 11
234.9552295759
 21
246.9702341759
  0
LINE
  5
440
100
AcDbEntity
  8
RACCORDO
100
AcDbLine
 62
250
  6
CONTINUOUS
 10
232.4098939993
 20
247.4777175944
 11
232.2733270584
 21
247.7448179818
  0
LINE
  5
441
100
AcDbEntity
  8
RACCORDO
100
AcDbLine
 62
250
  6
CONTINUOUS
 10
232.845799799
 20
251.7498610687
 11
232.8431847701
 21
251.7618118705
  0
LINE
  5
442
100
AcDbEntity
  8
RACCORDO
100
AcDbLine
 62
250
  6
CONTINUOUS
 10
241.7673248447
 20
249.7129732376
 11
241.6782217227
 21
254.8176876762
  0
LINE
  5
443
100
AcDbEntity
  8
DRAFT
100
AcDbLine
 62
7
  6
CONTINUOUS
 10
238.7495664994
 20
252.8172149759
 11
238.7495664994
 21
252.7071496734
  0
LINE
  5
444
100
AcDbEntity
  8
DRAFT
100
AcDbLine
 62
7
  6
CONTINUOUS
 10
238.7495664994
 20
246.7187968018
 11
238.7495664994
 21
246.6104948979
  0
LINE
  5
445
100
AcDbEntity
  8
DRAFT
100
AcDbLine
 62
7
  6
CONTINUOUS
 10
238.767020235
 20
252.7938977615
 11
238.767020235
 21
252.7129732376
  0
LINE
  5
446
100
AcDbEntity
  8
DRAFT
100
AcDbLine
 62
7
  6
CONTINUOUS
 10
238.767020235
 20
246.7129732376
 11
238.767020235
 21
246.6332301543
  0
LINE
  5
447
100
AcDbEntity
  8
0
100
AcDbLine
 62
7
  6
CONTINUOUS
 10
238.767020235
 20
246.6332301543
 11
238.767020235
 21
246.7129732376
  0
LINE
  5
448
100
AcDbEntity
  8
0
100
AcDbLine
 62
7
  6
CONTINUOUS
 10
238.767020235
 20
252.7129732376
 11
238.767020235
 21
252.7938977615
  0
LINE
  5
449
100
AcDbEntity
  8
0
100
AcDbLine
 62
7
  6
CONTINUOUS
 10
239.167020235
 20
247.2370011292
 11
239.167020235
 21
247.3387984421
  0
LINE
  5
44A
100
AcDbEntity
  8
0
100
AcDbLine
 62
7
  6
CONTINUOUS
 10
239.167020235
 20
252.0871480331
 11
239.167020235
 21
252.1892928302
  0
LINE
  5
44B
100
AcDbEntity
  8
RACCORDO
100
AcDbLine
 62
7
  6
CONTINUOUS
 10
239.367020235
 20
251.6712813331
 11
239.367020235
 21
251.7959566291
  0
LINE
  5
44C
100
AcDbEntity
  8
RACCORDO
100
AcDbLine
 62
7
  6
CONTINUOUS
 10
239.4001545722
 20
247.7067557683
 11
239.4007124759
 21
247.8346170623
  0
LINE
  5
44D
100
AcDbEntity
  8
RACCORDO
100
AcDbLine
 62
250
  6
CONTINUOUS
 10
239.7042820744
 20
248.6533580773
 11
239.7045612349
 21
248.7173365469
  0
LINE
  5
44E
100
AcDbEntity
  8
RACCORDO
100
AcDbLine
 62
250
  6
CONTINUOUS
 10
241.6782217227
 20
244.608258799
 11
241.7673248447
 21
249.7129732376
  0
LWPOLYLINE
  5
44F
100
AcDbEntity
  8
RACCORDO
100
AcDbPolyline
 62
250
  6
CONTINUOUS
 90
8
 70
0
 10
239.7045612349
 20
248.7173365469
 10
239.7062732254
 20
248.7631145799
 10
239.7109026195
 20
248.8083570717
 10
239.718449417
 20
248.8530640224
 10
239.7289685861
 20
248.897435693
 10
239.7424051587
 20
248.9412718224
 10
239.7585942307
 20
248.9839716275
 10
239.7646038137
 20
248.9971240441
  0
LWPOLYLINE
  5
450
100
AcDbEntity
  8
RACCORDO
100
AcDbPolyline
 62
7
  6
CONTINUOUS
 90
4
 70
0
 10
237.5814285753
 20
253.8266744019
 10
237.5634949435
 20
253.8387178478
 10
237.5447014294
 20
253.8512079009
 10
237.5046113379
 20
253.8776063973
  0
LINE
  5
451
100
AcDbEntity
  8
RACCORDO
100
AcDbLine
 62
7
  6
CONTINUOUS
 10
237.6146277232
 20
253.8040844689
 11
237.5814285753
 21
253.8266744019
  0
LINE
  5
452
100
AcDbEntity
  8
RACCORDO
100
AcDbLine
 62
7
  6
CONTINUOUS
 10
237.6441615025
 20
253.7837257903
 11
237.6146277232
 21
253.8040844689
  0
LINE
  5
453
100
AcDbEntity
  8
RACCORDO
100
AcDbLine
 62
7
  6
CONTINUOUS
 10
237.6700065014
 20
253.7657133019
 11
237.6441615025
 21
253.7837257903
  0
LINE
  5
454
100
AcDbEntity
  8
RACCORDO
100
AcDbLine
 62
7
  6
CONTINUOUS
 10
237.7389791476
 20
253.7170858324
 11
237.6700065014
 21
253.7657133019
  0
LINE
  5
455
100
AcDbEntity
  8
DRAFT
100
AcDbLine
 62
7
  6
CONTINUOUS
 10
237.8959178044
 20
245.8129732376
 11
237.889775714
 21
245.8304269732
  0
LWPOLYLINE
  5
456
100
AcDbEntity
  8
RACCORDO
100
AcDbPolyline
 62
250
  6
CONTINUOUS
 90
25
 70
0
 10
241.6782217227
 20
254.8176876762
 10
241.6651345892
 20
255.0773003989
 10
241.6356989141
 20
255.3336044482
 10
241.5899146972
 20
255.586599824
 10
241.5274591197
 20
255.8373708019
 10
241.4486550004
 20
256.0848331064
 10
241.3544707964
 20
256.3257339105
 10
241.2446988974
 20
256.5599568381
 10
241.1195469136
 20
256.7876182654
 10
240.9806061328
 20
257.0058144943
 10
240.8277182749
 20
257.2143963206
 10
240.6610416201
 20
257.4135129484
 10
240.4826422962
 20
257.6007082922
 10
240.2923765156
 20
257.7758406415
 10
240.0903880661
 20
257.9390517068
 10
239.8791744387
 20
258.0883105347
 10
239.6585898495
 20
258.2234542387
 10
239.4287800825
 20
258.3446457052
 10
239.1926799811
 20
258.4503426397
 10
238.9501945335
 20
258.5403337748
 10
238.7014187515
 20
258.6148303779
 10
238.4495725135
 20
258.6729239563
 10
238.1957291123
 20
258.7143116791
 10
237.9388152552
 20
258.7392963772
 10
237.6788309421
 20
258.7478780505
  0
LINE
  5
457
100
AcDbEntity
  8
RACCORDO
100
AcDbLine
 62
7
  6
CONTINUOUS
 10
243.767020235
 20
249.7129732376
 11
243.677917113
 21
254.8176876762
  0
LINE
  5
458
100
AcDbEntity
  8
RACCORDO
100
AcDbLine
 62
7
  6
CONTINUOUS
 10
243.677917113
 20
244.608258799
 11
243.767020235
 21
249.7129732376
  0
LWPOLYLINE
  5
459
100
AcDbEntity
  8
RACCORDO
100
AcDbPolyline
 62
250
  6
CONTINUOUS
 90
11
 70
0
 10
291.1456781872
 20
254.8176876762
 10
291.1533377
 20
254.8205955412
 10
291.1761518347
 20
254.8232157431
 10
291.2139470536
 20
254.825528348
 10
291.2664358493
 20
254.8275157621
 10
291.3332189291
 20
254.8291628655
 10
291.4137882503
 20
254.8304571269
 10
291.5075308915
 20
254.8313886995
 10
291.6137337095
 20
254.8319504958
 10
291.7315887589
 20
254.8321382413
 10
291.8601994536
 20
254.8319505071
  0
LINE
  5
45A
100
AcDbEntity
  8
0
100
AcDbLine
 62
7
  6
CONTINUOUS
 10
301.1565750653
 20
203.5129732376
 11
305.9565750653
 21
203.5129732376
  0
LINE
  5
45B
100
AcDbEntity
  8
0
100
AcDbLine
 62
7
  6
CONTINUOUS
 10
320.1565750653
 20
203.5129732376
 11
324.9565750653
 21
203.5129732376
  0
LINE
  5
45C
100
AcDbEntity
  8
RACCORDO
100
AcDbLine
 62
7
  6
CONTINUOUS
 10
291.0565750653
 20
244.9505063848
 11
291.0565750653
 21
254.4754400904
  0
LINE
  5
45D
100
AcDbEntity
  8
RACCORDO
100
AcDbLine
 62
7
  6
CONTINUOUS
 10
291.0565750653
 20
249.7129732376
 11
291.2142799154
 21
258.7478780505
  0
LINE
  5
45E
100
AcDbEntity
  8
RACCORDO
100
AcDbLine
 62
7
  6
CONTINUOUS
 10
291.2142799154
 20
240.6780684247
 11
291.0565750653
 21
249.7129732376
  0
LINE
  5
45F
100
AcDbEntity
  8
RACCORDO
100
AcDbLine
 62
250
  6
CONTINUOUS
 10
293.1453735776
 20
244.608258799
 11
293.0562704556
 21
249.7129732376
  0
LINE
  5
460
100
AcDbEntity
  8
RACCORDO
100
AcDbLine
 62
250
  6
CONTINUOUS
 10
293.2139753057
 20
238.7129732376
 11
293.1453735776
 21
244.608258799
  0
LINE
  5
461
100
AcDbEntity
  8
RACCORDO
100
AcDbLine
 62
250
  6
CONTINUOUS
 10
293.1453735776
 20
254.8176876762
 11
293.2139753057
 21
260.7129732376
  0
LINE
  5
462
100
AcDbEntity
  8
RACCORDO
100
AcDbLine
 62
250
  6
CONTINUOUS
 10
293.0562704556
 20
249.7129732376
 11
293.1453735776
 21
254.8176876762
  0
LINE
  5
463
100
AcDbEntity
  8
DRAFT
100
AcDbLine
 62
7
  6
CONTINUOUS
 10
294.7617201949
 20
238.4182089595
 11
295.0450405859
 21
222.1867946279
  0
LINE
  5
464
100
AcDbEntity
  8
RACCORDO
100
AcDbLine
 62
250
  6
CONTINUOUS
 10
295.1294687233
 20
222.1867946279
 11
294.8875028804
 21
236.7129732376
  0
LINE
  5
465
100
AcDbEntity
  8
RACCORDO
100
AcDbLine
 62
250
  6
CONTINUOUS
 10
295.4280170115
 20
222.1894123892
 11
295.1859237531
 21
236.7129732376
  0
LWPOLYLINE
  5
466
100
AcDbEntity
  8
RACCORDO
100
AcDbPolyline
 62
250
  6
CONTINUOUS
 90
25
 70
0
 10
297.044386985
 20
222.1867946279
 10
297.0488023352
 20
222.090798484
 10
297.0589386728
 20
221.995113504
 10
297.0747878752
 20
221.9001383192
 10
297.0963233272
 20
221.8062634474
 10
297.1234857247
 20
221.713897331
 10
297.1561778488
 20
221.6234627667
 10
297.1943206486
 20
221.5352986675
 10
297.2377610781
 20
221.4498434866
 10
297.2862211221
 20
221.3676390443
 10
297.3394417567
 20
221.2891067759
 10
297.3972449456
 20
221.2144867797
 10
297.4594283031
 20
221.1440188302
 10
297.5257756555
 20
221.0779820409
 10
297.5959949389
 20
221.0166929514
 10
297.669755115
 20
220.9604301474
 10
297.7467940582
 20
220.9094163963
 10
297.8267664581
 20
220.8639012589
 10
297.9091825811
 20
220.8241419734
 10
297.9937078336
 20
220.7902853379
 10
298.0799818333
 20
220.7624572205
 10
298.1674473567
 20
220.7407872029
 10
298.2556739011
 20
220.7253206564
 10
298.3443676457
 20
220.7160543542
 10
298.4331717658
 20
220.7129732376
  0
LINE
  5
467
100
AcDbEntity
  8
RACCORDO
100
AcDbLine
 62
7
  6
CONTINUOUS
 10
296.8065750653
 20
236.7129732376
 11
296.9332288812
 21
222.1998834344
  0
LINE
  5
468
100
AcDbEntity
  8
RACCORDO
100
AcDbLine
 62
250
  6
CONTINUOUS
 10
296.9233134888
 20
236.7129732376
 11
297.0443671088
 21
222.1867946279
  0
LINE
  5
469
100
AcDbEntity
  8
0
100
AcDbLine
 62
7
  6
CONTINUOUS
 10
296.4861650653
 20
238.7129732376
 11
296.4861650653
 21
238.6629732376
  0
LINE
  5
46A
100
AcDbEntity
  8
RACCORDO
100
AcDbLine
 62
250
  6
CONTINUOUS
 10
296.6328286621
 20
220.7129732376
 11
296.6328286621
 21
221.0103552769
  0
LINE
  5
46B
100
AcDbEntity
  8
0
100
AcDbLine
 62
7
  6
CONTINUOUS
 10
299.2911651005
 20
238.7129732376
 11
299.2911651005
 21
238.6629732376
  0
LINE
  5
46C
100
AcDbEntity
  8
0
100
AcDbLine
 62
7
  6
CONTINUOUS
 10
300.8211650653
 20
238.7129732376
 11
300.8211650653
 21
238.6629732376
  0
LWPOLYLINE
  5
46D
100
AcDbEntity
  8
RACCORDO
100
AcDbPolyline
 62
250
  6
CONTINUOUS
 90
24
 70
0
 10
296.5352739474
 20
220.716128422
 10
296.4381627
 20
220.7255780088
 10
296.3418997227
 20
220.7412782367
 10
296.2468847702
 20
220.7631587548
 10
296.153514376
 20
220.7911238819
 10
296.0621804902
 20
220.8250539389
 10
295.9732596562
 20
220.864805274
 10
295.8871247229
 20
220.9102068189
 10
295.8041462435
 20
220.9610608577
 10
295.7246708936
 20
221.0171479805
 10
295.6490235399
 20
221.0782309685
 10
295.5775192906
 20
221.1440519898
 10
295.5104542337
 20
221.2143314674
 10
295.4481031863
 20
221.2887730667
 10
295.3907224981
 20
221.3670674788
 10
295.3385474254
 20
221.4488878764
 10
295.2917937794
 20
221.5338882827
 10
295.2506565563
 20
221.6217095232
 10
295.2153062648
 20
221.7119767715
 10
295.1858831338
 20
221.8043178411
 10
295.1625034104
 20
221.8983635278
 10
295.1452636794
 20
221.9937270959
 10
295.1342368384
 20
222.0900047615
 10
295.1294687233
 20
222.1867946279
  0
LINE
  5
46E
100
AcDbEntity
  8
0
100
AcDbLine
 62
7
  6
CONTINUOUS
 10
301.1565750653
 20
203.5129732376
 11
301.1565750653
 21
220.7129732376
  0
LINE
  5
46F
100
AcDbEntity
  8
0
100
AcDbLine
 62
7
  6
CONTINUOUS
 10
301.4543670653
 20
260.7129732376
 11
301.4543670653
 21
260.8629732376
  0
LINE
  5
470
100
AcDbEntity
  8
0
100
AcDbLine
 62
7
  6
CONTINUOUS
 10
301.8008200653
 20
260.7129732376
 11
301.8008200653
 21
260.8629732376
  0
LINE
  5
471
100
AcDbEntity
  8
ASSI
100
AcDbLine
 62
7
  6
CONTINUOUS
 10
301.9730610653
 20
260.7129732376
 11
301.9730610653
 21
260.8629732376
  0
LINE
  5
472
100
AcDbEntity
  8
ASSI
100
AcDbLine
 62
7
  6
CONTINUOUS
 10
302.1044587625
 20
260.7129732376
 11
302.1044587625
 21
260.8629732376
  0
LWPOLYLINE
  5
473
100
AcDbEntity
  8
RACCORDO
100
AcDbPolyline
 62
250
  6
CONTINUOUS
 90
4
 70
0
 10
330.9836723238
 20
222.1867947886
 10
330.9793830297
 20
222.1866119915
 10
330.9722554286
 20
222.1864814594
 10
330.9623582708
 20
222.1864044514
  0
LWPOLYLINE
  5
474
100
AcDbEntity
  8
RACCORDO
100
AcDbPolyline
 62
250
  6
CONTINUOUS
 90
9
 70
0
 10
329.0917792851
 20
222.1919650381
 10
329.1121923151
 20
222.1928190003
 10
329.130001716
 20
222.1937170651
 10
329.1451577478
 20
222.1946567241
 10
329.1576180815
 20
222.1956353532
 10
329.1673479164
 20
222.1966502189
 10
329.1743200784
 20
222.197698487
 10
329.1785150948
 20
222.1987772298
 10
329.1799212493
 20
222.1998834343
  0
LINE
  5
475
100
AcDbEntity
  8
RACCORDO
100
AcDbLine
 62
250
  6
CONTINUOUS
 10
329.0688196372
 20
222.1911575634
 11
329.0917792851
 21
222.1919650381
  0
LWPOLYLINE
  5
476
100
AcDbEntity
  8
RACCORDO
100
AcDbPolyline
 62
250
  6
CONTINUOUS
 90
25
 70
0
 10
327.6799783647
 20
220.7129732376
 10
327.7687824787
 20
220.7160543542
 10
327.8574762192
 20
220.7253206566
 10
327.9457027617
 20
220.7407872034
 10
328.0331682861
 20
220.7624572211
 10
328.1194422891
 20
220.7902853384
 10
328.2039675449
 20
220.8241419738
 10
328.2863836711
 20
220.863901259
 10
328.3663560741
 20
220.9094163961
 10
328.4433950191
 20
220.960430147
 10
328.5171551942
 20
221.0166929511
 10
328.587374475
 20
221.0779820409
 10
328.6537218256
 20
221.1440188304
 10
328.7159051838
 20
221.2144867798
 10
328.7737083743
 20
221.2891067759
 10
328.8269290097
 20
221.3676390442
 10
328.8753890529
 20
221.4498434865
 10
328.9188294808
 20
221.5352986676
 10
328.9569722799
 20
221.6234627668
 10
328.9896644053
 20
221.7138973311
 10
329.016826805
 20
221.8062634474
 10
329.0383622583
 20
221.9001383191
 10
329.0542114606
 20
221.9951135039
 10
329.0643477972
 20
222.0907984839
 10
329.0687631456
 20
222.1867946279
  0
LINE
  5
477
100
AcDbEntity
  8
RACCORDO
100
AcDbLine
 62
250
  6
CONTINUOUS
 10
329.5778761832
 20
220.716128422
 11
329.4803214684
 21
220.7129732376
  0
LINE
  5
478
100
AcDbEntity
  8
RACCORDO
100
AcDbLine
 62
7
  6
CONTINUOUS
 10
329.5683380019
 20
220.7129732376
 11
314.9565750653
 21
220.7129732376
  0
LINE
  5
479
100
AcDbEntity
  8
DRAFT
100
AcDbLine
 62
7
  6
CONTINUOUS
 10
314.9565750653
 20
220.7129732376
 11
311.1565750653
 21
220.7129732376
  0
LINE
  5
47A
100
AcDbEntity
  8
RACCORDO
100
AcDbLine
 62
7
  6
CONTINUOUS
 10
311.1565750653
 20
220.7129732376
 11
296.5448121287
 21
220.7129732376
  0
LINE
  5
47B
100
AcDbEntity
  8
RACCORDO
100
AcDbLine
 62
250
  6
CONTINUOUS
 10
329.4803214684
 20
221.0103552769
 11
328.5764771326
 21
221.0103552769
  0
LINE
  5
47C
100
AcDbEntity
  8
RACCORDO
100
AcDbLine
 62
250
  6
CONTINUOUS
 10
297.536672998
 20
221.0103552769
 11
296.6328286621
 21
221.0103552769
  0
LINE
  5
47D
100
AcDbEntity
  8
RACCORDO
100
AcDbLine
 62
250
  6
CONTINUOUS
 10
296.6328286621
 20
220.7129732376
 11
296.5352739474
 21
220.716128422
  0
LWPOLYLINE
  5
47E
100
AcDbEntity
  8
RACCORDO
100
AcDbPolyline
 62
250
  6
CONTINUOUS
 90
25
 70
0
 10
296.6328286621
 20
221.0103552769
 10
296.5543695966
 20
221.0129256005
 10
296.476825386
 20
221.0204345593
 10
296.4001960302
 20
221.0328821534
 10
296.3241425085
 20
221.050364165
 10
296.2490038417
 20
221.0727848118
 10
296.175797092
 20
221.0998567475
 10
296.104571853
 20
221.1316390308
 10
296.0352785312
 20
221.1680726029
 10
295.9687854088
 20
221.2086929412
 10
295.9051302887
 20
221.2535524053
 10
295.8442753682
 20
221.3025986356
 10
295.7869755205
 20
221.3552100304
 10
295.7332764512
 20
221.41143024
 10
295.6831324548
 20
221.4712156141
 10
295.6371612885
 20
221.5338135995
 10
295.5954158598
 20
221.5992592611
 10
295.5578432611
 20
221.667517534
 10
295.5249025269
 20
221.737730671
 10
295.4966514218
 20
221.8099436363
 10
295.4730321811
 20
221.8841114657
 10
295.4543305457
 20
221.9592415196
 10
295.4406417624
 20
222.0350029182
 10
295.4318705843
 20
222.1117265414
 10
295.4280170115
 20
222.1894123892
  0
LWPOLYLINE
  5
47F
100
AcDbEntity
  8
RACCORDO
100
AcDbPolyline
 62
250
  6
CONTINUOUS
 90
5
 70
0
 10
295.1294687233
 20
222.1867946293
 10
295.1337582126
 20
222.1866118329
 10
295.1408861084
 20
222.1864813032
 10
295.1507836552
 20
222.1864042993
 10
295.1784800219
 20
222.1864133163
  0
LINE
  5
480
100
AcDbEntity
  8
RACCORDO
100
AcDbLine
 62
250
  6
CONTINUOUS
 10
297.0443536876
 20
222.1889760408
 11
297.0213852953
 21
222.1904734884
  0
LWPOLYLINE
  5
481
100
AcDbEntity
  8
RACCORDO
100
AcDbPolyline
 62
250
  6
CONTINUOUS
 90
9
 70
0
 10
297.0213852953
 20
222.1904734884
 10
297.0009642085
 20
222.1921107629
 10
296.9831484825
 20
222.1937168003
 10
296.9679898894
 20
222.1949660135
 10
296.9555307248
 20
222.1958079631
 10
296.9458024074
 20
222.196649957
 10
296.9388302995
 20
222.197698285
 10
296.9346353433
 20
222.1987771163
 10
296.9332292547
 20
222.1998834376
  0
LINE
  5
482
100
AcDbEntity
  8
0
100
AcDbLine
 62
7
  6
CONTINUOUS
 10
303.6261651005
 20
238.7129732376
 11
303.6261651005
 21
238.6629732376
  0
LINE
  5
483
100
AcDbEntity
  8
ASSI
100
AcDbLine
 62
7
  6
CONTINUOUS
 10
303.6992270653
 20
260.7129732376
 11
303.6992280653
 21
260.8629732376
  0
LINE
  5
484
100
AcDbEntity
  8
0
100
AcDbLine
 62
7
  6
CONTINUOUS
 10
305.9565750653
 20
203.5129732376
 11
305.9565750653
 21
220.7129732376
  0
LINE
  5
485
100
AcDbEntity
  8
RACCORDO
100
AcDbLine
 62
250
  6
CONTINUOUS
 10
295.286513785
 20
222.1873605879
 11
295.4280170115
 21
222.1894123892
  0
LINE
  5
486
100
AcDbEntity
  8
RACCORDO
100
AcDbLine
 62
250
  6
CONTINUOUS
 10
295.2157812583
 20
222.1866385372
 11
295.286513785
 21
222.1873605879
  0
LINE
  5
487
100
AcDbEntity
  8
RACCORDO
100
AcDbLine
 62
250
  6
CONTINUOUS
 10
297.0443956909
 20
222.1867948004
 11
296.9832649287
 21
222.1863458761
  0
LINE
  5
488
100
AcDbEntity
  8
RACCORDO
100
AcDbLine
 62
250
  6
CONTINUOUS
 10
295.1784800219
 20
222.1864133163
 11
295.2157812583
 21
222.1866385372
  0
LWPOLYLINE
  5
489
100
AcDbEntity
  8
RACCORDO
100
AcDbPolyline
 62
250
  6
CONTINUOUS
 90
6
 70
0
 10
296.9832649287
 20
222.1863458761
 10
296.9556758941
 20
222.186295759
 10
296.9459574806
 20
222.1863458694
 10
296.9389951823
 20
222.1864459526
 10
296.9348084349
 20
222.1865957292
 10
296.9334089261
 20
222.186794781
  0
LINE
  5
48A
100
AcDbEntity
  8
RACCORDO
100
AcDbLine
 62
250
  6
CONTINUOUS
 10
331.0681095446
 20
222.1867946279
 11
330.9836814073
 21
222.1867946279
  0
LINE
  5
48B
100
AcDbEntity
  8
RACCORDO
100
AcDbLine
 62
250
  6
CONTINUOUS
 10
329.0687830217
 20
222.1867946279
 11
314.9393398457
 21
222.1867946279
  0
LINE
  5
48C
100
AcDbEntity
  8
RACCORDO
100
AcDbLine
 62
250
  6
CONTINUOUS
 10
311.1738102849
 20
222.1867946279
 11
297.0443671088
 21
222.1867946279
  0
LINE
  5
48D
100
AcDbEntity
  8
RACCORDO
100
AcDbLine
 62
250
  6
CONTINUOUS
 10
295.1294687233
 20
222.1867946279
 11
295.0450405859
 21
222.1867946279
  0
LINE
  5
48E
100
AcDbEntity
  8
DRAFT
100
AcDbLine
 62
7
  6
CONTINUOUS
 10
314.9366948589
 20
222.4129732376
 11
311.1764552716
 21
222.4129732376
  0
LINE
  5
48F
100
AcDbEntity
  8
RACCORDO
100
AcDbLine
 62
250
  6
CONTINUOUS
 10
330.9623582708
 20
222.1864044514
 11
330.9346629367
 21
222.1864134549
  0
LINE
  5
490
100
AcDbEntity
  8
RACCORDO
100
AcDbLine
 62
250
  6
CONTINUOUS
 10
330.9346629367
 20
222.1864134549
 11
330.8755469462
 21
222.1868299398
  0
LINE
  5
491
100
AcDbEntity
  8
RACCORDO
100
AcDbLine
 62
250
  6
CONTINUOUS
 10
330.8755469462
 20
222.1868299398
 11
330.7436969683
 21
222.1884854668
  0
LINE
  5
492
100
AcDbEntity
  8
RACCORDO
100
AcDbLine
 62
250
  6
CONTINUOUS
 10
330.7436969683
 20
222.1884854668
 11
330.685133119
 21
222.1894123892
  0
LWPOLYLINE
  5
493
100
AcDbEntity
  8
RACCORDO
100
AcDbPolyline
 62
250
  6
CONTINUOUS
 90
7
 70
0
 10
329.129893975
 20
222.1863457921
 10
329.1450301375
 20
222.1859860701
 10
329.157479961
 20
222.1861227624
 10
329.1672013987
 20
222.1863457919
 10
329.174163669
 20
222.1864458591
 10
329.1783503788
 20
222.1865956108
 10
329.1797498404
 20
222.1867946291
  0
LWPOLYLINE
  5
494
100
AcDbEntity
  8
RACCORDO
100
AcDbPolyline
 62
250
  6
CONTINUOUS
 90
3
 70
0
 10
329.068796443
 20
222.1889760401
 10
329.0917287246
 20
222.1880870019
 10
329.129893975
 20
222.1863457921
  0
LINE
  5
495
100
AcDbEntity
  8
ASSI
100
AcDbLine
 62
7
  6
CONTINUOUS
 10
306.1346470653
 20
260.7129732376
 11
306.1346470653
 21
260.8629732376
  0
LINE
  5
496
100
AcDbEntity
  8
0
100
AcDbLine
 62
7
  6
CONTINUOUS
 10
306.5558194876
 20
238.7129732376
 11
306.5558200653
 21
238.5129732376
  0
LINE
  5
497
100
AcDbEntity
  8
ASSI
100
AcDbLine
 62
7
  6
CONTINUOUS
 10
306.8280020653
 20
260.7129732376
 11
306.8280020653
 21
260.8629732376
  0
LINE
  5
498
100
AcDbEntity
  8
0
100
AcDbLine
 62
250
  6
CONTINUOUS
 10
307.0669696638
 20
238.7129732376
 11
307.0669696638
 21
238.5129732376
  0
LINE
  5
499
100
AcDbEntity
  8
0
100
AcDbLine
 62
7
  6
CONTINUOUS
 10
308.2625029938
 20
238.7129732376
 11
308.2625030653
 21
238.5129732376
  0
LINE
  5
49A
100
AcDbEntity
  8
0
100
AcDbLine
 62
7
  6
CONTINUOUS
 10
308.4481537263
 20
238.7129732376
 11
308.4481540653
 21
238.5129732376
  0
LWPOLYLINE
  5
49B
100
AcDbEntity
  8
RACCORDO
100
AcDbPolyline
 62
250
  6
CONTINUOUS
 90
5
 70
0
 10
312.6056979751
 20
225.1164251411
 10
312.5945485507
 20
225.1162664898
 10
312.5865588172
 20
225.1160729794
 10
312.5817588277
 20
225.1158469404
 10
312.5801604549
 20
225.1155911982
  0
LINE
  5
49C
100
AcDbEntity
  8
RACCORDO
100
AcDbLine
 62
250
  6
CONTINUOUS
 10
312.6370003994
 20
225.1166283474
 11
312.6056979751
 21
225.1164251411
  0
LINE
  5
49D
100
AcDbEntity
  8
RACCORDO
100
AcDbLine
 62
250
  6
CONTINUOUS
 10
313.3834263076
 20
225.1165509236
 11
313.2330010987
 21
225.1155911982
  0
LINE
  5
49E
100
AcDbEntity
  8
RACCORDO
100
AcDbLine
 62
250
  6
CONTINUOUS
 10
311.2080603321
 20
225.1155911982
 11
312.5801604549
 21
225.1155911982
  0
LINE
  5
49F
100
AcDbEntity
  8
RACCORDO
100
AcDbLine
 62
250
  6
CONTINUOUS
 10
312.8801490318
 20
225.1155911982
 11
313.2330010987
 21
225.1155911982
  0
LINE
  5
4A0
100
AcDbEntity
  8
RACCORDO
100
AcDbLine
 62
250
  6
CONTINUOUS
 10
313.5329896756
 20
225.1155911982
 11
314.9050897985
 21
225.1155911982
  0
LINE
  5
4A1
100
AcDbEntity
  8
RACCORDO
100
AcDbLine
 62
250
  6
CONTINUOUS
 10
313.4564133657
 20
225.1166698988
 11
313.3834263076
 21
225.1165509236
  0
LINE
  5
4A2
100
AcDbEntity
  8
RACCORDO
100
AcDbLine
 62
7
  6
CONTINUOUS
 10
311.2115379887
 20
225.4129732376
 11
314.9016121418
 21
225.4129732376
  0
LINE
  5
4A3
100
AcDbEntity
  8
RACCORDO
100
AcDbLine
 62
250
  6
CONTINUOUS
 10
312.7033451036
 20
225.1166310209
 11
312.6370003994
 21
225.1166283474
  0
LWPOLYLINE
  5
4A4
100
AcDbEntity
  8
RACCORDO
100
AcDbPolyline
 62
250
  6
CONTINUOUS
 90
3
 70
0
 10
312.8801490318
 20
225.1155911982
 10
312.8486942918
 20
225.1158512478
 10
312.7033451036
 20
225.1166310209
  0
LWPOLYLINE
  5
4A5
100
AcDbEntity
  8
RACCORDO
100
AcDbPolyline
 62
250
  6
CONTINUOUS
 90
7
 70
0
 10
313.5329896756
 20
225.1155911982
 10
313.5313913028
 20
225.1158469404
 10
313.5265913134
 20
225.1160729794
 10
313.5186015799
 20
225.1162664898
 10
313.5074521554
 20
225.1164251411
 10
313.4932360334
 20
225.11654645
 10
313.4564133657
 20
225.1166698988
  0
LINE
  5
4A6
100
AcDbEntity
  8
ASSI
100
AcDbLine
 62
7
  6
CONTINUOUS
 10
308.4976310653
 20
260.7129732376
 11
308.4976310653
 21
260.8629732376
  0
LINE
  5
4A7
100
AcDbEntity
  8
0
100
AcDbLine
 62
7
  6
CONTINUOUS
 10
308.5018940653
 20
238.7129732376
 11
308.5018940653
 21
238.5129732376
  0
LINE
  5
4A8
100
AcDbEntity
  8
0
100
AcDbLine
 62
7
  6
CONTINUOUS
 10
309.3556940653
 20
238.7129732376
 11
309.3556940653
 21
238.5129732376
  0
LINE
  5
4A9
100
AcDbEntity
  8
ASSI
100
AcDbLine
 62
7
  6
CONTINUOUS
 10
309.5377220653
 20
260.7129732376
 11
309.5377220653
 21
260.8629732376
  0
LINE
  5
4AA
100
AcDbEntity
  8
0
100
AcDbLine
 62
7
  6
CONTINUOUS
 10
309.6912710653
 20
238.7129732376
 11
309.6912710653
 21
238.5129732376
  0
LINE
  5
4AB
100
AcDbEntity
  8
0
100
AcDbLine
 62
7
  6
CONTINUOUS
 10
310.5407940653
 20
238.7129732376
 11
310.5407940653
 21
238.5129732376
  0
LINE
  5
4AC
100
AcDbEntity
  8
0
100
AcDbLine
 62
7
  6
CONTINUOUS
 10
310.7671587981
 20
238.5129732376
 11
310.7671587981
 21
238.7129732376
  0
LINE
  5
4AD
100
AcDbEntity
  8
RACCORDO
100
AcDbLine
 62
250
  6
CONTINUOUS
 10
313.2330010987
 20
225.1155911982
 11
313.2565864884
 21
222.4129732376
  0
LINE
  5
4AE
100
AcDbEntity
  8
ASSI
100
AcDbLine
 62
7
  6
CONTINUOUS
 10
311.2073250653
 20
260.7129732376
 11
311.2073250653
 21
260.8629732376
  0
LWPOLYLINE
  5
4AF
100
AcDbEntity
  8
0
100
AcDbPolyline
 62
7
  6
CONTINUOUS
 90
2
 70
0
 43
0.3500000087
 10
311.699417627
 20
269.6129787842
 10
311.699417627
 20
271.112980249
  0
LINE
  5
4B0
100
AcDbEntity
  8
ASSI
100
AcDbLine
 62
7
  6
CONTINUOUS
 10
311.9006800653
 20
260.7129732376
 11
311.9006800653
 21
260.8629732376
  0
LINE
  5
4B1
100
AcDbEntity
  8
0
100
AcDbLine
 62
7
  6
CONTINUOUS
 10
312.3337901772
 20
238.7129732376
 11
312.3337901772
 21
238.5129732376
  0
LINE
  5
4B2
100
AcDbEntity
  8
0
100
AcDbLine
 62
7
  6
CONTINUOUS
 10
312.5748036933
 20
238.5129732376
 11
312.5748036933
 21
238.7129732376
  0
LINE
  5
4B3
100
AcDbEntity
  8
RACCORDO
100
AcDbLine
 62
250
  6
CONTINUOUS
 10
312.8801490318
 20
225.4129732376
 11
312.8801490318
 21
225.1155911982
  0
LINE
  5
4B4
100
AcDbEntity
  8
RACCORDO
100
AcDbLine
 62
250
  6
CONTINUOUS
 10
313.2330010987
 20
225.4129732376
 11
313.2330010987
 21
225.1155911982
  0
LINE
  5
4B5
100
AcDbEntity
  8
RACCORDO
100
AcDbLine
 62
7
  6
CONTINUOUS
 10
312.5801604549
 20
225.1155911982
 11
312.5565750653
 21
222.4129732376
  0
LINE
  5
4B6
100
AcDbEntity
  8
RACCORDO
100
AcDbLine
 62
250
  6
CONTINUOUS
 10
312.8801490318
 20
225.1155911982
 11
312.8565636422
 21
222.4129732376
  0
LINE
  5
4B7
100
AcDbEntity
  8
RACCORDO
100
AcDbLine
 62
7
  6
CONTINUOUS
 10
311.3553771287
 20
237.7129732376
 11
311.1565750653
 21
220.7129732376
  0
LWPOLYLINE
  5
4B8
100
AcDbEntity
  8
RACCORDO
100
AcDbPolyline
 62
250
  6
CONTINUOUS
 90
9
 70
0
 10
334.9674719433
 20
244.608258799
 10
334.9631522816
 20
244.606051758
 10
334.9502914413
 20
244.6040035737
 10
334.9289444705
 20
244.6021230133
 10
334.8992027422
 20
244.6004181265
 10
334.8611935631
 20
244.5988962113
 10
334.815079629
 20
244.5975637821
 10
334.7610583278
 20
244.5964265424
 10
334.699360895
 20
244.5954893604
  0
LINE
  5
4B9
100
AcDbEntity
  8
RACCORDO
100
AcDbLine
 62
7
  6
CONTINUOUS
 10
314.9565750653
 20
220.7129732376
 11
314.7577730018
 21
237.7129732376
  0
LINE
  5
4BA
100
AcDbEntity
  8
RACCORDO
100
AcDbLine
 62
7
  6
CONTINUOUS
 10
313.5329896756
 20
225.1155911982
 11
313.5565750653
 21
222.4129732376
  0
LINE
  5
4BB
100
AcDbEntity
  8
0
100
AcDbLine
 62
250
  6
CONTINUOUS
 10
313.410543801
 20
238.7129732376
 11
313.410543801
 21
238.5129732376
  0
LINE
  5
4BC
100
AcDbEntity
  8
ASSI
100
AcDbLine
 62
7
  6
CONTINUOUS
 10
313.4729390653
 20
260.7129732376
 11
313.4729390653
 21
260.8629732376
  0
LWPOLYLINE
  5
4BD
100
AcDbEntity
  8
0
100
AcDbPolyline
 62
7
  6
CONTINUOUS
 90
2
 70
0
 43
0.3500000087
 10
314.0565822754
 20
269.6129787842
 10
314.0565822754
 20
271.112980249
  0
LINE
  5
4BE
100
AcDbEntity
  8
0
100
AcDbLine
 62
7
  6
CONTINUOUS
 10
314.1414416093
 20
238.7129732376
 11
314.1414420653
 21
238.5129732376
  0
LINE
  5
4BF
100
AcDbEntity
  8
0
100
AcDbLine
 62
7
  6
CONTINUOUS
 10
314.382459586
 20
238.5129732376
 11
314.382459586
 21
238.7129732376
  0
LINE
  5
4C0
100
AcDbEntity
  8
0
100
AcDbLine
 62
7
  6
CONTINUOUS
 10
314.3922330653
 20
238.7129732376
 11
314.3922330653
 21
238.5129732376
  0
LINE
  5
4C1
100
AcDbEntity
  8
ASSI
100
AcDbLine
 62
7
  6
CONTINUOUS
 10
314.4440260653
 20
260.7129732376
 11
314.4440260653
 21
260.8629732376
  0
LINE
  5
4C2
100
AcDbEntity
  8
ASSI
100
AcDbLine
 62
7
  6
CONTINUOUS
 10
315.4151130653
 20
260.7129732376
 11
315.4151130653
 21
260.8629732376
  0
LWPOLYLINE
  5
4C3
100
AcDbEntity
  8
RACCORDO
100
AcDbPolyline
 62
250
  6
CONTINUOUS
 90
11
 70
0
 10
291.1456781872
 20
244.608258799
 10
291.1499978569
 20
244.606051757
 10
291.1628587197
 20
244.6040035721
 10
291.1842057246
 20
244.6021230116
 10
291.2139474959
 20
244.600418125
 10
291.2519567243
 20
244.5988962102
 10
291.2980707114
 20
244.5975637818
 10
291.3520920666
 20
244.5964265431
 10
291.4137895518
 20
244.5954893622
 10
291.4828990714
 20
244.5947562506
 10
291.6421404614
 20
244.5939139006
  0
LINE
  5
4C4
100
AcDbEntity
  8
0
100
AcDbLine
 62
7
  6
CONTINUOUS
 10
315.9556071461
 20
238.7129732376
 11
315.9556070653
 21
238.5129732376
  0
LINE
  5
4C5
100
AcDbEntity
  8
ASSI
100
AcDbLine
 62
7
  6
CONTINUOUS
 10
316.9873720653
 20
260.7129732376
 11
316.9873720653
 21
260.8629732376
  0
LINE
  5
4C6
100
AcDbEntity
  8
0
100
AcDbLine
 62
7
  6
CONTINUOUS
 10
317.3587868076
 20
238.7129732376
 11
317.3587868076
 21
238.5129732376
  0
LINE
  5
4C7
100
AcDbEntity
  8
0
100
AcDbLine
 62
7
  6
CONTINUOUS
 10
317.5732880653
 20
260.7129732376
 11
317.5732880653
 21
260.8629732376
  0
LINE
  5
4C8
100
AcDbEntity
  8
0
100
AcDbLine
 62
7
  6
CONTINUOUS
 10
317.9750480653
 20
260.7129732376
 11
317.9750480653
 21
260.8629732376
  0
LINE
  5
4C9
100
AcDbEntity
  8
ASSI
100
AcDbLine
 62
7
  6
CONTINUOUS
 10
318.0273720653
 20
260.7129732376
 11
318.0273720653
 21
260.8629732376
  0
LINE
  5
4CA
100
AcDbEntity
  8
0
100
AcDbLine
 62
7
  6
CONTINUOUS
 10
318.0689140653
 20
238.7129732376
 11
318.0689140653
 21
238.5129732376
  0
LINE
  5
4CB
100
AcDbEntity
  8
0
100
AcDbLine
 62
7
  6
CONTINUOUS
 10
318.3504090653
 20
238.7129732376
 11
318.3504090653
 21
238.5129732376
  0
LINE
  5
4CC
100
AcDbEntity
  8
0
100
AcDbLine
 62
7
  6
CONTINUOUS
 10
318.9133970653
 20
238.7129732376
 11
318.9133970653
 21
238.5129732376
  0
LINE
  5
4CD
100
AcDbEntity
  8
ASSI
100
AcDbLine
 62
7
  6
CONTINUOUS
 10
319.0674110653
 20
260.7129732376
 11
319.0674110653
 21
260.8629732376
  0
LINE
  5
4CE
100
AcDbEntity
  8
0
100
AcDbLine
 62
7
  6
CONTINUOUS
 10
319.2519890653
 20
260.7129732376
 11
319.2519890653
 21
260.8629732376
  0
LINE
  5
4CF
100
AcDbEntity
  8
0
100
AcDbLine
 62
7
  6
CONTINUOUS
 10
319.6652280653
 20
260.7129732376
 11
319.6652280653
 21
260.8629732376
  0
LINE
  5
4D0
100
AcDbEntity
  8
ASSI
100
AcDbLine
 62
7
  6
CONTINUOUS
 10
319.7607660653
 20
260.7129732376
 11
319.7607660653
 21
260.8629732376
  0
LINE
  5
4D1
100
AcDbEntity
  8
0
100
AcDbLine
 62
7
  6
CONTINUOUS
 10
319.8474470653
 20
238.7129732376
 11
319.8474470653
 21
238.5129732376
  0
LINE
  5
4D2
100
AcDbEntity
  8
0
100
AcDbLine
 62
7
  6
CONTINUOUS
 10
320.1289410653
 20
238.7129732376
 11
320.1289410653
 21
238.5129732376
  0
LINE
  5
4D3
100
AcDbEntity
  8
0
100
AcDbLine
 62
7
  6
CONTINUOUS
 10
320.1565750653
 20
203.5129732376
 11
320.1565750653
 21
220.7129732376
  0
LINE
  5
4D4
100
AcDbEntity
  8
0
100
AcDbLine
 62
7
  6
CONTINUOUS
 10
320.6919300653
 20
238.7129732376
 11
320.6919300653
 21
238.5129732376
  0
LINE
  5
4D5
100
AcDbEntity
  8
RACCORDO
100
AcDbLine
 62
7
  6
CONTINUOUS
 10
294.8875028147
 20
236.7129732376
 11
296.9233112502
 21
236.7129732376
  0
LINE
  5
4D6
100
AcDbEntity
  8
RACCORDO
100
AcDbLine
 62
7
  6
CONTINUOUS
 10
329.1898388803
 20
236.7129732376
 11
331.2256473159
 21
236.7129732376
  0
LINE
  5
4D7
100
AcDbEntity
  8
DRAFT
100
AcDbLine
 62
7
  6
CONTINUOUS
 10
314.7577730018
 20
237.7129732376
 11
311.3553771287
 21
237.7129732376
  0
LINE
  5
4D8
100
AcDbEntity
  8
RACCORDO
100
AcDbLine
 62
250
  6
CONTINUOUS
 10
331.3514299357
 20
238.4182089594
 11
294.7617201949
 21
238.4182089594
  0
LINE
  5
4D9
100
AcDbEntity
  8
0
100
AcDbLine
 62
7
  6
CONTINUOUS
 10
320.6919300653
 20
238.5129732376
 11
319.8474470653
 21
238.5129732376
  0
LINE
  5
4DA
100
AcDbEntity
  8
0
100
AcDbLine
 62
7
  6
CONTINUOUS
 10
318.9133970653
 20
238.5129732376
 11
318.0689140653
 21
238.5129732376
  0
LINE
  5
4DB
100
AcDbEntity
  8
0
100
AcDbLine
 62
7
  6
CONTINUOUS
 10
317.3587868076
 20
238.5129732376
 11
314.3825439661
 21
238.5129732376
  0
LINE
  5
4DC
100
AcDbEntity
  8
0
100
AcDbLine
 62
7
  6
CONTINUOUS
 10
314.1414415871
 20
238.5129732376
 11
312.5748037025
 21
238.5129732376
  0
LINE
  5
4DD
100
AcDbEntity
  8
ASSI
100
AcDbLine
 62
7
  6
CONTINUOUS
 10
312.5748036933
 20
238.5129732376
 11
312.3337901772
 21
238.5129732376
  0
LINE
  5
4DE
100
AcDbEntity
  8
0
100
AcDbLine
 62
7
  6
CONTINUOUS
 10
312.3337901772
 20
238.5129732376
 11
310.7671587983
 21
238.5129732376
  0
LINE
  5
4DF
100
AcDbEntity
  8
ASSI
100
AcDbLine
 62
7
  6
CONTINUOUS
 10
310.7671587981
 20
238.5129732376
 11
310.5407940653
 21
238.5129732376
  0
LINE
  5
4E0
100
AcDbEntity
  8
0
100
AcDbLine
 62
7
  6
CONTINUOUS
 10
310.5407940653
 20
238.5129732376
 11
308.5018940653
 21
238.5129732376
  0
LINE
  5
4E1
100
AcDbEntity
  8
ASSI
100
AcDbLine
 62
7
  6
CONTINUOUS
 10
308.5018940653
 20
238.5129732376
 11
308.4481540653
 21
238.5129732376
  0
LINE
  5
4E2
100
AcDbEntity
  8
0
100
AcDbLine
 62
7
  6
CONTINUOUS
 10
308.4481537139
 20
238.5129732376
 11
306.5558194521
 21
238.5129732376
  0
LINE
  5
4E3
100
AcDbEntity
  8
0
100
AcDbLine
 62
7
  6
CONTINUOUS
 10
329.5267155653
 20
238.6629732376
 11
324.5262841474
 21
238.6629732376
  0
LINE
  5
4E4
100
AcDbEntity
  8
0
100
AcDbLine
 62
7
  6
CONTINUOUS
 10
303.6261651005
 20
238.6629732376
 11
300.8211650653
 21
238.6629732376
  0
LINE
  5
4E5
100
AcDbEntity
  8
0
100
AcDbLine
 62
7
  6
CONTINUOUS
 10
299.2911651005
 20
238.6629732376
 11
296.4861650653
 21
238.6629732376
  0
LINE
  5
4E6
100
AcDbEntity
  8
RACCORDO
100
AcDbLine
 62
7
  6
CONTINUOUS
 10
332.8991748248
 20
238.7129732376
 11
293.2139753057
 21
238.7129732376
  0
LINE
  5
4E7
100
AcDbEntity
  8
ASSI
100
AcDbLine
 62
7
  6
CONTINUOUS
 10
320.8008180653
 20
260.7129732376
 11
320.8008180653
 21
260.8629732376
  0
LINE
  5
4E8
100
AcDbEntity
  8
ASSI
100
AcDbLine
 62
7
  6
CONTINUOUS
 10
321.9504210653
 20
260.7129732376
 11
321.9504210653
 21
260.8629732376
  0
LINE
  5
4E9
100
AcDbEntity
  8
ASSI
100
AcDbLine
 62
7
  6
CONTINUOUS
 10
323.1000370653
 20
260.7129732376
 11
323.1000370653
 21
260.8629732376
  0
LINE
  5
4EA
100
AcDbEntity
  8
ASSI
100
AcDbLine
 62
7
  6
CONTINUOUS
 10
324.1400890653
 20
260.7129732376
 11
324.1400890653
 21
260.8629732376
  0
LINE
  5
4EB
100
AcDbEntity
  8
0
100
AcDbLine
 62
7
  6
CONTINUOUS
 10
324.5262841474
 20
238.7129732376
 11
324.5262841474
 21
238.6629732376
  0
LINE
  5
4EC
100
AcDbEntity
  8
0
100
AcDbLine
 62
7
  6
CONTINUOUS
 10
324.8100749991
 20
238.7129732376
 11
324.8100749991
 21
238.6629732376
  0
LINE
  5
4ED
100
AcDbEntity
  8
0
100
AcDbLine
 62
7
  6
CONTINUOUS
 10
324.8952453525
 20
238.7129732376
 11
324.8952453525
 21
238.6629732376
  0
LINE
  5
4EE
100
AcDbEntity
  8
0
100
AcDbLine
 62
7
  6
CONTINUOUS
 10
324.9565750653
 20
203.5129732376
 11
324.9565750653
 21
220.7129732376
  0
LINE
  5
4EF
100
AcDbEntity
  8
0
100
AcDbLine
 62
7
  6
CONTINUOUS
 10
324.9893110653
 20
238.7129732376
 11
324.9893110653
 21
238.6629732376
  0
LINE
  5
4F0
100
AcDbEntity
  8
RACCORDO
100
AcDbLine
 62
250
  6
CONTINUOUS
 10
292.7553270142
 20
244.6021230116
 11
293.1453735776
 21
244.608258799
  0
LINE
  5
4F1
100
AcDbEntity
  8
RACCORDO
100
AcDbLine
 62
250
  6
CONTINUOUS
 10
292.3802639278
 20
244.5975637818
 11
292.7553270142
 21
244.6021230116
  0
LINE
  5
4F2
100
AcDbEntity
  8
RACCORDO
100
AcDbLine
 62
250
  6
CONTINUOUS
 10
334.699360895
 20
244.5954893604
 11
334.5540257367
 21
244.5942303421
  0
LINE
  5
4F3
100
AcDbEntity
  8
RACCORDO
100
AcDbLine
 62
250
  6
CONTINUOUS
 10
292.0345922112
 20
244.5947562506
 11
292.3802639278
 21
244.5975637818
  0
LINE
  5
4F4
100
AcDbEntity
  8
RACCORDO
100
AcDbLine
 62
250
  6
CONTINUOUS
 10
291.8270926271
 20
244.5939139007
 11
292.0345922112
 21
244.5947562506
  0
LINE
  5
4F5
100
AcDbEntity
  8
RACCORDO
100
AcDbLine
 62
250
  6
CONTINUOUS
 10
334.5540257367
 20
244.5942303421
 11
334.3815599022
 21
244.5938082614
  0
LINE
  5
4F6
100
AcDbEntity
  8
RACCORDO
100
AcDbLine
 62
250
  6
CONTINUOUS
 10
332.967776553
 20
244.608258799
 11
293.1453735776
 21
244.608258799
  0
LINE
  5
4F7
100
AcDbEntity
  8
RACCORDO
100
AcDbLine
 62
250
  6
CONTINUOUS
 10
291.6421404614
 20
244.5939139006
 11
291.8270926271
 21
244.5939139007
  0
LINE
  5
4F8
100
AcDbEntity
  8
RACCORDO
100
AcDbLine
 62
250
  6
CONTINUOUS
 10
334.3815599022
 20
244.5938082614
 11
334.1849131778
 21
244.594230338
  0
LINE
  5
4F9
100
AcDbEntity
  8
RACCORDO
100
AcDbLine
 62
250
  6
CONTINUOUS
 10
334.1849131778
 20
244.594230338
 11
333.9674489361
 21
244.5954893529
  0
LINE
  5
4FA
100
AcDbEntity
  8
RACCORDO
100
AcDbLine
 62
250
  6
CONTINUOUS
 10
333.9674489361
 20
244.5954893529
 11
333.7328866084
 21
244.5975637729
  0
LINE
  5
4FB
100
AcDbEntity
  8
RACCORDO
100
AcDbLine
 62
250
  6
CONTINUOUS
 10
333.7328866084
 20
244.5975637729
 11
333.4852380709
 21
244.6004181178
  0
LINE
  5
4FC
100
AcDbEntity
  8
RACCORDO
100
AcDbLine
 62
250
  6
CONTINUOUS
 10
333.4852380709
 20
244.6004181178
 11
333.228739027
 21
244.6040035679
  0
LINE
  5
4FD
100
AcDbEntity
  8
RACCORDO
100
AcDbLine
 62
250
  6
CONTINUOUS
 10
333.228739027
 20
244.6040035679
 11
332.967776553
 21
244.6082587991
  0
LINE
  5
4FE
100
AcDbEntity
  8
0
100
AcDbLine
 62
7
  6
CONTINUOUS
 10
329.1238390653
 20
238.7129732376
 11
329.1238390653
 21
238.6629732376
  0
LINE
  5
4FF
100
AcDbEntity
  8
0
100
AcDbLine
 62
7
  6
CONTINUOUS
 10
329.3559582321
 20
238.7129732376
 11
329.3559582321
 21
238.6629732376
  0
LINE
  5
500
100
AcDbEntity
  8
0
100
AcDbLine
 62
7
  6
CONTINUOUS
 10
329.4397016035
 20
238.7129732376
 11
329.4397016035
 21
238.6629732376
  0
LINE
  5
501
100
AcDbEntity
  8
RACCORDO
100
AcDbLine
 62
250
  6
CONTINUOUS
 10
329.4803214684
 20
220.7129732376
 11
329.4803214684
 21
221.0103552769
  0
LINE
  5
502
100
AcDbEntity
  8
0
100
AcDbLine
 62
7
  6
CONTINUOUS
 10
329.5267155653
 20
238.7129732376
 11
329.5267155653
 21
238.6629732376
  0
LINE
  5
503
100
AcDbEntity
  8
RACCORDO
100
AcDbLine
 62
250
  6
CONTINUOUS
 10
329.0687830217
 20
222.1867946279
 11
329.1898366417
 21
236.7129732376
  0
LINE
  5
504
100
AcDbEntity
  8
RACCORDO
100
AcDbLine
 62
7
  6
CONTINUOUS
 10
329.1799212493
 20
222.1998834344
 11
329.3065750653
 21
236.7129732376
  0
LINE
  5
505
100
AcDbEntity
  8
RACCORDO
100
AcDbLine
 62
250
  6
CONTINUOUS
 10
332.967776553
 20
244.608258799
 11
332.8991748248
 21
238.7129732376
  0
LINE
  5
506
100
AcDbEntity
  8
RACCORDO
100
AcDbLine
 62
250
  6
CONTINUOUS
 10
330.9272263774
 20
236.7129732376
 11
330.685133119
 21
222.1894123892
  0
LINE
  5
507
100
AcDbEntity
  8
RACCORDO
100
AcDbLine
 62
250
  6
CONTINUOUS
 10
331.2256472501
 20
236.7129732376
 11
330.9836814073
 21
222.1867946279
  0
LINE
  5
508
100
AcDbEntity
  8
DRAFT
100
AcDbLine
 62
7
  6
CONTINUOUS
 10
331.3514299357
 20
238.4182089595
 11
331.0681095446
 21
222.1867946279
  0
LINE
  5
509
100
AcDbEntity
  8
RACCORDO
100
AcDbLine
 62
250
  6
CONTINUOUS
 10
333.056879675
 20
249.7129732376
 11
332.967776553
 21
244.608258799
  0
LWPOLYLINE
  5
50A
100
AcDbEntity
  8
RACCORDO
100
AcDbPolyline
 62
250
  6
CONTINUOUS
 90
24
 70
0
 10
330.9836814073
 20
222.1867946279
 10
330.9789132921
 20
222.0900047615
 10
330.9678864511
 20
221.9937270959
 10
330.9506467202
 20
221.8983635278
 10
330.9272669967
 20
221.8043178411
 10
330.8978438657
 20
221.7119767715
 10
330.8624935742
 20
221.6217095232
 10
330.8213563511
 20
221.5338882827
 10
330.7746027051
 20
221.4488878764
 10
330.7224276324
 20
221.3670674788
 10
330.6650469442
 20
221.2887730667
 10
330.6026958969
 20
221.2143314674
 10
330.53563084
 20
221.1440519898
 10
330.4641265907
 20
221.0782309685
 10
330.3884792369
 20
221.0171479805
 10
330.3090038871
 20
220.9610608577
 10
330.2260254076
 20
220.9102068189
 10
330.1398904744
 20
220.864805274
 10
330.0509696404
 20
220.8250539389
 10
329.9596357546
 20
220.7911238819
 10
329.8662653603
 20
220.7631587548
 10
329.7712504079
 20
220.7412782367
 10
329.6749874306
 20
220.7255780088
 10
329.5778761832
 20
220.716128422
  0
LWPOLYLINE
  5
50B
100
AcDbEntity
  8
RACCORDO
100
AcDbPolyline
 62
250
  6
CONTINUOUS
 90
25
 70
0
 10
330.685133119
 20
222.1894123892
 10
330.6812795463
 20
222.1117265414
 10
330.6725083683
 20
222.0350029182
 10
330.658819585
 20
221.9592415196
 10
330.6401179495
 20
221.8841114656
 10
330.6164987088
 20
221.8099436363
 10
330.5882476036
 20
221.737730671
 10
330.5553068694
 20
221.667517534
 10
330.5177342708
 20
221.5992592611
 10
330.475988842
 20
221.5338135996
 10
330.4300176757
 20
221.4712156141
 10
330.3798736793
 20
221.41143024
 10
330.3261746101
 20
221.3552100304
 10
330.2688747624
 20
221.3025986356
 10
330.2080198418
 20
221.2535524052
 10
330.1443647218
 20
221.2086929411
 10
330.0778715994
 20
221.168072603
 10
330.0085782775
 20
221.131639031
 10
329.9373530384
 20
221.0998567478
 10
329.8641462888
 20
221.0727848119
 10
329.7890076221
 20
221.0503641646
 10
329.7129541004
 20
221.0328821528
 10
329.6363247447
 20
221.0204345588
 10
329.558780534
 20
221.0129256001
 10
329.4803214684
 20
221.0103552769
  0
LINE
  5
50C
100
AcDbEntity
  8
RACCORDO
100
AcDbLine
 62
7
  6
CONTINUOUS
 10
291.0565750653
 20
249.7129732376
 11
335.0565750653
 21
249.7129732376
  0
LINE
  5
50D
100
AcDbEntity
  8
RACCORDO
100
AcDbLine
 62
250
  6
CONTINUOUS
 10
332.967776553
 20
254.8176876762
 11
333.056879675
 21
249.7129732376
  0
LINE
  5
50E
100
AcDbEntity
  8
RACCORDO
100
AcDbLine
 62
7
  6
CONTINUOUS
 10
334.8988702151
 20
258.7478780505
 11
335.0565750653
 21
249.7129732376
  0
LINE
  5
50F
100
AcDbEntity
  8
RACCORDO
100
AcDbLine
 62
250
  6
CONTINUOUS
 10
332.8991748248
 20
260.7129732376
 11
332.967776553
 21
254.8176876762
  0
LINE
  5
510
100
AcDbEntity
  8
RACCORDO
100
AcDbLine
 62
7
  6
CONTINUOUS
 10
335.0565750653
 20
254.4754400904
 11
335.0565750653
 21
244.9505063848
  0
LINE
  5
511
100
AcDbEntity
  8
RACCORDO
100
AcDbLine
 62
7
  6
CONTINUOUS
 10
335.0565750653
 20
249.7129732376
 11
334.8988702151
 21
240.6780684247
  0
LINE
  5
512
100
AcDbEntity
  8
RACCORDO
100
AcDbLine
 62
250
  6
CONTINUOUS
 10
333.3149533819
 20
254.8232157465
 11
332.967776553
 21
254.8176876762
  0
LINE
  5
513
100
AcDbEntity
  8
RACCORDO
100
AcDbLine
 62
250
  6
CONTINUOUS
 10
333.6515854987
 20
254.8275157597
 11
333.3149533819
 21
254.8232157465
  0
LINE
  5
514
100
AcDbEntity
  8
RACCORDO
100
AcDbLine
 62
250
  6
CONTINUOUS
 10
333.9674484631
 20
254.8304571125
 11
333.6515854987
 21
254.8275157597
  0
LINE
  5
515
100
AcDbEntity
  8
RACCORDO
100
AcDbLine
 62
250
  6
CONTINUOUS
 10
332.967776553
 20
254.8176876762
 11
293.1453735776
 21
254.8176876762
  0
LINE
  5
516
100
AcDbEntity
  8
RACCORDO
100
AcDbLine
 62
250
  6
CONTINUOUS
 10
291.8601994536
 20
254.8319505071
 11
292.14569972
 21
254.8304571569
  0
LINE
  5
517
100
AcDbEntity
  8
RACCORDO
100
AcDbLine
 62
250
  6
CONTINUOUS
 10
292.14569972
 20
254.8304571569
 11
292.4615630945
 21
254.8275157994
  0
LINE
  5
518
100
AcDbEntity
  8
RACCORDO
100
AcDbLine
 62
250
  6
CONTINUOUS
 10
292.4615630945
 20
254.8275157994
 11
292.7981958825
 21
254.823215771
  0
LINE
  5
519
100
AcDbEntity
  8
RACCORDO
100
AcDbLine
 62
250
  6
CONTINUOUS
 10
292.7981958825
 20
254.823215771
 11
293.1453735775
 21
254.8176876746
  0
LINE
  5
51A
100
AcDbEntity
  8
RACCORDO
100
AcDbLine
 62
7
  6
CONTINUOUS
 10
332.8991748248
 20
260.7129732376
 11
293.2139753057
 21
260.7129732376
  0
LINE
  5
51B
100
AcDbEntity
  8
0
100
AcDbLine
 62
7
  6
CONTINUOUS
 10
301.4543670653
 20
260.8629732376
 11
301.9730610653
 21
260.8629732376
  0
LINE
  5
51C
100
AcDbEntity
  8
ASSI
100
AcDbLine
 62
7
  6
CONTINUOUS
 10
301.9730610653
 20
260.8629732376
 11
306.1346470653
 21
260.8629732376
  0
LINE
  5
51D
100
AcDbEntity
  8
0
100
AcDbLine
 62
7
  6
CONTINUOUS
 10
306.1346470653
 20
260.8629732376
 11
306.8280020653
 21
260.8629732376
  0
LINE
  5
51E
100
AcDbEntity
  8
ASSI
100
AcDbLine
 62
7
  6
CONTINUOUS
 10
306.8280020653
 20
260.8629732376
 11
311.2073250653
 21
260.8629732376
  0
LINE
  5
51F
100
AcDbEntity
  8
0
100
AcDbLine
 62
7
  6
CONTINUOUS
 10
311.2073250653
 20
260.8629732376
 11
311.9006800653
 21
260.8629732376
  0
LINE
  5
520
100
AcDbEntity
  8
ASSI
100
AcDbLine
 62
7
  6
CONTINUOUS
 10
311.9006800653
 20
260.8629732376
 11
316.9873720653
 21
260.8629732376
  0
LINE
  5
521
100
AcDbEntity
  8
ASSI
100
AcDbLine
 62
7
  6
CONTINUOUS
 10
318.0273720653
 20
260.8629732376
 11
319.0674110653
 21
260.8629732376
  0
LINE
  5
522
100
AcDbEntity
  8
0
100
AcDbLine
 62
7
  6
CONTINUOUS
 10
316.9873720653
 20
260.8629732376
 11
318.0251370653
 21
260.8629732376
  0
LINE
  5
523
100
AcDbEntity
  8
0
100
AcDbLine
 62
7
  6
CONTINUOUS
 10
319.0674110653
 20
260.8629732376
 11
319.7607660653
 21
260.8629732376
  0
LINE
  5
524
100
AcDbEntity
  8
ASSI
100
AcDbLine
 62
7
  6
CONTINUOUS
 10
319.7607660653
 20
260.8629732376
 11
324.1400890653
 21
260.8629732376
  0
LWPOLYLINE
  5
525
100
AcDbEntity
  8
RACCORDO
100
AcDbPolyline
 62
250
  6
CONTINUOUS
 90
12
 70
0
 10
334.9674719433
 20
254.8176876762
 10
334.9598123729
 20
254.8205955446
 10
334.9369980823
 20
254.8232157471
 10
334.8992026346
 20
254.8255283502
 10
334.8467135646
 20
254.8275157603
 10
334.7799301911
 20
254.8291628581
 10
334.6993605787
 20
254.8304571129
 10
334.6056176734
 20
254.8313886784
 10
334.4994146387
 20
254.8319504677
 10
334.3815594306
 20
254.8321382068
 10
334.2529486509
 20
254.8319504675
 10
333.9674484631
 20
254.8304571125
  0
LWPOLYLINE
  5
526
100
AcDbEntity
  8
0
100
AcDbPolyline
 62
7
  6
CONTINUOUS
 90
3
 70
0
 43
0.3500000087
 10
314.5565827637
 20
270.2558170654
 10
313.0565812988
 20
270.2558170654
 10
313.6994195801
 20
272.6129817139
  0
LWPOLYLINE
  5
527
100
AcDbEntity
  8
0
100
AcDbPolyline
 62
7
  6
CONTINUOUS
 90
3
 70
0
 43
0.3500000087
 10
312.1994181152
 20
270.2558170654
 10
310.6994166504
 20
270.2558170654
 10
311.3422890381
 20
272.6129817139
  0
ARC
  5
528
100
AcDbEntity
  8
RACCORDO
100
AcDbCircle
 62
7
  6
CONTINUOUS
 10
197.0644135982
 20
221.0129732376
 40
0.3
100
AcDbArc
 50
180.5
 51
270.0
  0
ARC
  5
529
100
AcDbEntity
  8
RACCORDO
100
AcDbCircle
 62
7
  6
CONTINUOUS
 10
159.8552095279
 20
244.7129732376
 40
6.0
100
AcDbArc
 50
181.0
 51
270.0
  0
ARC
  5
52A
100
AcDbEntity
  8
RACCORDO
100
AcDbCircle
 62
7
  6
CONTINUOUS
 10
157.167020235
 20
251.0907069395
 40
1.0
100
AcDbArc
 50
305.2902160829
 51
309.6343013824
  0
ARC
  5
52B
100
AcDbEntity
  8
RACCORDO
100
AcDbCircle
 62
7
  6
CONTINUOUS
 10
157.1294858986
 20
248.7129732376
 40
1.0
100
AcDbArc
 50
49.9400127732
 51
53.6307815294
  0
ARC
  5
52C
100
AcDbEntity
  8
RACCORDO
100
AcDbCircle
 62
7
  6
CONTINUOUS
 10
159.8552095279
 20
254.7129732376
 40
6.0
100
AcDbArc
 50
90.0
 51
179.0
  0
ARC
  5
52D
100
AcDbEntity
  8
DRAFT
100
AcDbCircle
 62
7
  6
CONTINUOUS
 10
162.767020235
 20
249.7129732376
 40
5.05
100
AcDbArc
 50
90.0
 51
180.0
  0
ARC
  5
52E
100
AcDbEntity
  8
ASSI
100
AcDbCircle
 62
7
  6
CONTINUOUS
 10
162.767020235
 20
249.7129732376
 40
5.05
100
AcDbArc
 50
180.0
 51
270.0
  0
ARC
  5
52F
100
AcDbEntity
  8
DRAFT
100
AcDbCircle
 62
7
  6
CONTINUOUS
 10
162.767020235
 20
249.7129732376
 40
5.0
100
AcDbArc
 50
126.8698976458
 51
128.7394245979
  0
ARC
  5
530
100
AcDbEntity
  8
DRAFT
100
AcDbCircle
 62
7
  6
CONTINUOUS
 10
162.767020235
 20
249.7129732376
 40
5.0
100
AcDbArc
 50
143.1301023542
 51
216.8698976458
  0
ARC
  5
531
100
AcDbEntity
  8
DRAFT
100
AcDbCircle
 62
7
  6
CONTINUOUS
 10
162.767020235
 20
249.7129732376
 40
5.0
100
AcDbArc
 50
231.2605754021
 51
233.1301023542
  0
ARC
  5
532
100
AcDbEntity
  8
DRAFT
100
AcDbCircle
 62
7
  6
CONTINUOUS
 10
162.767020235
 20
249.7129732376
 40
4.9825462644
100
AcDbArc
 50
128.8099309414
 51
143.0632524405
  0
ARC
  5
533
100
AcDbEntity
  8
DRAFT
100
AcDbCircle
 62
7
  6
CONTINUOUS
 10
162.767020235
 20
249.7129732376
 40
4.9825462644
100
AcDbArc
 50
216.9367475595
 51
231.1900690586
  0
ARC
  5
534
100
AcDbEntity
  8
RACCORDO
100
AcDbCircle
 62
7
  6
CONTINUOUS
 10
162.767020235
 20
249.7129732376
 40
4.9825462644
100
AcDbArc
 50
90.0
 51
118.1225958865
  0
ARC
  5
535
100
AcDbEntity
  8
RACCORDO
100
AcDbCircle
 62
7
  6
CONTINUOUS
 10
162.767020235
 20
249.7129732376
 40
4.9825462644
100
AcDbArc
 50
241.8774041135
 51
270.0
  0
ARC
  5
536
100
AcDbEntity
  8
RACCORDO
100
AcDbCircle
 62
250
  6
CONTINUOUS
 10
162.767020235
 20
249.7129732376
 40
4.9624592374
100
AcDbArc
 50
90.0
 51
270.0
  0
ARC
  5
537
100
AcDbEntity
  8
RACCORDO
100
AcDbCircle
 62
250
  6
CONTINUOUS
 10
162.767020235
 20
249.7129732376
 40
4.7624668499
100
AcDbArc
 50
90.0
 51
270.0
  0
ARC
  5
538
100
AcDbEntity
  8
RACCORDO
100
AcDbCircle
 62
250
  6
CONTINUOUS
 10
162.767020235
 20
249.7129732376
 40
3.110483641
100
AcDbArc
 50
46.8022600009
 51
313.1977399991
  0
ARC
  5
539
100
AcDbEntity
  8
RACCORDO
100
AcDbCircle
 62
250
  6
CONTINUOUS
 10
162.767020235
 20
249.7129732376
 40
2.8104950879
100
AcDbArc
 50
46.8022600009
 51
313.1977399991
  0
ARC
  5
53A
100
AcDbEntity
  8
RACCORDO
100
AcDbCircle
 62
7
  6
CONTINUOUS
 10
162.767020235
 20
249.7129732376
 40
2.8
100
AcDbArc
 50
46.6738723601
 51
313.3261276399
  0
ARC
  5
53B
100
AcDbEntity
  8
ASSI
100
AcDbCircle
 62
7
  6
CONTINUOUS
 10
162.767020235
 20
249.7129732376
 40
2.75
100
AcDbArc
 50
81.7867892983
 51
105.4045763513
  0
ARC
  5
53C
100
AcDbEntity
  8
RACCORDO
100
AcDbCircle
 62
250
  6
CONTINUOUS
 10
166.267020235
 20
249.7129732376
 40
2.510483633
100
AcDbArc
 50
242.9195924225
 51
117.0804075775
  0
ARC
  5
53D
100
AcDbEntity
  8
RACCORDO
100
AcDbCircle
 62
250
  6
CONTINUOUS
 10
166.267020235
 20
249.7129732376
 40
2.2104950879
100
AcDbArc
 50
242.9198341543
 51
117.0804075775
  0
ARC
  5
53E
100
AcDbEntity
  8
RACCORDO
100
AcDbCircle
 62
7
  6
CONTINUOUS
 10
166.267020235
 20
249.7129732376
 40
2.2
100
AcDbArc
 50
242.7627292235
 51
117.2372707765
  0
ARC
  5
53F
100
AcDbEntity
  8
0
100
AcDbCircle
 62
7
  6
CONTINUOUS
 10
167.6472466923
 20
253.5948899827
 40
2.0002994523
100
AcDbArc
 50
262.0
 51
262.1897328023
  0
ARC
  5
540
100
AcDbEntity
  8
0
100
AcDbCircle
 62
7
  6
CONTINUOUS
 10
183.8867937777
 20
245.8310564925
 40
2.0002994523
100
AcDbArc
 50
82.0
 51
82.1897328023
  0
ARC
  5
541
100
AcDbEntity
  8
RACCORDO
100
AcDbCircle
 62
7
  6
CONTINUOUS
 10
180.1722110561
 20
238.4129732376
 40
0.3
100
AcDbArc
 50
1.0
 51
90.0
  0
ARC
  5
542
100
AcDbEntity
  8
ASSI
100
AcDbCircle
 62
7
  6
CONTINUOUS
 10
175.767020235
 20
249.7129732376
 40
16.65
100
AcDbArc
 50
13.5472422741
 51
13.6217004614
  0
ARC
  5
543
100
AcDbEntity
  8
ASSI
100
AcDbCircle
 62
7
  6
CONTINUOUS
 10
175.767020235
 20
249.7129732376
 40
16.65
100
AcDbArc
 50
193.5472422741
 51
193.6280960702
  0
ARC
  5
544
100
AcDbEntity
  8
DRAFT
100
AcDbCircle
 62
7
  6
CONTINUOUS
 10
188.767020235
 20
249.7129732376
 40
5.05
100
AcDbArc
 50
0.0
 51
90.0
  0
ARC
  5
545
100
AcDbEntity
  8
ASSI
100
AcDbCircle
 62
7
  6
CONTINUOUS
 10
188.767020235
 20
249.7129732376
 40
5.05
100
AcDbArc
 50
270.0
 51
360.0
  0
ARC
  5
546
100
AcDbEntity
  8
DRAFT
100
AcDbCircle
 62
7
  6
CONTINUOUS
 10
188.767020235
 20
249.7129732376
 40
5.0
100
AcDbArc
 50
306.8698976458
 51
308.7394245979
  0
ARC
  5
547
100
AcDbEntity
  8
DRAFT
100
AcDbCircle
 62
7
  6
CONTINUOUS
 10
188.767020235
 20
249.7129732376
 40
5.0
100
AcDbArc
 50
323.1301023542
 51
36.8698976458
  0
ARC
  5
548
100
AcDbEntity
  8
DRAFT
100
AcDbCircle
 62
7
  6
CONTINUOUS
 10
188.767020235
 20
249.7129732376
 40
5.0
100
AcDbArc
 50
51.2605754021
 51
53.1301023542
  0
ARC
  5
549
100
AcDbEntity
  8
DRAFT
100
AcDbCircle
 62
7
  6
CONTINUOUS
 10
188.767020235
 20
249.7129732376
 40
4.9825462644
100
AcDbArc
 50
36.9367475595
 51
51.1900690586
  0
ARC
  5
54A
100
AcDbEntity
  8
DRAFT
100
AcDbCircle
 62
7
  6
CONTINUOUS
 10
188.767020235
 20
249.7129732376
 40
4.9825462644
100
AcDbArc
 50
308.8099309414
 51
323.0632524405
  0
ARC
  5
54B
100
AcDbEntity
  8
RACCORDO
100
AcDbCircle
 62
7
  6
CONTINUOUS
 10
188.767020235
 20
249.7129732376
 40
4.9825462644
100
AcDbArc
 50
61.8774041135
 51
90.0
  0
ARC
  5
54C
100
AcDbEntity
  8
RACCORDO
100
AcDbCircle
 62
7
  6
CONTINUOUS
 10
188.767020235
 20
249.7129732376
 40
4.9825462644
100
AcDbArc
 50
270.0
 51
298.1225958865
  0
ARC
  5
54D
100
AcDbEntity
  8
RACCORDO
100
AcDbCircle
 62
250
  6
CONTINUOUS
 10
188.767020235
 20
249.7129732376
 40
4.9624592374
100
AcDbArc
 50
270.0
 51
90.0
  0
ARC
  5
54E
100
AcDbEntity
  8
RACCORDO
100
AcDbCircle
 62
250
  6
CONTINUOUS
 10
188.767020235
 20
249.7129732376
 40
4.7624668499
100
AcDbArc
 50
270.0
 51
90.0
  0
CIRCLE
  5
54F
100
AcDbEntity
  8
RACCORDO
100
AcDbCircle
 62
250
  6
CONTINUOUS
 10
175.767020235
 20
249.7129732376
 40
3.208745895
  0
ARC
  5
550
100
AcDbEntity
  8
RACCORDO
100
AcDbCircle
 62
250
  6
CONTINUOUS
 10
188.767020235
 20
249.7129732376
 40
3.110483641
100
AcDbArc
 50
226.8022600009
 51
133.1977399991
  0
ARC
  5
551
100
AcDbEntity
  8
RACCORDO
100
AcDbCircle
 62
250
  6
CONTINUOUS
 10
188.767020235
 20
249.7129732376
 40
2.8104950879
100
AcDbArc
 50
226.8022600009
 51
133.1977399991
  0
ARC
  5
552
100
AcDbEntity
  8
RACCORDO
100
AcDbCircle
 62
7
  6
CONTINUOUS
 10
188.767020235
 20
249.7129732376
 40
2.8
100
AcDbArc
 50
226.6738723601
 51
133.3261276399
  0
ARC
  5
553
100
AcDbEntity
  8
ASSI
100
AcDbCircle
 62
7
  6
CONTINUOUS
 10
188.767020235
 20
249.7129732376
 40
2.75
100
AcDbArc
 50
261.7867892983
 51
285.4045763513
  0
CIRCLE
  5
554
100
AcDbEntity
  8
RACCORDO
100
AcDbCircle
 62
250
  6
CONTINUOUS
 10
175.767020235
 20
249.7129732376
 40
2.7087649455
  0
CIRCLE
  5
555
100
AcDbEntity
  8
DRAFT
100
AcDbCircle
 62
7
  6
CONTINUOUS
 10
175.767020235
 20
249.7129732376
 40
2.7
  0
ARC
  5
556
100
AcDbEntity
  8
RACCORDO
100
AcDbCircle
 62
250
  6
CONTINUOUS
 10
185.267020235
 20
249.7129732376
 40
2.510483633
100
AcDbArc
 50
62.9195924225
 51
297.0804075775
  0
ARC
  5
557
100
AcDbEntity
  8
RACCORDO
100
AcDbCircle
 62
250
  6
CONTINUOUS
 10
185.267020235
 20
249.7129732376
 40
2.2104950879
100
AcDbArc
 50
62.9198341543
 51
297.0804075775
  0
ARC
  5
558
100
AcDbEntity
  8
RACCORDO
100
AcDbCircle
 62
7
  6
CONTINUOUS
 10
185.267020235
 20
249.7129732376
 40
2.2
100
AcDbArc
 50
62.7627292235
 51
297.2372707765
  0
ARC
  5
559
100
AcDbEntity
  8
0
100
AcDbCircle
 62
7
  6
CONTINUOUS
 10
198.767020235
 20
204.2129732376
 40
2.5
100
AcDbArc
 50
196.2602047083
 51
343.7397952917
  0
ARC
  5
55A
100
AcDbEntity
  8
RACCORDO
100
AcDbCircle
 62
7
  6
CONTINUOUS
 10
200.4696268718
 20
221.0129732376
 40
0.3
100
AcDbArc
 50
270.0
 51
359.5
  0
ARC
  5
55B
100
AcDbEntity
  8
RACCORDO
100
AcDbCircle
 62
7
  6
CONTINUOUS
 10
217.3618294139
 20
238.4129732376
 40
0.3
100
AcDbArc
 50
90.0
 51
179.0
  0
ARC
  5
55C
100
AcDbEntity
  8
ASSI
100
AcDbCircle
 62
7
  6
CONTINUOUS
 10
221.767020235
 20
249.7129732376
 40
16.65
100
AcDbArc
 50
193.5472422741
 51
193.6280960702
  0
ARC
  5
55D
100
AcDbEntity
  8
ASSI
100
AcDbCircle
 62
7
  6
CONTINUOUS
 10
221.767020235
 20
249.7129732376
 40
16.65
100
AcDbArc
 50
13.5472422741
 51
13.6217004614
  0
ARC
  5
55E
100
AcDbEntity
  8
DRAFT
100
AcDbCircle
 62
7
  6
CONTINUOUS
 10
208.767020235
 20
249.7129732376
 40
5.05
100
AcDbArc
 50
90.0
 51
180.0
  0
ARC
  5
55F
100
AcDbEntity
  8
ASSI
100
AcDbCircle
 62
7
  6
CONTINUOUS
 10
208.767020235
 20
249.7129732376
 40
5.05
100
AcDbArc
 50
180.0
 51
270.0
  0
ARC
  5
560
100
AcDbEntity
  8
DRAFT
100
AcDbCircle
 62
7
  6
CONTINUOUS
 10
208.767020235
 20
249.7129732376
 40
5.0
100
AcDbArc
 50
126.8698976458
 51
128.7394245979
  0
ARC
  5
561
100
AcDbEntity
  8
DRAFT
100
AcDbCircle
 62
7
  6
CONTINUOUS
 10
208.767020235
 20
249.7129732376
 40
5.0
100
AcDbArc
 50
143.1301023542
 51
216.8698976458
  0
ARC
  5
562
100
AcDbEntity
  8
DRAFT
100
AcDbCircle
 62
7
  6
CONTINUOUS
 10
208.767020235
 20
249.7129732376
 40
5.0
100
AcDbArc
 50
231.2605754021
 51
233.1301023542
  0
ARC
  5
563
100
AcDbEntity
  8
DRAFT
100
AcDbCircle
 62
7
  6
CONTINUOUS
 10
208.767020235
 20
249.7129732376
 40
4.9825462644
100
AcDbArc
 50
216.9367475595
 51
231.1900690586
  0
ARC
  5
564
100
AcDbEntity
  8
DRAFT
100
AcDbCircle
 62
7
  6
CONTINUOUS
 10
208.767020235
 20
249.7129732376
 40
4.9825462644
100
AcDbArc
 50
128.8099309414
 51
143.0632524405
  0
ARC
  5
565
100
AcDbEntity
  8
RACCORDO
100
AcDbCircle
 62
7
  6
CONTINUOUS
 10
208.767020235
 20
249.7129732376
 40
4.9825462644
100
AcDbArc
 50
241.8774041135
 51
270.0
  0
ARC
  5
566
100
AcDbEntity
  8
RACCORDO
100
AcDbCircle
 62
7
  6
CONTINUOUS
 10
208.767020235
 20
249.7129732376
 40
4.9825462644
100
AcDbArc
 50
90.0
 51
118.1225958865
  0
ARC
  5
567
100
AcDbEntity
  8
RACCORDO
100
AcDbCircle
 62
250
  6
CONTINUOUS
 10
208.767020235
 20
249.7129732376
 40
4.9624592374
100
AcDbArc
 50
90.0
 51
270.0
  0
ARC
  5
568
100
AcDbEntity
  8
RACCORDO
100
AcDbCircle
 62
250
  6
CONTINUOUS
 10
208.767020235
 20
249.7129732376
 40
4.7624668499
100
AcDbArc
 50
90.0
 51
270.0
  0
CIRCLE
  5
569
100
AcDbEntity
  8
RACCORDO
100
AcDbCircle
 62
250
  6
CONTINUOUS
 10
221.767020235
 20
249.7129732376
 40
3.208745895
  0
ARC
  5
56A
100
AcDbEntity
  8
RACCORDO
100
AcDbCircle
 62
250
  6
CONTINUOUS
 10
208.767020235
 20
249.7129732376
 40
3.110483641
100
AcDbArc
 50
46.8022600009
 51
313.1977399991
  0
ARC
  5
56B
100
AcDbEntity
  8
RACCORDO
100
AcDbCircle
 62
250
  6
CONTINUOUS
 10
208.767020235
 20
249.7129732376
 40
2.8104950879
100
AcDbArc
 50
46.8022600009
 51
313.1977399991
  0
ARC
  5
56C
100
AcDbEntity
  8
RACCORDO
100
AcDbCircle
 62
7
  6
CONTINUOUS
 10
208.767020235
 20
249.7129732376
 40
2.8
100
AcDbArc
 50
46.6738723601
 51
313.3261276399
  0
ARC
  5
56D
100
AcDbEntity
  8
ASSI
100
AcDbCircle
 62
7
  6
CONTINUOUS
 10
208.767020235
 20
249.7129732376
 40
2.75
100
AcDbArc
 50
81.7867892983
 51
105.4045763513
  0
CIRCLE
  5
56E
100
AcDbEntity
  8
RACCORDO
100
AcDbCircle
 62
250
  6
CONTINUOUS
 10
221.767020235
 20
249.7129732376
 40
2.7087649455
  0
CIRCLE
  5
56F
100
AcDbEntity
  8
DRAFT
100
AcDbCircle
 62
7
  6
CONTINUOUS
 10
221.767020235
 20
249.7129732376
 40
2.7
  0
ARC
  5
570
100
AcDbEntity
  8
RACCORDO
100
AcDbCircle
 62
250
  6
CONTINUOUS
 10
212.267020235
 20
249.7129732376
 40
2.510483633
100
AcDbArc
 50
242.9195924225
 51
117.0804075775
  0
ARC
  5
571
100
AcDbEntity
  8
RACCORDO
100
AcDbCircle
 62
250
  6
CONTINUOUS
 10
212.267020235
 20
249.7129732376
 40
2.2104950879
100
AcDbArc
 50
242.9198341543
 51
117.0804075775
  0
ARC
  5
572
100
AcDbEntity
  8
RACCORDO
100
AcDbCircle
 62
7
  6
CONTINUOUS
 10
212.267020235
 20
249.7129732376
 40
2.2
100
AcDbArc
 50
242.7627292235
 51
117.2372707765
  0
ARC
  5
573
100
AcDbEntity
  8
0
100
AcDbCircle
 62
7
  6
CONTINUOUS
 10
213.6472466923
 20
253.5948899827
 40
2.0002994523
100
AcDbArc
 50
262.0
 51
262.1897328023
  0
ARC
  5
574
100
AcDbEntity
  8
RACCORDO
100
AcDbCircle
 62
7
  6
CONTINUOUS
 10
237.6788309421
 20
244.7129732376
 40
6.0
100
AcDbArc
 50
270.0
 51
359.0
  0
ARC
  5
575
100
AcDbEntity
  8
0
100
AcDbCircle
 62
7
  6
CONTINUOUS
 10
229.8867937777
 20
245.8310564925
 40
2.0002994523
100
AcDbArc
 50
82.0
 51
82.1897328023
  0
ARC
  5
576
100
AcDbEntity
  8
RACCORDO
100
AcDbCircle
 62
7
  6
CONTINUOUS
 10
237.6788309421
 20
254.7129732376
 40
6.0
100
AcDbArc
 50
1.0
 51
90.0
  0
ARC
  5
577
100
AcDbEntity
  8
DRAFT
100
AcDbCircle
 62
7
  6
CONTINUOUS
 10
234.767020235
 20
249.7129732376
 40
5.05
100
AcDbArc
 50
0.0
 51
90.0
  0
ARC
  5
578
100
AcDbEntity
  8
ASSI
100
AcDbCircle
 62
7
  6
CONTINUOUS
 10
234.767020235
 20
249.7129732376
 40
5.05
100
AcDbArc
 50
270.0
 51
360.0
  0
ARC
  5
579
100
AcDbEntity
  8
DRAFT
100
AcDbCircle
 62
7
  6
CONTINUOUS
 10
234.767020235
 20
249.7129732376
 40
5.0
100
AcDbArc
 50
306.8698976458
 51
308.7394245979
  0
ARC
  5
57A
100
AcDbEntity
  8
DRAFT
100
AcDbCircle
 62
7
  6
CONTINUOUS
 10
234.767020235
 20
249.7129732376
 40
5.0
100
AcDbArc
 50
323.1301023542
 51
36.8698976458
  0
ARC
  5
57B
100
AcDbEntity
  8
DRAFT
100
AcDbCircle
 62
7
  6
CONTINUOUS
 10
234.767020235
 20
249.7129732376
 40
5.0
100
AcDbArc
 50
51.2605754021
 51
53.1301023542
  0
ARC
  5
57C
100
AcDbEntity
  8
DRAFT
100
AcDbCircle
 62
7
  6
CONTINUOUS
 10
234.767020235
 20
249.7129732376
 40
4.9825462644
100
AcDbArc
 50
308.8099309414
 51
323.0632524405
  0
ARC
  5
57D
100
AcDbEntity
  8
DRAFT
100
AcDbCircle
 62
7
  6
CONTINUOUS
 10
234.767020235
 20
249.7129732376
 40
4.9825462644
100
AcDbArc
 50
36.9367475595
 51
51.1900690586
  0
ARC
  5
57E
100
AcDbEntity
  8
RACCORDO
100
AcDbCircle
 62
7
  6
CONTINUOUS
 10
234.767020235
 20
249.7129732376
 40
4.9825462644
100
AcDbArc
 50
270.0
 51
298.1225958865
  0
ARC
  5
57F
100
AcDbEntity
  8
RACCORDO
100
AcDbCircle
 62
7
  6
CONTINUOUS
 10
234.767020235
 20
249.7129732376
 40
4.9825462644
100
AcDbArc
 50
61.8774041135
 51
90.0
  0
ARC
  5
580
100
AcDbEntity
  8
RACCORDO
100
AcDbCircle
 62
250
  6
CONTINUOUS
 10
234.767020235
 20
249.7129732376
 40
4.9624592374
100
AcDbArc
 50
270.0
 51
90.0
  0
ARC
  5
581
100
AcDbEntity
  8
RACCORDO
100
AcDbCircle
 62
250
  6
CONTINUOUS
 10
234.767020235
 20
249.7129732376
 40
4.7624668499
100
AcDbArc
 50
270.0
 51
90.0
  0
ARC
  5
582
100
AcDbEntity
  8
RACCORDO
100
AcDbCircle
 62
250
  6
CONTINUOUS
 10
234.767020235
 20
249.7129732376
 40
3.110483641
100
AcDbArc
 50
226.8022600009
 51
133.1977399991
  0
ARC
  5
583
100
AcDbEntity
  8
RACCORDO
100
AcDbCircle
 62
250
  6
CONTINUOUS
 10
234.767020235
 20
249.7129732376
 40
2.8104950879
100
AcDbArc
 50
226.8022600009
 51
133.1977399991
  0
ARC
  5
584
100
AcDbEntity
  8
RACCORDO
100
AcDbCircle
 62
7
  6
CONTINUOUS
 10
234.767020235
 20
249.7129732376
 40
2.8
100
AcDbArc
 50
226.6738723601
 51
133.3261276399
  0
ARC
  5
585
100
AcDbEntity
  8
ASSI
100
AcDbCircle
 62
7
  6
CONTINUOUS
 10
234.767020235
 20
249.7129732376
 40
2.75
100
AcDbArc
 50
261.7867892983
 51
285.4045763513
  0
ARC
  5
586
100
AcDbEntity
  8
RACCORDO
100
AcDbCircle
 62
250
  6
CONTINUOUS
 10
231.267020235
 20
249.7129732376
 40
2.510483633
100
AcDbArc
 50
62.9195924225
 51
297.0804075775
  0
ARC
  5
587
100
AcDbEntity
  8
RACCORDO
100
AcDbCircle
 62
250
  6
CONTINUOUS
 10
231.267020235
 20
249.7129732376
 40
2.2104950879
100
AcDbArc
 50
62.9198341543
 51
297.0804075775
  0
ARC
  5
588
100
AcDbEntity
  8
RACCORDO
100
AcDbCircle
 62
7
  6
CONTINUOUS
 10
231.267020235
 20
249.7129732376
 40
2.2
100
AcDbArc
 50
62.7627292235
 51
297.2372707765
  0
ARC
  5
589
100
AcDbEntity
  8
RACCORDO
100
AcDbCircle
 62
7
  6
CONTINUOUS
 10
240.367020235
 20
251.0907069395
 40
1.0
100
AcDbArc
 50
230.3656986176
 51
234.7097839171
  0
ARC
  5
58A
100
AcDbEntity
  8
RACCORDO
100
AcDbCircle
 62
7
  6
CONTINUOUS
 10
240.4045545714
 20
248.7129732376
 40
1.0
100
AcDbArc
 50
126.3692033869
 51
130.0599718654
  0
ARC
  5
58B
100
AcDbEntity
  8
0
100
AcDbCircle
 62
7
  6
CONTINUOUS
 10
303.5565750653
 20
204.2129732376
 40
2.5
100
AcDbArc
 50
196.2602047083
 51
343.7397952917
  0
ARC
  5
58C
100
AcDbEntity
  8
0
100
AcDbCircle
 62
7
  6
CONTINUOUS
 10
322.5565750653
 20
204.2129732376
 40
2.5
100
AcDbArc
 50
196.2602047083
 51
343.7397952917
  0
ARC
  5
58D
100
AcDbEntity
  8
RACCORDO
100
AcDbCircle
 62
7
  6
CONTINUOUS
 10
332.8991751229
 20
258.7129561601
 40
2.0
100
AcDbArc
 50
1.0004893078
 51
90.0000085394
  0
ARC
  5
58E
100
AcDbEntity
  8
RACCORDO
100
AcDbCircle
 62
7
  6
CONTINUOUS
 10
293.2139751164
 20
258.7129623933
 40
2.0
100
AcDbArc
 50
89.9999945774
 51
178.9996892874
  0
ARC
  5
58F
100
AcDbEntity
  8
RACCORDO
100
AcDbCircle
 62
7
  6
CONTINUOUS
 10
332.8991748248
 20
240.7129732376
 40
2.0
100
AcDbArc
 50
270.0
 51
359.0
  0
ARC
  5
590
100
AcDbEntity
  8
RACCORDO
100
AcDbCircle
 62
7
  6
CONTINUOUS
 10
293.2139752766
 20
240.7129749037
 40
2.0
100
AcDbArc
 50
181.0000477375
 51
270.0000008331
  0
ARC
  5
591
100
AcDbEntity
  8
RACCORDO
100
AcDbCircle
 62
7
  6
CONTINUOUS
 10
329.5683380019
 20
222.2129732376
 40
1.5
100
AcDbArc
 50
270.0
 51
359.0
  0
ARC
  5
592
100
AcDbEntity
  8
RACCORDO
100
AcDbCircle
 62
7
  6
CONTINUOUS
 10
296.5448121287
 20
222.2129732376
 40
1.5
100
AcDbArc
 50
181.0
 51
270.0
  0
ARC
  5
593
100
AcDbEntity
  8
RACCORDO
100
AcDbCircle
 62
7
  6
CONTINUOUS
 10
327.6799783647
 20
222.2129732376
 40
1.5
100
AcDbArc
 50
270.0
 51
359.5
  0
ARC
  5
594
100
AcDbEntity
  8
RACCORDO
100
AcDbCircle
 62
7
  6
CONTINUOUS
 10
298.4331717658
 20
222.2129732376
 40
1.5
100
AcDbArc
 50
180.5
 51
270.0
  0
ARC
  5
595
100
AcDbEntity
  8
RACCORDO
100
AcDbCircle
 62
7
  6
CONTINUOUS
 10
294.4617658863
 20
238.4129732376
 40
0.3
100
AcDbArc
 50
1.0
 51
90.0
  0
ARC
  5
596
100
AcDbEntity
  8
RACCORDO
100
AcDbCircle
 62
7
  6
CONTINUOUS
 10
331.6513842442
 20
238.4129732376
 40
0.3
100
AcDbArc
 50
90.0
 51
179.0
  0
ARC
  5
597
100
AcDbEntity
  8
RACCORDO
100
AcDbCircle
 62
7
  6
CONTINUOUS
 10
312.8801490318
 20
225.1129732376
 40
0.3
100
AcDbArc
 50
90.0
 51
179.5
  0
ARC
  5
598
100
AcDbEntity
  8
RACCORDO
100
AcDbCircle
 62
7
  6
CONTINUOUS
 10
313.2330010987
 20
225.1129732376
 40
0.3
100
AcDbArc
 50
0.5
 51
90.0
  0
ARC
  5
599
100
AcDbEntity
  8
RACCORDO
100
AcDbCircle
 62
7
  6
CONTINUOUS
 10
334.8565750653
 20
244.9505063848
 40
0.2
100
AcDbArc
 50
304.7647014299
 51
360.0
  0
ARC
  5
59A
100
AcDbEntity
  8
RACCORDO
100
AcDbCircle
 62
7
  6
CONTINUOUS
 10
334.8565750653
 20
254.4754400904
 40
0.2
100
AcDbArc
 50
0.0
 51
55.2352985701
  0
ARC
  5
59B
100
AcDbEntity
  8
RACCORDO
100
AcDbCircle
 62
7
  6
CONTINUOUS
 10
291.2565750653
 20
254.4754400904
 40
0.2
100
AcDbArc
 50
124.7647014299
 51
180.0
  0
ARC
  5
59C
100
AcDbEntity
  8
RACCORDO
100
AcDbCircle
 62
7
  6
CONTINUOUS
 10
291.2565750653
 20
244.9505063848
 40
0.2
100
AcDbArc
 50
180.0
 51
235.2352985701
  0
ELLIPSE
  5
59D
100
AcDbEntity
  8
RACCORDO
100
AcDbEllipse
 62
7
  6
CONTINUOUS
 10
188.792062206
 20
249.7129732376
 30
0.0
 11
4.9701642286
 21
-0.0
 31
0.0
 40
0.9999873069
 41
-1.0265239927
 42
-0.9934927389
  0
ELLIPSE
  5
59E
100
AcDbEntity
  8
RACCORDO
100
AcDbEllipse
 62
7
  6
CONTINUOUS
 10
162.741978264
 20
249.7129732376
 30
0.0
 11
4.9701642286
 21
-0.0
 31
0.0
 40
0.9999873069
 41
-2.1480999147
 42
-2.1150686608
  0
ELLIPSE
  5
59F
100
AcDbEntity
  8
RACCORDO
100
AcDbEllipse
 62
7
  6
CONTINUOUS
 10
162.741978264
 20
249.7129732376
 30
0.0
 11
4.9701642286
 21
-0.0
 31
0.0
 40
0.9999873069
 41
2.1150686608
 42
2.1480999147
  0
ELLIPSE
  5
5A0
100
AcDbEntity
  8
RACCORDO
100
AcDbEllipse
 62
7
  6
CONTINUOUS
 10
188.792062206
 20
249.7129732376
 30
0.0
 11
4.9701642286
 21
-0.0
 31
0.0
 40
0.9999873069
 41
0.9934927389
 42
1.0265239927
  0
ELLIPSE
  5
5A1
100
AcDbEntity
  8
RACCORDO
100
AcDbEllipse
 62
7
  6
CONTINUOUS
 10
208.741978264
 20
249.7129732376
 30
0.0
 11
4.9701642286
 21
-0.0
 31
0.0
 40
0.9999873069
 41
2.1150686608
 42
2.1480999147
  0
ELLIPSE
  5
5A2
100
AcDbEntity
  8
RACCORDO
100
AcDbEllipse
 62
7
  6
CONTINUOUS
 10
234.792062206
 20
249.7129732376
 30
0.0
 11
4.9701642286
 21
-0.0
 31
0.0
 40
0.9999873069
 41
0.9934927389
 42
1.0265239927
  0
ELLIPSE
  5
5A3
100
AcDbEntity
  8
RACCORDO
100
AcDbEllipse
 62
7
  6
CONTINUOUS
 10
234.792062206
 20
249.7129732376
 30
0.0
 11
4.9701642286
 21
-0.0
 31
0.0
 40
0.9999873069
 41
-1.0265239927
 42
-0.9934927389
  0
ELLIPSE
  5
5A4
100
AcDbEntity
  8
RACCORDO
100
AcDbEllipse
 62
7
  6
CONTINUOUS
 10
208.741978264
 20
249.7129732376
 30
0.0
 11
4.9701642286
 21
-0.0
 31
0.0
 40
0.9999873069
 41
-2.1480999147
 42
-2.1150686608
  0
ENDSEC
  0
SECTION
  2
OBJECTS
  0
DICTIONARY
  5
C
100
AcDbDictionary
280
0
281
1
  3
ACAD_GROUP
350
D
  3
ACAD_MLINESTYLE
350
17
  3
ACAD_LAYOUT
350
1A
  3
ACAD_PLOTSETTINGS
350
19
  3
ACAD_PLOTSTYLENAME
350
E
  0
DICTIONARY
  5
D
102
{ACAD_REACTORS
330
C
102
}
100
AcDbDictionary
280
0
281
1
  0
ACDBDICTIONARYWDFLT
  5
E
102
{ACAD_REACTORS
330
C
102
}
100
AcDbDictionary
281
1
  3
Normal
350
F
100
AcDbDictionaryWithDefault
340
F
  0
DICTIONARY
  5
17
102
{ACAD_REACTORS
330
C
102
}
100
AcDbDictionary
280
0
281
1
  3
Standard
350
18
  0
DICTIONARY
  5
19
102
{ACAD_REACTORS
330
C
102
}
100
AcDbDictionary
281
1
  0
DICTIONARY
  5
1A
102
{ACAD_REACTORS
330
C
102
}
100
AcDbDictionary
281
1
  3
Model
350
5A5
  3
Layout1
350
5A6
  0
ACDBPLACEHOLDER
  5
F
102
{ACAD_REACTORS
330
E
102
}
  0
MLINESTYLE
  5
18
102
{ACAD_REACTORS
330
17
102
}
100
AcDbMlineStyle
  2
STANDARD
 70
0
  3

 62
256
 51
90.0
 52
90.0
 71
2
 49
0.5
 62
256
  6
BYLAYER
 49
-0.5
 62
256
  6
BYLAYER
  0
LAYOUT
  5
5A5
102
{ACAD_REACTORS
330
1A
102
}
100
AcDbPlotSettings
  1

  2
none_device
  4
ANSI_C_(22.00_x_17.00_Inches)
  6

 40
0.0
 41
0.0
 42
0.0
 43
0.0
 44
558.8
 45
431.8
 46
0.0
 47
0.0
 48
0.0
 49
0.0
140
0.0
141
0.0
142
1.0
143
1.0
 70
1024
 72
1
 73
0
 74
0
  7

 75
0
147
1.0
148
0.0
149
0.0
100
AcDbLayout
  1
Model
 70
0
 71
0
 10
0.0
 20
0.0
 11
558.8
 21
431.8
 12
0.0
 22
0.0
 32
0.0
 14
0.0
 24
0.0
 34
0.0
 15
0.0
 25
0.0
 35
0.0
146
0.0
 13
0.0
 23
0.0
 33
0.0
 16
1.0
 26
0.0
 36
0.0
 17
0.0
 27
1.0
 37
0.0
 76
0
330
219
345
0
346
0
  0
LAYOUT
  5
5A6
102
{ACAD_REACTORS
330
1A
102
}
100
AcDbPlotSettings
  1

  2
none_device
  4
ANSI_C_(22.00_x_17.00_Inches)
  6

 40
0.0
 41
0.0
 42
0.0
 43
0.0
 44
558.8
 45
431.8
 46
0.0
 47
0.0
 48
0.0
 49
0.0
140
0.0
141
0.0
142
1.0
143
1.0
 70
0
 72
1
 73
0
 74
0
  7

 75
0
147
1.0
148
0.0
149
0.0
100
AcDbLayout
  1
Layout1
 70
0
 71
1
 10
0.0
 20
0.0
 11
558.8
 21
431.8
 12
0.0
 22
0.0
 32
0.0
 14
0.0
 24
0.0
 34
0.0
 15
0.0
 25
0.0
 35
0.0
146
0.0
 13
0.0
 23
0.0
 33
0.0
 16
1.0
 26
0.0
 36
0.0
 17
0.0
 27
1.0
 37
0.0
 76
0
330
21A
345
0
346
0
  0
ENDSEC
  0
EOF
