  0
SECTION
  2
HEADER
  9
$ACADVER
  1
AC1021
  9
$DWGCODEPAGE
  3
ANSI_1252
  9
$EXTMAX
 10
297.0
 20
210.0
 30
0.0
  9
$EXTMIN
 10
0.0
 20
0.0
 30
0.0
  9
$LIMMIN
 10
0.0
 20
0.0
  9
$LIMMAX
 10
297.0
 20
210.0
  9
$VIEWCTR
 10
148.5
 20
105.0
  9
$VIEWSIZE
 40
210.0
  9
$CLAYER
  8
0
  9
$LTSCALE
 40
16.335
  9
$CELTYPE
  6
BYLAYER
  9
$DIMSCALE
 40
1.0
  9
$DIMASZ
 40
3.0
  9
$DIMEXO
 40
0.5
  9
$DIMDLI
 40
11.286
  9
$DIMEXE
 40
1.5
  9
$DIMCEN
 40
2.673
  9
$DIMLFAC
 40
1.0
  9
$DIMBLK
  1
_FILLED
  9
$DIMALT
 70
0
  9
$DIMALTF
 40
0.0393700787
  9
$DIMTXT
 40
3.0
  9
$DIMTOL
 70
1
  9
$DIMLIM
 70
0
  9
$DIMTFAC
 40
1.0
  9
$DIMTP
 40
0.01
  9
$DIMTM
 40
0.01
  9
$DIMGAP
 40
0.625
  9
$DIMDSEP
 70
44
  9
$AUNITS
 70
0
  9
$PDMODE
 70
3
  9
$PDSIZE
 40
3.0
  9
$HANDSEED
  5
796
  9
$TILEMODE
 70
1
  9
$MEASUREMENT
 70
1
  9
$INSUNITS
 70
4
  0
ENDSEC
  0
SECTION
  2
CLASSES
  0
CLASS
  1
ACDBDICTIONARYWDFLT
  2
AcDbDictionaryWithDefault
  3
AutoCAD 2000
 90
0
 91
1
280
0
281
0
  0
CLASS
  1
ACDBPLACEHOLDER
  2
AcDbPlaceHolder
  3
AutoCAD 2000
 90
0
 91
1
280
0
281
0
  0
CLASS
  1
LAYOUT
  2
AcDbLayout
  3
AutoCAD 2000
 90
0
 91
0
280
0
281
0
  0
ENDSEC
  0
SECTION
  2
TABLES
  0
TABLE
  2
VPORT
  5
8
100
AcDbSymbolTable
 70
2
  0
VPORT
  5
1F4
100
AcDbSymbolTableRecord
100
AcDbViewportTableRecord
  2
*ACTIVE
 70
0
 10
0.0
 20
0.0
 11
1.0
 21
1.0
 12
148.5
 22
105.0
 13
0.0
 23
0.0
 14
1.0
 24
1.0
 15
0.0
 25
0.0
 16
0.0
 26
0.0
 36
1.0
 17
0.0
 27
0.0
 37
0.0
 40
210.0
 41
1.4142857143
 42
50.0
 43
0.0
 44
0.0
 50
0.0
 51
0.0
 71
0
 72
100
 73
1
 74
1
 75
0
 76
0
 77
0
 78
0
  0
ENDTAB
  0
TABLE
  2
LTYPE
  5
5
100
AcDbSymbolTable
 70
6
  0
LTYPE
  5
14
100
AcDbSymbolTableRecord
100
AcDbLinetypeTableRecord
  2
BYBLOCK
 70
0
  3

 72
65
 73
0
 40
0.0
  0
LTYPE
  5
15
100
AcDbSymbolTableRecord
100
AcDbLinetypeTableRecord
  2
BYLAYER
 70
0
  3

 72
65
 73
0
 40
0.0
  0
LTYPE
  5
16
100
AcDbSymbolTableRecord
100
AcDbLinetypeTableRecord
  2
CONTINUOUS
 70
64
  3
Solid line
 72
65
 73
0
 40
0.0
  0
LTYPE
  5
1F5
100
AcDbSymbolTableRecord
100
AcDbLinetypeTableRecord
  2
CENTER
 70
64
  3
____ _ ____ _ ____ _ ____ _ ____ _ ____ _ ____
 72
65
 73
4
 40
0.6
 49
0.375
 74
0
 49
-0.075
 74
0
 49
0.075
 74
0
 49
-0.075
 74
0
  0
LTYPE
  5
1F6
100
AcDbSymbolTableRecord
100
AcDbLinetypeTableRecord
  2
HIDDEN
 70
64
  3
- - - - - - - - - - - - - - - - - - - -
 72
65
 73
2
 40
0.2
 49
0.1
 74
0
 49
-0.1
 74
0
  0
LTYPE
  5
1F7
100
AcDbSymbolTableRecord
100
AcDbLinetypeTableRecord
  2
PHANTOM
 70
64
  3
_____ _ _ _____ _ _ _____ _ _ _____
 72
65
 73
6
 40
0.8
 49
0.45
 74
0
 49
-0.05
 74
0
 49
0.1
 74
0
 49
-0.05
 74
0
 49
0.1
 74
0
 49
-0.05
 74
0
  0
LTYPE
  5
1F8
100
AcDbSymbolTableRecord
100
AcDbLinetypeTableRecord
  2
DOT
 70
64
  3
. . . . . . . . . . . . . . . . . . . .
 72
65
 73
2
 40
0.2
 49
0.1
 74
0
 49
-0.1
 74
0
  0
LTYPE
  5
1F9
100
AcDbSymbolTableRecord
100
AcDbLinetypeTableRecord
  2
DASHED
 70
64
  3
- - - - - - - - - - - - - - - - - - - -
 72
65
 73
2
 40
0.2
 49
0.1
 74
0
 49
-0.1
 74
0
  0
ENDTAB
  0
TABLE
  2
LAYER
  5
2
100
AcDbSymbolTable
 70
36
  0
LAYER
  5
10
100
AcDbSymbolTableRecord
100
AcDbLayerTableRecord
  2
0
 70
0
 62
7
  6
CONTINUOUS
370
-3
390
F
  0
LAYER
  5
1FA
100
AcDbSymbolTableRecord
100
AcDbLayerTableRecord
  2
DEFAULT_1
 70
0
 62
7
  6
CENTER
370
-3
390
F
  0
LAYER
  5
1FB
100
AcDbSymbolTableRecord
100
AcDbLayerTableRecord
  2
DEFAULT_2
 70
0
 62
7
  6
HIDDEN
370
-3
390
F
  0
LAYER
  5
1FC
100
AcDbSymbolTableRecord
100
AcDbLayerTableRecord
  2
DEFAULT_3
 70
0
 62
7
  6
PHANTOM
370
-3
390
F
  0
LAYER
  5
1FD
100
AcDbSymbolTableRecord
100
AcDbLayerTableRecord
  2
ASSI
 70
0
 62
7
  6
CONTINUOUS
370
-3
390
F
  0
LAYER
  5
1FE
100
AcDbSymbolTableRecord
100
AcDbLayerTableRecord
  2
COLORI
 70
0
 62
7
  6
CONTINUOUS
370
-3
390
F
  0
LAYER
  5
1FF
100
AcDbSymbolTableRecord
100
AcDbLayerTableRecord
  2
COORDINATE
 70
0
 62
7
  6
CONTINUOUS
370
-3
390
F
  0
LAYER
  5
200
100
AcDbSymbolTableRecord
100
AcDbLayerTableRecord
  2
COPY_PUBLISH
 70
0
 62
7
  6
CONTINUOUS
370
-3
390
F
  0
LAYER
  5
201
100
AcDbSymbolTableRecord
100
AcDbLayerTableRecord
  2
COSMETICI
 70
0
 62
7
  6
CONTINUOUS
370
-3
390
F
  0
LAYER
  5
202
100
AcDbSymbolTableRecord
100
AcDbLayerTableRecord
  2
CURVE
 70
0
 62
7
  6
CONTINUOUS
370
-3
390
F
  0
LAYER
  5
203
100
AcDbSymbolTableRecord
100
AcDbLayerTableRecord
  2
DRAFT
 70
0
 62
7
  6
CONTINUOUS
370
-3
390
F
  0
LAYER
  5
204
100
AcDbSymbolTableRecord
100
AcDbLayerTableRecord
  2
IMPORT_IGES
 70
0
 62
7
  6
CONTINUOUS
370
-3
390
F
  0
LAYER
  5
205
100
AcDbSymbolTableRecord
100
AcDbLayerTableRecord
  2
NOTE
 70
0
 62
7
  6
CONTINUOUS
370
-3
390
F
  0
LAYER
  5
206
100
AcDbSymbolTableRecord
100
AcDbLayerTableRecord
  2
PIANI
 70
0
 62
7
  6
CONTINUOUS
370
-3
390
F
  0
LAYER
  5
207
100
AcDbSymbolTableRecord
100
AcDbLayerTableRecord
  2
PUNTI
 70
0
 62
7
  6
CONTINUOUS
370
-3
390
F
  0
LAYER
  5
208
100
AcDbSymbolTableRecord
100
AcDbLayerTableRecord
  2
RACCORDO
 70
0
 62
7
  6
CONTINUOUS
370
-3
390
F
  0
LAYER
  5
209
100
AcDbSymbolTableRecord
100
AcDbLayerTableRecord
  2
SCRITTE
 70
0
 62
7
  6
CONTINUOUS
370
-3
390
F
  0
LAYER
  5
20A
100
AcDbSymbolTableRecord
100
AcDbLayerTableRecord
  2
SIMBOLI
 70
0
 62
7
  6
CONTINUOUS
370
-3
390
F
  0
LAYER
  5
20B
100
AcDbSymbolTableRecord
100
AcDbLayerTableRecord
  2
SMUSSO
 70
0
 62
7
  6
CONTINUOUS
370
-3
390
F
  0
LAYER
  5
20C
100
AcDbSymbolTableRecord
100
AcDbLayerTableRecord
  2
SNAPLINE
 70
0
 62
7
  6
CONTINUOUS
370
-3
390
F
  0
LAYER
  5
20D
100
AcDbSymbolTableRecord
100
AcDbLayerTableRecord
  2
SUPERFICI
 70
0
 62
7
  6
CONTINUOUS
370
-3
390
F
  0
LAYER
  5
20E
100
AcDbSymbolTableRecord
100
AcDbLayerTableRecord
  2
TRASH
 70
0
 62
7
  6
CONTINUOUS
370
-3
390
F
  0
LAYER
  5
20F
100
AcDbSymbolTableRecord
100
AcDbLayerTableRecord
  2
XSEC_DATUMS
 70
0
 62
7
  6
CONTINUOUS
370
-3
390
F
  0
ENDTAB
  0
TABLE
  2
STYLE
  5
3
100
AcDbSymbolTable
 70
1
  0
STYLE
  5
11
100
AcDbSymbolTableRecord
100
AcDbTextStyleTableRecord
  2
STANDARD
 70
0
 40
0.0
 41
0.8
 50
0.0
 71
0
 42
0.2
  3
txt
  4

  0
STYLE
  5
210
100
AcDbSymbolTableRecord
100
AcDbTextStyleTableRecord
  2
TEXTSTYLE_1
 70
0
 40
0.0
 41
0.8
 50
0.0
 71
0
 42
0.2
  3
gdt
  4

  0
ENDTAB
  0
TABLE
  2
VIEW
  5
6
100
AcDbSymbolTable
 70
0
  0
ENDTAB
  0
TABLE
  2
UCS
  5
7
100
AcDbSymbolTable
 70
0
  0
ENDTAB
  0
TABLE
  2
APPID
  5
9
100
AcDbSymbolTable
 70
1
  0
APPID
  5
211
100
AcDbSymbolTableRecord
100
AcDbRegAppTableRecord
  2
ACAD
 70
0
  0
ENDTAB
  0
TABLE
  2
BLOCK_RECORD
  5
1
100
AcDbSymbolTable
 70
0
  0
BLOCK_RECORD
  5
212
100
AcDbSymbolTableRecord
100
AcDbBlockTableRecord
  2
*Model_Space
  0
BLOCK_RECORD
  5
213
100
AcDbSymbolTableRecord
100
AcDbBlockTableRecord
  2
*Paper_Space
  0
BLOCK_RECORD
  5
214
100
AcDbSymbolTableRecord
100
AcDbBlockTableRecord
  2
_FILLED
  0
BLOCK_RECORD
  5
215
100
AcDbSymbolTableRecord
100
AcDbBlockTableRecord
  2
*D0
  0
BLOCK_RECORD
  5
216
100
AcDbSymbolTableRecord
100
AcDbBlockTableRecord
  2
*D1
  0
BLOCK_RECORD
  5
217
100
AcDbSymbolTableRecord
100
AcDbBlockTableRecord
  2
*D2
  0
BLOCK_RECORD
  5
218
100
AcDbSymbolTableRecord
100
AcDbBlockTableRecord
  2
*D3
  0
BLOCK_RECORD
  5
219
100
AcDbSymbolTableRecord
100
AcDbBlockTableRecord
  2
*D4
  0
BLOCK_RECORD
  5
21A
100
AcDbSymbolTableRecord
100
AcDbBlockTableRecord
  2
*D5
  0
BLOCK_RECORD
  5
21B
100
AcDbSymbolTableRecord
100
AcDbBlockTableRecord
  2
*D6
  0
ENDTAB
  0
TABLE
  2
DIMSTYLE
  5
A
100
AcDbSymbolTable
 70
1
100
AcDbDimStyleTable
 71
0
  0
DIMSTYLE
105
21C
100
AcDbSymbolTableRecord
100
AcDbDimStyleTableRecord
  2
STANDARD
 70
0
  3

  4

 40
1.0
 41
3.0
 42
0.5
 43
0.38
 44
1.5
 45
0.0
 46
0.0
 47
0.01
 48
0.01
140
3.0
141
0.09
142
0.0
143
25.4
144
1.0
145
0.0
146
1.0
147
0.625
 71
1.0
 72
0.0
 73
0
 74
0
 75
0
 76
0
 77
1
 78
8
170
0
171
2
172
0
173
0
174
0
175
0
176
0
177
0
178
0
270
2
271
2
272
2
273
2
274
2
275
0
280
0
281
0
282
0
283
1
284
8
285
0
286
0
287
3
288
0
340
11
278
44
341
214
342
214
343
214
344
214
  0
DIMSTYLE
105
21D
100
AcDbSymbolTableRecord
100
AcDbDimStyleTableRecord
  2
DIMSTYLE_1
 70
0
  3

  4

 40
1.0
 41
3.0
 42
0.5
 43
0.38
 44
1.5
 45
0.0
 46
0.0
 47
0.0
 48
0.0
140
3.0
141
0.09
142
0.0
143
25.4
144
1.0
145
0.0
146
1.0
147
0.75
 71
0.0
 72
0.0
 73
0
 74
0
 75
0
 76
0
 77
1
 78
8
170
0
171
2
172
0
173
0
174
0
175
0
176
0
177
0
178
0
270
2
271
1
272
1
273
2
274
2
275
0
280
0
281
0
282
0
283
1
284
8
285
0
286
0
287
3
288
0
340
11
278
44
341
214
342
214
343
214
344
214
  0
DIMSTYLE
105
21E
100
AcDbSymbolTableRecord
100
AcDbDimStyleTableRecord
  2
DIMSTYLE_2
 70
0
  3

  4

 40
1.0
 41
3.0
 42
0.5
 43
0.38
 44
1.5
 45
0.0
 46
0.0
 47
0.0
 48
0.0
140
3.0
141
0.09
142
0.0
143
25.4
144
1.0
145
0.0
146
1.0
147
0.75
 71
0.0
 72
0.0
 73
0
 74
0
 75
0
 76
0
 77
1
 78
8
170
0
171
2
172
0
173
0
174
0
175
0
176
0
177
0
178
0
270
2
271
2
272
2
273
2
274
2
275
0
280
0
281
0
282
0
283
1
284
8
285
0
286
0
287
3
288
0
340
11
278
44
341
214
342
214
343
214
344
214
  0
ENDTAB
  0
ENDSEC
  0
SECTION
  2
BLOCKS
  0
BLOCK
  5
20
100
AcDbEntity
  8
0
100
AcDbBlockBegin
  2
*Model_Space
 70
0
 10
0.0
 20
0.0
 30
0.0
  3
*Model_Space
  1

  0
ENDBLK
  5
21
100
AcDbEntity
  8
0
100
AcDbBlockEnd
  0
BLOCK
  5
1C
100
AcDbEntity
  8
0
100
AcDbBlockBegin
  2
*Paper_Space
 70
0
 10
0.0
 20
0.0
 30
0.0
  3
*Paper_Space
  1

  0
ENDBLK
  5
1D
100
AcDbEntity
  8
0
100
AcDbBlockEnd
  0
BLOCK
  5
21F
100
AcDbEntity
  8
0
100
AcDbBlockBegin
  2
_FILLED
 70
64
 10
0.0
 20
0.0
  3
_FILLED
  1

  0
SOLID
  5
220
100
AcDbEntity
  8
0
  6
BYBLOCK
 62
0
100
AcDbTrace
 10
0.0
 20
0.0
 11
-1.0
 21
0.3166666667
 12
-1.0
 22
-0.3166666667
 13
-1.0
 23
-0.3166666667
  0
ENDBLK
  5
221
100
AcDbEntity
  8
0
  6
BYBLOCK
 62
0
100
AcDbBlockEnd
  0
BLOCK
  5
222
100
AcDbEntity
  8
0
100
AcDbBlockBegin
 62
7
  6
CONTINUOUS
  2
*D0
 70
65
 10
0.0
 20
0.0
  3
*D0
  1

  0
MTEXT
  5
223
100
AcDbEntity
  8
0
100
AcDbMText
 62
7
  6
CONTINUOUS
  7
STANDARD
 71
2
 72
1
 10
34.1395376744
 20
-19.2345423731
 30
0.0
 11
1.0
 21
0.0
 31
0.0
 44
0.9
  1
34,6
 40
3.0
 41
12.8571428571
  0
LINE
  5
224
100
AcDbEntity
  8
0
100
AcDbLine
 62
7
  6
CONTINUOUS
 10
16.8464602935
 20
-3.8000236205
 11
16.8464602935
 21
-24.4845423731
  0
LINE
  5
225
100
AcDbEntity
  8
0
100
AcDbLine
 62
7
  6
CONTINUOUS
 10
51.4326150553
 20
-3.3627768475
 11
51.4326150553
 21
-24.4845423731
  0
LINE
  5
226
100
AcDbEntity
  8
0
100
AcDbLine
 62
7
  6
CONTINUOUS
 10
16.8464602935
 20
-22.9845423731
 11
34.1395376744
 21
-22.9845423731
  0
LINE
  5
227
100
AcDbEntity
  8
0
100
AcDbLine
 62
7
  6
CONTINUOUS
 10
51.4326150553
 20
-22.9845423731
 11
34.1395376744
 21
-22.9845423731
  0
INSERT
  5
228
100
AcDbEntity
  8
0
100
AcDbBlockReference
 62
7
  6
CONTINUOUS
  2
_FILLED
 10
16.8464602935
 20
-22.9845423731
 41
3.0
 42
3.0
 43
3.0
 50
180.0
  0
INSERT
  5
229
100
AcDbEntity
  8
0
100
AcDbBlockReference
 62
7
  6
CONTINUOUS
  2
_FILLED
 10
51.4326150553
 20
-22.9845423731
 41
3.0
 42
3.0
 43
3.0
  0
ENDBLK
  5
22A
100
AcDbEntity
  8
0
  6
BYBLOCK
 62
0
100
AcDbBlockEnd
  0
BLOCK
  5
22B
100
AcDbEntity
  8
0
100
AcDbBlockBegin
 62
7
  6
CONTINUOUS
  2
*D1
 70
65
 10
0.0
 20
0.0
  3
*D1
  1

  0
MTEXT
  5
22C
100
AcDbEntity
  8
0
100
AcDbMText
 62
7
  6
CONTINUOUS
  7
STANDARD
 71
2
 72
1
 10
27.0888961125
 20
-9.2345423731
 30
0.0
 11
1.0
 21
0.0
 31
0.0
 44
0.9
  1
20,5
 40
3.0
 41
12.8571428571
  0
LINE
  5
22D
100
AcDbEntity
  8
0
100
AcDbLine
 62
7
  6
CONTINUOUS
 10
16.8464602935
 20
-3.8000236205
 11
16.8464602935
 21
-14.4845423731
  0
LINE
  5
22E
100
AcDbEntity
  8
0
100
AcDbLine
 62
7
  6
CONTINUOUS
 10
37.3313319316
 20
-4.7906933653
 11
37.3313319316
 21
-14.4845423731
  0
LINE
  5
22F
100
AcDbEntity
  8
0
100
AcDbLine
 62
7
  6
CONTINUOUS
 10
16.8464602935
 20
-12.9845423731
 11
27.0888961125
 21
-12.9845423731
  0
LINE
  5
230
100
AcDbEntity
  8
0
100
AcDbLine
 62
7
  6
CONTINUOUS
 10
37.3313319316
 20
-12.9845423731
 11
27.0888961125
 21
-12.9845423731
  0
INSERT
  5
231
100
AcDbEntity
  8
0
100
AcDbBlockReference
 62
7
  6
CONTINUOUS
  2
_FILLED
 10
16.8464602935
 20
-12.9845423731
 41
3.0
 42
3.0
 43
3.0
 50
180.0
  0
INSERT
  5
232
100
AcDbEntity
  8
0
100
AcDbBlockReference
 62
7
  6
CONTINUOUS
  2
_FILLED
 10
37.3313319316
 20
-12.9845423731
 41
3.0
 42
3.0
 43
3.0
  0
ENDBLK
  5
233
100
AcDbEntity
  8
0
  6
BYBLOCK
 62
0
100
AcDbBlockEnd
  0
BLOCK
  5
234
100
AcDbEntity
  8
0
100
AcDbBlockBegin
 62
7
  6
CONTINUOUS
  2
*D2
 70
65
 10
0.0
 20
0.0
  3
*D2
  1

  0
MTEXT
  5
235
100
AcDbEntity
  8
0
100
AcDbMText
 62
7
  6
CONTINUOUS
  7
STANDARD
 71
2
 72
1
 10
19.611579077
 20
-28.4389597644
 30
0.0
 11
1.0
 21
0.0
 31
0.0
 44
0.9
  1
132,6
 40
3.0
 41
15.4285714286
  0
LINE
  5
236
100
AcDbEntity
  8
0
100
AcDbLine
 62
7
  6
CONTINUOUS
 10
51.4326151001
 20
-3.3627830911
 11
51.4326178145
 21
-33.6889569161
  0
LINE
  5
237
100
AcDbEntity
  8
0
100
AcDbLine
 62
7
  6
CONTINUOUS
 10
-11.3726953595
 20
-2.6821612188
 11
-11.3726925841
 21
-33.6889625377
  0
LINE
  5
238
100
AcDbEntity
  8
0
100
AcDbLine
 62
7
  6
CONTINUOUS
 10
51.4326176803
 20
-32.1889569161
 11
20.0299624809
 21
-32.1889597269
  0
LINE
  5
239
100
AcDbEntity
  8
0
100
AcDbLine
 62
7
  6
CONTINUOUS
 10
-11.3726927184
 20
-32.1889625377
 11
20.0299624809
 21
-32.1889597269
  0
INSERT
  5
23A
100
AcDbEntity
  8
0
100
AcDbBlockReference
 62
7
  6
CONTINUOUS
  2
_FILLED
 10
51.4326176803
 20
-32.1889569161
 41
3.0
 42
3.0
 43
3.0
 50
0.0000051285
  0
INSERT
  5
23B
100
AcDbEntity
  8
0
100
AcDbBlockReference
 62
7
  6
CONTINUOUS
  2
_FILLED
 10
-11.3726927184
 20
-32.1889625377
 41
3.0
 42
3.0
 43
3.0
 50
180.0000051285
  0
ENDBLK
  5
23C
100
AcDbEntity
  8
0
  6
BYBLOCK
 62
0
100
AcDbBlockEnd
  0
BLOCK
  5
23D
100
AcDbEntity
  8
0
100
AcDbBlockBegin
 62
7
  6
CONTINUOUS
  2
*D3
 70
65
 10
0.0
 20
0.0
  3
*D3
  1

  0
MTEXT
  5
23E
100
AcDbEntity
  8
0
100
AcDbMText
 62
7
  6
CONTINUOUS
  7
STANDARD
 71
2
 72
1
 10
-6.791078013
 20
-19.2345423731
 30
0.0
 11
1.0
 21
0.0
 31
0.0
 44
0.9
  1
10
 40
3.0
 41
6.1071428571
  0
LINE
  5
23F
100
AcDbEntity
  8
0
100
AcDbLine
 62
7
  6
CONTINUOUS
 10
-1.3726954043
 20
-3.4321612188
 11
-1.3726954043
 21
-24.4845423731
  0
LINE
  5
240
100
AcDbEntity
  8
0
100
AcDbLine
 62
7
  6
CONTINUOUS
 10
-11.3726954043
 20
-2.6821612188
 11
-11.3726954043
 21
-24.4845423731
  0
LINE
  5
241
100
AcDbEntity
  8
0
100
AcDbLine
 62
7
  6
CONTINUOUS
 10
-1.3726954043
 20
-22.9845423731
 11
2.6273045957
 21
-22.9845423731
  0
LINE
  5
242
100
AcDbEntity
  8
0
100
AcDbLine
 62
7
  6
CONTINUOUS
 10
2.6273045957
 20
-22.9845423731
 11
-6.3726954043
 21
-22.9845423731
  0
LINE
  5
243
100
AcDbEntity
  8
0
100
AcDbLine
 62
7
  6
CONTINUOUS
 10
-11.3726954043
 20
-22.9845423731
 11
-15.3726954043
 21
-22.9845423731
  0
LINE
  5
244
100
AcDbEntity
  8
0
100
AcDbLine
 62
7
  6
CONTINUOUS
 10
-15.3726954043
 20
-22.9845423731
 11
-6.3726954043
 21
-22.9845423731
  0
INSERT
  5
245
100
AcDbEntity
  8
0
100
AcDbBlockReference
 62
7
  6
CONTINUOUS
  2
_FILLED
 10
-1.3726954043
 20
-22.9845423731
 41
3.0
 42
3.0
 43
3.0
 50
180.0
  0
INSERT
  5
246
100
AcDbEntity
  8
0
100
AcDbBlockReference
 62
7
  6
CONTINUOUS
  2
_FILLED
 10
-11.3726954043
 20
-22.9845423731
 41
3.0
 42
3.0
 43
3.0
  0
ENDBLK
  5
247
100
AcDbEntity
  8
0
  6
BYBLOCK
 62
0
100
AcDbBlockEnd
  0
BLOCK
  5
248
100
AcDbEntity
  8
0
100
AcDbBlockBegin
 62
7
  6
CONTINUOUS
  2
*D4
 70
65
 10
0.0
 20
0.0
  3
*D4
  1

  0
MTEXT
  5
249
100
AcDbEntity
  8
0
100
AcDbMText
 62
7
  6
CONTINUOUS
  7
STANDARD
 71
2
 72
1
 10
-29.7907265636
 20
-1.1821612188
 30
0.0
 11
0.0
 21
1.0
 31
0.0
 44
0.9
  1
7,5
 40
3.0
 41
9.3214285714
  0
LINE
  5
24A
100
AcDbEntity
  8
0
100
AcDbLine
 62
7
  6
CONTINUOUS
 10
-38.7907265636
 20
2.5678387812
 11
-24.5407265636
 21
2.5678387812
  0
LINE
  5
24B
100
AcDbEntity
  8
0
100
AcDbLine
 62
7
  6
CONTINUOUS
 10
-38.7907265636
 20
-4.9321612188
 11
-24.5407265636
 21
-4.9321612188
  0
LINE
  5
24C
100
AcDbEntity
  8
0
100
AcDbLine
 62
7
  6
CONTINUOUS
 10
-26.0407265636
 20
2.5678387812
 11
-26.0407265636
 21
6.5678387812
  0
LINE
  5
24D
100
AcDbEntity
  8
0
100
AcDbLine
 62
7
  6
CONTINUOUS
 10
-26.0407265636
 20
6.5678387812
 11
-26.0407265636
 21
-1.1821612188
  0
LINE
  5
24E
100
AcDbEntity
  8
0
100
AcDbLine
 62
7
  6
CONTINUOUS
 10
-26.0407265636
 20
-4.9321612188
 11
-26.0407265636
 21
-8.9321612188
  0
LINE
  5
24F
100
AcDbEntity
  8
0
100
AcDbLine
 62
7
  6
CONTINUOUS
 10
-26.0407265636
 20
-8.9321612188
 11
-26.0407265636
 21
-1.1821612188
  0
INSERT
  5
250
100
AcDbEntity
  8
0
100
AcDbBlockReference
 62
7
  6
CONTINUOUS
  2
_FILLED
 10
-26.0407265636
 20
2.5678387812
 41
3.0
 42
3.0
 43
3.0
 50
270.0
  0
INSERT
  5
251
100
AcDbEntity
  8
0
100
AcDbBlockReference
 62
7
  6
CONTINUOUS
  2
_FILLED
 10
-26.0407265636
 20
-4.9321612188
 41
3.0
 42
3.0
 43
3.0
 50
90.0
  0
ENDBLK
  5
252
100
AcDbEntity
  8
0
  6
BYBLOCK
 62
0
100
AcDbBlockEnd
  0
BLOCK
  5
253
100
AcDbEntity
  8
0
100
AcDbBlockBegin
 62
7
  6
CONTINUOUS
  2
*D5
 70
65
 10
0.0
 20
0.0
  3
*D5
  1

  0
MTEXT
  5
254
100
AcDbEntity
  8
0
100
AcDbMText
 62
7
  6
CONTINUOUS
  7
STANDARD
 71
2
 72
1
 10
-37.7907265636
 20
14.9415268349
 30
0.0
 11
1.0
 21
0.0
 31
0.0
 44
0.9
  1
7,5
 40
3.0
 41
9.3214285714
  0
LINE
  5
255
100
AcDbEntity
  8
0
100
AcDbLine
 62
7
  6
CONTINUOUS
 10
-34.0407265636
 20
2.52636712
 11
-34.0407265636
 21
12.6915268349
  0
LINE
  5
256
100
AcDbEntity
  8
0
100
AcDbLine
 62
7
  6
CONTINUOUS
 10
-41.5407265636
 20
2.0167757328
 11
-41.5407265636
 21
12.6915268349
  0
LINE
  5
257
100
AcDbEntity
  8
0
100
AcDbLine
 62
7
  6
CONTINUOUS
 10
-34.0407265636
 20
11.1915268349
 11
-30.0407265636
 21
11.1915268349
  0
LINE
  5
258
100
AcDbEntity
  8
0
100
AcDbLine
 62
7
  6
CONTINUOUS
 10
-30.0407265636
 20
11.1915268349
 11
-37.7907265636
 21
11.1915268349
  0
LINE
  5
259
100
AcDbEntity
  8
0
100
AcDbLine
 62
7
  6
CONTINUOUS
 10
-41.5407265636
 20
11.1915268349
 11
-45.5407265636
 21
11.1915268349
  0
LINE
  5
25A
100
AcDbEntity
  8
0
100
AcDbLine
 62
7
  6
CONTINUOUS
 10
-45.5407265636
 20
11.1915268349
 11
-37.7907265636
 21
11.1915268349
  0
INSERT
  5
25B
100
AcDbEntity
  8
0
100
AcDbBlockReference
 62
7
  6
CONTINUOUS
  2
_FILLED
 10
-34.0407265636
 20
11.1915268349
 41
3.0
 42
3.0
 43
3.0
 50
180.0
  0
INSERT
  5
25C
100
AcDbEntity
  8
0
100
AcDbBlockReference
 62
7
  6
CONTINUOUS
  2
_FILLED
 10
-41.5407265636
 20
11.1915268349
 41
3.0
 42
3.0
 43
3.0
 50
0.0
  0
ENDBLK
  5
25D
100
AcDbEntity
  8
0
  6
BYBLOCK
 62
0
100
AcDbBlockEnd
  0
BLOCK
  5
25E
100
AcDbEntity
  8
0
100
AcDbBlockBegin
 62
7
  6
CONTINUOUS
  2
*D6
 70
65
 10
0.0
 20
0.0
  3
*D6
  1

  0
MTEXT
  5
25F
100
AcDbEntity
  8
0
100
AcDbMText
 62
7
  6
CONTINUOUS
  7
STANDARD
 71
3
 72
1
 10
58.5427850005
 20
12.6363166948
 30
0.0
 11
0.0
 21
1.0
 31
0.0
 44
0.9
  1
5,8
 40
3.0
 41
9.3214285714
  0
LINE
  5
260
100
AcDbEntity
  8
0
100
AcDbLine
 62
7
  6
CONTINUOUS
 10
51.8619158585
 20
-4.0605888381
 11
63.7928221296
 21
-4.0605623071
  0
LINE
  5
261
100
AcDbEntity
  8
0
100
AcDbLine
 62
7
  6
CONTINUOUS
 10
51.8619159219
 20
1.696272478
 11
63.792809328
 21
1.6962990089
  0
LINE
  5
262
100
AcDbEntity
  8
0
100
AcDbLine
 62
7
  6
CONTINUOUS
 10
62.2928221296
 20
-4.0605656427
 11
62.2928310245
 21
-8.0605656427
  0
LINE
  5
263
100
AcDbEntity
  8
0
100
AcDbLine
 62
7
  6
CONTINUOUS
 10
62.2928310245
 20
-8.0605656427
 11
62.2928157288
 21
-1.1821349847
  0
LINE
  5
264
100
AcDbEntity
  8
0
100
AcDbLine
 62
7
  6
CONTINUOUS
 10
62.292809328
 20
1.6962956733
 11
62.2927850005
 21
12.6363166948
  0
LINE
  5
265
100
AcDbEntity
  8
0
100
AcDbLine
 62
7
  6
CONTINUOUS
 10
62.2927850005
 20
12.6363166948
 11
62.2928157288
 21
-1.1821349847
  0
INSERT
  5
266
100
AcDbEntity
  8
0
100
AcDbBlockReference
 62
7
  6
CONTINUOUS
  2
_FILLED
 10
62.2928221296
 20
-4.0605656427
 41
3.0
 42
3.0
 43
3.0
 50
90.0001274096
  0
INSERT
  5
267
100
AcDbEntity
  8
0
100
AcDbBlockReference
 62
7
  6
CONTINUOUS
  2
_FILLED
 10
62.292809328
 20
1.6962956733
 41
3.0
 42
3.0
 43
3.0
 50
270.0001274096
  0
ENDBLK
  5
268
100
AcDbEntity
  8
0
  6
BYBLOCK
 62
0
100
AcDbBlockEnd
  0
ENDSEC
  0
SECTION
  2
ENTITIES
  0
DIMENSION
  5
269
100
AcDbEntity
  8
0
100
AcDbDimension
 62
7
  6
CONTINUOUS
  2
*D0
 10
51.4326150553
 20
-22.9845423731
 11
33.7109660568
 21
-22.9845423731
 70
160
 71
2
 42
34.5861547618
  3
DIMSTYLE_1
100
AcDbAlignedDimension
 13
16.8464602935
 23
-3.3000236205
 14
51.4326150553
 24
-2.8627768475
100
AcDbRotatedDimension
  0
DIMENSION
  5
26A
100
AcDbEntity
  8
0
100
AcDbDimension
 62
7
  6
CONTINUOUS
  2
*D1
 10
37.3313319316
 20
-12.9845423731
 11
26.660324913
 21
-12.9845423731
 70
160
 71
2
 42
20.484871638
  3
DIMSTYLE_1
100
AcDbAlignedDimension
 13
16.8464602935
 23
-3.3000236205
 14
37.3313319316
 24
-4.2906933653
100
AcDbRotatedDimension
  0
DIMENSION
  5
26B
100
AcDbEntity
  8
0
100
AcDbDimension
 62
7
  6
CONTINUOUS
  2
*D2
 10
-11.3726927184
 20
-32.1889625377
 11
19.1830076095
 21
-32.1889598027
 70
160
 71
2
 42
132.5597923632
  3
DIMSTYLE_1
100
AcDbAlignedDimension
 13
51.4326150553
 23
-2.8627830911
 14
-11.3726954043
 24
-2.1821612188
 50
180.0000051285
100
AcDbRotatedDimension
  0
DIMENSION
  5
26C
100
AcDbEntity
  8
0
100
AcDbDimension
 62
7
  6
CONTINUOUS
  2
*D3
 10
-11.3726954043
 20
-22.9845423731
 11
-7.2196495113
 21
-22.9845423731
 70
160
 71
2
 42
10.0
  3
DIMSTYLE_2
100
AcDbAlignedDimension
 13
-1.3726954043
 23
-2.9321612188
 14
-11.3726954043
 24
-2.1821612188
 50
180.0
100
AcDbRotatedDimension
  0
DIMENSION
  5
26D
100
AcDbEntity
  8
0
100
AcDbDimension
 62
7
  6
CONTINUOUS
  2
*D4
 10
-26.0407265636
 20
-4.9321612188
 11
-26.0407265636
 21
-1.6107325188
 70
160
 71
2
 42
7.5
  3
DIMSTYLE_2
100
AcDbAlignedDimension
 13
-39.2907265636
 23
2.5678387812
 14
-39.2907265636
 24
-4.9321612188
 50
270.0
100
AcDbRotatedDimension
  0
DIMENSION
  5
26E
100
AcDbEntity
  8
0
100
AcDbDimension
 62
7
  6
CONTINUOUS
  2
*D5
 10
-41.5407265636
 20
11.1915268349
 11
-38.2192981224
 21
11.1915268349
 70
160
 71
2
 42
7.5
  3
DIMSTYLE_2
100
AcDbAlignedDimension
 13
-34.0407265636
 23
2.02636712
 14
-41.5407265636
 24
1.5167757328
 50
180.0
100
AcDbRotatedDimension
  0
DIMENSION
  5
26F
100
AcDbEntity
  8
0
100
AcDbDimension
 62
7
  6
CONTINUOUS
  2
*D6
 10
62.292809328
 20
1.6962956733
 11
62.2927928629
 21
9.1006086019
 70
160
 71
3
 42
5.756861316
  3
DIMSTYLE_1
100
AcDbAlignedDimension
 13
51.3619158585
 23
-4.0605899499
 14
51.3619159219
 24
1.6962713661
 50
90.0001274096
100
AcDbRotatedDimension
  0
LINE
  5
270
100
AcDbEntity
  8
0
100
AcDbLine
 62
7
  6
CONTINUOUS
 10
-11.3726954043
 20
-2.5821612188
 11
-11.3726954043
 21
-1.7821612188
  0
LINE
  5
271
100
AcDbEntity
  8
0
100
AcDbLine
 62
7
  6
CONTINUOUS
 10
-11.3726954043
 20
-0.5821612188
 11
-11.3726954043
 21
0.2178387812
  0
LINE
  5
272
100
AcDbEntity
  8
0
100
AcDbLine
 62
7
  6
CONTINUOUS
 10
5.7721923848
 20
-2.9321612188
 11
-1.3726954043
 21
-2.9321612188
  0
LINE
  5
273
100
AcDbEntity
  8
0
100
AcDbLine
 62
7
  6
CONTINUOUS
 10
-1.3726954043
 20
-2.5821612188
 11
-11.3726954043
 21
-2.5821612188
  0
LINE
  5
274
100
AcDbEntity
  8
0
100
AcDbLine
 62
7
  6
CONTINUOUS
 10
-1.3726954043
 20
-1.7821612188
 11
-11.3726954043
 21
-1.7821612188
  0
LINE
  5
275
100
AcDbEntity
  8
0
100
AcDbLine
 62
7
  6
CONTINUOUS
 10
5.7721923848
 20
-1.4321612188
 11
-1.3726954043
 21
-1.4321612188
  0
LINE
  5
276
100
AcDbEntity
  8
0
100
AcDbLine
 62
7
  6
CONTINUOUS
 10
5.7721923848
 20
-0.9321612188
 11
-1.3726954043
 21
-0.9321612188
  0
LINE
  5
277
100
AcDbEntity
  8
0
100
AcDbLine
 62
7
  6
CONTINUOUS
 10
-1.3726954043
 20
-0.5821612188
 11
-11.3726954043
 21
-0.5821612188
  0
LINE
  5
278
100
AcDbEntity
  8
0
100
AcDbLine
 62
7
  6
CONTINUOUS
 10
-1.3726954043
 20
0.2178387812
 11
-11.3726954043
 21
0.2178387812
  0
LINE
  5
279
100
AcDbEntity
  8
0
100
AcDbLine
 62
7
  6
CONTINUOUS
 10
-1.3726954043
 20
-2.9321612188
 11
-1.3726954043
 21
-1.4321612188
  0
LINE
  5
27A
100
AcDbEntity
  8
0
100
AcDbLine
 62
7
  6
CONTINUOUS
 10
-1.3726954043
 20
-0.9321612188
 11
-1.3726954043
 21
0.5678387812
  0
LINE
  5
27B
100
AcDbEntity
  8
0
100
AcDbLine
 62
7
  6
CONTINUOUS
 10
5.7721923848
 20
0.5678387812
 11
-1.3726954043
 21
0.5678387812
  0
LINE
  5
27C
100
AcDbEntity
  8
0
100
AcDbLine
 62
7
  6
CONTINUOUS
 10
5.7721923848
 20
-2.9321612188
 11
5.7721923848
 21
-1.4321612188
  0
LINE
  5
27D
100
AcDbEntity
  8
0
100
AcDbLine
 62
7
  6
CONTINUOUS
 10
5.7721923848
 20
-0.9321612188
 11
5.7721923848
 21
0.5678387812
  0
LINE
  5
27E
100
AcDbEntity
  8
0
100
AcDbLine
 62
7
  6
CONTINUOUS
 10
8.7723943848
 20
0.5678387812
 11
8.7723943848
 21
-0.9321612188
  0
LINE
  5
27F
100
AcDbEntity
  8
0
100
AcDbLine
 62
7
  6
CONTINUOUS
 10
8.7723943848
 20
-1.4321612188
 11
8.7723943848
 21
-2.9321612188
  0
LWPOLYLINE
  5
280
100
AcDbEntity
  8
0
100
AcDbPolyline
 62
7
  6
CONTINUOUS
 90
24
 70
0
 10
15.3105905564
 20
-0.3918056144
 10
15.3056366169
 20
-0.3445986545
 10
15.3020006305
 20
-0.2992244311
 10
15.2995466621
 20
-0.2558928736
 10
15.2984106468
 20
-0.2144879633
 10
15.2981519858
 20
-0.1744473093
 10
15.2986733972
 20
-0.1358176582
 10
15.3000721628
 20
-0.0985990535
 10
15.3021995296
 20
-0.0621517753
 10
15.3049808655
 20
-0.0264856402
 10
15.3084908025
 20
0.0083796624
 10
15.3128044836
 20
0.0430659213
 10
15.3178922861
 20
0.0777403532
 10
15.3237838328
 20
0.1122029826
 10
15.3306431349
 20
0.1465197582
 10
15.3384775693
 20
0.1808003977
 10
15.3472797592
 20
0.2149012424
 10
15.3571915858
 20
0.2485121277
 10
15.3682237105
 20
0.2816438327
 10
15.3803654719
 20
0.3142648533
 10
15.393726768
 20
0.3460148344
 10
15.4083442314
 20
0.3767772877
 10
15.4241812295
 20
0.406671545
 10
15.4412377623
 20
0.4357003216
  0
LWPOLYLINE
  5
281
100
AcDbEntity
  8
RACCORDO
100
AcDbPolyline
 62
7
  6
CONTINUOUS
 90
6
 70
0
 10
14.8823981625
 20
1.1991638474
 10
14.882296427
 20
1.20253027
 10
14.8821934849
 20
1.205179063
 10
14.8820897065
 20
1.2070979659
 10
14.8819847215
 20
1.208299239
 10
14.8818785298
 20
1.2087828826
  0
LWPOLYLINE
  5
282
100
AcDbEntity
  8
ASSI
100
AcDbPolyline
 62
7
  6
CONTINUOUS
 90
6
 70
0
 10
14.8823981625
 20
1.1991638474
 10
14.882296427
 20
1.20253027
 10
14.8821934849
 20
1.205179063
 10
14.8820897065
 20
1.2070979659
 10
14.8819847215
 20
1.208299239
 10
14.8818785298
 20
1.2087828826
  0
LINE
  5
283
100
AcDbEntity
  8
DRAFT
100
AcDbLine
 62
7
  6
CONTINUOUS
 10
14.8728226312
 20
0.8752553301
 11
14.8737011387
 21
0.8410748894
  0
LINE
  5
284
100
AcDbEntity
  8
ASSI
100
AcDbLine
 62
7
  6
CONTINUOUS
 10
14.8728226312
 20
0.8752553301
 11
14.8737011387
 21
0.8410748894
  0
LINE
  5
285
100
AcDbEntity
  8
RACCORDO
100
AcDbLine
 62
7
  6
CONTINUOUS
 10
14.8825943093
 20
1.1904007184
 11
14.8823981625
 21
1.1991638474
  0
LINE
  5
286
100
AcDbEntity
  8
ASSI
100
AcDbLine
 62
7
  6
CONTINUOUS
 10
14.8825943093
 20
1.1904007184
 11
14.8823981625
 21
1.1991638474
  0
LINE
  5
287
100
AcDbEntity
  8
DRAFT
100
AcDbLine
 62
7
  6
CONTINUOUS
 10
14.8737011387
 20
0.8410748894
 11
14.8753196679
 21
0.7475114656
  0
LINE
  5
288
100
AcDbEntity
  8
ASSI
100
AcDbLine
 62
7
  6
CONTINUOUS
 10
14.8737011387
 20
0.8410748894
 11
14.8753196679
 21
0.7475114656
  0
LINE
  5
289
100
AcDbEntity
  8
RACCORDO
100
AcDbLine
 62
7
  6
CONTINUOUS
 10
14.8833308087
 20
1.1378886345
 11
14.8825943093
 21
1.1904007184
  0
LINE
  5
28A
100
AcDbEntity
  8
ASSI
100
AcDbLine
 62
7
  6
CONTINUOUS
 10
14.8833308087
 20
1.1378886345
 11
14.8825943093
 21
1.1904007184
  0
LINE
  5
28B
100
AcDbEntity
  8
DRAFT
100
AcDbLine
 62
7
  6
CONTINUOUS
 10
14.8753196679
 20
0.7475114656
 11
14.877200616
 21
0.5678387812
  0
LINE
  5
28C
100
AcDbEntity
  8
ASSI
100
AcDbLine
 62
7
  6
CONTINUOUS
 10
14.8753196679
 20
0.7475114656
 11
14.877200616
 21
0.5678387812
  0
LINE
  5
28D
100
AcDbEntity
  8
DRAFT
100
AcDbLine
 62
7
  6
CONTINUOUS
 10
14.8754320764
 20
-1.2607423097
 11
14.8771989116
 21
-1.4321612188
  0
LINE
  5
28E
100
AcDbEntity
  8
ASSI
100
AcDbLine
 62
7
  6
CONTINUOUS
 10
14.8754320764
 20
-1.2607423097
 11
14.8771989116
 21
-1.4321612188
  0
LINE
  5
28F
100
AcDbEntity
  8
DRAFT
100
AcDbLine
 62
7
  6
CONTINUOUS
 10
14.8827080794
 20
-1.4655709186
 11
14.8806658034
 21
-1.2608911618
  0
LINE
  5
290
100
AcDbEntity
  8
ASSI
100
AcDbLine
 62
7
  6
CONTINUOUS
 10
14.8827080794
 20
-1.4655709186
 11
14.8806658034
 21
-1.2608911618
  0
LINE
  5
291
100
AcDbEntity
  8
RACCORDO
100
AcDbLine
 62
7
  6
CONTINUOUS
 10
14.8857897511
 20
0.8919325026
 11
14.8833308087
 21
1.1378886345
  0
LINE
  5
292
100
AcDbEntity
  8
ASSI
100
AcDbLine
 62
7
  6
CONTINUOUS
 10
14.8857897511
 20
0.8919325026
 11
14.8833308087
 21
1.1378886345
  0
LINE
  5
293
100
AcDbEntity
  8
RACCORDO
100
AcDbLine
 62
7
  6
CONTINUOUS
 10
14.8885062729
 20
0.3821600761
 11
14.8857897511
 21
0.8919325026
  0
LINE
  5
294
100
AcDbEntity
  8
ASSI
100
AcDbLine
 62
7
  6
CONTINUOUS
 10
14.8885062729
 20
0.3821600761
 11
14.8857897511
 21
0.8919325026
  0
LINE
  5
295
100
AcDbEntity
  8
DRAFT
100
AcDbLine
 62
7
  6
CONTINUOUS
 10
14.8847580963
 20
-1.9243847173
 11
14.8827080794
 21
-1.4655709186
  0
LINE
  5
296
100
AcDbEntity
  8
ASSI
100
AcDbLine
 62
7
  6
CONTINUOUS
 10
14.8847580963
 20
-1.9243847173
 11
14.8827080794
 21
-1.4655709186
  0
LINE
  5
297
100
AcDbEntity
  8
RACCORDO
100
AcDbLine
 62
7
  6
CONTINUOUS
 10
14.8891140358
 20
-1.8580202183
 11
14.8863405459
 21
-1.1821612188
  0
LINE
  5
298
100
AcDbEntity
  8
ASSI
100
AcDbLine
 62
7
  6
CONTINUOUS
 10
14.8891140358
 20
-1.8580202183
 11
14.8863405459
 21
-1.1821612188
  0
LINE
  5
299
100
AcDbEntity
  8
DRAFT
100
AcDbLine
 62
7
  6
CONTINUOUS
 10
14.8728226312
 20
-3.5821612188
 11
14.8728226312
 21
-3.2811712637
  0
LINE
  5
29A
100
AcDbEntity
  8
ASSI
100
AcDbLine
 62
7
  6
CONTINUOUS
 10
14.8728226312
 20
-3.5821612188
 11
14.8728226312
 21
-3.2811712637
  0
LINE
  5
29B
100
AcDbEntity
  8
DRAFT
100
AcDbLine
 62
7
  6
CONTINUOUS
 10
14.8728226312
 20
0.916848826
 11
14.8728226312
 21
1.2178387812
  0
LINE
  5
29C
100
AcDbEntity
  8
ASSI
100
AcDbLine
 62
7
  6
CONTINUOUS
 10
14.8728226312
 20
0.916848826
 11
14.8728226312
 21
1.2178387812
  0
LINE
  5
29D
100
AcDbEntity
  8
DRAFT
100
AcDbLine
 62
7
  6
CONTINUOUS
 10
14.8754320764
 20
-1.1035801279
 11
14.8754320764
 21
-1.2607423097
  0
LINE
  5
29E
100
AcDbEntity
  8
ASSI
100
AcDbLine
 62
7
  6
CONTINUOUS
 10
14.8754320764
 20
-1.1035801279
 11
14.8754320764
 21
-1.2607423097
  0
LINE
  5
29F
100
AcDbEntity
  8
DRAFT
100
AcDbLine
 62
7
  6
CONTINUOUS
 10
14.8806658034
 20
-1.2608911618
 11
14.8806658034
 21
-1.1034312759
  0
LINE
  5
2A0
100
AcDbEntity
  8
ASSI
100
AcDbLine
 62
7
  6
CONTINUOUS
 10
14.8806658034
 20
-1.2608911618
 11
14.8806658034
 21
-1.1034312759
  0
LINE
  5
2A1
100
AcDbEntity
  8
RACCORDO
100
AcDbLine
 62
7
  6
CONTINUOUS
 10
14.8892316579
 20
-0.4324623865
 11
14.8885062729
 21
0.3821600761
  0
LINE
  5
2A2
100
AcDbEntity
  8
ASSI
100
AcDbLine
 62
7
  6
CONTINUOUS
 10
14.8892316579
 20
-0.4324623865
 11
14.8885062729
 21
0.3821600761
  0
LINE
  5
2A3
100
AcDbEntity
  8
DRAFT
100
AcDbLine
 62
7
  6
CONTINUOUS
 10
14.8845035048
 20
-2.5398772022
 11
14.8847580963
 21
-1.9243847173
  0
LINE
  5
2A4
100
AcDbEntity
  8
ASSI
100
AcDbLine
 62
7
  6
CONTINUOUS
 10
14.8845035048
 20
-2.5398772022
 11
14.8847580963
 21
-1.9243847173
  0
LINE
  5
2A5
100
AcDbEntity
  8
RACCORDO
100
AcDbLine
 62
7
  6
CONTINUOUS
 10
14.8887237139
 20
-2.6753767039
 11
14.8891140358
 21
-1.8580202183
  0
LINE
  5
2A6
100
AcDbEntity
  8
ASSI
100
AcDbLine
 62
7
  6
CONTINUOUS
 10
14.8887237139
 20
-2.6753767039
 11
14.8891140358
 21
-1.8580202183
  0
LINE
  5
2A7
100
AcDbEntity
  8
RACCORDO
100
AcDbLine
 62
7
  6
CONTINUOUS
 10
14.8871139963
 20
-1.0600704767
 11
14.8892316579
 21
-0.4324623865
  0
LINE
  5
2A8
100
AcDbEntity
  8
ASSI
100
AcDbLine
 62
7
  6
CONTINUOUS
 10
14.8871139963
 20
-1.0600704767
 11
14.8892316579
 21
-0.4324623865
  0
LINE
  5
2A9
100
AcDbEntity
  8
RACCORDO
100
AcDbLine
 62
7
  6
CONTINUOUS
 10
14.8863405459
 20
-1.1821612188
 11
14.8871139963
 21
-1.0600704767
  0
LINE
  5
2AA
100
AcDbEntity
  8
ASSI
100
AcDbLine
 62
7
  6
CONTINUOUS
 10
14.8863405459
 20
-1.1821612188
 11
14.8871139963
 21
-1.0600704767
  0
LINE
  5
2AB
100
AcDbEntity
  8
DRAFT
100
AcDbLine
 62
7
  6
CONTINUOUS
 10
14.8827067701
 20
-2.8989259405
 11
14.8845035048
 21
-2.5398772022
  0
LINE
  5
2AC
100
AcDbEntity
  8
ASSI
100
AcDbLine
 62
7
  6
CONTINUOUS
 10
14.8827067701
 20
-2.8989259405
 11
14.8845035048
 21
-2.5398772022
  0
LINE
  5
2AD
100
AcDbEntity
  8
RACCORDO
100
AcDbLine
 62
7
  6
CONTINUOUS
 10
14.886219185
 20
-3.1992685652
 11
14.8887237139
 21
-2.6753767039
  0
LINE
  5
2AE
100
AcDbEntity
  8
ASSI
100
AcDbLine
 62
7
  6
CONTINUOUS
 10
14.886219185
 20
-3.1992685652
 11
14.8887237139
 21
-2.6753767039
  0
LINE
  5
2AF
100
AcDbEntity
  8
RACCORDO
100
AcDbLine
 62
7
  6
CONTINUOUS
 10
14.88386168
 20
-3.4584337364
 11
14.886219185
 21
-3.1992685652
  0
LINE
  5
2B0
100
AcDbEntity
  8
ASSI
100
AcDbLine
 62
7
  6
CONTINUOUS
 10
14.88386168
 20
-3.4584337364
 11
14.886219185
 21
-3.1992685652
  0
LINE
  5
2B1
100
AcDbEntity
  8
DRAFT
100
AcDbLine
 62
7
  6
CONTINUOUS
 10
14.8771989116
 20
-0.9321612188
 11
14.8754320764
 21
-1.1035801279
  0
LINE
  5
2B2
100
AcDbEntity
  8
ASSI
100
AcDbLine
 62
7
  6
CONTINUOUS
 10
14.8771989116
 20
-0.9321612188
 11
14.8754320764
 21
-1.1035801279
  0
LINE
  5
2B3
100
AcDbEntity
  8
DRAFT
100
AcDbLine
 62
7
  6
CONTINUOUS
 10
14.8806614944
 20
-3.1037522626
 11
14.8827067701
 21
-2.8989259405
  0
LINE
  5
2B4
100
AcDbEntity
  8
ASSI
100
AcDbLine
 62
7
  6
CONTINUOUS
 10
14.8806614944
 20
-3.1037522626
 11
14.8827067701
 21
-2.8989259405
  0
LINE
  5
2B5
100
AcDbEntity
  8
DRAFT
100
AcDbLine
 62
7
  6
CONTINUOUS
 10
14.877200616
 20
-2.9321612188
 11
14.8753196679
 21
-3.1118339033
  0
LINE
  5
2B6
100
AcDbEntity
  8
ASSI
100
AcDbLine
 62
7
  6
CONTINUOUS
 10
14.877200616
 20
-2.9321612188
 11
14.8753196679
 21
-3.1118339033
  0
LINE
  5
2B7
100
AcDbEntity
  8
RACCORDO
100
AcDbLine
 62
7
  6
CONTINUOUS
 10
14.8826887206
 20
-3.5493264497
 11
14.88386168
 21
-3.4584337364
  0
LINE
  5
2B8
100
AcDbEntity
  8
ASSI
100
AcDbLine
 62
7
  6
CONTINUOUS
 10
14.8826887206
 20
-3.5493264497
 11
14.88386168
 21
-3.4584337364
  0
LINE
  5
2B9
100
AcDbEntity
  8
DRAFT
100
AcDbLine
 62
7
  6
CONTINUOUS
 10
14.8753196679
 20
-3.1118339033
 11
14.8737011387
 21
-3.2053973271
  0
LINE
  5
2BA
100
AcDbEntity
  8
ASSI
100
AcDbLine
 62
7
  6
CONTINUOUS
 10
14.8753196679
 20
-3.1118339033
 11
14.8737011387
 21
-3.2053973271
  0
LINE
  5
2BB
100
AcDbEntity
  8
DRAFT
100
AcDbLine
 62
7
  6
CONTINUOUS
 10
14.8737011387
 20
-3.2053973271
 11
14.8728226312
 21
-3.2395777678
  0
LINE
  5
2BC
100
AcDbEntity
  8
ASSI
100
AcDbLine
 62
7
  6
CONTINUOUS
 10
14.8737011387
 20
-3.2053973271
 11
14.8728226312
 21
-3.2395777678
  0
LWPOLYLINE
  5
2BD
100
AcDbEntity
  8
DRAFT
100
AcDbPolyline
 62
7
  6
CONTINUOUS
 90
6
 70
0
 10
14.8754406916
 20
-3.2811712637
 10
14.8764161955
 20
-3.2753164379
 10
14.8773175431
 20
-3.2597206395
 10
14.878195024
 20
-3.2347285171
 10
14.8790486917
 20
-3.2000691693
 10
14.8806614944
 20
-3.1037522626
  0
LWPOLYLINE
  5
2BE
100
AcDbEntity
  8
ASSI
100
AcDbPolyline
 62
7
  6
CONTINUOUS
 90
6
 70
0
 10
14.8754406916
 20
-3.2811712637
 10
14.8764161955
 20
-3.2753164379
 10
14.8773175431
 20
-3.2597206395
 10
14.878195024
 20
-3.2347285171
 10
14.8790486917
 20
-3.2000691693
 10
14.8806614944
 20
-3.1037522626
  0
LWPOLYLINE
  5
2BF
100
AcDbEntity
  8
RACCORDO
100
AcDbPolyline
 62
7
  6
CONTINUOUS
 90
8
 70
0
 10
14.8818785298
 20
-3.5731053203
 10
14.8819847215
 20
-3.5726216767
 10
14.8820897065
 20
-3.5714204035
 10
14.8821934849
 20
-3.5695015007
 10
14.882296427
 20
-3.5668527077
 10
14.8823981625
 20
-3.5634862851
 10
14.8824975801
 20
-3.5594390143
 10
14.8826887206
 20
-3.5493264497
  0
LWPOLYLINE
  5
2C0
100
AcDbEntity
  8
ASSI
100
AcDbPolyline
 62
7
  6
CONTINUOUS
 90
8
 70
0
 10
14.8818785298
 20
-3.5731053203
 10
14.8819847215
 20
-3.5726216767
 10
14.8820897065
 20
-3.5714204035
 10
14.8821934849
 20
-3.5695015007
 10
14.882296427
 20
-3.5668527077
 10
14.8823981625
 20
-3.5634862851
 10
14.8824975801
 20
-3.5594390143
 10
14.8826887206
 20
-3.5493264497
  0
LWPOLYLINE
  5
2C1
100
AcDbEntity
  8
RACCORDO
100
AcDbPolyline
 62
253
  6
CONTINUOUS
 90
9
 70
0
 10
16.6800888786
 20
-3.3654609154
 10
16.6831310255
 20
-3.4001828384
 10
16.6921547731
 20
-3.433850915
 10
16.7068864382
 20
-3.4654423794
 10
16.7268789525
 20
-3.4939974723
 10
16.7515253192
 20
-3.5186484604
 10
16.7800769545
 20
-3.5386460834
 10
16.8116665927
 20
-3.5533825173
 10
16.8443817045
 20
-3.5621542673
  0
LWPOLYLINE
  5
2C2
100
AcDbEntity
  8
ASSI
100
AcDbPolyline
 62
253
  6
CONTINUOUS
 90
9
 70
0
 10
16.6800888786
 20
-3.3654609154
 10
16.6831310255
 20
-3.4001828384
 10
16.6921547731
 20
-3.433850915
 10
16.7068864382
 20
-3.4654423794
 10
16.7268789525
 20
-3.4939974723
 10
16.7515253192
 20
-3.5186484604
 10
16.7800769545
 20
-3.5386460834
 10
16.8116665927
 20
-3.5533825173
 10
16.8443817045
 20
-3.5621542673
  0
LWPOLYLINE
  5
2C3
100
AcDbEntity
  8
RACCORDO
100
AcDbPolyline
 62
253
  6
CONTINUOUS
 90
16
 70
0
 10
16.8832987096
 20
-4.2217765233
 10
16.8866236296
 20
-4.2846683743
 10
16.8965233884
 20
-4.3468668872
 10
16.912888815
 20
-4.4076865947
 10
16.9355425715
 20
-4.4664641436
 10
16.9642332953
 20
-4.5225442367
 10
16.998631281
 20
-4.5752903855
 10
17.0383418973
 20
-4.6241147703
 10
17.0829299284
 20
-4.6684972702
 10
17.1319168964
 20
-4.7079671642
 10
17.1848428857
 20
-4.7421364285
 10
17.2410561752
 20
-4.7705681189
 10
17.299696227
 20
-4.7928721216
 10
17.3600110898
 20
-4.8088616761
 10
17.4214050885
 20
-4.8184744097
 10
17.4832073268
 20
-4.8216851404
  0
LWPOLYLINE
  5
2C4
100
AcDbEntity
  8
RACCORDO
100
AcDbPolyline
 62
253
  6
CONTINUOUS
 90
7
 70
0
 10
16.683147218
 20
0.9430406699
 10
16.6826903077
 20
0.96010864
 10
16.6821998686
 20
0.9745638764
 10
16.6816928148
 20
0.9859410147
 10
16.6811747842
 20
0.9940849337
 10
16.6806401388
 20
0.9991507547
 10
16.6800888786
 20
1.0011384777
  0
LWPOLYLINE
  5
2C5
100
AcDbEntity
  8
ASSI
100
AcDbPolyline
 62
253
  6
CONTINUOUS
 90
7
 70
0
 10
16.683147218
 20
0.9430406699
 10
16.6826903077
 20
0.96010864
 10
16.6821998686
 20
0.9745638764
 10
16.6816928148
 20
0.9859410147
 10
16.6811747842
 20
0.9940849337
 10
16.6806401388
 20
0.9991507547
 10
16.6800888786
 20
1.0011384777
  0
LINE
  5
2C6
100
AcDbEntity
  8
RACCORDO
100
AcDbLine
 62
253
  6
CONTINUOUS
 10
16.683957477
 20
0.9008989506
 11
16.683147218
 21
0.9430406699
  0
LINE
  5
2C7
100
AcDbEntity
  8
ASSI
100
AcDbLine
 62
253
  6
CONTINUOUS
 10
16.683957477
 20
0.9008989506
 11
16.683147218
 21
0.9430406699
  0
LINE
  5
2C8
100
AcDbEntity
  8
RACCORDO
100
AcDbLine
 62
7
  6
CONTINUOUS
 10
16.6741724224
 20
0.7813891868
 11
16.670583073
 21
1.0058910186
  0
LINE
  5
2C9
100
AcDbEntity
  8
ASSI
100
AcDbLine
 62
7
  6
CONTINUOUS
 10
16.6741724224
 20
0.7813891868
 11
16.670583073
 21
1.0058910186
  0
LINE
  5
2CA
100
AcDbEntity
  8
RACCORDO
100
AcDbLine
 62
253
  6
CONTINUOUS
 10
16.6845947861
 20
0.8503792269
 11
16.683957477
 21
0.9008989506
  0
LINE
  5
2CB
100
AcDbEntity
  8
ASSI
100
AcDbLine
 62
253
  6
CONTINUOUS
 10
16.6845947861
 20
0.8503792269
 11
16.683957477
 21
0.9008989506
  0
LINE
  5
2CC
100
AcDbEntity
  8
RACCORDO
100
AcDbLine
 62
7
  6
CONTINUOUS
 10
16.844782702
 20
1.1766149413
 11
16.8456944074
 21
1.1051004744
  0
LINE
  5
2CD
100
AcDbEntity
  8
RACCORDO
100
AcDbLine
 62
7
  6
CONTINUOUS
 10
16.6769547979
 20
0.5219709478
 11
16.6741724224
 21
0.7813891868
  0
LINE
  5
2CE
100
AcDbEntity
  8
ASSI
100
AcDbLine
 62
7
  6
CONTINUOUS
 10
16.6769547979
 20
0.5219709478
 11
16.6741724224
 21
0.7813891868
  0
LINE
  5
2CF
100
AcDbEntity
  8
RACCORDO
100
AcDbLine
 62
7
  6
CONTINUOUS
 10
16.8456944074
 20
1.1051004744
 11
16.8462601527
 21
1.0242092985
  0
LINE
  5
2D0
100
AcDbEntity
  8
RACCORDO
100
AcDbLine
 62
253
  6
CONTINUOUS
 10
16.6851769936
 20
0.7634254325
 11
16.6845947861
 21
0.8503792269
  0
LINE
  5
2D1
100
AcDbEntity
  8
ASSI
100
AcDbLine
 62
253
  6
CONTINUOUS
 10
16.6851769936
 20
0.7634254325
 11
16.6845947861
 21
0.8503792269
  0
LINE
  5
2D2
100
AcDbEntity
  8
RACCORDO
100
AcDbLine
 62
253
  6
CONTINUOUS
 10
16.6852916472
 20
0.5303077971
 11
16.6851769936
 21
0.7634254325
  0
LINE
  5
2D3
100
AcDbEntity
  8
ASSI
100
AcDbLine
 62
253
  6
CONTINUOUS
 10
16.6852916472
 20
0.5303077971
 11
16.6851769936
 21
0.7634254325
  0
LINE
  5
2D4
100
AcDbEntity
  8
RACCORDO
100
AcDbLine
 62
7
  6
CONTINUOUS
 10
16.7728226312
 20
1.9682042849
 11
16.7728226312
 21
1.3988582294
  0
LINE
  5
2D5
100
AcDbEntity
  8
RACCORDO
100
AcDbLine
 62
7
  6
CONTINUOUS
 10
16.7728226312
 20
-3.763180667
 11
16.7728226312
 21
-4.3325267226
  0
LINE
  5
2D6
100
AcDbEntity
  8
RACCORDO
100
AcDbLine
 62
7
  6
CONTINUOUS
 10
16.8028226312
 20
-4.3022526017
 11
16.8028226312
 21
-3.763180667
  0
LINE
  5
2D7
100
AcDbEntity
  8
RACCORDO
100
AcDbLine
 62
7
  6
CONTINUOUS
 10
16.8028226312
 20
1.3988582294
 11
16.8028226312
 21
1.9379301641
  0
LINE
  5
2D8
100
AcDbEntity
  8
RACCORDO
100
AcDbLine
 62
7
  6
CONTINUOUS
 10
16.8464602935
 20
-3.3000236205
 11
16.8462601527
 21
1.0242092985
  0
LINE
  5
2D9
100
AcDbEntity
  8
RACCORDO
100
AcDbLine
 62
253
  6
CONTINUOUS
 10
16.8832987096
 20
-4.2217765233
 11
16.8832987096
 21
1.8574540857
  0
LINE
  5
2DA
100
AcDbEntity
  8
RACCORDO
100
AcDbLine
 62
253
  6
CONTINUOUS
 10
16.6851779996
 20
-3.1275307215
 11
16.6852916472
 21
-2.8946302348
  0
LINE
  5
2DB
100
AcDbEntity
  8
ASSI
100
AcDbLine
 62
253
  6
CONTINUOUS
 10
16.6851779996
 20
-3.1275307215
 11
16.6852916472
 21
-2.8946302348
  0
LINE
  5
2DC
100
AcDbEntity
  8
RACCORDO
100
AcDbLine
 62
7
  6
CONTINUOUS
 10
16.8464602935
 20
-3.3000236205
 11
16.8462601527
 21
-3.3885317362
  0
LINE
  5
2DD
100
AcDbEntity
  8
RACCORDO
100
AcDbLine
 62
7
  6
CONTINUOUS
 10
16.8462601527
 20
-3.3885317362
 11
16.8456944074
 21
-3.4694229121
  0
LINE
  5
2DE
100
AcDbEntity
  8
RACCORDO
100
AcDbLine
 62
253
  6
CONTINUOUS
 10
16.6845977217
 20
-3.2144022834
 11
16.6851779996
 21
-3.1275307215
  0
LINE
  5
2DF
100
AcDbEntity
  8
ASSI
100
AcDbLine
 62
253
  6
CONTINUOUS
 10
16.6845977217
 20
-3.2144022834
 11
16.6851779996
 21
-3.1275307215
  0
LINE
  5
2E0
100
AcDbEntity
  8
RACCORDO
100
AcDbLine
 62
7
  6
CONTINUOUS
 10
16.6741724224
 20
-3.1457116245
 11
16.6769547979
 21
-2.8862933855
  0
LINE
  5
2E1
100
AcDbEntity
  8
ASSI
100
AcDbLine
 62
7
  6
CONTINUOUS
 10
16.6741724224
 20
-3.1457116245
 11
16.6769547979
 21
-2.8862933855
  0
LINE
  5
2E2
100
AcDbEntity
  8
RACCORDO
100
AcDbLine
 62
253
  6
CONTINUOUS
 10
16.6839615951
 20
-3.2649557337
 11
16.6845977217
 21
-3.2144022834
  0
LINE
  5
2E3
100
AcDbEntity
  8
ASSI
100
AcDbLine
 62
253
  6
CONTINUOUS
 10
16.6839615951
 20
-3.2649557337
 11
16.6845977217
 21
-3.2144022834
  0
LWPOLYLINE
  5
2E4
100
AcDbEntity
  8
RACCORDO
100
AcDbPolyline
 62
7
  6
CONTINUOUS
 90
8
 70
0
 10
16.8456944074
 20
-3.4694229121
 10
16.844782702
 20
-3.540937379
 10
16.8442183381
 20
-3.5707980325
 10
16.8435838544
 20
-3.5968480346
 10
16.8429088904
 20
-3.6178694243
 10
16.8422033258
 20
-3.6334562145
 10
16.8414572808
 20
-3.6440143923
 10
16.8406707554
 20
-3.6495439577
  0
LINE
  5
2E5
100
AcDbEntity
  8
RACCORDO
100
AcDbLine
 62
7
  6
CONTINUOUS
 10
16.670583073
 20
-3.3702134563
 11
16.6741724224
 21
-3.1457116245
  0
LINE
  5
2E6
100
AcDbEntity
  8
ASSI
100
AcDbLine
 62
7
  6
CONTINUOUS
 10
16.670583073
 20
-3.3702134563
 11
16.6741724224
 21
-3.1457116245
  0
LWPOLYLINE
  5
2E7
100
AcDbEntity
  8
RACCORDO
100
AcDbPolyline
 62
7
  6
CONTINUOUS
 90
16
 70
0
 10
16.670583073
 20
1.0058910186
 10
16.6709140388
 20
1.0222347173
 10
16.672476997
 20
1.0379633048
 10
16.6751410424
 20
1.0529953176
 10
16.6787577028
 20
1.0672158237
 10
16.6832075483
 20
1.0806336231
 10
16.6884383488
 20
1.0933666717
 10
16.6943506249
 20
1.1053687213
 10
16.7008607279
 20
1.1166352781
 10
16.7080120303
 20
1.1273277237
 10
16.7157702202
 20
1.1374379155
 10
16.7240686084
 20
1.1469171426
 10
16.7329561928
 20
1.1558334104
 10
16.7424325198
 20
1.1641783482
 10
16.752426891
 20
1.1718864715
 10
16.7628984005
 20
1.1789264575
  0
LWPOLYLINE
  5
2E8
100
AcDbEntity
  8
ASSI
100
AcDbPolyline
 62
7
  6
CONTINUOUS
 90
16
 70
0
 10
16.670583073
 20
1.0058910186
 10
16.6709140388
 20
1.0222347173
 10
16.672476997
 20
1.0379633048
 10
16.6751410424
 20
1.0529953176
 10
16.6787577028
 20
1.0672158237
 10
16.6832075483
 20
1.0806336231
 10
16.6884383488
 20
1.0933666717
 10
16.6943506249
 20
1.1053687213
 10
16.7008607279
 20
1.1166352781
 10
16.7080120303
 20
1.1273277237
 10
16.7157702202
 20
1.1374379155
 10
16.7240686084
 20
1.1469171426
 10
16.7329561928
 20
1.1558334104
 10
16.7424325198
 20
1.1641783482
 10
16.752426891
 20
1.1718864715
 10
16.7628984005
 20
1.1789264575
  0
LWPOLYLINE
  5
2E9
100
AcDbEntity
  8
RACCORDO
100
AcDbPolyline
 62
253
  6
CONTINUOUS
 90
16
 70
0
 10
16.8832987096
 20
1.8574540857
 10
16.8866236268
 20
1.9203459097
 10
16.8965233777
 20
1.9825443992
 10
16.9128887922
 20
2.0433640871
 10
16.9355425343
 20
2.1021416226
 10
16.9642332419
 20
2.158221707
 10
16.9986312074
 20
2.2109678471
 10
17.0383417946
 20
2.259792219
 10
17.0829297909
 20
2.3041747093
 10
17.1319167306
 20
2.3436446067
 10
17.184842704
 20
2.3778138866
 10
17.2410559899
 20
2.4062455994
 10
17.2996960569
 20
2.4285496292
 10
17.3600109566
 20
2.4445392104
 10
17.4214050123
 20
2.4541519641
 10
17.4832073267
 20
2.4573627028
  0
LWPOLYLINE
  5
2EA
100
AcDbEntity
  8
RACCORDO
100
AcDbPolyline
 62
7
  6
CONTINUOUS
 90
16
 70
0
 10
16.7728226312
 20
1.9682042849
 10
16.7764112608
 20
2.0320665399
 10
16.7862066563
 20
2.0938978875
 10
16.8022088178
 20
2.153698328
 10
16.8247273873
 20
2.2120721184
 10
16.8534527228
 20
2.2684150015
 10
16.8874558983
 20
2.3209142057
 10
16.9269069797
 20
2.3694447292
 10
16.9716359011
 20
2.4141315737
 10
17.0202035382
 20
2.4535369719
 10
17.0727556277
 20
2.4874907304
 10
17.1291464329
 20
2.5161630426
 10
17.187499619
 20
2.5386267224
 10
17.2471897409
 20
2.5545727077
 10
17.3088422438
 20
2.5643100607
 10
17.3724571274
 20
2.5678387812
  0
LWPOLYLINE
  5
2EB
100
AcDbEntity
  8
RACCORDO
100
AcDbPolyline
 62
7
  6
CONTINUOUS
 90
16
 70
0
 10
16.8028226312
 20
1.9379301641
 10
16.8064083168
 20
2.0017580544
 10
16.81619687
 20
2.0635628523
 10
16.8321882909
 20
2.1233445577
 10
16.8546894958
 20
2.1817056964
 10
16.8833935683
 20
2.2380437427
 10
16.9173797593
 20
2.2905511192
 10
16.9568249687
 20
2.3391091166
 10
17.0015522965
 20
2.3838364444
 10
17.050110294
 20
2.4232816536
 10
17.1026176704
 20
2.4572678445
 10
17.1589557165
 20
2.4859719168
 10
17.217316855
 20
2.5084731216
 10
17.2770985603
 20
2.5244645424
 10
17.3389033581
 20
2.5342530956
 10
17.4027312483
 20
2.5378387812
  0
LWPOLYLINE
  5
2EC
100
AcDbEntity
  8
RACCORDO
100
AcDbPolyline
 62
253
  6
CONTINUOUS
 90
9
 70
0
 10
16.6800888786
 20
1.0011384777
 10
16.6831315655
 20
1.0358634575
 10
16.6921566176
 20
1.0695335406
 10
16.7068898663
 20
1.1011258765
 10
16.7268837361
 20
1.1296807335
 10
16.7515308408
 20
1.1543306549
 10
16.7800824359
 20
1.17432681
 10
16.8116711637
 20
1.1890617433
 10
16.8443817088
 20
1.1978316014
  0
LWPOLYLINE
  5
2ED
100
AcDbEntity
  8
ASSI
100
AcDbPolyline
 62
253
  6
CONTINUOUS
 90
9
 70
0
 10
16.6800888786
 20
1.0011384777
 10
16.6831315655
 20
1.0358634575
 10
16.6921566176
 20
1.0695335406
 10
16.7068898663
 20
1.1011258765
 10
16.7268837361
 20
1.1296807335
 10
16.7515308408
 20
1.1543306549
 10
16.7800824359
 20
1.17432681
 10
16.8116711637
 20
1.1890617433
 10
16.8443817088
 20
1.1978316014
  0
LWPOLYLINE
  5
2EE
100
AcDbEntity
  8
0
100
AcDbPolyline
 62
7
  6
CONTINUOUS
 90
36
 70
0
 10
16.3967184576
 20
-2.4401127452
 10
16.3812877762
 20
-2.5222187503
 10
16.3615435331
 20
-2.598663956
 10
16.3374857283
 20
-2.6694333902
 10
16.3089377511
 20
-2.7349781872
 10
16.2760762122
 20
-2.7949585246
 10
16.2394309436
 20
-2.8482973992
 10
16.1989311596
 20
-2.8950278223
 10
16.1546476459
 20
-2.9355315067
 10
16.107322592
 20
-2.9693592469
 10
16.0564303352
 20
-2.9967453719
 10
16.0024965382
 20
-3.0178731627
 10
15.9478403785
 20
-3.0322267642
 10
15.8926658688
 20
-3.0396302242
 10
15.8367689965
 20
-3.040457699
 10
15.7818569006
 20
-3.0349536146
 10
15.728034056
 20
-3.0230569971
 10
15.675195988
 20
-3.0046770888
 10
15.624736411
 20
-2.9799409
 10
15.5764834365
 20
-2.9480819494
 10
15.5306089531
 20
-2.9094444525
 10
15.4890223405
 20
-2.8658690067
 10
15.4525071175
 20
-2.8176536045
 10
15.4202797654
 20
-2.7642134632
 10
15.3918991086
 20
-2.7061988467
 10
15.367259479
 20
-2.6434435248
 10
15.3464665446
 20
-2.5759900687
 10
15.329396134
 20
-2.5049165943
 10
15.3159853111
 20
-2.4302504839
 10
15.3062970118
 20
-2.3521162645
 10
15.3003958729
 20
-2.2718526031
 10
15.298118255
 20
-2.1894030453
 10
15.2996277974
 20
-2.1052163284
 10
15.3054800548
 20
-2.0214454792
 10
15.3155514697
 20
-1.9381259821
 10
15.3299655995
 20
-1.8556785052
  0
LWPOLYLINE
  5
2EF
100
AcDbEntity
  8
0
100
AcDbPolyline
 62
7
  6
CONTINUOUS
 90
5
 70
0
 10
15.3299655995
 20
-1.8556785052
 10
15.349648671
 20
-1.7767506819
 10
15.3749094264
 20
-1.7022491899
 10
15.4054391235
 20
-1.6314213107
 10
15.4412377623
 20
-1.5642996784
  0
LWPOLYLINE
  5
2F0
100
AcDbEntity
  8
0
100
AcDbPolyline
 62
7
  6
CONTINUOUS
 90
34
 70
0
 10
15.4412377623
 20
0.4357003216
 10
15.4593225432
 20
0.4632794765
 10
15.4790368128
 20
0.4895931395
 10
15.5003805713
 20
0.5146582175
 10
15.5233671005
 20
0.5386907803
 10
15.5479831185
 20
0.5615080722
 10
15.5741887796
 20
0.5825445289
 10
15.6021421971
 20
0.6018461725
 10
15.6316852577
 20
0.6194327503
 10
15.6623037762
 20
0.634725729
 10
15.6939491351
 20
0.6476561458
 10
15.7266699518
 20
0.6583701807
 10
15.7600978933
 20
0.6666222798
 10
15.7941086428
 20
0.672458736
 10
15.828826517
 20
0.6758795864
 10
15.8642561325
 20
0.6765640935
 10
15.900534283
 20
0.674603677
 10
15.9375241747
 20
0.6699020646
 10
15.9748200424
 20
0.6618389107
 10
16.0125497334
 20
0.6503874687
 10
16.0505854004
 20
0.6354864052
 10
16.0881377355
 20
0.6164257463
 10
16.1254792195
 20
0.5927264826
 10
16.1623373716
 20
0.5646560276
 10
16.197105442
 20
0.5326063227
 10
16.2293867767
 20
0.4965063945
 10
16.2595780296
 20
0.4562058652
 10
16.2872624128
 20
0.412007187
 10
16.3123806297
 20
0.363706908
 10
16.3349919768
 20
0.3113424259
 10
16.3548575557
 20
0.25563665
 10
16.3718977335
 20
0.1968366152
 10
16.386192143
 20
0.1346859947
 10
16.3977407843
 20
0.0692092889
  0
LWPOLYLINE
  5
2F1
100
AcDbEntity
  8
0
100
AcDbPolyline
 62
7
  6
CONTINUOUS
 90
38
 70
0
 10
16.3977407843
 20
0.0692092889
 10
16.4077223988
 20
-0.0103740883
 10
16.4138561411
 20
-0.0909345003
 10
16.4161420113
 20
-0.1722731006
 10
16.4147172368
 20
-0.2548136517
 10
16.4094445902
 20
-0.3377035559
 10
16.3999123885
 20
-0.4188375287
 10
16.3860868668
 20
-0.4982748802
 10
16.36800179
 20
-0.575599383
 10
16.3453467703
 20
-0.6481320475
 10
16.3177153636
 20
-0.7158182612
 10
16.2855140139
 20
-0.7787361884
 10
16.2496516661
 20
-0.8346647409
 10
16.2099358309
 20
-0.8832371963
 10
16.1665589976
 20
-0.9252668097
 10
16.1210075779
 20
-0.9604594733
 10
16.0733895689
 20
-0.9888203237
 10
16.0235969736
 20
-1.0107824729
 10
15.9727922123
 20
-1.0266753602
 10
15.9209962117
 20
-1.0367183372
 10
15.8681880451
 20
-1.0408951969
 10
15.8154673531
 20
-1.0391142438
 10
15.7626402272
 20
-1.0313495659
 10
15.7099005759
 20
-1.0175478669
 10
15.6589297653
 20
-0.9975032342
 10
15.6094410737
 20
-0.9702626011
 10
15.5617212228
 20
-0.9364053221
 10
15.5183117446
 20
-0.8980582685
 10
15.4800797225
 20
-0.8549294706
 10
15.446158073
 20
-0.807029169
 10
15.4164870778
 20
-0.7571561766
 10
15.391413296
 20
-0.7056865432
 10
15.3705901686
 20
-0.6522686924
 10
15.3529183002
 20
-0.5988093941
 10
15.3383595261
 20
-0.5455225004
 10
15.326952011
 20
-0.4923542443
 10
15.317710854
 20
-0.4409014574
 10
15.3105905564
 20
-0.3918056144
  0
LWPOLYLINE
  5
2F2
100
AcDbEntity
  8
RACCORDO
100
AcDbPolyline
 62
7
  6
CONTINUOUS
 90
4
 70
0
 10
17.8539000103
 20
-3.6495439577
 10
17.8535068044
 20
-3.644015325
 10
17.8531338307
 20
-3.633458224
 10
17.8527810892
 20
-3.6178726547
  0
LWPOLYLINE
  5
2F3
100
AcDbEntity
  8
RACCORDO
100
AcDbPolyline
 62
7
  6
CONTINUOUS
 90
5
 70
0
 10
17.8304903805
 20
-4.7667338998
 10
17.8309915851
 20
-4.7897648247
 10
17.831505656
 20
-4.8064472889
 10
17.8320376798
 20
-4.8170873942
 10
17.8325876565
 20
-4.8216851404
  0
LINE
  5
2F4
100
AcDbEntity
  8
RACCORDO
100
AcDbLine
 62
253
  6
CONTINUOUS
 10
17.915345648
 20
2.3546082738
 11
17.9158267173
 21
2.3286178337
  0
LINE
  5
2F5
100
AcDbEntity
  8
ASSI
100
AcDbLine
 62
253
  6
CONTINUOUS
 10
17.915345648
 20
2.3546082738
 11
17.9158267173
 21
2.3286178337
  0
LINE
  5
2F6
100
AcDbEntity
  8
RACCORDO
100
AcDbLine
 62
253
  6
CONTINUOUS
 10
18.0650932909
 20
2.50835784
 11
18.0655900058
 21
2.478149639
  0
LINE
  5
2F7
100
AcDbEntity
  8
ASSI
100
AcDbLine
 62
253
  6
CONTINUOUS
 10
18.0650932909
 20
2.50835784
 11
18.0655900058
 21
2.478149639
  0
LINE
  5
2F8
100
AcDbEntity
  8
RACCORDO
100
AcDbLine
 62
7
  6
CONTINUOUS
 10
17.8917576079
 20
1.156062707
 11
17.8925440779
 21
1.1034938946
  0
LINE
  5
2F9
100
AcDbEntity
  8
ASSI
100
AcDbLine
 62
7
  6
CONTINUOUS
 10
17.8917576079
 20
1.156062707
 11
17.8925440779
 21
1.1034938946
  0
LINE
  5
2FA
100
AcDbEntity
  8
RACCORDO
100
AcDbLine
 62
7
  6
CONTINUOUS
 10
17.8295570902
 20
-4.7034632776
 11
17.8304903805
 21
-4.7667338998
  0
LINE
  5
2FB
100
AcDbEntity
  8
RACCORDO
100
AcDbLine
 62
7
  6
CONTINUOUS
 10
17.8527810892
 20
-3.6178726547
 11
17.8521264227
 21
-3.5708046288
  0
LINE
  5
2FC
100
AcDbEntity
  8
RACCORDO
100
AcDbLine
 62
253
  6
CONTINUOUS
 10
17.9158267173
 20
2.3286178337
 11
17.9164563647
 21
2.2727149057
  0
LINE
  5
2FD
100
AcDbEntity
  8
ASSI
100
AcDbLine
 62
253
  6
CONTINUOUS
 10
17.9158267173
 20
2.3286178337
 11
17.9164563647
 21
2.2727149057
  0
LINE
  5
2FE
100
AcDbEntity
  8
RACCORDO
100
AcDbLine
 62
253
  6
CONTINUOUS
 10
18.0655900058
 20
2.478149639
 11
18.0662562825
 21
2.4077778114
  0
LINE
  5
2FF
100
AcDbEntity
  8
ASSI
100
AcDbLine
 62
253
  6
CONTINUOUS
 10
18.0655900058
 20
2.478149639
 11
18.0662562825
 21
2.4077778114
  0
LINE
  5
300
100
AcDbEntity
  8
RACCORDO
100
AcDbLine
 62
7
  6
CONTINUOUS
 10
17.828421514
 20
-4.5710452411
 11
17.8295570902
 21
-4.7034632776
  0
LINE
  5
301
100
AcDbEntity
  8
RACCORDO
100
AcDbLine
 62
7
  6
CONTINUOUS
 10
17.8925440779
 20
1.1034938946
 11
17.8935011595
 21
0.9929486891
  0
LINE
  5
302
100
AcDbEntity
  8
ASSI
100
AcDbLine
 62
7
  6
CONTINUOUS
 10
17.8925440779
 20
1.1034938946
 11
17.8935011595
 21
0.9929486891
  0
LINE
  5
303
100
AcDbEntity
  8
RACCORDO
100
AcDbLine
 62
7
  6
CONTINUOUS
 10
17.8521264227
 20
-3.5708046288
 11
17.8513884136
 21
-3.4694307759
  0
LINE
  5
304
100
AcDbEntity
  8
RACCORDO
100
AcDbLine
 62
253
  6
CONTINUOUS
 10
17.9164563647
 20
2.2727149057
 11
17.9171604377
 21
2.1448075657
  0
LINE
  5
305
100
AcDbEntity
  8
ASSI
100
AcDbLine
 62
253
  6
CONTINUOUS
 10
17.9164563647
 20
2.2727149057
 11
17.9171604377
 21
2.1448075657
  0
LINE
  5
306
100
AcDbEntity
  8
RACCORDO
100
AcDbLine
 62
253
  6
CONTINUOUS
 10
18.0662562825
 20
2.4077778114
 11
18.0671532161
 21
2.1964482857
  0
LINE
  5
307
100
AcDbEntity
  8
ASSI
100
AcDbLine
 62
253
  6
CONTINUOUS
 10
18.0662562825
 20
2.4077778114
 11
18.0671532161
 21
2.1964482857
  0
LINE
  5
308
100
AcDbEntity
  8
DRAFT
100
AcDbLine
 62
7
  6
CONTINUOUS
 10
17.8890578831
 20
-1.8282855223
 11
17.8863405459
 21
-1.1821612188
  0
LINE
  5
309
100
AcDbEntity
  8
ASSI
100
AcDbLine
 62
7
  6
CONTINUOUS
 10
17.8890578831
 20
-1.8282855223
 11
17.8863405459
 21
-1.1821612188
  0
LINE
  5
30A
100
AcDbEntity
  8
RACCORDO
100
AcDbLine
 62
7
  6
CONTINUOUS
 10
17.8274734337
 20
-4.2848652929
 11
17.828421514
 21
-4.5710452411
  0
LINE
  5
30B
100
AcDbEntity
  8
RACCORDO
100
AcDbLine
 62
7
  6
CONTINUOUS
 10
17.8935011595
 20
0.9929486891
 11
17.8943000795
 21
0.7534925925
  0
LINE
  5
30C
100
AcDbEntity
  8
ASSI
100
AcDbLine
 62
7
  6
CONTINUOUS
 10
17.8935011595
 20
0.9929486891
 11
17.8943000795
 21
0.7534925925
  0
LINE
  5
30D
100
AcDbEntity
  8
RACCORDO
100
AcDbLine
 62
253
  6
CONTINUOUS
 10
17.9171604377
 20
2.1448075657
 11
17.9173410803
 21
2.02636712
  0
LINE
  5
30E
100
AcDbEntity
  8
ASSI
100
AcDbLine
 62
253
  6
CONTINUOUS
 10
17.9171604377
 20
2.1448075657
 11
17.9173410803
 21
2.02636712
  0
LINE
  5
30F
100
AcDbEntity
  8
RACCORDO
100
AcDbLine
 62
253
  6
CONTINUOUS
 10
17.4832073267
 20
-4.8216851404
 11
17.4832073267
 21
2.4573627028
  0
LINE
  5
310
100
AcDbEntity
  8
RACCORDO
100
AcDbLine
 62
7
  6
CONTINUOUS
 10
17.8513884136
 20
-3.4694307759
 11
17.8510054617
 21
0.9357011828
  0
LINE
  5
311
100
AcDbEntity
  8
DRAFT
100
AcDbLine
 62
7
  6
CONTINUOUS
 10
17.8728226312
 20
2.5378387812
 11
17.8728226312
 21
1.8678387812
  0
LINE
  5
312
100
AcDbEntity
  8
DRAFT
100
AcDbLine
 62
7
  6
CONTINUOUS
 10
17.8728226312
 20
-4.2321612188
 11
17.8728226312
 21
-4.9021612188
  0
LINE
  5
313
100
AcDbEntity
  8
RACCORDO
100
AcDbLine
 62
7
  6
CONTINUOUS
 10
17.8728226312
 20
-4.7821669304
 11
17.8728226312
 21
-4.1321612188
  0
LINE
  5
314
100
AcDbEntity
  8
DRAFT
100
AcDbLine
 62
7
  6
CONTINUOUS
 10
17.8728226312
 20
-4.1321612188
 11
17.8728226312
 21
-3.5821612188
  0
LINE
  5
315
100
AcDbEntity
  8
ASSI
100
AcDbLine
 62
7
  6
CONTINUOUS
 10
17.8728226312
 20
-4.7821669304
 11
17.8728226312
 21
-3.5821612188
  0
LINE
  5
316
100
AcDbEntity
  8
DRAFT
100
AcDbLine
 62
7
  6
CONTINUOUS
 10
17.8728226312
 20
1.2178387812
 11
17.8728226312
 21
1.7678387812
  0
LINE
  5
317
100
AcDbEntity
  8
RACCORDO
100
AcDbLine
 62
7
  6
CONTINUOUS
 10
17.8728226312
 20
1.7678387812
 11
17.8728226312
 21
2.4178444927
  0
LINE
  5
318
100
AcDbEntity
  8
ASSI
100
AcDbLine
 62
7
  6
CONTINUOUS
 10
17.8728226312
 20
1.2178387812
 11
17.8728226312
 21
2.4178444927
  0
LINE
  5
319
100
AcDbEntity
  8
RACCORDO
100
AcDbLine
 62
7
  6
CONTINUOUS
 10
17.8943257754
 20
0.5346657477
 11
17.8943000795
 21
0.7534925925
  0
LINE
  5
31A
100
AcDbEntity
  8
ASSI
100
AcDbLine
 62
7
  6
CONTINUOUS
 10
17.8943257754
 20
0.5346657477
 11
17.8943000795
 21
0.7534925925
  0
LINE
  5
31B
100
AcDbEntity
  8
RACCORDO
100
AcDbLine
 62
7
  6
CONTINUOUS
 10
17.9173410803
 20
2.02636712
 11
17.9173410803
 21
-4.3906895576
  0
LINE
  5
31C
100
AcDbEntity
  8
ASSI
100
AcDbLine
 62
7
  6
CONTINUOUS
 10
17.9173410803
 20
2.02636712
 11
17.9173410803
 21
-4.3906895576
  0
LINE
  5
31D
100
AcDbEntity
  8
RACCORDO
100
AcDbLine
 62
253
  6
CONTINUOUS
 10
18.0671532161
 20
2.1964482857
 11
18.0673353687
 21
-4.3905763397
  0
LINE
  5
31E
100
AcDbEntity
  8
ASSI
100
AcDbLine
 62
253
  6
CONTINUOUS
 10
18.0671532161
 20
2.1964482857
 11
18.0673353687
 21
-4.3905763397
  0
LINE
  5
31F
100
AcDbEntity
  8
DRAFT
100
AcDbLine
 62
7
  6
CONTINUOUS
 10
18.6693316182
 20
1.7713297941
 11
18.6693316182
 21
-4.1356522318
  0
LINE
  5
320
100
AcDbEntity
  8
ASSI
100
AcDbLine
 62
7
  6
CONTINUOUS
 10
18.6693316182
 20
1.7713297941
 11
18.6693316182
 21
-4.1356522318
  0
LINE
  5
321
100
AcDbEntity
  8
DRAFT
100
AcDbLine
 62
7
  6
CONTINUOUS
 10
18.6728226312
 20
1.7678387812
 11
18.6728226312
 21
-4.1321612188
  0
LINE
  5
322
100
AcDbEntity
  8
DRAFT
100
AcDbLine
 62
7
  6
CONTINUOUS
 10
17.8893666723
 20
-0.296901838
 11
17.8879788589
 21
0.5219709478
  0
LINE
  5
323
100
AcDbEntity
  8
ASSI
100
AcDbLine
 62
7
  6
CONTINUOUS
 10
17.8893666723
 20
-0.296901838
 11
17.8879788589
 21
0.5219709478
  0
LINE
  5
324
100
AcDbEntity
  8
DRAFT
100
AcDbLine
 62
7
  6
CONTINUOUS
 10
17.8887618681
 20
-2.6614270259
 11
17.8890578831
 21
-1.8282855223
  0
LINE
  5
325
100
AcDbEntity
  8
ASSI
100
AcDbLine
 62
7
  6
CONTINUOUS
 10
17.8887618681
 20
-2.6614270259
 11
17.8890578831
 21
-1.8282855223
  0
LINE
  5
326
100
AcDbEntity
  8
RACCORDO
100
AcDbLine
 62
7
  6
CONTINUOUS
 10
17.8278857614
 20
2.0986917083
 11
17.8274734337
 21
-4.2848652929
  0
LINE
  5
327
100
AcDbEntity
  8
RACCORDO
100
AcDbLine
 62
7
  6
CONTINUOUS
 10
17.8943257754
 20
-2.8989881854
 11
17.8939526432
 21
-3.2669133283
  0
LINE
  5
328
100
AcDbEntity
  8
ASSI
100
AcDbLine
 62
7
  6
CONTINUOUS
 10
17.8943257754
 20
-2.8989881854
 11
17.8939526432
 21
-3.2669133283
  0
LINE
  5
329
100
AcDbEntity
  8
DRAFT
100
AcDbLine
 62
7
  6
CONTINUOUS
 10
17.8879788589
 20
-2.8862933855
 11
17.8887618681
 21
-2.6614270259
  0
LINE
  5
32A
100
AcDbEntity
  8
ASSI
100
AcDbLine
 62
7
  6
CONTINUOUS
 10
17.8879788589
 20
-2.8862933855
 11
17.8887618681
 21
-2.6614270259
  0
LINE
  5
32B
100
AcDbEntity
  8
RACCORDO
100
AcDbLine
 62
253
  6
CONTINUOUS
 10
18.0673354583
 20
-4.3905763397
 11
18.0667888611
 21
-4.6761390822
  0
LINE
  5
32C
100
AcDbEntity
  8
ASSI
100
AcDbLine
 62
253
  6
CONTINUOUS
 10
18.0673354583
 20
-4.3905763397
 11
18.0667888611
 21
-4.6761390822
  0
LINE
  5
32D
100
AcDbEntity
  8
RACCORDO
100
AcDbLine
 62
7
  6
CONTINUOUS
 10
17.8510054617
 20
0.9357011828
 11
17.8513884136
 21
1.1051083382
  0
LINE
  5
32E
100
AcDbEntity
  8
RACCORDO
100
AcDbLine
 62
253
  6
CONTINUOUS
 10
17.9173410803
 20
-4.3906895576
 11
17.9169377245
 21
-4.5645122362
  0
LINE
  5
32F
100
AcDbEntity
  8
ASSI
100
AcDbLine
 62
253
  6
CONTINUOUS
 10
17.9173410803
 20
-4.3906895576
 11
17.9169377245
 21
-4.5645122362
  0
LINE
  5
330
100
AcDbEntity
  8
DRAFT
100
AcDbLine
 62
7
  6
CONTINUOUS
 10
17.8875319698
 20
-0.9822160078
 11
17.8893666723
 21
-0.296901838
  0
LINE
  5
331
100
AcDbEntity
  8
ASSI
100
AcDbLine
 62
7
  6
CONTINUOUS
 10
17.8875319698
 20
-0.9822160078
 11
17.8893666723
 21
-0.296901838
  0
LINE
  5
332
100
AcDbEntity
  8
DRAFT
100
AcDbLine
 62
7
  6
CONTINUOUS
 10
17.8863405459
 20
-1.1821612188
 11
17.8875319698
 21
-0.9822160078
  0
LINE
  5
333
100
AcDbEntity
  8
ASSI
100
AcDbLine
 62
7
  6
CONTINUOUS
 10
17.8863405459
 20
-1.1821612188
 11
17.8875319698
 21
-0.9822160078
  0
LINE
  5
334
100
AcDbEntity
  8
RACCORDO
100
AcDbLine
 62
253
  6
CONTINUOUS
 10
18.0667888611
 20
-4.6761390822
 11
18.0660451815
 21
-4.7987597668
  0
LINE
  5
335
100
AcDbEntity
  8
ASSI
100
AcDbLine
 62
253
  6
CONTINUOUS
 10
18.0667888611
 20
-4.6761390822
 11
18.0660451815
 21
-4.7987597668
  0
LINE
  5
336
100
AcDbEntity
  8
RACCORDO
100
AcDbLine
 62
7
  6
CONTINUOUS
 10
17.8291413254
 20
2.2996559438
 11
17.8278857614
 21
2.0986917083
  0
LINE
  5
337
100
AcDbEntity
  8
RACCORDO
100
AcDbLine
 62
7
  6
CONTINUOUS
 10
17.8939526432
 20
-3.2669133283
 11
17.892894465
 21
-3.434898747
  0
LINE
  5
338
100
AcDbEntity
  8
ASSI
100
AcDbLine
 62
7
  6
CONTINUOUS
 10
17.8939526432
 20
-3.2669133283
 11
17.892894465
 21
-3.434898747
  0
LINE
  5
339
100
AcDbEntity
  8
RACCORDO
100
AcDbLine
 62
7
  6
CONTINUOUS
 10
17.8513884136
 20
1.1051083382
 11
17.8521264227
 21
1.2064821911
  0
LINE
  5
33A
100
AcDbEntity
  8
RACCORDO
100
AcDbLine
 62
253
  6
CONTINUOUS
 10
17.9169377245
 20
-4.5645122362
 11
17.9162606275
 21
-4.6577337708
  0
LINE
  5
33B
100
AcDbEntity
  8
ASSI
100
AcDbLine
 62
253
  6
CONTINUOUS
 10
17.9169377245
 20
-4.5645122362
 11
17.9162606275
 21
-4.6577337708
  0
LINE
  5
33C
100
AcDbEntity
  8
RACCORDO
100
AcDbLine
 62
253
  6
CONTINUOUS
 10
18.0660451815
 20
-4.7987597668
 11
18.0655894259
 21
-4.8425169138
  0
LINE
  5
33D
100
AcDbEntity
  8
ASSI
100
AcDbLine
 62
253
  6
CONTINUOUS
 10
18.0660451815
 20
-4.7987597668
 11
18.0655894259
 21
-4.8425169138
  0
LWPOLYLINE
  5
33E
100
AcDbEntity
  8
RACCORDO
100
AcDbPolyline
 62
7
  6
CONTINUOUS
 90
7
 70
0
 10
17.892894465
 20
-3.434898747
 10
17.8921648189
 20
-3.496265384
 10
17.8917576106
 20
-3.5203850164
 10
17.8913354681
 20
-3.5393954057
 10
17.8909027294
 20
-3.5530366473
 10
17.8904550564
 20
-3.5615686457
 10
17.8899924492
 20
-3.5649914009
  0
LWPOLYLINE
  5
33F
100
AcDbEntity
  8
ASSI
100
AcDbPolyline
 62
7
  6
CONTINUOUS
 90
7
 70
0
 10
17.892894465
 20
-3.434898747
 10
17.8921648189
 20
-3.496265384
 10
17.8917576106
 20
-3.5203850164
 10
17.8913354681
 20
-3.5393954057
 10
17.8909027294
 20
-3.5530366473
 10
17.8904550564
 20
-3.5615686457
 10
17.8899924492
 20
-3.5649914009
  0
LINE
  5
340
100
AcDbEntity
  8
RACCORDO
100
AcDbLine
 62
253
  6
CONTINUOUS
 10
17.9162606275
 20
-4.6577337708
 11
17.9158261353
 21
-4.692979201
  0
LINE
  5
341
100
AcDbEntity
  8
ASSI
100
AcDbLine
 62
253
  6
CONTINUOUS
 10
17.9162606275
 20
-4.6577337708
 11
17.9158261353
 21
-4.692979201
  0
LWPOLYLINE
  5
342
100
AcDbEntity
  8
RACCORDO
100
AcDbPolyline
 62
7
  6
CONTINUOUS
 90
5
 70
0
 10
17.8521264227
 20
1.2064821911
 10
17.8527810892
 20
1.253550217
 10
17.8531338307
 20
1.2691357863
 10
17.8535068044
 20
1.2796928873
 10
17.8539000103
 20
1.28522152
  0
LWPOLYLINE
  5
343
100
AcDbEntity
  8
RACCORDO
100
AcDbPolyline
 62
253
  6
CONTINUOUS
 90
5
 70
0
 10
18.0655894259
 20
-4.8425169138
 10
18.0650927774
 20
-4.8727034439
 10
18.0648371414
 20
-4.8824072238
 10
18.0645754221
 20
-4.8884113558
 10
18.0643076193
 20
-4.8906705192
  0
LWPOLYLINE
  5
344
100
AcDbEntity
  8
ASSI
100
AcDbPolyline
 62
253
  6
CONTINUOUS
 90
5
 70
0
 10
18.0655894259
 20
-4.8425169138
 10
18.0650927774
 20
-4.8727034439
 10
18.0648371414
 20
-4.8824072238
 10
18.0645754221
 20
-4.8884113558
 10
18.0643076193
 20
-4.8906705192
  0
LWPOLYLINE
  5
345
100
AcDbEntity
  8
RACCORDO
100
AcDbPolyline
 62
253
  6
CONTINUOUS
 90
6
 70
0
 10
17.9158261353
 20
-4.692979201
 10
17.9153450862
 20
-4.7189532749
 10
17.9150935486
 20
-4.7282565069
 10
17.9148387684
 20
-4.7349361462
 10
17.9145786958
 20
-4.7390760541
 10
17.9143133309
 20
-4.7406762307
  0
LWPOLYLINE
  5
346
100
AcDbEntity
  8
ASSI
100
AcDbPolyline
 62
253
  6
CONTINUOUS
 90
6
 70
0
 10
17.9158261353
 20
-4.692979201
 10
17.9153450862
 20
-4.7189532749
 10
17.9150935486
 20
-4.7282565069
 10
17.9148387684
 20
-4.7349361462
 10
17.9145786958
 20
-4.7390760541
 10
17.9143133309
 20
-4.7406762307
  0
LWPOLYLINE
  5
347
100
AcDbEntity
  8
RACCORDO
100
AcDbPolyline
 62
7
  6
CONTINUOUS
 90
13
 70
0
 10
17.8728226312
 20
2.4178444927
 10
17.8742844873
 20
2.4379496401
 10
17.878090375
 20
2.4570835728
 10
17.8842402941
 20
2.4752462907
 10
17.8929175543
 20
2.4927120893
 10
17.903938846
 20
2.5092066732
 10
17.9167542404
 20
2.5239071561
 10
17.9314547235
 20
2.5367225533
 10
17.9479493093
 20
2.5477438496
 10
17.9654151106
 20
2.5564211137
 10
17.9835778315
 20
2.5625710351
 10
18.0027117679
 20
2.5663769242
 10
18.0228169197
 20
2.5678387812
  0
LWPOLYLINE
  5
348
100
AcDbEntity
  8
ASSI
100
AcDbPolyline
 62
7
  6
CONTINUOUS
 90
13
 70
0
 10
17.8728226312
 20
2.4178444927
 10
17.8742844873
 20
2.4379496401
 10
17.878090375
 20
2.4570835728
 10
17.8842402941
 20
2.4752462907
 10
17.8929175543
 20
2.4927120893
 10
17.903938846
 20
2.5092066732
 10
17.9167542404
 20
2.5239071561
 10
17.9314547235
 20
2.5367225533
 10
17.9479493093
 20
2.5477438496
 10
17.9654151106
 20
2.5564211137
 10
17.9835778315
 20
2.5625710351
 10
18.0027117679
 20
2.5663769242
 10
18.0228169197
 20
2.5678387812
  0
LWPOLYLINE
  5
349
100
AcDbEntity
  8
RACCORDO
100
AcDbPolyline
 62
7
  6
CONTINUOUS
 90
7
 70
0
 10
17.8325876565
 20
2.4573627028
 10
17.8320376798
 20
2.4527649565
 10
17.831505656
 20
2.4421248513
 10
17.8309915851
 20
2.425442387
 10
17.8304903805
 20
2.4024114621
 10
17.8300071287
 20
2.3733381782
 10
17.8291413254
 20
2.2996559438
  0
LINE
  5
34A
100
AcDbEntity
  8
RACCORDO
100
AcDbLine
 62
7
  6
CONTINUOUS
 10
17.8728226312
 20
1.3988582294
 11
17.8539000103
 21
1.28522152
  0
LWPOLYLINE
  5
34B
100
AcDbEntity
  8
RACCORDO
100
AcDbPolyline
 62
253
  6
CONTINUOUS
 90
8
 70
0
 10
16.6800888786
 20
-3.3654609154
 10
16.6806422961
 20
-3.3634446768
 10
16.681178564
 20
-3.3583480478
 10
16.6816976824
 20
-3.3501710285
 10
16.6822051633
 20
-3.3387564745
 10
16.6826954948
 20
-3.3242615303
 10
16.6831521407
 20
-3.3071576284
 10
16.6839615951
 20
-3.2649557337
  0
LWPOLYLINE
  5
34C
100
AcDbEntity
  8
ASSI
100
AcDbPolyline
 62
253
  6
CONTINUOUS
 90
8
 70
0
 10
16.6800888786
 20
-3.3654609154
 10
16.6806422961
 20
-3.3634446768
 10
16.681178564
 20
-3.3583480478
 10
16.6816976824
 20
-3.3501710285
 10
16.6822051633
 20
-3.3387564745
 10
16.6826954948
 20
-3.3242615303
 10
16.6831521407
 20
-3.3071576284
 10
16.6839615951
 20
-3.2649557337
  0
LINE
  5
34D
100
AcDbEntity
  8
RACCORDO
100
AcDbLine
 62
7
  6
CONTINUOUS
 10
16.8406707554
 20
-3.6495439577
 11
16.8028226312
 21
-3.763180667
  0
LINE
  5
34E
100
AcDbEntity
  8
RACCORDO
100
AcDbLine
 62
7
  6
CONTINUOUS
 10
17.8728226312
 20
2.5378387812
 11
17.8325876565
 21
2.4573627028
  0
LINE
  5
34F
100
AcDbEntity
  8
DRAFT
100
AcDbLine
 62
7
  6
CONTINUOUS
 10
17.8943257754
 20
0.5346657477
 11
17.8879788589
 21
0.5219709478
  0
LINE
  5
350
100
AcDbEntity
  8
ASSI
100
AcDbLine
 62
7
  6
CONTINUOUS
 10
17.8943257754
 20
0.5346657477
 11
17.8879788589
 21
0.5219709478
  0
LWPOLYLINE
  5
351
100
AcDbEntity
  8
0
100
AcDbPolyline
 62
7
  6
CONTINUOUS
 90
40
 70
0
 10
15.4412377623
 20
-1.5642996784
 10
15.4600120465
 20
-1.5357013453
 10
15.4805404445
 20
-1.5084846782
 10
15.5028229563
 20
-1.4826302208
 10
15.5268775597
 20
-1.4578965242
 10
15.5526862768
 20
-1.4344867761
 10
15.5801951738
 20
-1.4130303697
 10
15.6095941233
 20
-1.3934783883
 10
15.6406932527
 20
-1.3758047834
 10
15.6728690101
 20
-1.3606436499
 10
15.7060399997
 20
-1.3480807319
 10
15.7402876173
 20
-1.3379455388
 10
15.775232499
 20
-1.3304781393
 10
15.8107728198
 20
-1.3256183994
 10
15.8470104048
 20
-1.3233820727
 10
15.8838713639
 20
-1.3241318867
 10
15.9214721559
 20
-1.3277720185
 10
15.9596963222
 20
-1.3344164852
 10
15.9981205975
 20
-1.3447664443
 10
16.0369643283
 20
-1.3589274652
 10
16.0760081682
 20
-1.3769139855
 10
16.1141708124
 20
-1.3993330629
 10
16.1515959376
 20
-1.4266894579
 10
16.1881398672
 20
-1.4587262428
 10
16.2222902675
 20
-1.4949172091
 10
16.2536557916
 20
-1.5353126248
 10
16.2826277864
 20
-1.5800911028
 10
16.3088679584
 20
-1.6288740529
 10
16.3323366189
 20
-1.6819749621
 10
16.3530734567
 20
-1.7392253495
 10
16.370859245
 20
-1.7994398659
 10
16.3855936183
 20
-1.8623560509
 10
16.3973769421
 20
-1.9281744653
 10
16.4062910863
 20
-1.9963206691
 10
16.412473284
 20
-2.0667623369
 10
16.4157863021
 20
-2.1393256459
 10
16.4159003114
 20
-2.2131757596
 10
16.4127053689
 20
-2.2879237482
 10
16.4063114177
 20
-2.3636315013
 10
16.3967184576
 20
-2.4401127452
  0
LINE
  5
352
100
AcDbEntity
  8
RACCORDO
100
AcDbLine
 62
7
  6
CONTINUOUS
 10
17.8728226312
 20
-4.9021612188
 11
17.8325876565
 21
-4.8216851404
  0
LINE
  5
353
100
AcDbEntity
  8
DRAFT
100
AcDbLine
 62
7
  6
CONTINUOUS
 10
17.8879788589
 20
-2.8862933855
 11
17.8943257754
 21
-2.8989881854
  0
LINE
  5
354
100
AcDbEntity
  8
ASSI
100
AcDbLine
 62
7
  6
CONTINUOUS
 10
17.8879788589
 20
-2.8862933855
 11
17.8943257754
 21
-2.8989881854
  0
LINE
  5
355
100
AcDbEntity
  8
RACCORDO
100
AcDbLine
 62
7
  6
CONTINUOUS
 10
16.8406707554
 20
1.28522152
 11
16.8028226312
 21
1.3988582294
  0
LINE
  5
356
100
AcDbEntity
  8
RACCORDO
100
AcDbLine
 62
7
  6
CONTINUOUS
 10
17.8728226312
 20
-3.763180667
 11
17.8539000103
 21
-3.6495439577
  0
LWPOLYLINE
  5
357
100
AcDbEntity
  8
RACCORDO
100
AcDbPolyline
 62
253
  6
CONTINUOUS
 90
5
 70
0
 10
17.9143133309
 20
2.376353793
 10
17.9145789101
 20
2.3747492099
 10
17.9148391501
 20
2.3706040627
 10
17.9150940508
 20
2.3639183515
 10
17.915345648
 20
2.3546082738
  0
LWPOLYLINE
  5
358
100
AcDbEntity
  8
ASSI
100
AcDbPolyline
 62
253
  6
CONTINUOUS
 90
5
 70
0
 10
17.9143133309
 20
2.376353793
 10
17.9145789101
 20
2.3747492099
 10
17.9148391501
 20
2.3706040627
 10
17.9150940508
 20
2.3639183515
 10
17.915345648
 20
2.3546082738
  0
LWPOLYLINE
  5
359
100
AcDbEntity
  8
RACCORDO
100
AcDbPolyline
 62
7
  6
CONTINUOUS
 90
7
 70
0
 10
16.8406707554
 20
1.28522152
 10
16.8414572808
 20
1.2796919546
 10
16.8422033258
 20
1.2691337768
 10
16.8429088904
 20
1.2535469866
 10
16.8435838544
 20
1.2325255969
 10
16.8442183381
 20
1.2064755948
 10
16.844782702
 20
1.1766149413
  0
LWPOLYLINE
  5
35A
100
AcDbEntity
  8
RACCORDO
100
AcDbPolyline
 62
7
  6
CONTINUOUS
 90
5
 70
0
 10
17.8899924492
 20
1.2006689632
 10
17.8904550549
 20
1.1972462572
 10
17.8909027269
 20
1.1887142957
 10
17.8913354652
 20
1.1750730787
 10
17.8917576079
 20
1.156062707
  0
LWPOLYLINE
  5
35B
100
AcDbEntity
  8
ASSI
100
AcDbPolyline
 62
7
  6
CONTINUOUS
 90
5
 70
0
 10
17.8899924492
 20
1.2006689632
 10
17.8904550549
 20
1.1972462572
 10
17.8909027269
 20
1.1887142957
 10
17.8913354652
 20
1.1750730787
 10
17.8917576079
 20
1.156062707
  0
LWPOLYLINE
  5
35C
100
AcDbEntity
  8
RACCORDO
100
AcDbPolyline
 62
253
  6
CONTINUOUS
 90
4
 70
0
 10
18.0643076193
 20
2.5263480815
 10
18.0645756425
 20
2.5240854753
 10
18.064837533
 20
2.5180729755
 10
18.0650932909
 20
2.50835784
  0
LWPOLYLINE
  5
35D
100
AcDbEntity
  8
ASSI
100
AcDbPolyline
 62
253
  6
CONTINUOUS
 90
4
 70
0
 10
18.0643076193
 20
2.5263480815
 10
18.0645756425
 20
2.5240854753
 10
18.064837533
 20
2.5180729755
 10
18.0650932909
 20
2.50835784
  0
LINE
  5
35E
100
AcDbEntity
  8
SCRITTE
100
AcDbLine
 62
253
  6
CONTINUOUS
 10
19.7728226491
 20
-2.1821612188
 11
19.7728226491
 21
-0.7821612188
  0
LINE
  5
35F
100
AcDbEntity
  8
RACCORDO
100
AcDbLine
 62
7
  6
CONTINUOUS
 10
16.6769547979
 20
0.5219709478
 11
16.6852916472
 21
0.5303077971
  0
LINE
  5
360
100
AcDbEntity
  8
ASSI
100
AcDbLine
 62
7
  6
CONTINUOUS
 10
16.6769547979
 20
0.5219709478
 11
16.6852916472
 21
0.5303077971
  0
LINE
  5
361
100
AcDbEntity
  8
RACCORDO
100
AcDbLine
 62
7
  6
CONTINUOUS
 10
16.6852916472
 20
-2.8946302348
 11
16.6769547979
 21
-2.8862933855
  0
LINE
  5
362
100
AcDbEntity
  8
ASSI
100
AcDbLine
 62
7
  6
CONTINUOUS
 10
16.6852916472
 20
-2.8946302348
 11
16.6769547979
 21
-2.8862933855
  0
LINE
  5
363
100
AcDbEntity
  8
SCRITTE
100
AcDbLine
 62
253
  6
CONTINUOUS
 10
20.172822667
 20
-3.8821612188
 11
19.3728226312
 21
-2.4821612188
  0
LINE
  5
364
100
AcDbEntity
  8
SCRITTE
100
AcDbLine
 62
253
  6
CONTINUOUS
 10
20.3728226312
 20
2.5608572869
 11
20.3728226312
 21
2.548639672
  0
LINE
  5
365
100
AcDbEntity
  8
SCRITTE
100
AcDbLine
 62
253
  6
CONTINUOUS
 10
20.8728225835
 20
-0.9821612069
 11
20.8728225835
 21
-1.182161195
  0
LINE
  5
366
100
AcDbEntity
  8
SCRITTE
100
AcDbLine
 62
253
  6
CONTINUOUS
 10
21.172822667
 20
2.548639672
 11
21.172822667
 21
2.5608572869
  0
LINE
  5
367
100
AcDbEntity
  8
0
100
AcDbLine
 62
7
  6
CONTINUOUS
 10
21.2113206312
 20
1.2355027812
 11
21.2113206312
 21
-0.4644622188
  0
LINE
  5
368
100
AcDbEntity
  8
ASSI
100
AcDbLine
 62
7
  6
CONTINUOUS
 10
21.2113206312
 20
1.2355027812
 11
21.2113206312
 21
-0.4644622188
  0
LINE
  5
369
100
AcDbEntity
  8
0
100
AcDbLine
 62
7
  6
CONTINUOUS
 10
21.5661486312
 20
-0.4644622188
 11
21.5661486312
 21
1.2355027812
  0
LINE
  5
36A
100
AcDbEntity
  8
ASSI
100
AcDbLine
 62
7
  6
CONTINUOUS
 10
21.5661486312
 20
-0.4644622188
 11
21.5661486312
 21
1.2355027812
  0
LINE
  5
36B
100
AcDbEntity
  8
0
100
AcDbLine
 62
7
  6
CONTINUOUS
 10
20.7250566312
 20
1.2354007812
 11
20.3911346312
 21
0.0653327812
  0
LINE
  5
36C
100
AcDbEntity
  8
ASSI
100
AcDbLine
 62
7
  6
CONTINUOUS
 10
20.7250566312
 20
1.2354007812
 11
20.3911346312
 21
0.0653327812
  0
LINE
  5
36D
100
AcDbEntity
  8
0
100
AcDbLine
 62
7
  6
CONTINUOUS
 10
20.5332386312
 20
-0.4644622188
 11
21.0796426312
 21
1.2354007812
  0
LINE
  5
36E
100
AcDbEntity
  8
ASSI
100
AcDbLine
 62
7
  6
CONTINUOUS
 10
20.5332386312
 20
-0.4644622188
 11
21.0796426312
 21
1.2354007812
  0
LINE
  5
36F
100
AcDbEntity
  8
RACCORDO
100
AcDbLine
 62
7
  6
CONTINUOUS
 10
14.8818785298
 20
-3.5731053203
 11
14.8728226312
 21
-3.5821612188
  0
LINE
  5
370
100
AcDbEntity
  8
ASSI
100
AcDbLine
 62
7
  6
CONTINUOUS
 10
14.8818785298
 20
-3.5731053203
 11
14.8728226312
 21
-3.5821612188
  0
LWPOLYLINE
  5
371
100
AcDbEntity
  8
RACCORDO
100
AcDbPolyline
 62
7
  6
CONTINUOUS
 90
6
 70
0
 10
16.7628984005
 20
-3.5432488952
 10
16.7782173909
 20
-3.5518096257
 10
16.7941991058
 20
-3.5590841787
 10
16.8108435454
 20
-3.5649560501
 10
16.8281507095
 20
-3.569315609
 10
16.8441947206
 20
-3.5717676935
  0
LWPOLYLINE
  5
372
100
AcDbEntity
  8
ASSI
100
AcDbPolyline
 62
7
  6
CONTINUOUS
 90
6
 70
0
 10
16.7628984005
 20
-3.5432488952
 10
16.7782173909
 20
-3.5518096257
 10
16.7941991058
 20
-3.5590841787
 10
16.8108435454
 20
-3.5649560501
 10
16.8281507095
 20
-3.569315609
 10
16.8441947206
 20
-3.5717676935
  0
LWPOLYLINE
  5
373
100
AcDbEntity
  8
RACCORDO
100
AcDbPolyline
 62
7
  6
CONTINUOUS
 90
16
 70
0
 10
16.7628984005
 20
-3.5432488952
 10
16.7524319756
 20
-3.5362126146
 10
16.7424356108
 20
-3.5285033684
 10
16.7329512206
 20
-3.5201511718
 10
16.7240481229
 20
-3.5112176157
 10
16.7157309767
 20
-3.5017124605
 10
16.7079588497
 20
-3.4915759578
 10
16.7007990427
 20
-3.4808585869
 10
16.6942847693
 20
-3.4695679614
 10
16.6883754162
 20
-3.4575495965
 10
16.6831536655
 20
-3.4448107685
 10
16.6787163213
 20
-3.4313970153
 10
16.6751140484
 20
-3.4171926122
 10
16.6724637491
 20
-3.4021897825
 10
16.6709108127
 20
-3.3865030353
 10
16.670583073
 20
-3.3702134563
  0
LWPOLYLINE
  5
374
100
AcDbEntity
  8
ASSI
100
AcDbPolyline
 62
7
  6
CONTINUOUS
 90
16
 70
0
 10
16.7628984005
 20
-3.5432488952
 10
16.7524319756
 20
-3.5362126146
 10
16.7424356108
 20
-3.5285033684
 10
16.7329512206
 20
-3.5201511718
 10
16.7240481229
 20
-3.5112176157
 10
16.7157309767
 20
-3.5017124605
 10
16.7079588497
 20
-3.4915759578
 10
16.7007990427
 20
-3.4808585869
 10
16.6942847693
 20
-3.4695679614
 10
16.6883754162
 20
-3.4575495965
 10
16.6831536655
 20
-3.4448107685
 10
16.6787163213
 20
-3.4313970153
 10
16.6751140484
 20
-3.4171926122
 10
16.6724637491
 20
-3.4021897825
 10
16.6709108127
 20
-3.3865030353
 10
16.670583073
 20
-3.3702134563
  0
LINE
  5
375
100
AcDbEntity
  8
RACCORDO
100
AcDbLine
 62
7
  6
CONTINUOUS
 10
14.8818785298
 20
1.2087828826
 11
14.8728226312
 21
1.2178387812
  0
LINE
  5
376
100
AcDbEntity
  8
ASSI
100
AcDbLine
 62
7
  6
CONTINUOUS
 10
14.8818785298
 20
1.2087828826
 11
14.8728226312
 21
1.2178387812
  0
LINE
  5
377
100
AcDbEntity
  8
SCRITTE
100
AcDbLine
 62
253
  6
CONTINUOUS
 10
21.3728226789
 20
-3.8821612188
 11
20.5728226431
 21
-2.4821612188
  0
LINE
  5
378
100
AcDbEntity
  8
0
100
AcDbLine
 62
7
  6
CONTINUOUS
 10
19.6816566312
 20
1.2354007812
 11
20.2205466312
 21
-0.4644622188
  0
LINE
  5
379
100
AcDbEntity
  8
ASSI
100
AcDbLine
 62
7
  6
CONTINUOUS
 10
19.6816566312
 20
1.2354007812
 11
20.2205466312
 21
-0.4644622188
  0
LINE
  5
37A
100
AcDbEntity
  8
0
100
AcDbLine
 62
7
  6
CONTINUOUS
 10
20.3911346312
 20
0.0653327812
 11
20.0671096312
 21
1.2354007812
  0
LINE
  5
37B
100
AcDbEntity
  8
ASSI
100
AcDbLine
 62
7
  6
CONTINUOUS
 10
20.3911346312
 20
0.0653327812
 11
20.0671096312
 21
1.2354007812
  0
LINE
  5
37C
100
AcDbEntity
  8
SCRITTE
100
AcDbLine
 62
253
  6
CONTINUOUS
 10
22.1728226312
 20
-3.8821612188
 11
22.1728226312
 21
-3.0821611831
  0
LINE
  5
37D
100
AcDbEntity
  8
SCRITTE
100
AcDbLine
 62
253
  6
CONTINUOUS
 10
22.7728226551
 20
2.5608572869
 11
22.7728226551
 21
2.548639672
  0
LINE
  5
37E
100
AcDbEntity
  8
SCRITTE
100
AcDbLine
 62
253
  6
CONTINUOUS
 10
22.9728225835
 20
-0.9821612069
 11
22.9728225835
 21
-1.182161195
  0
LINE
  5
37F
100
AcDbEntity
  8
0
100
AcDbLine
 62
7
  6
CONTINUOUS
 10
22.0966186312
 20
-0.4644622188
 11
22.1731906312
 21
0.6455167812
  0
LINE
  5
380
100
AcDbEntity
  8
ASSI
100
AcDbLine
 62
7
  6
CONTINUOUS
 10
22.0966186312
 20
-0.4644622188
 11
22.1731906312
 21
0.6455167812
  0
LINE
  5
381
100
AcDbEntity
  8
0
100
AcDbLine
 62
7
  6
CONTINUOUS
 10
21.9106506312
 20
1.2354007812
 11
21.7571636312
 21
-0.4644622188
  0
LINE
  5
382
100
AcDbEntity
  8
ASSI
100
AcDbLine
 62
7
  6
CONTINUOUS
 10
21.9106506312
 20
1.2354007812
 11
21.7571636312
 21
-0.4644622188
  0
LINE
  5
383
100
AcDbEntity
  8
0
100
AcDbLine
 62
7
  6
CONTINUOUS
 10
22.9710946312
 20
1.2354007812
 11
22.6162666312
 21
0.2916317812
  0
LINE
  5
384
100
AcDbEntity
  8
ASSI
100
AcDbLine
 62
7
  6
CONTINUOUS
 10
22.9710946312
 20
1.2354007812
 11
22.6162666312
 21
0.2916317812
  0
LINE
  5
385
100
AcDbEntity
  8
0
100
AcDbLine
 62
7
  6
CONTINUOUS
 10
22.6392106312
 20
-0.4644622188
 11
23.0611016312
 21
0.6408897812
  0
LINE
  5
386
100
AcDbEntity
  8
ASSI
100
AcDbLine
 62
7
  6
CONTINUOUS
 10
22.6392106312
 20
-0.4644622188
 11
23.0611016312
 21
0.6408897812
  0
LINE
  5
387
100
AcDbEntity
  8
SCRITTE
100
AcDbLine
 62
253
  6
CONTINUOUS
 10
20.172822667
 20
-2.4821612188
 11
19.3728226312
 21
-3.8821612188
  0
LINE
  5
388
100
AcDbEntity
  8
SCRITTE
100
AcDbLine
 62
253
  6
CONTINUOUS
 10
20.172822667
 20
-1.0821612427
 11
20.3728226551
 21
-0.7821612188
  0
LINE
  5
389
100
AcDbEntity
  8
SCRITTE
100
AcDbLine
 62
253
  6
CONTINUOUS
 10
20.8728225835
 20
-1.182161195
 11
20.172822667
 21
-2.1821612188
  0
LINE
  5
38A
100
AcDbEntity
  8
SCRITTE
100
AcDbLine
 62
253
  6
CONTINUOUS
 10
19.7728226491
 20
-0.7821612188
 11
19.3728226312
 21
-1.182161195
  0
LINE
  5
38B
100
AcDbEntity
  8
RACCORDO
100
AcDbLine
 62
253
  6
CONTINUOUS
 10
16.8832987096
 20
1.8574540857
 11
16.8028226312
 21
1.9379301641
  0
LINE
  5
38C
100
AcDbEntity
  8
RACCORDO
100
AcDbLine
 62
7
  6
CONTINUOUS
 10
17.8728226312
 20
1.2178387812
 11
17.8899924492
 21
1.2006689632
  0
LINE
  5
38D
100
AcDbEntity
  8
ASSI
100
AcDbLine
 62
7
  6
CONTINUOUS
 10
17.8728226312
 20
1.2178387812
 11
17.8899924492
 21
1.2006689632
  0
LINE
  5
38E
100
AcDbEntity
  8
SCRITTE
100
AcDbLine
 62
253
  6
CONTINUOUS
 10
22.1728226312
 20
-3.0821611831
 11
21.7728226551
 21
-2.4821612188
  0
LINE
  5
38F
100
AcDbEntity
  8
0
100
AcDbLine
 62
7
  6
CONTINUOUS
 10
23.4811186312
 20
-0.4644622188
 11
23.3221616312
 21
1.2354007812
  0
LINE
  5
390
100
AcDbEntity
  8
ASSI
100
AcDbLine
 62
7
  6
CONTINUOUS
 10
23.4811186312
 20
-0.4644622188
 11
23.3221616312
 21
1.2354007812
  0
LINE
  5
391
100
AcDbEntity
  8
0
100
AcDbLine
 62
7
  6
CONTINUOUS
 10
23.0611016312
 20
0.6408897812
 11
23.1340026312
 21
-0.4644622188
  0
LINE
  5
392
100
AcDbEntity
  8
ASSI
100
AcDbLine
 62
7
  6
CONTINUOUS
 10
23.0611016312
 20
0.6408897812
 11
23.1340026312
 21
-0.4644622188
  0
LINE
  5
393
100
AcDbEntity
  8
SCRITTE
100
AcDbLine
 62
253
  6
CONTINUOUS
 10
23.3728227266
 20
-3.8821612188
 11
23.3728227266
 21
-3.0821611831
  0
LINE
  5
394
100
AcDbEntity
  8
SCRITTE
100
AcDbLine
 62
253
  6
CONTINUOUS
 10
23.4728224882
 20
2.5503850457
 11
23.4728224882
 21
2.5591119135
  0
LINE
  5
395
100
AcDbEntity
  8
SCRITTE
100
AcDbLine
 62
253
  6
CONTINUOUS
 10
23.839489282
 20
-1.4821612188
 11
23.839489282
 21
-2.1821612188
  0
LINE
  5
396
100
AcDbEntity
  8
SCRITTE
100
AcDbLine
 62
253
  6
CONTINUOUS
 10
24.0394893297
 20
2.5608572869
 11
24.0394893297
 21
2.548639672
  0
LINE
  5
397
100
AcDbEntity
  8
SCRITTE
100
AcDbLine
 62
253
  6
CONTINUOUS
 10
23.6728225835
 20
-0.7821612188
 11
23.3728227266
 21
-1.8821612159
  0
LINE
  5
398
100
AcDbEntity
  8
0
100
AcDbLine
 62
7
  6
CONTINUOUS
 10
24.0583066312
 20
0.1374807812
 11
24.2349806312
 21
0.7683217812
  0
LINE
  5
399
100
AcDbEntity
  8
ASSI
100
AcDbLine
 62
7
  6
CONTINUOUS
 10
24.0583066312
 20
0.1374807812
 11
24.2349806312
 21
0.7683217812
  0
LINE
  5
39A
100
AcDbEntity
  8
0
100
AcDbLine
 62
7
  6
CONTINUOUS
 10
23.8878136312
 20
-0.4644622188
 11
23.9857246312
 21
-0.1251092188
  0
LINE
  5
39B
100
AcDbEntity
  8
ASSI
100
AcDbLine
 62
7
  6
CONTINUOUS
 10
23.8878136312
 20
-0.4644622188
 11
23.9857246312
 21
-0.1251092188
  0
LINE
  5
39C
100
AcDbEntity
  8
0
100
AcDbLine
 62
7
  6
CONTINUOUS
 10
24.0700206312
 20
1.2354007812
 11
23.5368356312
 21
-0.4644622188
  0
LINE
  5
39D
100
AcDbEntity
  8
ASSI
100
AcDbLine
 62
7
  6
CONTINUOUS
 10
24.0700206312
 20
1.2354007812
 11
23.5368356312
 21
-0.4644622188
  0
LINE
  5
39E
100
AcDbEntity
  8
SCRITTE
100
AcDbLine
 62
253
  6
CONTINUOUS
 10
21.3728226789
 20
-2.4821612188
 11
20.5728226431
 21
-3.8821612188
  0
LINE
  5
39F
100
AcDbEntity
  8
SCRITTE
100
AcDbLine
 62
253
  6
CONTINUOUS
 10
22.2728225835
 20
-1.0821612427
 11
22.4728224882
 21
-0.7821612188
  0
LINE
  5
3A0
100
AcDbEntity
  8
SCRITTE
100
AcDbLine
 62
253
  6
CONTINUOUS
 10
22.9728225835
 20
-1.182161195
 11
22.2728225835
 21
-2.1821612188
  0
LINE
  5
3A1
100
AcDbEntity
  8
RACCORDO
100
AcDbLine
 62
253
  6
CONTINUOUS
 10
16.8028226312
 20
-4.3022526017
 11
16.8832987096
 21
-4.2217765233
  0
LINE
  5
3A2
100
AcDbEntity
  8
RACCORDO
100
AcDbLine
 62
7
  6
CONTINUOUS
 10
17.8899924492
 20
-3.5649914009
 11
17.8728226312
 21
-3.5821612188
  0
LINE
  5
3A3
100
AcDbEntity
  8
ASSI
100
AcDbLine
 62
7
  6
CONTINUOUS
 10
17.8899924492
 20
-3.5649914009
 11
17.8728226312
 21
-3.5821612188
  0
LINE
  5
3A4
100
AcDbEntity
  8
RACCORDO
100
AcDbLine
 62
253
  6
CONTINUOUS
 10
17.4027312483
 20
-4.9021612188
 11
17.4832073267
 21
-4.8216851404
  0
LINE
  5
3A5
100
AcDbEntity
  8
RACCORDO
100
AcDbLine
 62
253
  6
CONTINUOUS
 10
17.9143133309
 20
-4.7406762307
 11
17.8728226312
 21
-4.7821669304
  0
LINE
  5
3A6
100
AcDbEntity
  8
ASSI
100
AcDbLine
 62
253
  6
CONTINUOUS
 10
17.9143133309
 20
-4.7406762307
 11
17.8728226312
 21
-4.7821669304
  0
LINE
  5
3A7
100
AcDbEntity
  8
DRAFT
100
AcDbLine
 62
7
  6
CONTINUOUS
 10
18.6693316182
 20
-4.1356522318
 11
18.6728226312
 21
-4.1321612188
  0
LINE
  5
3A8
100
AcDbEntity
  8
ASSI
100
AcDbLine
 62
7
  6
CONTINUOUS
 10
18.6693316182
 20
-4.1356522318
 11
18.6728226312
 21
-4.1321612188
  0
LINE
  5
3A9
100
AcDbEntity
  8
RACCORDO
100
AcDbLine
 62
253
  6
CONTINUOUS
 10
18.0643076193
 20
-4.8906705192
 11
18.0228169197
 21
-4.9321612188
  0
LINE
  5
3AA
100
AcDbEntity
  8
ASSI
100
AcDbLine
 62
253
  6
CONTINUOUS
 10
18.0643076193
 20
-4.8906705192
 11
18.0228169197
 21
-4.9321612188
  0
LINE
  5
3AB
100
AcDbEntity
  8
RACCORDO
100
AcDbLine
 62
7
  6
CONTINUOUS
 10
50.4898904755
 20
-3.017528879
 11
50.4376701782
 21
-3.0276703582
  0
LINE
  5
3AC
100
AcDbEntity
  8
ASSI
100
AcDbLine
 62
7
  6
CONTINUOUS
 10
50.4898904755
 20
-3.017528879
 11
50.4376701782
 21
-3.0276703582
  0
LWPOLYLINE
  5
3AD
100
AcDbEntity
  8
RACCORDO
100
AcDbPolyline
 62
7
  6
CONTINUOUS
 90
6
 70
0
 10
50.4761928364
 20
-4.0804766296
 10
50.4737848046
 20
-4.0807847701
 10
50.468943199
 20
-4.0810670414
 10
50.4616680197
 20
-4.0813234434
 10
50.4516131889
 20
-4.0815598052
 10
50.4391247844
 20
-4.0817702979
  0
LINE
  5
3AE
100
AcDbEntity
  8
SCRITTE
100
AcDbLine
 62
253
  6
CONTINUOUS
 10
20.6728225955
 20
-0.7821612188
 11
20.8728225835
 21
-0.9821612069
  0
LINE
  5
3AF
100
AcDbEntity
  8
RACCORDO
100
AcDbLine
 62
253
  6
CONTINUOUS
 10
17.4832073267
 20
2.4573627028
 11
17.4027312483
 21
2.5378387812
  0
LINE
  5
3B0
100
AcDbEntity
  8
RACCORDO
100
AcDbLine
 62
253
  6
CONTINUOUS
 10
17.8728226312
 20
2.4178444927
 11
17.9143133309
 21
2.376353793
  0
LINE
  5
3B1
100
AcDbEntity
  8
ASSI
100
AcDbLine
 62
253
  6
CONTINUOUS
 10
17.8728226312
 20
2.4178444927
 11
17.9143133309
 21
2.376353793
  0
LINE
  5
3B2
100
AcDbEntity
  8
DRAFT
100
AcDbLine
 62
7
  6
CONTINUOUS
 10
18.6693316182
 20
1.7713297941
 11
18.6728226312
 21
1.7678387812
  0
LINE
  5
3B3
100
AcDbEntity
  8
ASSI
100
AcDbLine
 62
7
  6
CONTINUOUS
 10
18.6693316182
 20
1.7713297941
 11
18.6728226312
 21
1.7678387812
  0
LINE
  5
3B4
100
AcDbEntity
  8
RACCORDO
100
AcDbLine
 62
253
  6
CONTINUOUS
 10
18.0228169197
 20
2.5678387812
 11
18.0643076193
 21
2.5263480815
  0
LINE
  5
3B5
100
AcDbEntity
  8
ASSI
100
AcDbLine
 62
253
  6
CONTINUOUS
 10
18.0228169197
 20
2.5678387812
 11
18.0643076193
 21
2.5263480815
  0
LINE
  5
3B6
100
AcDbEntity
  8
SCRITTE
100
AcDbLine
 62
253
  6
CONTINUOUS
 10
23.3728227266
 20
-3.0821611831
 11
22.9728225835
 21
-2.4821612188
  0
LINE
  5
3B7
100
AcDbEntity
  8
0
100
AcDbLine
 62
7
  6
CONTINUOUS
 10
22.1731906312
 20
0.6455167812
 11
22.5894466312
 21
-0.4644622188
  0
LINE
  5
3B8
100
AcDbEntity
  8
ASSI
100
AcDbLine
 62
7
  6
CONTINUOUS
 10
22.1731906312
 20
0.6455167812
 11
22.5894466312
 21
-0.4644622188
  0
LINE
  5
3B9
100
AcDbEntity
  8
0
100
AcDbLine
 62
7
  6
CONTINUOUS
 10
22.6162666312
 20
0.2916317812
 11
22.2651856312
 21
1.2354007812
  0
LINE
  5
3BA
100
AcDbEntity
  8
ASSI
100
AcDbLine
 62
7
  6
CONTINUOUS
 10
22.6162666312
 20
0.2916317812
 11
22.2651856312
 21
1.2354007812
  0
LINE
  5
3BB
100
AcDbEntity
  8
0
100
AcDbLine
 62
7
  6
CONTINUOUS
 10
25.0390292951
 20
1.2155408633
 11
25.0390292951
 21
-0.4644619055
  0
LINE
  5
3BC
100
AcDbEntity
  8
ASSI
100
AcDbLine
 62
7
  6
CONTINUOUS
 10
25.0390292951
 20
1.2155408633
 11
25.0390292951
 21
-0.4644619055
  0
LINE
  5
3BD
100
AcDbEntity
  8
0
100
AcDbLine
 62
7
  6
CONTINUOUS
 10
25.3806640628
 20
0.4791669497
 11
25.3806640628
 21
0.9458124321
  0
LINE
  5
3BE
100
AcDbEntity
  8
ASSI
100
AcDbLine
 62
7
  6
CONTINUOUS
 10
25.3806640628
 20
0.4791669497
 11
25.3806640628
 21
0.9458124321
  0
LINE
  5
3BF
100
AcDbEntity
  8
0
100
AcDbLine
 62
7
  6
CONTINUOUS
 10
25.3924296272
 20
-0.4644619055
 11
25.3924296272
 21
0.200770497
  0
LINE
  5
3C0
100
AcDbEntity
  8
ASSI
100
AcDbLine
 62
7
  6
CONTINUOUS
 10
25.3924296272
 20
-0.4644619055
 11
25.3924296272
 21
0.200770497
  0
LINE
  5
3C1
100
AcDbEntity
  8
0
100
AcDbLine
 62
7
  6
CONTINUOUS
 10
25.951274814
 20
0.3290189728
 11
25.951274814
 21
0.3390636799
  0
LINE
  5
3C2
100
AcDbEntity
  8
ASSI
100
AcDbLine
 62
7
  6
CONTINUOUS
 10
25.951274814
 20
0.3290189728
 11
25.951274814
 21
0.3390636799
  0
LWPOLYLINE
  5
3C3
100
AcDbEntity
  8
0
100
AcDbPolyline
 62
7
  6
CONTINUOUS
 90
16
 70
0
 10
25.8590751097
 20
0.7433249024
 10
25.8572658439
 20
0.7098846867
 10
25.8527607914
 20
0.6783586712
 10
25.8455599524
 20
0.648746856
 10
25.8354865697
 20
0.6207605498
 10
25.8227174004
 20
0.5946884438
 10
25.8077827156
 20
0.5713966116
 10
25.7908451614
 20
0.5512496904
 10
25.7717420918
 20
0.533883043
 10
25.7505158399
 20
0.5190688308
 10
25.7270031611
 20
0.5068852586
 10
25.7013673
 20
0.4972541218
 10
25.6741403241
 20
0.4897129677
 10
25.6454995894
 20
0.4841076456
 10
25.6152677399
 20
0.4805923062
 10
25.5834447757
 20
0.4791669497
  0
LWPOLYLINE
  5
3C4
100
AcDbEntity
  8
ASSI
100
AcDbPolyline
 62
7
  6
CONTINUOUS
 90
16
 70
0
 10
25.8590751097
 20
0.7433249024
 10
25.8572658439
 20
0.7098846867
 10
25.8527607914
 20
0.6783586712
 10
25.8455599524
 20
0.648746856
 10
25.8354865697
 20
0.6207605498
 10
25.8227174004
 20
0.5946884438
 10
25.8077827156
 20
0.5713966116
 10
25.7908451614
 20
0.5512496904
 10
25.7717420918
 20
0.533883043
 10
25.7505158399
 20
0.5190688308
 10
25.7270031611
 20
0.5068852586
 10
25.7013673
 20
0.4972541218
 10
25.6741403241
 20
0.4897129677
 10
25.6454995894
 20
0.4841076456
 10
25.6152677399
 20
0.4805923062
 10
25.5834447757
 20
0.4791669497
  0
LINE
  5
3C5
100
AcDbEntity
  8
SCRITTE
100
AcDbLine
 62
253
  6
CONTINUOUS
 10
25.272822822
 20
-0.7821612188
 11
24.8728226789
 21
-2.1821612188
  0
LINE
  5
3C6
100
AcDbEntity
  8
SCRITTE
100
AcDbLine
 62
253
  6
CONTINUOUS
 10
22.5728227743
 20
-2.4821612188
 11
22.1728226312
 21
-3.0821611831
  0
LINE
  5
3C7
100
AcDbEntity
  8
SCRITTE
100
AcDbLine
 62
253
  6
CONTINUOUS
 10
23.7728225359
 20
-2.4821612188
 11
23.3728227266
 21
-3.0821611831
  0
LINE
  5
3C8
100
AcDbEntity
  8
SCRITTE
100
AcDbLine
 62
253
  6
CONTINUOUS
 10
35.3540726312
 20
-3.8821612188
 11
35.5290726312
 21
-3.8384112188
  0
LINE
  5
3C9
100
AcDbEntity
  8
RACCORDO
100
AcDbLine
 62
7
  6
CONTINUOUS
 10
36.5728226312
 20
-4.9190709172
 11
36.4655486932
 21
-4.9297713375
  0
LINE
  5
3CA
100
AcDbEntity
  8
ASSI
100
AcDbLine
 62
7
  6
CONTINUOUS
 10
36.5728226312
 20
-4.9190709172
 11
36.4655486932
 21
-4.9297713375
  0
LWPOLYLINE
  5
3CB
100
AcDbEntity
  8
RACCORDO
100
AcDbPolyline
 62
7
  6
CONTINUOUS
 90
6
 70
0
 10
51.3728378617
 20
-4.0821612188
 10
51.3901909966
 20
-4.0806378513
 10
51.4070178253
 20
-4.0761244666
 10
51.422807279
 20
-4.0687573849
 10
51.4370794871
 20
-4.0587594843
 10
51.4434964821
 20
-4.0528781833
  0
LWPOLYLINE
  5
3CC
100
AcDbEntity
  8
RACCORDO
100
AcDbPolyline
 62
7
  6
CONTINUOUS
 90
16
 70
0
 10
36.8255692892
 20
-4.9845423731
 10
36.8893941124
 20
-4.9809577919
 10
36.9511908831
 20
-4.9711736325
 10
37.0109596013
 20
-4.955189895
 10
37.0693032551
 20
-4.9326976761
 10
37.1256188564
 20
-4.9040058791
 10
37.178097441
 20
-4.8700412132
 10
37.2266146306
 20
-4.8306339837
 10
37.2712948035
 20
-4.7859538854
 10
37.3107021296
 20
-4.7374367112
 10
37.3446669199
 20
-4.6849580505
 10
37.3733588634
 20
-4.6286423138
 10
37.395851198
 20
-4.5702985257
 10
37.4118350028
 20
-4.5105296942
 10
37.4216191986
 20
-4.4487328113
 10
37.4252037855
 20
-4.3849078769
  0
LWPOLYLINE
  5
3CD
100
AcDbEntity
  8
RACCORDO
100
AcDbPolyline
 62
253
  6
CONTINUOUS
 90
19
 70
0
 10
36.7313547777
 20
-4.8906705192
 10
36.7836443667
 20
-4.8883843019
 10
36.8355359664
 20
-4.8815496682
 10
36.8866346929
 20
-4.8702186349
 10
36.9365516916
 20
-4.8544774403
 10
36.9849071092
 20
-4.8344458739
 10
37.031332982
 20
-4.8102763584
 10
37.0754760092
 20
-4.7821528215
 10
37.1170002745
 20
-4.7502892766
 10
37.1555898066
 20
-4.7149281663
 10
37.1909509721
 20
-4.6763385228
 10
37.222814618
 20
-4.634814044
 10
37.2509381806
 20
-4.590670854
 10
37.2751076309
 20
-4.5442449527
 10
37.2951391035
 20
-4.495889588
 10
37.3108802046
 20
-4.4459726942
 10
37.3222111589
 20
-4.3948741131
 10
37.3290457361
 20
-4.3429827099
 10
37.3313319316
 20
-4.2906933653
  0
LWPOLYLINE
  5
3CE
100
AcDbEntity
  8
ASSI
100
AcDbPolyline
 62
253
  6
CONTINUOUS
 90
19
 70
0
 10
36.7313547777
 20
-4.8906705192
 10
36.7836443667
 20
-4.8883843019
 10
36.8355359664
 20
-4.8815496682
 10
36.8866346929
 20
-4.8702186349
 10
36.9365516916
 20
-4.8544774403
 10
36.9849071092
 20
-4.8344458739
 10
37.031332982
 20
-4.8102763584
 10
37.0754760092
 20
-4.7821528215
 10
37.1170002745
 20
-4.7502892766
 10
37.1555898066
 20
-4.7149281663
 10
37.1909509721
 20
-4.6763385228
 10
37.222814618
 20
-4.634814044
 10
37.2509381806
 20
-4.590670854
 10
37.2751076309
 20
-4.5442449527
 10
37.2951391035
 20
-4.495889588
 10
37.3108802046
 20
-4.4459726942
 10
37.3222111589
 20
-4.3948741131
 10
37.3290457361
 20
-4.3429827099
 10
37.3313319316
 20
-4.2906933653
  0
LWPOLYLINE
  5
3CF
100
AcDbEntity
  8
RACCORDO
100
AcDbPolyline
 62
7
  6
CONTINUOUS
 90
4
 70
0
 10
36.4357511538
 20
-4.9307011138
 10
36.4497490495
 20
-4.9304086859
 10
36.4596815626
 20
-4.9300987605
 10
36.4655486932
 20
-4.9297713375
  0
LWPOLYLINE
  5
3D0
100
AcDbEntity
  8
ASSI
100
AcDbPolyline
 62
7
  6
CONTINUOUS
 90
4
 70
0
 10
36.4357511538
 20
-4.9307011138
 10
36.4497490495
 20
-4.9304086859
 10
36.4596815626
 20
-4.9300987605
 10
36.4655486932
 20
-4.9297713375
  0
LWPOLYLINE
  5
3D1
100
AcDbEntity
  8
RACCORDO
100
AcDbPolyline
 62
7
  6
CONTINUOUS
 90
16
 70
0
 10
17.3724571274
 20
-4.9321612188
 10
17.3085948725
 20
-4.9285725893
 10
17.2467635248
 20
-4.9187771937
 10
17.1869630844
 20
-4.9027750322
 10
17.128589294
 20
-4.8802564627
 10
17.0722464108
 20
-4.8515311272
 10
17.0197472067
 20
-4.8175279518
 10
16.9712166831
 20
-4.7780768703
 10
16.9265298387
 20
-4.7333479489
 10
16.8871244404
 20
-4.6847803118
 10
16.853170682
 20
-4.6322282223
 10
16.8244983698
 20
-4.5758374171
 10
16.80203469
 20
-4.5174842311
 10
16.7860887046
 20
-4.4577941091
 10
16.7763513517
 20
-4.3961416063
 10
16.7728226312
 20
-4.3325267226
  0
LWPOLYLINE
  5
3D2
100
AcDbEntity
  8
RACCORDO
100
AcDbPolyline
 62
7
  6
CONTINUOUS
 90
16
 70
0
 10
17.4027312483
 20
-4.9021612188
 10
17.338903358
 20
-4.8985755333
 10
17.2770985601
 20
-4.88878698
 10
17.2173168547
 20
-4.8727955592
 10
17.158955716
 20
-4.8502943543
 10
17.1026176697
 20
-4.8215902817
 10
17.0501102932
 20
-4.7876040907
 10
17.0015522958
 20
-4.7481588814
 10
16.956824968
 20
-4.7034315535
 10
16.9173797588
 20
-4.6548735561
 10
16.8833935679
 20
-4.6023661796
 10
16.8546894955
 20
-4.5460281336
 10
16.8321882908
 20
-4.4876669951
 10
16.81619687
 20
-4.4278852898
 10
16.8064083168
 20
-4.366080492
 10
16.8028226312
 20
-4.3022526017
  0
LWPOLYLINE
  5
3D3
100
AcDbEntity
  8
RACCORDO
100
AcDbPolyline
 62
7
  6
CONTINUOUS
 90
13
 70
0
 10
18.0228169197
 20
-4.9321612188
 10
18.0027117679
 20
-4.9306993619
 10
17.9835778315
 20
-4.9268934728
 10
17.9654151106
 20
-4.9207435514
 10
17.9479493093
 20
-4.9120662873
 10
17.9314547235
 20
-4.901044991
 10
17.9167542404
 20
-4.8882295938
 10
17.903938846
 20
-4.8735291109
 10
17.8929175543
 20
-4.857034527
 10
17.8842402941
 20
-4.8395687284
 10
17.878090375
 20
-4.8214060105
 10
17.8742844873
 20
-4.8022720778
 10
17.8728226312
 20
-4.7821669304
  0
LWPOLYLINE
  5
3D4
100
AcDbEntity
  8
ASSI
100
AcDbPolyline
 62
7
  6
CONTINUOUS
 90
13
 70
0
 10
18.0228169197
 20
-4.9321612188
 10
18.0027117679
 20
-4.9306993619
 10
17.9835778315
 20
-4.9268934728
 10
17.9654151106
 20
-4.9207435514
 10
17.9479493093
 20
-4.9120662873
 10
17.9314547235
 20
-4.901044991
 10
17.9167542404
 20
-4.8882295938
 10
17.903938846
 20
-4.8735291109
 10
17.8929175543
 20
-4.857034527
 10
17.8842402941
 20
-4.8395687284
 10
17.878090375
 20
-4.8214060105
 10
17.8742844873
 20
-4.8022720778
 10
17.8728226312
 20
-4.7821669304
  0
LWPOLYLINE
  5
3D5
100
AcDbEntity
  8
RACCORDO
100
AcDbPolyline
 62
253
  6
CONTINUOUS
 90
10
 70
0
 10
18.0643076193
 20
-4.8906705192
 10
18.0382626327
 20
-4.8883900056
 10
18.0130089338
 20
-4.8816217174
 10
17.9893137693
 20
-4.870571286
 10
17.9678970351
 20
-4.8555744408
 10
17.9494094049
 20
-4.8370868097
 10
17.9344125611
 20
-4.8156700755
 10
17.923362131
 20
-4.7919749118
 10
17.916593844
 20
-4.7667212147
 10
17.9143133309
 20
-4.7406762307
  0
LWPOLYLINE
  5
3D6
100
AcDbEntity
  8
ASSI
100
AcDbPolyline
 62
253
  6
CONTINUOUS
 90
10
 70
0
 10
18.0643076193
 20
-4.8906705192
 10
18.0382626327
 20
-4.8883900056
 10
18.0130089338
 20
-4.8816217174
 10
17.9893137693
 20
-4.870571286
 10
17.9678970351
 20
-4.8555744408
 10
17.9494094049
 20
-4.8370868097
 10
17.9344125611
 20
-4.8156700755
 10
17.923362131
 20
-4.7919749118
 10
17.916593844
 20
-4.7667212147
 10
17.9143133309
 20
-4.7406762307
  0
LWPOLYLINE
  5
3D7
100
AcDbEntity
  8
RACCORDO
100
AcDbPolyline
 62
7
  6
CONTINUOUS
 90
9
 70
0
 10
16.6852916472
 20
-2.8946302348
 10
16.6874996259
 20
-2.8950759404
 10
16.6925648899
 20
-2.8955009795
 10
16.7004874394
 20
-2.895905352
 10
16.7114783092
 20
-2.8962946711
 10
16.7253264645
 20
-2.8966633236
 10
16.7413988003
 20
-2.8969944703
 10
16.7597983707
 20
-2.8972863691
 10
16.8023277864
 20
-2.8977460366
  0
LWPOLYLINE
  5
3D8
100
AcDbEntity
  8
ASSI
100
AcDbPolyline
 62
7
  6
CONTINUOUS
 90
9
 70
0
 10
16.6852916472
 20
-2.8946302348
 10
16.6874996259
 20
-2.8950759404
 10
16.6925648899
 20
-2.8955009795
 10
16.7004874394
 20
-2.895905352
 10
16.7114783092
 20
-2.8962946711
 10
16.7253264645
 20
-2.8966633236
 10
16.7413988003
 20
-2.8969944703
 10
16.7597983707
 20
-2.8972863691
 10
16.8023277864
 20
-2.8977460366
  0
LINE
  5
3D9
100
AcDbEntity
  8
RACCORDO
100
AcDbLine
 62
253
  6
CONTINUOUS
 10
16.6800888786
 20
1.0011384777
 11
16.670583073
 21
1.0058910186
  0
LINE
  5
3DA
100
AcDbEntity
  8
ASSI
100
AcDbLine
 62
253
  6
CONTINUOUS
 10
16.6800888786
 20
1.0011384777
 11
16.670583073
 21
1.0058910186
  0
LINE
  5
3DB
100
AcDbEntity
  8
SCRITTE
100
AcDbLine
 62
253
  6
CONTINUOUS
 10
22.7728226789
 20
-0.7821612188
 11
22.9728225835
 21
-0.9821612069
  0
LINE
  5
3DC
100
AcDbEntity
  8
0
100
AcDbLine
 62
7
  6
CONTINUOUS
 10
24.9348346312
 20
-0.4644622188
 11
24.4132746312
 21
1.2354007812
  0
LINE
  5
3DD
100
AcDbEntity
  8
ASSI
100
AcDbLine
 62
7
  6
CONTINUOUS
 10
24.9348346312
 20
-0.4644622188
 11
24.4132746312
 21
1.2354007812
  0
LINE
  5
3DE
100
AcDbEntity
  8
SCRITTE
100
AcDbLine
 62
253
  6
CONTINUOUS
 10
24.8728226789
 20
-2.1821612188
 11
24.4728225359
 21
-0.7821612188
  0
LINE
  5
3DF
100
AcDbEntity
  8
0
100
AcDbLine
 62
7
  6
CONTINUOUS
 10
24.4689416312
 20
-0.1251092188
 11
24.5608606312
 21
-0.4644622188
  0
LINE
  5
3E0
100
AcDbEntity
  8
ASSI
100
AcDbLine
 62
7
  6
CONTINUOUS
 10
24.4689416312
 20
-0.1251092188
 11
24.5608606312
 21
-0.4644622188
  0
LINE
  5
3E1
100
AcDbEntity
  8
0
100
AcDbLine
 62
7
  6
CONTINUOUS
 10
24.2349806312
 20
0.7683217812
 11
24.3980286312
 21
0.1374807812
  0
LINE
  5
3E2
100
AcDbEntity
  8
ASSI
100
AcDbLine
 62
7
  6
CONTINUOUS
 10
24.2349806312
 20
0.7683217812
 11
24.3980286312
 21
0.1374807812
  0
LINE
  5
3E3
100
AcDbEntity
  8
SCRITTE
100
AcDbLine
 62
253
  6
CONTINUOUS
 10
26.4061556467
 20
2.5608572869
 11
26.4061556467
 21
2.548639672
  0
LINE
  5
3E4
100
AcDbEntity
  8
SCRITTE
100
AcDbLine
 62
253
  6
CONTINUOUS
 10
27.0394892343
 20
2.5608572869
 11
27.0394892343
 21
2.548639672
  0
LINE
  5
3E5
100
AcDbEntity
  8
CURVE
100
AcDbLine
 62
253
  6
CONTINUOUS
 10
27.3728226312
 20
0.7892673781
 11
27.3728226312
 21
0.1464102289
  0
LINE
  5
3E6
100
AcDbEntity
  8
SCRITTE
100
AcDbLine
 62
253
  6
CONTINUOUS
 10
27.1394890436
 20
-0.7821612188
 11
26.7394892343
 21
-2.1821612188
  0
LINE
  5
3E7
100
AcDbEntity
  8
SCRITTE
100
AcDbLine
 62
253
  6
CONTINUOUS
 10
24.1728226789
 20
-3.8821612188
 11
24.8728226789
 21
-2.4821612188
  0
LINE
  5
3E8
100
AcDbEntity
  8
CURVE
100
AcDbLine
 62
253
  6
CONTINUOUS
 10
27.4799654932
 20
1.0035530796
 11
27.3728226312
 21
0.7892673781
  0
LINE
  5
3E9
100
AcDbEntity
  8
SCRITTE
100
AcDbLine
 62
253
  6
CONTINUOUS
 10
25.272822822
 20
-3.8821612188
 11
25.972822822
 21
-2.4821612188
  0
LINE
  5
3EA
100
AcDbEntity
  8
CURVE
100
AcDbLine
 62
253
  6
CONTINUOUS
 10
27.6942512058
 20
1.2178387812
 11
27.4799654932
 21
1.0035530796
  0
LWPOLYLINE
  5
3EB
100
AcDbEntity
  8
0
100
AcDbPolyline
 62
7
  6
CONTINUOUS
 90
40
 70
0
 10
26.0027131923
 20
0.3670394681
 10
26.0230892929
 20
0.3842903256
 10
26.0333660315
 20
0.393305028
 10
26.0436519474
 20
0.4027670826
 10
26.053966704
 20
0.4126194506
 10
26.0642906378
 20
0.4229191708
 10
26.0745321623
 20
0.4339195613
 10
26.0847039577
 20
0.4456440804
 10
26.0947933438
 20
0.45806927
 10
26.1046706942
 20
0.4713780737
 10
26.114348137
 20
0.485619176
 10
26.1238135442
 20
0.5007438924
 10
26.132900905
 20
0.5167891138
 10
26.1416286452
 20
0.5337723865
 10
26.1499783389
 20
0.5516761641
 10
26.1577286985
 20
0.570484698
 10
26.1648838809
 20
0.5901873784
 10
26.1714397291
 20
0.610794815
 10
26.177162484
 20
0.6323230884
 10
26.1820536267
 20
0.6547688959
 10
26.186111676
 20
0.6781355401
 10
26.1890984298
 20
0.7024490099
 10
26.1910363737
 20
0.7277439054
 10
26.191903022
 20
0.7539856264
 10
26.191392716
 20
0.7810963612
 10
26.1896228214
 20
0.809110226
 10
26.1864759725
 20
0.8379931046
 10
26.1812944133
 20
0.8675648361
 10
26.174143138
 20
0.8979249426
 10
26.1649571525
 20
0.9289739021
 10
26.1528837186
 20
0.9602329871
 10
26.1378147096
 20
0.9919125722
 10
26.1198582521
 20
1.0238022827
 10
26.0984859878
 20
1.054792267
 10
26.0728837628
 20
1.0853264363
 10
26.043865731
 20
1.1149608793
 10
26.013345995
 20
1.1412540106
 10
25.9819625891
 20
1.1633919683
 10
25.949077479
 20
1.1821886143
 10
25.9146906648
 20
1.1976439485
  0
LWPOLYLINE
  5
3EC
100
AcDbEntity
  8
ASSI
100
AcDbPolyline
 62
7
  6
CONTINUOUS
 90
40
 70
0
 10
26.0027131923
 20
0.3670394681
 10
26.0230892929
 20
0.3842903256
 10
26.0333660315
 20
0.393305028
 10
26.0436519474
 20
0.4027670826
 10
26.053966704
 20
0.4126194506
 10
26.0642906378
 20
0.4229191708
 10
26.0745321623
 20
0.4339195613
 10
26.0847039577
 20
0.4456440804
 10
26.0947933438
 20
0.45806927
 10
26.1046706942
 20
0.4713780737
 10
26.114348137
 20
0.485619176
 10
26.1238135442
 20
0.5007438924
 10
26.132900905
 20
0.5167891138
 10
26.1416286452
 20
0.5337723865
 10
26.1499783389
 20
0.5516761641
 10
26.1577286985
 20
0.570484698
 10
26.1648838809
 20
0.5901873784
 10
26.1714397291
 20
0.610794815
 10
26.177162484
 20
0.6323230884
 10
26.1820536267
 20
0.6547688959
 10
26.186111676
 20
0.6781355401
 10
26.1890984298
 20
0.7024490099
 10
26.1910363737
 20
0.7277439054
 10
26.191903022
 20
0.7539856264
 10
26.191392716
 20
0.7810963612
 10
26.1896228214
 20
0.809110226
 10
26.1864759725
 20
0.8379931046
 10
26.1812944133
 20
0.8675648361
 10
26.174143138
 20
0.8979249426
 10
26.1649571525
 20
0.9289739021
 10
26.1528837186
 20
0.9602329871
 10
26.1378147096
 20
0.9919125722
 10
26.1198582521
 20
1.0238022827
 10
26.0984859878
 20
1.054792267
 10
26.0728837628
 20
1.0853264363
 10
26.043865731
 20
1.1149608793
 10
26.013345995
 20
1.1412540106
 10
25.9819625891
 20
1.1633919683
 10
25.949077479
 20
1.1821886143
 10
25.9146906648
 20
1.1976439485
  0
LINE
  5
3ED
100
AcDbEntity
  8
0
100
AcDbLine
 62
7
  6
CONTINUOUS
 10
25.9926138304
 20
0.358803313
 11
26.0027131923
 21
0.3670394681
  0
LINE
  5
3EE
100
AcDbEntity
  8
ASSI
100
AcDbLine
 62
7
  6
CONTINUOUS
 10
25.9926138304
 20
0.358803313
 11
26.0027131923
 21
0.3670394681
  0
LINE
  5
3EF
100
AcDbEntity
  8
RACCORDO
100
AcDbLine
 62
253
  6
CONTINUOUS
 10
16.670583073
 20
-3.3702134563
 11
16.6800888786
 21
-3.3654609154
  0
LINE
  5
3F0
100
AcDbEntity
  8
ASSI
100
AcDbLine
 62
253
  6
CONTINUOUS
 10
16.670583073
 20
-3.3702134563
 11
16.6800888786
 21
-3.3654609154
  0
LINE
  5
3F1
100
AcDbEntity
  8
SCRITTE
100
AcDbLine
 62
253
  6
CONTINUOUS
 10
35.3540726312
 20
-3.0946612188
 11
35.1790726312
 21
-3.1384112188
  0
LINE
  5
3F2
100
AcDbEntity
  8
RACCORDO
100
AcDbLine
 62
7
  6
CONTINUOUS
 10
50.4376701782
 20
-3.0276703582
 11
50.3728226312
 21
-3.0321612188
  0
LINE
  5
3F3
100
AcDbEntity
  8
ASSI
100
AcDbLine
 62
7
  6
CONTINUOUS
 10
50.4376701782
 20
-3.0276703582
 11
50.3728226312
 21
-3.0321612188
  0
LWPOLYLINE
  5
3F4
100
AcDbEntity
  8
RACCORDO
100
AcDbPolyline
 62
253
  6
CONTINUOUS
 90
19
 70
0
 10
36.7313547777
 20
-4.3906895576
 10
36.740090388
 20
-4.3903057317
 10
36.7486591364
 20
-4.389185669
 10
36.7570610231
 20
-4.3873293697
 10
36.7653659609
 20
-4.3847126322
 10
36.7735040369
 20
-4.381359658
 10
36.7812655124
 20
-4.3773430514
 10
36.7886361366
 20
-4.3726444025
 10
36.7956301604
 20
-4.3672821211
 10
36.8020805975
 20
-4.361384041
 10
36.8079708657
 20
-4.3549393432
 10
36.8133175472
 20
-4.3479588466
 10
36.8180034036
 20
-4.3406028414
 10
36.822013643
 20
-4.3328584001
 10
36.8253630572
 20
-4.3247384501
 10
36.8279787832
 20
-4.3164420643
 10
36.8298365336
 20
-4.3080356004
 10
36.8309605959
 20
-4.2994527007
 10
36.83135097
 20
-4.2906933653
  0
LWPOLYLINE
  5
3F5
100
AcDbEntity
  8
ASSI
100
AcDbPolyline
 62
253
  6
CONTINUOUS
 90
19
 70
0
 10
36.7313547777
 20
-4.3906895576
 10
36.740090388
 20
-4.3903057317
 10
36.7486591364
 20
-4.389185669
 10
36.7570610231
 20
-4.3873293697
 10
36.7653659609
 20
-4.3847126322
 10
36.7735040369
 20
-4.381359658
 10
36.7812655124
 20
-4.3773430514
 10
36.7886361366
 20
-4.3726444025
 10
36.7956301604
 20
-4.3672821211
 10
36.8020805975
 20
-4.361384041
 10
36.8079708657
 20
-4.3549393432
 10
36.8133175472
 20
-4.3479588466
 10
36.8180034036
 20
-4.3406028414
 10
36.822013643
 20
-4.3328584001
 10
36.8253630572
 20
-4.3247384501
 10
36.8279787832
 20
-4.3164420643
 10
36.8298365336
 20
-4.3080356004
 10
36.8309605959
 20
-4.2994527007
 10
36.83135097
 20
-4.2906933653
  0
LINE
  5
3F6
100
AcDbEntity
  8
RACCORDO
100
AcDbLine
 62
7
  6
CONTINUOUS
 10
36.3948903967
 20
-4.931241256
 11
36.4357511538
 21
-4.9307011138
  0
LINE
  5
3F7
100
AcDbEntity
  8
ASSI
100
AcDbLine
 62
7
  6
CONTINUOUS
 10
36.3948903967
 20
-4.931241256
 11
36.4357511538
 21
-4.9307011138
  0
LINE
  5
3F8
100
AcDbEntity
  8
RACCORDO
100
AcDbLine
 62
7
  6
CONTINUOUS
 10
50.4391247844
 20
-4.0817702979
 11
50.4103080316
 21
-4.0820553854
  0
LINE
  5
3F9
100
AcDbEntity
  8
RACCORDO
100
AcDbLine
 62
7
  6
CONTINUOUS
 10
36.3088507532
 20
-4.9318475828
 11
36.3948903967
 21
-4.931241256
  0
LINE
  5
3FA
100
AcDbEntity
  8
ASSI
100
AcDbLine
 62
7
  6
CONTINUOUS
 10
36.3088507532
 20
-4.9318475828
 11
36.3948903967
 21
-4.931241256
  0
LINE
  5
3FB
100
AcDbEntity
  8
RACCORDO
100
AcDbLine
 62
7
  6
CONTINUOUS
 10
50.4103080316
 20
-4.0820553854
 11
50.3762559945
 21
-4.0821612188
  0
LINE
  5
3FC
100
AcDbEntity
  8
RACCORDO
100
AcDbLine
 62
7
  6
CONTINUOUS
 10
36.5728226312
 20
-4.9845423731
 11
36.8255692892
 21
-4.9845423731
  0
LINE
  5
3FD
100
AcDbEntity
  8
DRAFT
100
AcDbLine
 62
7
  6
CONTINUOUS
 10
36.520441477
 20
-4.9321612188
 11
29.1252037855
 21
-4.9321612188
  0
LINE
  5
3FE
100
AcDbEntity
  8
DRAFT
100
AcDbLine
 62
7
  6
CONTINUOUS
 10
28.9728226312
 20
-4.9321612188
 11
25.7728226312
 21
-4.9321612188
  0
LINE
  5
3FF
100
AcDbEntity
  8
RACCORDO
100
AcDbLine
 62
7
  6
CONTINUOUS
 10
17.3724571274
 20
-4.9321612188
 11
25.7728226312
 21
-4.9321612188
  0
LINE
  5
400
100
AcDbEntity
  8
RACCORDO
100
AcDbLine
 62
7
  6
CONTINUOUS
 10
28.9728226312
 20
-4.9321612188
 11
36.3088507532
 21
-4.9318475828
  0
LINE
  5
401
100
AcDbEntity
  8
ASSI
100
AcDbLine
 62
7
  6
CONTINUOUS
 10
18.0228169197
 20
-4.9321612188
 11
36.3088507532
 21
-4.9318475828
  0
LINE
  5
402
100
AcDbEntity
  8
RACCORDO
100
AcDbLine
 62
7
  6
CONTINUOUS
 10
36.7597551757
 20
-4.9190709172
 11
36.5728226312
 21
-4.9190709172
  0
LINE
  5
403
100
AcDbEntity
  8
ASSI
100
AcDbLine
 62
7
  6
CONTINUOUS
 10
36.7597551757
 20
-4.9190709172
 11
36.5728226312
 21
-4.9190709172
  0
LINE
  5
404
100
AcDbEntity
  8
RACCORDO
100
AcDbLine
 62
7
  6
CONTINUOUS
 10
17.8728226312
 20
-4.9021612188
 11
17.4027312483
 21
-4.9021612188
  0
LINE
  5
405
100
AcDbEntity
  8
RACCORDO
100
AcDbLine
 62
7
  6
CONTINUOUS
 10
18.0643076193
 20
-4.8906705192
 11
36.7313547777
 21
-4.8906705192
  0
LINE
  5
406
100
AcDbEntity
  8
ASSI
100
AcDbLine
 62
7
  6
CONTINUOUS
 10
18.0643076193
 20
-4.8906705192
 11
36.7313547777
 21
-4.8906705192
  0
LINE
  5
407
100
AcDbEntity
  8
RACCORDO
100
AcDbLine
 62
253
  6
CONTINUOUS
 10
17.4832073267
 20
-4.8216851404
 11
17.8325876565
 21
-4.8216851404
  0
LINE
  5
408
100
AcDbEntity
  8
RACCORDO
100
AcDbLine
 62
253
  6
CONTINUOUS
 10
17.9173410803
 20
-4.3906895576
 11
36.7313547777
 21
-4.3906895576
  0
LINE
  5
409
100
AcDbEntity
  8
ASSI
100
AcDbLine
 62
253
  6
CONTINUOUS
 10
17.9173410803
 20
-4.3906895576
 11
36.7313547777
 21
-4.3906895576
  0
LINE
  5
40A
100
AcDbEntity
  8
RACCORDO
100
AcDbLine
 62
253
  6
CONTINUOUS
 10
36.83135097
 20
-4.2906933653
 11
37.3313319316
 21
-4.2906933653
  0
LINE
  5
40B
100
AcDbEntity
  8
ASSI
100
AcDbLine
 62
253
  6
CONTINUOUS
 10
36.83135097
 20
-4.2906933653
 11
37.3313319316
 21
-4.2906933653
  0
LINE
  5
40C
100
AcDbEntity
  8
RACCORDO
100
AcDbLine
 62
253
  6
CONTINUOUS
 10
16.8832987096
 20
-4.2217765233
 11
17.8274429187
 21
-4.2217765233
  0
LINE
  5
40D
100
AcDbEntity
  8
DRAFT
100
AcDbLine
 62
7
  6
CONTINUOUS
 10
18.6693316182
 20
-4.1356522318
 11
36.5763136442
 21
-4.1356522318
  0
LINE
  5
40E
100
AcDbEntity
  8
ASSI
100
AcDbLine
 62
7
  6
CONTINUOUS
 10
18.6693316182
 20
-4.1356522318
 11
36.5763136442
 21
-4.1356522318
  0
LINE
  5
40F
100
AcDbEntity
  8
DRAFT
100
AcDbLine
 62
7
  6
CONTINUOUS
 10
18.6728226312
 20
-4.1321612188
 11
36.5728226312
 21
-4.1321612188
  0
LINE
  5
410
100
AcDbEntity
  8
RACCORDO
100
AcDbLine
 62
7
  6
CONTINUOUS
 10
51.3728378617
 20
-4.0821612188
 11
37.4252037855
 21
-4.0821612188
  0
LINE
  5
411
100
AcDbEntity
  8
DRAFT
100
AcDbLine
 62
7
  6
CONTINUOUS
 10
50.3728226312
 20
-4.0821612188
 11
37.3597323295
 21
-4.0821612188
  0
LINE
  5
412
100
AcDbEntity
  8
ASSI
100
AcDbLine
 62
7
  6
CONTINUOUS
 10
50.3728226312
 20
-4.0821612188
 11
37.3597323295
 21
-4.0821612188
  0
LINE
  5
413
100
AcDbEntity
  8
RACCORDO
100
AcDbLine
 62
253
  6
CONTINUOUS
 10
37.3554457469
 20
-4.0735874006
 11
50.364248813
 21
-4.0735874006
  0
LINE
  5
414
100
AcDbEntity
  8
ASSI
100
AcDbLine
 62
253
  6
CONTINUOUS
 10
37.3554457469
 20
-4.0735874006
 11
50.364248813
 21
-4.0735874006
  0
LINE
  5
415
100
AcDbEntity
  8
RACCORDO
100
AcDbLine
 62
253
  6
CONTINUOUS
 10
50.491858626
 20
-4.0726461214
 11
51.3633226359
 21
-4.072645993
  0
LINE
  5
416
100
AcDbEntity
  8
RACCORDO
100
AcDbLine
 62
253
  6
CONTINUOUS
 10
50.4953766083
 20
-4.0605918769
 11
51.3619158585
 21
-4.0605899499
  0
LINE
  5
417
100
AcDbEntity
  8
RACCORDO
100
AcDbLine
 62
253
  6
CONTINUOUS
 10
37.3534779093
 20
-4.043779955
 11
50.360312838
 21
-4.043779955
  0
LINE
  5
418
100
AcDbEntity
  8
ASSI
100
AcDbLine
 62
253
  6
CONTINUOUS
 10
37.3534779093
 20
-4.043779955
 11
50.360312838
 21
-4.043779955
  0
LINE
  5
419
100
AcDbEntity
  8
SCRITTE
100
AcDbLine
 62
253
  6
CONTINUOUS
 10
25.972822822
 20
-3.8821612188
 11
25.272822822
 21
-3.8821612188
  0
LINE
  5
41A
100
AcDbEntity
  8
SCRITTE
100
AcDbLine
 62
253
  6
CONTINUOUS
 10
24.8728226789
 20
-3.8821612188
 11
24.1728226789
 21
-3.8821612188
  0
LINE
  5
41B
100
AcDbEntity
  8
SCRITTE
100
AcDbLine
 62
253
  6
CONTINUOUS
 10
29.0728226342
 20
-3.8821612188
 11
29.1728226491
 21
-3.8821612188
  0
LINE
  5
41C
100
AcDbEntity
  8
SCRITTE
100
AcDbLine
 62
253
  6
CONTINUOUS
 10
35.2228226312
 20
-3.8821612188
 11
35.3540726312
 21
-3.8821612188
  0
LINE
  5
41D
100
AcDbEntity
  8
SCRITTE
100
AcDbLine
 62
253
  6
CONTINUOUS
 10
30.1061559685
 20
-3.8154945509
 11
30.1394892582
 21
-3.8154945509
  0
LINE
  5
41E
100
AcDbEntity
  8
DRAFT
100
AcDbLine
 62
7
  6
CONTINUOUS
 10
16.7728226312
 20
-3.763180667
 11
16.8028226312
 21
-3.763180667
  0
LINE
  5
41F
100
AcDbEntity
  8
SCRITTE
100
AcDbLine
 62
253
  6
CONTINUOUS
 10
30.1728226312
 20
-3.6488278786
 11
30.1394892582
 21
-3.6488278786
  0
LINE
  5
420
100
AcDbEntity
  8
SCRITTE
100
AcDbLine
 62
253
  6
CONTINUOUS
 10
28.8728226357
 20
-3.6821612099
 11
29.0728226342
 21
-3.8821612188
  0
LWPOLYLINE
  5
421
100
AcDbEntity
  8
0
100
AcDbPolyline
 62
7
  6
CONTINUOUS
 90
6
 70
0
 10
25.7806422629
 20
0.0509921858
 10
25.7989389661
 20
-0.0027003675
 10
25.8167789035
 20
-0.0573589742
 10
25.8341620749
 20
-0.1129836341
 10
25.8508317832
 20
-0.169669044
 10
25.8835709939
 20
-0.2856539339
  0
LWPOLYLINE
  5
422
100
AcDbEntity
  8
ASSI
100
AcDbPolyline
 62
7
  6
CONTINUOUS
 90
6
 70
0
 10
25.7806422629
 20
0.0509921858
 10
25.7989389661
 20
-0.0027003675
 10
25.8167789035
 20
-0.0573589742
 10
25.8341620749
 20
-0.1129836341
 10
25.8508317832
 20
-0.169669044
 10
25.8835709939
 20
-0.2856539339
  0
LINE
  5
423
100
AcDbEntity
  8
0
100
AcDbLine
 62
7
  6
CONTINUOUS
 10
25.8835709939
 20
-0.2856539339
 11
25.9357998463
 21
-0.4644619055
  0
LINE
  5
424
100
AcDbEntity
  8
ASSI
100
AcDbLine
 62
7
  6
CONTINUOUS
 10
25.8835709939
 20
-0.2856539339
 11
25.9357998463
 21
-0.4644619055
  0
LINE
  5
425
100
AcDbEntity
  8
SCRITTE
100
AcDbLine
 62
253
  6
CONTINUOUS
 10
27.5394895204
 20
-2.1821612188
 11
27.1394890436
 21
-0.7821612188
  0
LINE
  5
426
100
AcDbEntity
  8
0
100
AcDbLine
 62
7
  6
CONTINUOUS
 10
26.1972812274
 20
-0.1598453914
 11
26.1558018782
 21
-0.0043811746
  0
LINE
  5
427
100
AcDbEntity
  8
ASSI
100
AcDbLine
 62
7
  6
CONTINUOUS
 10
26.1972812274
 20
-0.1598453914
 11
26.1558018782
 21
-0.0043811746
  0
LINE
  5
428
100
AcDbEntity
  8
0
100
AcDbLine
 62
7
  6
CONTINUOUS
 10
26.2771031897
 20
-0.4644619055
 11
26.1972812274
 21
-0.1598453914
  0
LINE
  5
429
100
AcDbEntity
  8
ASSI
100
AcDbLine
 62
7
  6
CONTINUOUS
 10
26.2771031897
 20
-0.4644619055
 11
26.1972812274
 21
-0.1598453914
  0
LWPOLYLINE
  5
42A
100
AcDbEntity
  8
0
100
AcDbPolyline
 62
7
  6
CONTINUOUS
 90
13
 70
0
 10
26.1558018782
 20
-0.0043811746
 10
26.1464301566
 20
0.0334314092
 10
26.1356533061
 20
0.0701897969
 10
26.1234713267
 20
0.1058939884
 10
26.1099134094
 20
0.141075102
 10
26.0949503633
 20
0.1752020195
 10
26.078494615
 20
0.2066813865
 10
26.0604045077
 20
0.235269246
 10
26.0408216983
 20
0.261209555
 10
26.0200835844
 20
0.2836408305
 10
25.998302632
 20
0.3022759114
 10
25.9753663752
 20
0.3174019589
 10
25.951274814
 20
0.3290189728
  0
LWPOLYLINE
  5
42B
100
AcDbEntity
  8
ASSI
100
AcDbPolyline
 62
7
  6
CONTINUOUS
 90
13
 70
0
 10
26.1558018782
 20
-0.0043811746
 10
26.1464301566
 20
0.0334314092
 10
26.1356533061
 20
0.0701897969
 10
26.1234713267
 20
0.1058939884
 10
26.1099134094
 20
0.141075102
 10
26.0949503633
 20
0.1752020195
 10
26.078494615
 20
0.2066813865
 10
26.0604045077
 20
0.235269246
 10
26.0408216983
 20
0.261209555
 10
26.0200835844
 20
0.2836408305
 10
25.998302632
 20
0.3022759114
 10
25.9753663752
 20
0.3174019589
 10
25.951274814
 20
0.3290189728
  0
LINE
  5
42C
100
AcDbEntity
  8
SCRITTE
100
AcDbLine
 62
253
  6
CONTINUOUS
 10
27.7394892343
 20
2.5608572869
 11
27.7394892343
 21
2.548639672
  0
LINE
  5
42D
100
AcDbEntity
  8
SCRITTE
100
AcDbLine
 62
253
  6
CONTINUOUS
 10
27.9394893297
 20
-0.9821612069
 11
27.9394893297
 21
-1.9821612099
  0
LINE
  5
42E
100
AcDbEntity
  8
CURVE
100
AcDbLine
 62
253
  6
CONTINUOUS
 10
28.1228226312
 20
0.1464102289
 11
28.1228226312
 21
0.7892673781
  0
LINE
  5
42F
100
AcDbEntity
  8
CURVE
100
AcDbLine
 62
253
  6
CONTINUOUS
 10
28.5513940342
 20
0.7892673781
 11
28.5513940342
 21
0.1464102289
  0
LINE
  5
430
100
AcDbEntity
  8
SCRITTE
100
AcDbLine
 62
253
  6
CONTINUOUS
 10
28.7728226312
 20
-2.882161195
 11
28.7728226312
 21
-3.482161201
  0
LINE
  5
431
100
AcDbEntity
  8
CURVE
100
AcDbLine
 62
253
  6
CONTINUOUS
 10
28.0156797805
 20
-0.067875495
 11
28.1228226312
 21
0.1464102289
  0
LINE
  5
432
100
AcDbEntity
  8
CURVE
100
AcDbLine
 62
253
  6
CONTINUOUS
 10
28.6585369297
 20
1.0035530796
 11
28.5513940342
 21
0.7892673781
  0
LINE
  5
433
100
AcDbEntity
  8
CURVE
100
AcDbLine
 62
253
  6
CONTINUOUS
 10
28.8728226312
 20
1.2178387812
 11
28.6585369297
 21
1.0035530796
  0
LINE
  5
434
100
AcDbEntity
  8
CURVE
100
AcDbLine
 62
253
  6
CONTINUOUS
 10
27.801394079
 20
-0.2821612188
 11
28.0156797805
 21
-0.067875495
  0
LINE
  5
435
100
AcDbEntity
  8
CURVE
100
AcDbLine
 62
253
  6
CONTINUOUS
 10
29.7299654373
 20
1.0035530796
 11
29.9442512282
 21
1.2178387812
  0
LINE
  5
436
100
AcDbEntity
  8
SCRITTE
100
AcDbLine
 62
253
  6
CONTINUOUS
 10
28.1394892343
 20
-0.7821612188
 11
27.9394893297
 21
-0.9821612069
  0
LWPOLYLINE
  5
437
100
AcDbEntity
  8
0
100
AcDbPolyline
 62
7
  6
CONTINUOUS
 90
5
 70
0
 10
25.951274814
 20
0.3390636799
 10
25.9617425652
 20
0.3420757401
 10
25.9721285169
 20
0.346321449
 10
25.982432669
 20
0.3518008067
 10
25.9926138304
 20
0.358803313
  0
LWPOLYLINE
  5
438
100
AcDbEntity
  8
ASSI
100
AcDbPolyline
 62
7
  6
CONTINUOUS
 90
5
 70
0
 10
25.951274814
 20
0.3390636799
 10
25.9617425652
 20
0.3420757401
 10
25.9721285169
 20
0.346321449
 10
25.982432669
 20
0.3518008067
 10
25.9926138304
 20
0.358803313
  0
LINE
  5
439
100
AcDbEntity
  8
RACCORDO
100
AcDbLine
 62
7
  6
CONTINUOUS
 10
17.852071653
 20
-3.5650087442
 11
17.8899924492
 21
-3.5649914009
  0
LINE
  5
43A
100
AcDbEntity
  8
ASSI
100
AcDbLine
 62
7
  6
CONTINUOUS
 10
17.852071653
 20
-3.5650087442
 11
17.8899924492
 21
-3.5649914009
  0
LINE
  5
43B
100
AcDbEntity
  8
RACCORDO
100
AcDbLine
 62
253
  6
CONTINUOUS
 10
17.8510054617
 20
-3.0650163022
 11
17.8943257754
 21
-3.0649964894
  0
LINE
  5
43C
100
AcDbEntity
  8
ASSI
100
AcDbLine
 62
253
  6
CONTINUOUS
 10
17.8510054617
 20
-3.0650163022
 11
17.8943257754
 21
-3.0649964894
  0
LINE
  5
43D
100
AcDbEntity
  8
DRAFT
100
AcDbLine
 62
7
  6
CONTINUOUS
 10
17.8728226312
 20
-3.5821612188
 11
17.8522647239
 21
-3.5821612188
  0
LINE
  5
43E
100
AcDbEntity
  8
ASSI
100
AcDbLine
 62
7
  6
CONTINUOUS
 10
17.8728226312
 20
-3.5821612188
 11
17.8522647239
 21
-3.5821612188
  0
LINE
  5
43F
100
AcDbEntity
  8
DRAFT
100
AcDbLine
 62
7
  6
CONTINUOUS
 10
16.843941572
 20
-3.5821612188
 11
14.8728226312
 21
-3.5821612188
  0
LINE
  5
440
100
AcDbEntity
  8
ASSI
100
AcDbLine
 62
7
  6
CONTINUOUS
 10
16.843941572
 20
-3.5821612188
 11
14.8728226312
 21
-3.5821612188
  0
LINE
  5
441
100
AcDbEntity
  8
RACCORDO
100
AcDbLine
 62
7
  6
CONTINUOUS
 10
14.8818785298
 20
-3.5731053203
 11
16.8441621409
 21
-3.5731053203
  0
LINE
  5
442
100
AcDbEntity
  8
ASSI
100
AcDbLine
 62
7
  6
CONTINUOUS
 10
14.8818785298
 20
-3.5731053203
 11
16.8441621409
 21
-3.5731053203
  0
LINE
  5
443
100
AcDbEntity
  8
RACCORDO
100
AcDbLine
 62
253
  6
CONTINUOUS
 10
14.882780814
 20
-3.5432488952
 11
16.7628984005
 21
-3.5432488952
  0
LINE
  5
444
100
AcDbEntity
  8
ASSI
100
AcDbLine
 62
253
  6
CONTINUOUS
 10
14.882780814
 20
-3.5432488952
 11
16.7628984005
 21
-3.5432488952
  0
LINE
  5
445
100
AcDbEntity
  8
SCRITTE
100
AcDbLine
 62
253
  6
CONTINUOUS
 10
35.3103226312
 20
-3.0946612188
 11
35.3540726312
 21
-3.0946612188
  0
LINE
  5
446
100
AcDbEntity
  8
RACCORDO
100
AcDbLine
 62
253
  6
CONTINUOUS
 10
50.3332130608
 20
-3.0671258647
 11
37.3399290526
 21
-3.0671258647
  0
LINE
  5
447
100
AcDbEntity
  8
ASSI
100
AcDbLine
 62
253
  6
CONTINUOUS
 10
50.3332130608
 20
-3.0671258647
 11
37.3399290526
 21
-3.0671258647
  0
LINE
  5
448
100
AcDbEntity
  8
RACCORDO
100
AcDbLine
 62
253
  6
CONTINUOUS
 10
16.6852916472
 20
-3.0654627781
 11
16.8464602935
 21
-3.0654627768
  0
LINE
  5
449
100
AcDbEntity
  8
ASSI
100
AcDbLine
 62
253
  6
CONTINUOUS
 10
16.6852916472
 20
-3.0654627781
 11
16.8464602935
 21
-3.0654627768
  0
LINE
  5
44A
100
AcDbEntity
  8
0
100
AcDbLine
 62
7
  6
CONTINUOUS
 10
14.8824317178
 20
-2.9321612188
 11
8.7723943848
 21
-2.9321612188
  0
LINE
  5
44B
100
AcDbEntity
  8
DRAFT
100
AcDbLine
 62
7
  6
CONTINUOUS
 10
17.8879788589
 20
-2.8862933855
 11
17.8510054617
 21
-2.8862933855
  0
LINE
  5
44C
100
AcDbEntity
  8
ASSI
100
AcDbLine
 62
7
  6
CONTINUOUS
 10
17.8879788589
 20
-2.8862933855
 11
17.8510054617
 21
-2.8862933855
  0
LINE
  5
44D
100
AcDbEntity
  8
DRAFT
100
AcDbLine
 62
7
  6
CONTINUOUS
 10
16.8464602935
 20
-2.8862933855
 11
16.6769547979
 21
-2.8862933855
  0
LINE
  5
44E
100
AcDbEntity
  8
ASSI
100
AcDbLine
 62
7
  6
CONTINUOUS
 10
16.8464602935
 20
-2.8862933855
 11
16.6769547979
 21
-2.8862933855
  0
LINE
  5
44F
100
AcDbEntity
  8
RACCORDO
100
AcDbLine
 62
253
  6
CONTINUOUS
 10
51.287463024
 20
-2.7992775688
 11
50.9460303369
 21
-2.7992775688
  0
LINE
  5
450
100
AcDbEntity
  8
RACCORDO
100
AcDbLine
 62
253
  6
CONTINUOUS
 10
51.2326455163
 20
-2.689642562
 11
51.0556653437
 21
-2.689642562
  0
LINE
  5
451
100
AcDbEntity
  8
SCRITTE
100
AcDbLine
 62
253
  6
CONTINUOUS
 10
35.3540726312
 20
-2.5696612188
 11
35.2665726312
 21
-2.5696612188
  0
LINE
  5
452
100
AcDbEntity
  8
RACCORDO
100
AcDbLine
 62
253
  6
CONTINUOUS
 10
50.5208190732
 20
-2.4925700407
 11
50.35002837
 21
-2.4925700407
  0
LINE
  5
453
100
AcDbEntity
  8
ASSI
100
AcDbLine
 62
253
  6
CONTINUOUS
 10
50.5208190732
 20
-2.4925700407
 11
50.35002837
 21
-2.4925700407
  0
LINE
  5
454
100
AcDbEntity
  8
SCRITTE
100
AcDbLine
 62
253
  6
CONTINUOUS
 10
29.1728226491
 20
-2.4821612188
 11
29.0728226342
 21
-2.4821612188
  0
LINE
  5
455
100
AcDbEntity
  8
SCRITTE
100
AcDbLine
 62
253
  6
CONTINUOUS
 10
25.972822822
 20
-2.4821612188
 11
25.272822822
 21
-2.4821612188
  0
LINE
  5
456
100
AcDbEntity
  8
SCRITTE
100
AcDbLine
 62
253
  6
CONTINUOUS
 10
24.8728226789
 20
-2.4821612188
 11
24.1728226789
 21
-2.4821612188
  0
LINE
  5
457
100
AcDbEntity
  8
RACCORDO
100
AcDbLine
 62
253
  6
CONTINUOUS
 10
50.3291849689
 20
-2.4281547983
 11
37.3379151601
 21
-2.4281547983
  0
LINE
  5
458
100
AcDbEntity
  8
ASSI
100
AcDbLine
 62
253
  6
CONTINUOUS
 10
50.3291849689
 20
-2.4281547983
 11
37.3379151601
 21
-2.4281547983
  0
LINE
  5
459
100
AcDbEntity
  8
SCRITTE
100
AcDbLine
 62
253
  6
CONTINUOUS
 10
20.172822667
 20
-2.1821612188
 11
20.8728225835
 21
-2.1821612188
  0
LINE
  5
45A
100
AcDbEntity
  8
SCRITTE
100
AcDbLine
 62
253
  6
CONTINUOUS
 10
22.2728225835
 20
-2.1821612188
 11
22.9728225835
 21
-2.1821612188
  0
LINE
  5
45B
100
AcDbEntity
  8
SCRITTE
100
AcDbLine
 62
253
  6
CONTINUOUS
 10
28.1394892343
 20
-2.1821612188
 11
28.5394890436
 21
-2.1821612188
  0
LINE
  5
45C
100
AcDbEntity
  8
SCRITTE
100
AcDbLine
 62
253
  6
CONTINUOUS
 10
30.172822822
 20
-2.1821612188
 11
30.6728222498
 21
-2.1821612188
  0
LINE
  5
45D
100
AcDbEntity
  8
SCRITTE
100
AcDbLine
 62
253
  6
CONTINUOUS
 10
31.6394892343
 20
-2.1821612188
 11
32.0394890436
 21
-2.1821612188
  0
LINE
  5
45E
100
AcDbEntity
  8
RACCORDO
100
AcDbLine
 62
7
  6
CONTINUOUS
 10
17.8943257754
 20
-2.8989881854
 11
17.8510054617
 21
-2.8989485568
  0
LINE
  5
45F
100
AcDbEntity
  8
ASSI
100
AcDbLine
 62
7
  6
CONTINUOUS
 10
17.8943257754
 20
-2.8989881854
 11
17.8510054617
 21
-2.8989485568
  0
LINE
  5
460
100
AcDbEntity
  8
RACCORDO
100
AcDbLine
 62
7
  6
CONTINUOUS
 10
16.8023277864
 20
-2.8977460366
 11
16.8464602935
 21
-2.8979891182
  0
LINE
  5
461
100
AcDbEntity
  8
ASSI
100
AcDbLine
 62
7
  6
CONTINUOUS
 10
16.8023277864
 20
-2.8977460366
 11
16.8464602935
 21
-2.8979891182
  0
LINE
  5
462
100
AcDbEntity
  8
SCRITTE
100
AcDbLine
 62
253
  6
CONTINUOUS
 10
27.9394893297
 20
-1.9821612099
 11
28.1394892343
 21
-2.1821612188
  0
LINE
  5
463
100
AcDbEntity
  8
SCRITTE
100
AcDbLine
 62
253
  6
CONTINUOUS
 10
30.0728225955
 20
-3.7821612144
 11
30.1061559685
 21
-3.8154945509
  0
LINE
  5
464
100
AcDbEntity
  8
SCRITTE
100
AcDbLine
 62
253
  6
CONTINUOUS
 10
29.3728226372
 20
-2.6821612069
 11
29.1728226491
 21
-2.4821612188
  0
LINE
  5
465
100
AcDbEntity
  8
CURVE
100
AcDbLine
 62
253
  6
CONTINUOUS
 10
27.4799654932
 20
-0.067875495
 11
27.6942512058
 21
-0.2821612188
  0
LINE
  5
466
100
AcDbEntity
  8
SCRITTE
100
AcDbLine
 62
253
  6
CONTINUOUS
 10
28.7728226312
 20
-3.482161201
 11
28.8728226357
 21
-3.6821612099
  0
LINE
  5
467
100
AcDbEntity
  8
CURVE
100
AcDbLine
 62
253
  6
CONTINUOUS
 10
27.3728226312
 20
0.1464102289
 11
27.4799654932
 21
-0.067875495
  0
LINE
  5
468
100
AcDbEntity
  8
SCRITTE
100
AcDbLine
 62
253
  6
CONTINUOUS
 10
29.4728226312
 20
-2.882161195
 11
29.3728226372
 21
-2.6821612069
  0
LINE
  5
469
100
AcDbEntity
  8
SCRITTE
100
AcDbLine
 62
253
  6
CONTINUOUS
 10
29.2394895204
 20
2.5591119135
 11
29.2394895204
 21
2.5503850457
  0
LINE
  5
46A
100
AcDbEntity
  8
CURVE
100
AcDbLine
 62
253
  6
CONTINUOUS
 10
29.3013940342
 20
0.1464102289
 11
29.3013940342
 21
0.7892673781
  0
LINE
  5
46B
100
AcDbEntity
  8
SCRITTE
100
AcDbLine
 62
253
  6
CONTINUOUS
 10
29.4728226312
 20
-3.482161201
 11
29.4728226312
 21
-2.882161195
  0
LINE
  5
46C
100
AcDbEntity
  8
CURVE
100
AcDbLine
 62
253
  6
CONTINUOUS
 10
29.7299654373
 20
0.5749816766
 11
29.7299654373
 21
1.0035530796
  0
LINE
  5
46D
100
AcDbEntity
  8
SCRITTE
100
AcDbLine
 62
253
  6
CONTINUOUS
 10
30.0728225955
 20
-3.748827883
 11
30.0728225955
 21
-3.7821612144
  0
LINE
  5
46E
100
AcDbEntity
  8
SCRITTE
100
AcDbLine
 62
253
  6
CONTINUOUS
 10
30.172822822
 20
-0.7821612188
 11
30.172822822
 21
-2.1821612188
  0
LINE
  5
46F
100
AcDbEntity
  8
SCRITTE
100
AcDbLine
 62
253
  6
CONTINUOUS
 10
30.2061560043
 20
-3.748827883
 11
30.2061560043
 21
-3.7154945517
  0
LINE
  5
470
100
AcDbEntity
  8
CURVE
100
AcDbLine
 62
253
  6
CONTINUOUS
 10
30.4799654373
 20
0.5749816766
 11
30.3728226312
 21
0.1464102289
  0
LINE
  5
471
100
AcDbEntity
  8
CURVE
100
AcDbLine
 62
253
  6
CONTINUOUS
 10
29.1942512282
 20
-0.067875495
 11
29.3013940342
 21
0.1464102289
  0
LINE
  5
472
100
AcDbEntity
  8
SCRITTE
100
AcDbLine
 62
253
  6
CONTINUOUS
 10
28.8728226357
 20
-2.6821612069
 11
28.7728226312
 21
-2.882161195
  0
LINE
  5
473
100
AcDbEntity
  8
SCRITTE
100
AcDbLine
 62
253
  6
CONTINUOUS
 10
29.1061562189
 20
-2.1488278849
 11
29.9061558374
 21
-0.9154945442
  0
LINE
  5
474
100
AcDbEntity
  8
CURVE
100
AcDbLine
 62
253
  6
CONTINUOUS
 10
28.9799654373
 20
-0.2821612188
 11
29.1942512282
 21
-0.067875495
  0
LINE
  5
475
100
AcDbEntity
  8
CURVE
100
AcDbLine
 62
253
  6
CONTINUOUS
 10
30.3728226312
 20
0.1464102289
 11
29.9442512282
 21
-0.2821612188
  0
LINE
  5
476
100
AcDbEntity
  8
CURVE
100
AcDbLine
 62
253
  6
CONTINUOUS
 10
31.515679706
 20
0.6821244827
 11
31.3371082433
 21
0.5749816766
  0
LINE
  5
477
100
AcDbEntity
  8
SCRITTE
100
AcDbLine
 62
253
  6
CONTINUOUS
 10
23.3728227266
 20
-1.8821612159
 11
24.0728227266
 21
-1.8821612159
  0
LINE
  5
478
100
AcDbEntity
  8
RACCORDO
100
AcDbLine
 62
253
  6
CONTINUOUS
 10
50.5321879394
 20
-1.7842409478
 11
50.3448945273
 21
-1.7842409478
  0
LINE
  5
479
100
AcDbEntity
  8
ASSI
100
AcDbLine
 62
253
  6
CONTINUOUS
 10
50.5321879394
 20
-1.7842409478
 11
50.3448945273
 21
-1.7842409478
  0
LINE
  5
47A
100
AcDbEntity
  8
SCRITTE
100
AcDbLine
 62
253
  6
CONTINUOUS
 10
27.4061560281
 20
-1.782161201
 11
26.8728227266
 21
-1.782161201
  0
LINE
  5
47B
100
AcDbEntity
  8
SCRITTE
100
AcDbLine
 62
253
  6
CONTINUOUS
 10
21.8728226074
 20
-1.6821612069
 11
21.2728225597
 21
-1.6821612069
  0
LINE
  5
47C
100
AcDbEntity
  8
ASSI
100
AcDbLine
 62
7
  6
CONTINUOUS
 10
42.6728226312
 20
-1.6821612188
 11
43.7311231556
 21
-1.6821612188
  0
LINE
  5
47D
100
AcDbEntity
  8
0
100
AcDbLine
 62
7
  6
CONTINUOUS
 10
14.8824320683
 20
-1.4321612188
 11
8.7723943848
 21
-1.4321612188
  0
LINE
  5
47E
100
AcDbEntity
  8
DRAFT
100
AcDbLine
 62
7
  6
CONTINUOUS
 10
17.8863405459
 20
-1.1821612188
 11
17.8510054617
 21
-1.1821612188
  0
LINE
  5
47F
100
AcDbEntity
  8
ASSI
100
AcDbLine
 62
7
  6
CONTINUOUS
 10
17.8863405459
 20
-1.1821612188
 11
17.8510054617
 21
-1.1821612188
  0
LINE
  5
480
100
AcDbEntity
  8
DRAFT
100
AcDbLine
 62
7
  6
CONTINUOUS
 10
16.8464602935
 20
-1.1821612188
 11
14.8863405459
 21
-1.1821612188
  0
LINE
  5
481
100
AcDbEntity
  8
ASSI
100
AcDbLine
 62
7
  6
CONTINUOUS
 10
16.8464602935
 20
-1.1821612188
 11
14.8863405459
 21
-1.1821612188
  0
LINE
  5
482
100
AcDbEntity
  8
0
100
AcDbLine
 62
7
  6
CONTINUOUS
 10
14.8824320683
 20
-0.9321612188
 11
8.7723943848
 21
-0.9321612188
  0
LINE
  5
483
100
AcDbEntity
  8
SCRITTE
100
AcDbLine
 62
253
  6
CONTINUOUS
 10
32.0394890436
 20
-0.7821612188
 11
31.6394892343
 21
-0.7821612188
  0
LINE
  5
484
100
AcDbEntity
  8
SCRITTE
100
AcDbLine
 62
253
  6
CONTINUOUS
 10
30.6728222498
 20
-0.7821612188
 11
30.172822822
 21
-0.7821612188
  0
LINE
  5
485
100
AcDbEntity
  8
SCRITTE
100
AcDbLine
 62
253
  6
CONTINUOUS
 10
28.5394890436
 20
-0.7821612188
 11
28.1394892343
 21
-0.7821612188
  0
LINE
  5
486
100
AcDbEntity
  8
SCRITTE
100
AcDbLine
 62
253
  6
CONTINUOUS
 10
20.3728226551
 20
-0.7821612188
 11
20.6728225955
 21
-0.7821612188
  0
LINE
  5
487
100
AcDbEntity
  8
SCRITTE
100
AcDbLine
 62
253
  6
CONTINUOUS
 10
22.4728224882
 20
-0.7821612188
 11
22.7728226789
 21
-0.7821612188
  0
LINE
  5
488
100
AcDbEntity
  8
SCRITTE
100
AcDbLine
 62
253
  6
CONTINUOUS
 10
35.5290726312
 20
-2.6134112188
 11
35.3540726312
 21
-2.5696612188
  0
LINE
  5
489
100
AcDbEntity
  8
SCRITTE
100
AcDbLine
 62
253
  6
CONTINUOUS
 10
35.0915726312
 20
-3.8384112188
 11
35.2228226312
 21
-3.8821612188
  0
LINE
  5
48A
100
AcDbEntity
  8
SCRITTE
100
AcDbLine
 62
253
  6
CONTINUOUS
 10
35.1790726312
 20
-3.0509112188
 11
35.3103226312
 21
-3.0946612188
  0
LINE
  5
48B
100
AcDbEntity
  8
SCRITTE
100
AcDbLine
 62
253
  6
CONTINUOUS
 10
35.6603226312
 20
-2.6571612188
 11
35.5290726312
 21
-2.6134112188
  0
LINE
  5
48C
100
AcDbEntity
  8
SCRITTE
100
AcDbLine
 62
253
  6
CONTINUOUS
 10
35.0040726312
 20
-3.7946612188
 11
35.0915726312
 21
-3.8384112188
  0
LINE
  5
48D
100
AcDbEntity
  8
CURVE
100
AcDbLine
 62
253
  6
CONTINUOUS
 10
28.6585369297
 20
-0.067875495
 11
28.8728226312
 21
-0.2821612188
  0
LINE
  5
48E
100
AcDbEntity
  8
CURVE
100
AcDbLine
 62
253
  6
CONTINUOUS
 10
28.0156797805
 20
1.0035530796
 11
27.801394079
 21
1.2178387812
  0
LINE
  5
48F
100
AcDbEntity
  8
SCRITTE
100
AcDbLine
 62
253
  6
CONTINUOUS
 10
31.4394886621
 20
-1.9821612099
 11
31.6394892343
 21
-2.1821612188
  0
LINE
  5
490
100
AcDbEntity
  8
SCRITTE
100
AcDbLine
 62
253
  6
CONTINUOUS
 10
30.2061560043
 20
-3.7154945517
 11
30.1728226312
 21
-3.6488278786
  0
LINE
  5
491
100
AcDbEntity
  8
CURVE
100
AcDbLine
 62
253
  6
CONTINUOUS
 10
28.1228226312
 20
0.7892673781
 11
28.0156797805
 21
1.0035530796
  0
LINE
  5
492
100
AcDbEntity
  8
CURVE
100
AcDbLine
 62
253
  6
CONTINUOUS
 10
28.5513940342
 20
0.1464102289
 11
28.6585369297
 21
-0.067875495
  0
LINE
  5
493
100
AcDbEntity
  8
CURVE
100
AcDbLine
 62
253
  6
CONTINUOUS
 10
29.3013940342
 20
0.7892673781
 11
29.1942512282
 21
1.0035530796
  0
LINE
  5
494
100
AcDbEntity
  8
SCRITTE
100
AcDbLine
 62
253
  6
CONTINUOUS
 10
30.406155742
 20
2.5608572869
 11
30.406155742
 21
2.548639672
  0
LINE
  5
495
100
AcDbEntity
  8
CURVE
100
AcDbLine
 62
253
  6
CONTINUOUS
 10
30.4799654373
 20
1.0035530796
 11
30.4799654373
 21
0.5749816766
  0
LINE
  5
496
100
AcDbEntity
  8
SCRITTE
100
AcDbLine
 62
253
  6
CONTINUOUS
 10
30.872822822
 20
-1.9821612099
 11
30.872822822
 21
-0.9821612069
  0
LINE
  5
497
100
AcDbEntity
  8
SCRITTE
100
AcDbLine
 62
253
  6
CONTINUOUS
 10
31.0728227027
 20
-3.8821612188
 11
31.0728227027
 21
-2.4821612188
  0
LINE
  5
498
100
AcDbEntity
  8
SCRITTE
100
AcDbLine
 62
253
  6
CONTINUOUS
 10
31.106155742
 20
2.548639672
 11
31.106155742
 21
2.5608572869
  0
LINE
  5
499
100
AcDbEntity
  8
SCRITTE
100
AcDbLine
 62
253
  6
CONTINUOUS
 10
31.4394886621
 20
-0.9821612069
 11
31.4394886621
 21
-1.9821612099
  0
LINE
  5
49A
100
AcDbEntity
  8
CURVE
100
AcDbLine
 62
253
  6
CONTINUOUS
 10
31.515679706
 20
1.0035530796
 11
31.515679706
 21
0.6821244827
  0
LINE
  5
49B
100
AcDbEntity
  8
CURVE
100
AcDbLine
 62
253
  6
CONTINUOUS
 10
31.5513942131
 20
0.3606959304
 11
31.5513942131
 21
-0.1750183569
  0
LINE
  5
49C
100
AcDbEntity
  8
SCRITTE
100
AcDbLine
 62
253
  6
CONTINUOUS
 10
30.1728226312
 20
-3.8488278849
 11
30.2061560043
 21
-3.748827883
  0
LINE
  5
49D
100
AcDbEntity
  8
SCRITTE
100
AcDbLine
 62
253
  6
CONTINUOUS
 10
29.3728226372
 20
-3.6821612099
 11
29.4728226312
 21
-3.482161201
  0
LINE
  5
49E
100
AcDbEntity
  8
SCRITTE
100
AcDbLine
 62
253
  6
CONTINUOUS
 10
30.1061559685
 20
-3.6821612099
 11
30.0728225955
 21
-3.748827883
  0
LINE
  5
49F
100
AcDbEntity
  8
SCRITTE
100
AcDbLine
 62
253
  6
CONTINUOUS
 10
30.1061559685
 20
-3.9821612233
 11
30.1728226312
 21
-3.8488278849
  0
LINE
  5
4A0
100
AcDbEntity
  8
SCRITTE
100
AcDbLine
 62
253
  6
CONTINUOUS
 10
29.0728226342
 20
-2.4821612188
 11
28.8728226357
 21
-2.6821612069
  0
LINE
  5
4A1
100
AcDbEntity
  8
CURVE
100
AcDbLine
 62
253
  6
CONTINUOUS
 10
31.5513942131
 20
-0.1750183569
 11
31.4442510494
 21
-0.2821612188
  0
LINE
  5
4A2
100
AcDbEntity
  8
SCRITTE
100
AcDbLine
 62
253
  6
CONTINUOUS
 10
31.6394892343
 20
-0.7821612188
 11
31.4394886621
 21
-0.9821612069
  0
LINE
  5
4A3
100
AcDbEntity
  8
SCRITTE
100
AcDbLine
 62
253
  6
CONTINUOUS
 10
30.6728222498
 20
-2.1821612188
 11
30.872822822
 21
-1.9821612099
  0
LINE
  5
4A4
100
AcDbEntity
  8
CURVE
100
AcDbLine
 62
253
  6
CONTINUOUS
 10
34.2299657949
 20
1.2178387812
 11
34.0156794675
 21
1.0035530796
  0
LINE
  5
4A5
100
AcDbEntity
  8
SCRITTE
100
AcDbLine
 62
253
  6
CONTINUOUS
 10
29.1728226491
 20
-3.8821612188
 11
29.3728226372
 21
-3.6821612099
  0
LINE
  5
4A6
100
AcDbEntity
  8
RACCORDO
100
AcDbLine
 62
7
  6
CONTINUOUS
 10
16.7804221218
 20
0.5332183244
 11
16.7413988003
 21
0.5326720327
  0
LINE
  5
4A7
100
AcDbEntity
  8
ASSI
100
AcDbLine
 62
7
  6
CONTINUOUS
 10
16.7804221218
 20
0.5332183244
 11
16.7413988003
 21
0.5326720327
  0
LWPOLYLINE
  5
4A8
100
AcDbEntity
  8
RACCORDO
100
AcDbPolyline
 62
7
  6
CONTINUOUS
 90
3
 70
0
 10
16.8464602935
 20
0.5336666805
 10
16.8252012757
 20
0.5335758841
 10
16.7804221218
 20
0.5332183244
  0
LWPOLYLINE
  5
4A9
100
AcDbEntity
  8
ASSI
100
AcDbPolyline
 62
7
  6
CONTINUOUS
 90
3
 70
0
 10
16.8464602935
 20
0.5336666805
 10
16.8252012757
 20
0.5335758841
 10
16.7804221218
 20
0.5332183244
  0
LINE
  5
4AA
100
AcDbEntity
  8
RACCORDO
100
AcDbLine
 62
7
  6
CONTINUOUS
 10
17.8943257754
 20
0.5346657477
 11
17.8510054617
 21
0.5346261191
  0
LINE
  5
4AB
100
AcDbEntity
  8
ASSI
100
AcDbLine
 62
7
  6
CONTINUOUS
 10
17.8943257754
 20
0.5346657477
 11
17.8510054617
 21
0.5346261191
  0
LINE
  5
4AC
100
AcDbEntity
  8
ASSI
100
AcDbLine
 62
7
  6
CONTINUOUS
 10
42.6728226312
 20
-0.6821612188
 11
43.7311231556
 21
-0.6821612188
  0
LINE
  5
4AD
100
AcDbEntity
  8
RACCORDO
100
AcDbLine
 62
253
  6
CONTINUOUS
 10
50.3448945273
 20
-0.5800814899
 11
50.5321879394
 21
-0.5800814899
  0
LINE
  5
4AE
100
AcDbEntity
  8
ASSI
100
AcDbLine
 62
253
  6
CONTINUOUS
 10
50.3448945273
 20
-0.5800814899
 11
50.5321879394
 21
-0.5800814899
  0
LINE
  5
4AF
100
AcDbEntity
  8
0
100
AcDbLine
 62
7
  6
CONTINUOUS
 10
20.2205466312
 20
-0.4644622188
 11
20.5332386312
 21
-0.4644622188
  0
LINE
  5
4B0
100
AcDbEntity
  8
ASSI
100
AcDbLine
 62
7
  6
CONTINUOUS
 10
20.2205466312
 20
-0.4644622188
 11
20.5332386312
 21
-0.4644622188
  0
LINE
  5
4B1
100
AcDbEntity
  8
0
100
AcDbLine
 62
7
  6
CONTINUOUS
 10
21.2113206312
 20
-0.4644622188
 11
21.5661486312
 21
-0.4644622188
  0
LINE
  5
4B2
100
AcDbEntity
  8
ASSI
100
AcDbLine
 62
7
  6
CONTINUOUS
 10
21.2113206312
 20
-0.4644622188
 11
21.5661486312
 21
-0.4644622188
  0
LINE
  5
4B3
100
AcDbEntity
  8
0
100
AcDbLine
 62
7
  6
CONTINUOUS
 10
21.7571636312
 20
-0.4644622188
 11
22.0966186312
 21
-0.4644622188
  0
LINE
  5
4B4
100
AcDbEntity
  8
ASSI
100
AcDbLine
 62
7
  6
CONTINUOUS
 10
21.7571636312
 20
-0.4644622188
 11
22.0966186312
 21
-0.4644622188
  0
LINE
  5
4B5
100
AcDbEntity
  8
0
100
AcDbLine
 62
7
  6
CONTINUOUS
 10
22.5894466312
 20
-0.4644622188
 11
22.6392106312
 21
-0.4644622188
  0
LINE
  5
4B6
100
AcDbEntity
  8
ASSI
100
AcDbLine
 62
7
  6
CONTINUOUS
 10
22.5894466312
 20
-0.4644622188
 11
22.6392106312
 21
-0.4644622188
  0
LINE
  5
4B7
100
AcDbEntity
  8
0
100
AcDbLine
 62
7
  6
CONTINUOUS
 10
23.1340026312
 20
-0.4644622188
 11
23.4811186312
 21
-0.4644622188
  0
LINE
  5
4B8
100
AcDbEntity
  8
ASSI
100
AcDbLine
 62
7
  6
CONTINUOUS
 10
23.1340026312
 20
-0.4644622188
 11
23.4811186312
 21
-0.4644622188
  0
LINE
  5
4B9
100
AcDbEntity
  8
0
100
AcDbLine
 62
7
  6
CONTINUOUS
 10
23.5368356312
 20
-0.4644622188
 11
23.8878136312
 21
-0.4644622188
  0
LINE
  5
4BA
100
AcDbEntity
  8
ASSI
100
AcDbLine
 62
7
  6
CONTINUOUS
 10
23.5368356312
 20
-0.4644622188
 11
23.8878136312
 21
-0.4644622188
  0
LINE
  5
4BB
100
AcDbEntity
  8
0
100
AcDbLine
 62
7
  6
CONTINUOUS
 10
24.5608606312
 20
-0.4644622188
 11
24.9348346312
 21
-0.4644622188
  0
LINE
  5
4BC
100
AcDbEntity
  8
ASSI
100
AcDbLine
 62
7
  6
CONTINUOUS
 10
24.5608606312
 20
-0.4644622188
 11
24.9348346312
 21
-0.4644622188
  0
LINE
  5
4BD
100
AcDbEntity
  8
0
100
AcDbLine
 62
7
  6
CONTINUOUS
 10
25.0390292951
 20
-0.4644619055
 11
25.3924296272
 21
-0.4644619055
  0
LINE
  5
4BE
100
AcDbEntity
  8
ASSI
100
AcDbLine
 62
7
  6
CONTINUOUS
 10
25.0390292951
 20
-0.4644619055
 11
25.3924296272
 21
-0.4644619055
  0
LINE
  5
4BF
100
AcDbEntity
  8
0
100
AcDbLine
 62
7
  6
CONTINUOUS
 10
25.9357998463
 20
-0.4644619055
 11
26.2771031897
 21
-0.4644619055
  0
LINE
  5
4C0
100
AcDbEntity
  8
ASSI
100
AcDbLine
 62
7
  6
CONTINUOUS
 10
25.9357998463
 20
-0.4644619055
 11
26.2771031897
 21
-0.4644619055
  0
LINE
  5
4C1
100
AcDbEntity
  8
CURVE
100
AcDbLine
 62
253
  6
CONTINUOUS
 10
31.4442510494
 20
-0.2821612188
 11
30.9085370191
 21
-0.2821612188
  0
LINE
  5
4C2
100
AcDbEntity
  8
CURVE
100
AcDbLine
 62
253
  6
CONTINUOUS
 10
27.6942512058
 20
-0.2821612188
 11
27.801394079
 21
-0.2821612188
  0
LINE
  5
4C3
100
AcDbEntity
  8
CURVE
100
AcDbLine
 62
253
  6
CONTINUOUS
 10
28.8728226312
 20
-0.2821612188
 11
28.9799654373
 21
-0.2821612188
  0
LINE
  5
4C4
100
AcDbEntity
  8
CURVE
100
AcDbLine
 62
253
  6
CONTINUOUS
 10
34.2299657949
 20
-0.2821612188
 11
34.7656794675
 21
-0.2821612188
  0
LINE
  5
4C5
100
AcDbEntity
  8
CURVE
100
AcDbLine
 62
253
  6
CONTINUOUS
 10
33.4085367807
 20
-0.2107326461
 11
33.4799657949
 21
-0.2107326461
  0
LINE
  5
4C6
100
AcDbEntity
  8
0
100
AcDbLine
 62
7
  6
CONTINUOUS
 10
23.9857246312
 20
-0.1251092188
 11
24.4689416312
 21
-0.1251092188
  0
LINE
  5
4C7
100
AcDbEntity
  8
ASSI
100
AcDbLine
 62
7
  6
CONTINUOUS
 10
23.9857246312
 20
-0.1251092188
 11
24.4689416312
 21
-0.1251092188
  0
LINE
  5
4C8
100
AcDbEntity
  8
CURVE
100
AcDbLine
 62
253
  6
CONTINUOUS
 10
33.4799657949
 20
-0.0321612114
 11
33.4085367807
 21
-0.0321612114
  0
LINE
  5
4C9
100
AcDbEntity
  8
RACCORDO
100
AcDbLine
 62
253
  6
CONTINUOUS
 10
37.3379151601
 20
0.0638323606
 11
50.3291849689
 21
0.0638323606
  0
LINE
  5
4CA
100
AcDbEntity
  8
ASSI
100
AcDbLine
 62
253
  6
CONTINUOUS
 10
37.3379151601
 20
0.0638323606
 11
50.3291849689
 21
0.0638323606
  0
LINE
  5
4CB
100
AcDbEntity
  8
RACCORDO
100
AcDbLine
 62
253
  6
CONTINUOUS
 10
50.35002837
 20
0.128247603
 11
50.5208190732
 21
0.128247603
  0
LINE
  5
4CC
100
AcDbEntity
  8
ASSI
100
AcDbLine
 62
253
  6
CONTINUOUS
 10
50.35002837
 20
0.128247603
 11
50.5208190732
 21
0.128247603
  0
LINE
  5
4CD
100
AcDbEntity
  8
0
100
AcDbLine
 62
7
  6
CONTINUOUS
 10
24.3980286312
 20
0.1374807812
 11
24.0583066312
 21
0.1374807812
  0
LINE
  5
4CE
100
AcDbEntity
  8
ASSI
100
AcDbLine
 62
7
  6
CONTINUOUS
 10
24.3980286312
 20
0.1374807812
 11
24.0583066312
 21
0.1374807812
  0
LINE
  5
4CF
100
AcDbEntity
  8
0
100
AcDbLine
 62
7
  6
CONTINUOUS
 10
25.3924296272
 20
0.200770497
 11
25.5826799503
 21
0.200770497
  0
LINE
  5
4D0
100
AcDbEntity
  8
ASSI
100
AcDbLine
 62
7
  6
CONTINUOUS
 10
25.3924296272
 20
0.200770497
 11
25.5826799503
 21
0.200770497
  0
LINE
  5
4D1
100
AcDbEntity
  8
RACCORDO
100
AcDbLine
 62
253
  6
CONTINUOUS
 10
51.0556653437
 20
0.3253201243
 11
51.2326455163
 21
0.3253201243
  0
LINE
  5
4D2
100
AcDbEntity
  8
CURVE
100
AcDbLine
 62
253
  6
CONTINUOUS
 10
30.4085367807
 20
0.3606959304
 11
29.9442512282
 21
0.3606959304
  0
LINE
  5
4D3
100
AcDbEntity
  8
RACCORDO
100
AcDbLine
 62
253
  6
CONTINUOUS
 10
50.9460303369
 20
0.4349551311
 11
51.2874630527
 21
0.4349551311
  0
LINE
  5
4D4
100
AcDbEntity
  8
0
100
AcDbLine
 62
7
  6
CONTINUOUS
 10
25.5834447757
 20
0.4791669497
 11
25.3806640628
 21
0.4791669497
  0
LINE
  5
4D5
100
AcDbEntity
  8
ASSI
100
AcDbLine
 62
7
  6
CONTINUOUS
 10
25.5834447757
 20
0.4791669497
 11
25.3806640628
 21
0.4791669497
  0
LINE
  5
4D6
100
AcDbEntity
  8
DRAFT
100
AcDbLine
 62
7
  6
CONTINUOUS
 10
17.8879788589
 20
0.5219709478
 11
17.8510054617
 21
0.5219709478
  0
LINE
  5
4D7
100
AcDbEntity
  8
ASSI
100
AcDbLine
 62
7
  6
CONTINUOUS
 10
17.8879788589
 20
0.5219709478
 11
17.8510054617
 21
0.5219709478
  0
LINE
  5
4D8
100
AcDbEntity
  8
DRAFT
100
AcDbLine
 62
7
  6
CONTINUOUS
 10
16.8464602935
 20
0.5219709478
 11
16.6769547979
 21
0.5219709478
  0
LINE
  5
4D9
100
AcDbEntity
  8
ASSI
100
AcDbLine
 62
7
  6
CONTINUOUS
 10
16.8464602935
 20
0.5219709478
 11
16.6769547979
 21
0.5219709478
  0
LINE
  5
4DA
100
AcDbEntity
  8
0
100
AcDbLine
 62
7
  6
CONTINUOUS
 10
14.8824317178
 20
0.5678387812
 11
8.7723943848
 21
0.5678387812
  0
LINE
  5
4DB
100
AcDbEntity
  8
CURVE
100
AcDbLine
 62
253
  6
CONTINUOUS
 10
34.7656794675
 20
0.5749816766
 11
34.444251407
 21
0.5749816766
  0
LINE
  5
4DC
100
AcDbEntity
  8
CURVE
100
AcDbLine
 62
253
  6
CONTINUOUS
 10
31.1228226312
 20
0.5749816766
 11
31.3371082433
 21
0.5749816766
  0
LINE
  5
4DD
100
AcDbEntity
  8
RACCORDO
100
AcDbLine
 62
253
  6
CONTINUOUS
 10
16.6852916472
 20
0.7011403405
 11
16.8464602935
 21
0.7011403416
  0
LINE
  5
4DE
100
AcDbEntity
  8
ASSI
100
AcDbLine
 62
253
  6
CONTINUOUS
 10
16.6852916472
 20
0.7011403405
 11
16.8464602935
 21
0.7011403416
  0
LINE
  5
4DF
100
AcDbEntity
  8
RACCORDO
100
AcDbLine
 62
253
  6
CONTINUOUS
 10
37.3399290526
 20
0.702803427
 11
50.3332130608
 21
0.702803427
  0
LINE
  5
4E0
100
AcDbEntity
  8
ASSI
100
AcDbLine
 62
253
  6
CONTINUOUS
 10
37.3399290526
 20
0.702803427
 11
50.3332130608
 21
0.702803427
  0
LINE
  5
4E1
100
AcDbEntity
  8
RACCORDO
100
AcDbLine
 62
253
  6
CONTINUOUS
 10
17.8510054617
 20
0.7006938645
 11
17.8943257754
 21
0.7006740517
  0
LINE
  5
4E2
100
AcDbEntity
  8
ASSI
100
AcDbLine
 62
253
  6
CONTINUOUS
 10
17.8510054617
 20
0.7006938645
 11
17.8943257754
 21
0.7006740517
  0
LWPOLYLINE
  5
4E3
100
AcDbEntity
  8
0
100
AcDbPolyline
 62
7
  6
CONTINUOUS
 90
10
 70
0
 10
25.5826799503
 20
0.200770497
 10
25.6112244301
 20
0.198447021
 10
25.6383951481
 20
0.1922094019
 10
25.6641921042
 20
0.1820576397
 10
25.688966505
 20
0.1675457299
 10
25.7123671439
 20
0.149119677
 10
25.7333404011
 20
0.1281174948
 10
25.7515350701
 20
0.1049851878
 10
25.7673023574
 20
0.0792767515
 10
25.7806422629
 20
0.0509921858
  0
LWPOLYLINE
  5
4E4
100
AcDbEntity
  8
ASSI
100
AcDbPolyline
 62
7
  6
CONTINUOUS
 90
10
 70
0
 10
25.5826799503
 20
0.200770497
 10
25.6112244301
 20
0.198447021
 10
25.6383951481
 20
0.1922094019
 10
25.6641921042
 20
0.1820576397
 10
25.688966505
 20
0.1675457299
 10
25.7123671439
 20
0.149119677
 10
25.7333404011
 20
0.1281174948
 10
25.7515350701
 20
0.1049851878
 10
25.7673023574
 20
0.0792767515
 10
25.7806422629
 20
0.0509921858
  0
LWPOLYLINE
  5
4E5
100
AcDbEntity
  8
0
100
AcDbPolyline
 62
7
  6
CONTINUOUS
 90
13
 70
0
 10
25.6586398615
 20
0.955818898
 10
25.687952817
 20
0.9502368455
 10
25.7151171781
 20
0.9422332031
 10
25.7401329447
 20
0.9318079708
 10
25.7630654521
 20
0.9188876891
 10
25.7838493651
 20
0.9035458175
 10
25.8022886779
 20
0.8860027347
 10
25.8184743819
 20
0.8660220728
 10
25.8323154857
 20
0.8438401998
 10
25.8433430085
 20
0.820386598
 10
25.8514006232
 20
0.7959710949
 10
25.856644657
 20
0.770283863
 10
25.8590751097
 20
0.7433249024
  0
LWPOLYLINE
  5
4E6
100
AcDbEntity
  8
ASSI
100
AcDbPolyline
 62
7
  6
CONTINUOUS
 90
13
 70
0
 10
25.6586398615
 20
0.955818898
 10
25.687952817
 20
0.9502368455
 10
25.7151171781
 20
0.9422332031
 10
25.7401329447
 20
0.9318079708
 10
25.7630654521
 20
0.9188876891
 10
25.7838493651
 20
0.9035458175
 10
25.8022886779
 20
0.8860027347
 10
25.8184743819
 20
0.8660220728
 10
25.8323154857
 20
0.8438401998
 10
25.8433430085
 20
0.820386598
 10
25.8514006232
 20
0.7959710949
 10
25.856644657
 20
0.770283863
 10
25.8590751097
 20
0.7433249024
  0
LWPOLYLINE
  5
4E7
100
AcDbEntity
  8
0
100
AcDbPolyline
 62
7
  6
CONTINUOUS
 90
13
 70
0
 10
25.9146906648
 20
1.1976439485
 10
25.8555887345
 20
1.2159836928
 10
25.7937745869
 20
1.2310460318
 10
25.7292482218
 20
1.2428309658
 10
25.6619146029
 20
1.2512523048
 10
25.5918687666
 20
1.2563962387
 10
25.5193958219
 20
1.2585213367
 10
25.4444104274
 20
1.2574490717
 10
25.3669979246
 20
1.2533579708
 10
25.2876994467
 20
1.2470421845
 10
25.2066953713
 20
1.2387664295
 10
25.1238053208
 20
1.2282659892
 10
25.0390292951
 20
1.2155408633
  0
LWPOLYLINE
  5
4E8
100
AcDbEntity
  8
ASSI
100
AcDbPolyline
 62
7
  6
CONTINUOUS
 90
13
 70
0
 10
25.9146906648
 20
1.1976439485
 10
25.8555887345
 20
1.2159836928
 10
25.7937745869
 20
1.2310460318
 10
25.7292482218
 20
1.2428309658
 10
25.6619146029
 20
1.2512523048
 10
25.5918687666
 20
1.2563962387
 10
25.5193958219
 20
1.2585213367
 10
25.4444104274
 20
1.2574490717
 10
25.3669979246
 20
1.2533579708
 10
25.2876994467
 20
1.2470421845
 10
25.2066953713
 20
1.2387664295
 10
25.1238053208
 20
1.2282659892
 10
25.0390292951
 20
1.2155408633
  0
LINE
  5
4E9
100
AcDbEntity
  8
SCRITTE
100
AcDbLine
 62
253
  6
CONTINUOUS
 10
35.0915726312
 20
-3.0071612188
 11
35.1790726312
 21
-3.0509112188
  0
LINE
  5
4EA
100
AcDbEntity
  8
SCRITTE
100
AcDbLine
 62
253
  6
CONTINUOUS
 10
35.7478226312
 20
-2.7009112188
 11
35.6603226312
 21
-2.6571612188
  0
LINE
  5
4EB
100
AcDbEntity
  8
SCRITTE
100
AcDbLine
 62
253
  6
CONTINUOUS
 10
30.872822822
 20
-0.9821612069
 11
30.6728222498
 21
-0.7821612188
  0
LINE
  5
4EC
100
AcDbEntity
  8
CURVE
100
AcDbLine
 62
253
  6
CONTINUOUS
 10
29.1942512282
 20
1.0035530796
 11
28.9799654373
 21
1.2178387812
  0
LINE
  5
4ED
100
AcDbEntity
  8
CURVE
100
AcDbLine
 62
253
  6
CONTINUOUS
 10
29.9442512282
 20
0.3606959304
 11
29.7299654373
 21
0.5749816766
  0
LINE
  5
4EE
100
AcDbEntity
  8
SCRITTE
100
AcDbLine
 62
253
  6
CONTINUOUS
 10
34.9165726312
 20
-3.7071612188
 11
35.0040726312
 21
-3.7946612188
  0
LINE
  5
4EF
100
AcDbEntity
  8
CURVE
100
AcDbLine
 62
253
  6
CONTINUOUS
 10
30.2656798252
 20
1.2178387812
 11
30.4799654373
 21
1.0035530796
  0
LINE
  5
4F0
100
AcDbEntity
  8
SCRITTE
100
AcDbLine
 62
253
  6
CONTINUOUS
 10
32.3728225835
 20
-3.8821612188
 11
32.0728227266
 21
-2.882161195
  0
LINE
  5
4F1
100
AcDbEntity
  8
SCRITTE
100
AcDbLine
 62
253
  6
CONTINUOUS
 10
31.7728225359
 20
-3.8821612188
 11
31.4728226789
 21
-2.4821612188
  0
LINE
  5
4F2
100
AcDbEntity
  8
SCRITTE
100
AcDbLine
 62
253
  6
CONTINUOUS
 10
31.7728232034
 20
2.5608572869
 11
31.7728232034
 21
2.548639672
  0
LINE
  5
4F3
100
AcDbEntity
  8
CURVE
100
AcDbLine
 62
253
  6
CONTINUOUS
 10
31.9799654373
 20
1.2178387812
 11
31.9799654373
 21
0.8964101842
  0
LINE
  5
4F4
100
AcDbEntity
  8
SCRITTE
100
AcDbLine
 62
253
  6
CONTINUOUS
 10
32.4061554559
 20
2.5608572869
 11
32.4061554559
 21
2.548639672
  0
LINE
  5
4F5
100
AcDbEntity
  8
SCRITTE
100
AcDbLine
 62
253
  6
CONTINUOUS
 10
33.1061554559
 20
2.5608572869
 11
33.1061554559
 21
2.548639672
  0
LINE
  5
4F6
100
AcDbEntity
  8
SCRITTE
100
AcDbLine
 62
253
  6
CONTINUOUS
 10
32.6728227743
 20
-2.4821612188
 11
32.3728225835
 21
-3.8821612188
  0
LINE
  5
4F7
100
AcDbEntity
  8
CURVE
100
AcDbLine
 62
253
  6
CONTINUOUS
 10
32.3013942131
 20
-0.2821612188
 11
32.7299654373
 21
1.2178387812
  0
LINE
  5
4F8
100
AcDbEntity
  8
SCRITTE
100
AcDbLine
 62
253
  6
CONTINUOUS
 10
32.0728227266
 20
-2.882161195
 11
31.7728225359
 21
-3.8821612188
  0
LINE
  5
4F9
100
AcDbEntity
  8
CURVE
100
AcDbLine
 62
253
  6
CONTINUOUS
 10
33.4085367807
 20
-0.0321612114
 11
33.3728226312
 21
-0.1035897897
  0
LINE
  5
4FA
100
AcDbEntity
  8
CURVE
100
AcDbLine
 62
253
  6
CONTINUOUS
 10
33.4799657949
 20
-0.2107326461
 11
33.5156799444
 21
-0.1393040733
  0
LINE
  5
4FB
100
AcDbEntity
  8
SCRITTE
100
AcDbLine
 62
253
  6
CONTINUOUS
 10
31.0728227027
 20
-2.4821612188
 11
30.6728225597
 21
-2.882161195
  0
LINE
  5
4FC
100
AcDbEntity
  8
SCRITTE
100
AcDbLine
 62
253
  6
CONTINUOUS
 10
30.1394892582
 20
-3.6488278786
 11
30.1061559685
 21
-3.6821612099
  0
LINE
  5
4FD
100
AcDbEntity
  8
DRAFT
100
AcDbLine
 62
7
  6
CONTINUOUS
 10
36.5728226312
 20
2.6202199354
 11
36.520441477
 21
2.5678387812
  0
LINE
  5
4FE
100
AcDbEntity
  8
SCRITTE
100
AcDbLine
 62
253
  6
CONTINUOUS
 10
30.1394892582
 20
-3.8154945509
 11
30.2061560043
 21
-3.748827883
  0
LINE
  5
4FF
100
AcDbEntity
  8
RACCORDO
100
AcDbLine
 62
253
  6
CONTINUOUS
 10
36.7597551757
 20
2.5547484795
 11
36.7313547777
 21
2.5263480815
  0
LINE
  5
500
100
AcDbEntity
  8
ASSI
100
AcDbLine
 62
253
  6
CONTINUOUS
 10
36.7597551757
 20
2.5547484795
 11
36.7313547777
 21
2.5263480815
  0
LINE
  5
501
100
AcDbEntity
  8
DRAFT
100
AcDbLine
 62
7
  6
CONTINUOUS
 10
36.5763136442
 20
1.7713297941
 11
36.5728226312
 21
1.7678387812
  0
LINE
  5
502
100
AcDbEntity
  8
ASSI
100
AcDbLine
 62
7
  6
CONTINUOUS
 10
36.5763136442
 20
1.7713297941
 11
36.5728226312
 21
1.7678387812
  0
LWPOLYLINE
  5
503
100
AcDbEntity
  8
0
100
AcDbPolyline
 62
7
  6
CONTINUOUS
 90
10
 70
0
 10
25.3806640628
 20
0.9458124321
 10
25.4118084525
 20
0.95100416
 10
25.4428878319
 20
0.9551829362
 10
25.4739022011
 20
0.9583487608
 10
25.5048509428
 20
0.9605109976
 10
25.5357346743
 20
0.9616602828
 10
25.5665552468
 20
0.9617685246
 10
25.5973132773
 20
0.9608263591
 10
25.6280081489
 20
0.9588431502
 10
25.6586398615
 20
0.955818898
  0
LWPOLYLINE
  5
504
100
AcDbEntity
  8
ASSI
100
AcDbPolyline
 62
7
  6
CONTINUOUS
 90
10
 70
0
 10
25.3806640628
 20
0.9458124321
 10
25.4118084525
 20
0.95100416
 10
25.4428878319
 20
0.9551829362
 10
25.4739022011
 20
0.9583487608
 10
25.5048509428
 20
0.9605109976
 10
25.5357346743
 20
0.9616602828
 10
25.5665552468
 20
0.9617685246
 10
25.5973132773
 20
0.9608263591
 10
25.6280081489
 20
0.9588431502
 10
25.6586398615
 20
0.955818898
  0
LWPOLYLINE
  5
505
100
AcDbEntity
  8
RACCORDO
100
AcDbPolyline
 62
7
  6
CONTINUOUS
 90
7
 70
0
 10
16.7413988003
 20
0.5326720327
 10
16.7253264645
 20
0.5323408859
 10
16.7114783092
 20
0.5319722334
 10
16.7004874394
 20
0.5315829144
 10
16.6925648899
 20
0.5311785418
 10
16.6874996259
 20
0.5307535027
 10
16.6852916472
 20
0.5303077971
  0
LWPOLYLINE
  5
506
100
AcDbEntity
  8
ASSI
100
AcDbPolyline
 62
7
  6
CONTINUOUS
 90
7
 70
0
 10
16.7413988003
 20
0.5326720327
 10
16.7253264645
 20
0.5323408859
 10
16.7114783092
 20
0.5319722334
 10
16.7004874394
 20
0.5315829144
 10
16.6925648899
 20
0.5311785418
 10
16.6874996259
 20
0.5307535027
 10
16.6852916472
 20
0.5303077971
  0
LINE
  5
507
100
AcDbEntity
  8
RACCORDO
100
AcDbLine
 62
253
  6
CONTINUOUS
 10
16.7628984005
 20
1.1789264575
 11
14.882780814
 21
1.1789264575
  0
LINE
  5
508
100
AcDbEntity
  8
ASSI
100
AcDbLine
 62
253
  6
CONTINUOUS
 10
16.7628984005
 20
1.1789264575
 11
14.882780814
 21
1.1789264575
  0
LINE
  5
509
100
AcDbEntity
  8
RACCORDO
100
AcDbLine
 62
7
  6
CONTINUOUS
 10
16.8441621409
 20
1.2087828826
 11
14.8818785298
 21
1.2087828826
  0
LINE
  5
50A
100
AcDbEntity
  8
ASSI
100
AcDbLine
 62
7
  6
CONTINUOUS
 10
16.8441621409
 20
1.2087828826
 11
14.8818785298
 21
1.2087828826
  0
LINE
  5
50B
100
AcDbEntity
  8
CURVE
100
AcDbLine
 62
253
  6
CONTINUOUS
 10
34.7656794675
 20
1.2178387812
 11
34.2299657949
 21
1.2178387812
  0
LINE
  5
50C
100
AcDbEntity
  8
CURVE
100
AcDbLine
 62
253
  6
CONTINUOUS
 10
32.7299654373
 20
1.2178387812
 11
31.9799654373
 21
1.2178387812
  0
LINE
  5
50D
100
AcDbEntity
  8
CURVE
100
AcDbLine
 62
253
  6
CONTINUOUS
 10
28.9799654373
 20
1.2178387812
 11
28.8728226312
 21
1.2178387812
  0
LINE
  5
50E
100
AcDbEntity
  8
CURVE
100
AcDbLine
 62
253
  6
CONTINUOUS
 10
27.801394079
 20
1.2178387812
 11
27.6942512058
 21
1.2178387812
  0
LINE
  5
50F
100
AcDbEntity
  8
DRAFT
100
AcDbLine
 62
7
  6
CONTINUOUS
 10
17.8728226312
 20
1.2178387812
 11
17.8522647239
 21
1.2178387812
  0
LINE
  5
510
100
AcDbEntity
  8
ASSI
100
AcDbLine
 62
7
  6
CONTINUOUS
 10
17.8728226312
 20
1.2178387812
 11
17.8522647239
 21
1.2178387812
  0
LINE
  5
511
100
AcDbEntity
  8
DRAFT
100
AcDbLine
 62
7
  6
CONTINUOUS
 10
16.843941572
 20
1.2178387812
 11
14.8728226312
 21
1.2178387812
  0
LINE
  5
512
100
AcDbEntity
  8
ASSI
100
AcDbLine
 62
7
  6
CONTINUOUS
 10
16.843941572
 20
1.2178387812
 11
14.8728226312
 21
1.2178387812
  0
LINE
  5
513
100
AcDbEntity
  8
CURVE
100
AcDbLine
 62
253
  6
CONTINUOUS
 10
29.9442512282
 20
1.2178387812
 11
30.2656798252
 21
1.2178387812
  0
LINE
  5
514
100
AcDbEntity
  8
CURVE
100
AcDbLine
 62
253
  6
CONTINUOUS
 10
30.9085370191
 20
1.2178387812
 11
31.3371082433
 21
1.2178387812
  0
LINE
  5
515
100
AcDbEntity
  8
0
100
AcDbLine
 62
7
  6
CONTINUOUS
 10
24.4132746312
 20
1.2354007812
 11
24.0700206312
 21
1.2354007812
  0
LINE
  5
516
100
AcDbEntity
  8
ASSI
100
AcDbLine
 62
7
  6
CONTINUOUS
 10
24.4132746312
 20
1.2354007812
 11
24.0700206312
 21
1.2354007812
  0
LINE
  5
517
100
AcDbEntity
  8
0
100
AcDbLine
 62
7
  6
CONTINUOUS
 10
23.3221616312
 20
1.2354007812
 11
22.9710946312
 21
1.2354007812
  0
LINE
  5
518
100
AcDbEntity
  8
ASSI
100
AcDbLine
 62
7
  6
CONTINUOUS
 10
23.3221616312
 20
1.2354007812
 11
22.9710946312
 21
1.2354007812
  0
LINE
  5
519
100
AcDbEntity
  8
0
100
AcDbLine
 62
7
  6
CONTINUOUS
 10
22.2651856312
 20
1.2354007812
 11
21.9106506312
 21
1.2354007812
  0
LINE
  5
51A
100
AcDbEntity
  8
ASSI
100
AcDbLine
 62
7
  6
CONTINUOUS
 10
22.2651856312
 20
1.2354007812
 11
21.9106506312
 21
1.2354007812
  0
LINE
  5
51B
100
AcDbEntity
  8
0
100
AcDbLine
 62
7
  6
CONTINUOUS
 10
21.0796426312
 20
1.2354007812
 11
20.7250566312
 21
1.2354007812
  0
LINE
  5
51C
100
AcDbEntity
  8
ASSI
100
AcDbLine
 62
7
  6
CONTINUOUS
 10
21.0796426312
 20
1.2354007812
 11
20.7250566312
 21
1.2354007812
  0
LINE
  5
51D
100
AcDbEntity
  8
0
100
AcDbLine
 62
7
  6
CONTINUOUS
 10
20.0671096312
 20
1.2354007812
 11
19.6816566312
 21
1.2354007812
  0
LINE
  5
51E
100
AcDbEntity
  8
ASSI
100
AcDbLine
 62
7
  6
CONTINUOUS
 10
20.0671096312
 20
1.2354007812
 11
19.6816566312
 21
1.2354007812
  0
LINE
  5
51F
100
AcDbEntity
  8
0
100
AcDbLine
 62
7
  6
CONTINUOUS
 10
21.5661486312
 20
1.2355027812
 11
21.2113206312
 21
1.2355027812
  0
LINE
  5
520
100
AcDbEntity
  8
ASSI
100
AcDbLine
 62
7
  6
CONTINUOUS
 10
21.5661486312
 20
1.2355027812
 11
21.2113206312
 21
1.2355027812
  0
LINE
  5
521
100
AcDbEntity
  8
DRAFT
100
AcDbLine
 62
7
  6
CONTINUOUS
 10
16.7728226312
 20
1.3988582294
 11
16.8028226312
 21
1.3988582294
  0
LINE
  5
522
100
AcDbEntity
  8
RACCORDO
100
AcDbLine
 62
253
  6
CONTINUOUS
 10
50.360312838
 20
1.6794575173
 11
37.3534779093
 21
1.6794575173
  0
LINE
  5
523
100
AcDbEntity
  8
ASSI
100
AcDbLine
 62
253
  6
CONTINUOUS
 10
50.360312838
 20
1.6794575173
 11
37.3534779093
 21
1.6794575173
  0
LINE
  5
524
100
AcDbEntity
  8
RACCORDO
100
AcDbLine
 62
253
  6
CONTINUOUS
 10
51.3619159219
 20
1.6962683862
 11
50.4953766083
 21
1.6962694392
  0
LINE
  5
525
100
AcDbEntity
  8
RACCORDO
100
AcDbLine
 62
253
  6
CONTINUOUS
 10
51.3633226359
 20
1.7083235553
 11
50.491858626
 21
1.7083236837
  0
LINE
  5
526
100
AcDbEntity
  8
RACCORDO
100
AcDbLine
 62
253
  6
CONTINUOUS
 10
50.364248813
 20
1.7092649629
 11
37.3554457469
 21
1.7092649629
  0
LINE
  5
527
100
AcDbEntity
  8
ASSI
100
AcDbLine
 62
253
  6
CONTINUOUS
 10
50.364248813
 20
1.7092649629
 11
37.3554457469
 21
1.7092649629
  0
LINE
  5
528
100
AcDbEntity
  8
DRAFT
100
AcDbLine
 62
7
  6
CONTINUOUS
 10
50.3728226312
 20
1.7178387812
 11
37.3597323295
 21
1.7178387812
  0
LINE
  5
529
100
AcDbEntity
  8
ASSI
100
AcDbLine
 62
7
  6
CONTINUOUS
 10
50.3728226312
 20
1.7178387812
 11
37.3597323295
 21
1.7178387812
  0
LINE
  5
52A
100
AcDbEntity
  8
RACCORDO
100
AcDbLine
 62
7
  6
CONTINUOUS
 10
37.4252037855
 20
1.7178387812
 11
51.3728378617
 21
1.7178387812
  0
LINE
  5
52B
100
AcDbEntity
  8
DRAFT
100
AcDbLine
 62
7
  6
CONTINUOUS
 10
36.5728226312
 20
1.7678387812
 11
18.6728226312
 21
1.7678387812
  0
LINE
  5
52C
100
AcDbEntity
  8
DRAFT
100
AcDbLine
 62
7
  6
CONTINUOUS
 10
36.5763136442
 20
1.7713297941
 11
18.6693316182
 21
1.7713297941
  0
LINE
  5
52D
100
AcDbEntity
  8
ASSI
100
AcDbLine
 62
7
  6
CONTINUOUS
 10
36.5763136442
 20
1.7713297941
 11
18.6693316182
 21
1.7713297941
  0
LINE
  5
52E
100
AcDbEntity
  8
RACCORDO
100
AcDbLine
 62
253
  6
CONTINUOUS
 10
17.8274429187
 20
1.8574540857
 11
16.8832987096
 21
1.8574540857
  0
LINE
  5
52F
100
AcDbEntity
  8
RACCORDO
100
AcDbLine
 62
253
  6
CONTINUOUS
 10
36.83135097
 20
1.9263709277
 11
37.3313319316
 21
1.9263709211
  0
LINE
  5
530
100
AcDbEntity
  8
ASSI
100
AcDbLine
 62
253
  6
CONTINUOUS
 10
36.83135097
 20
1.9263709277
 11
37.3313319316
 21
1.9263709211
  0
LINE
  5
531
100
AcDbEntity
  8
RACCORDO
100
AcDbLine
 62
253
  6
CONTINUOUS
 10
36.7313547777
 20
2.02636712
 11
17.9173410803
 21
2.02636712
  0
LINE
  5
532
100
AcDbEntity
  8
ASSI
100
AcDbLine
 62
253
  6
CONTINUOUS
 10
36.7313547777
 20
2.02636712
 11
17.9173410803
 21
2.02636712
  0
LINE
  5
533
100
AcDbEntity
  8
RACCORDO
100
AcDbLine
 62
7
  6
CONTINUOUS
 10
17.852071653
 20
1.2006863065
 11
17.8899924492
 21
1.2006689632
  0
LINE
  5
534
100
AcDbEntity
  8
ASSI
100
AcDbLine
 62
7
  6
CONTINUOUS
 10
17.852071653
 20
1.2006863065
 11
17.8899924492
 21
1.2006689632
  0
LWPOLYLINE
  5
535
100
AcDbEntity
  8
RACCORDO
100
AcDbPolyline
 62
7
  6
CONTINUOUS
 90
8
 70
0
 10
50.3939796833
 20
1.7178075425
 10
50.4252410394
 20
1.7176149966
 10
50.4391247844
 20
1.7174478602
 10
50.4516131889
 20
1.7172373675
 10
50.4616680197
 20
1.7170010057
 10
50.468943199
 20
1.7167446037
 10
50.4737848046
 20
1.7164623324
 10
50.4761928364
 20
1.716154192
  0
LWPOLYLINE
  5
536
100
AcDbEntity
  8
RACCORDO
100
AcDbPolyline
 62
253
  6
CONTINUOUS
 90
10
 70
0
 10
51.3326303093
 20
0.5574223874
 10
51.3498397992
 20
0.5563994586
 10
51.3665357022
 20
0.5536472786
 10
51.3822197748
 20
0.5492479835
 10
51.3964239388
 20
0.5433328793
 10
51.4087243549
 20
0.5360784801
 10
51.4187540215
 20
0.5277012106
 10
51.4262135973
 20
0.5184510271
 10
51.4308803886
 20
0.5086039875
 10
51.4326150683
 20
0.4984539519
  0
LINE
  5
537
100
AcDbEntity
  8
RACCORDO
100
AcDbLine
 62
7
  6
CONTINUOUS
 10
50.3728226312
 20
0.6678387812
 11
50.4376701765
 21
0.6633479213
  0
LINE
  5
538
100
AcDbEntity
  8
ASSI
100
AcDbLine
 62
7
  6
CONTINUOUS
 10
50.3728226312
 20
0.6678387812
 11
50.4376701765
 21
0.6633479213
  0
LINE
  5
539
100
AcDbEntity
  8
DRAFT
100
AcDbLine
 62
7
  6
CONTINUOUS
 10
36.5728226312
 20
-4.9845423731
 11
36.520441477
 21
-4.9321612188
  0
LINE
  5
53A
100
AcDbEntity
  8
RACCORDO
100
AcDbLine
 62
253
  6
CONTINUOUS
 10
36.7597551757
 20
-4.9190709172
 11
36.7313547777
 21
-4.8906705192
  0
LINE
  5
53B
100
AcDbEntity
  8
ASSI
100
AcDbLine
 62
253
  6
CONTINUOUS
 10
36.7597551757
 20
-4.9190709172
 11
36.7313547777
 21
-4.8906705192
  0
LINE
  5
53C
100
AcDbEntity
  8
CURVE
100
AcDbLine
 62
253
  6
CONTINUOUS
 10
31.3371082433
 20
0.5749816766
 11
31.5513942131
 21
0.3606959304
  0
LINE
  5
53D
100
AcDbEntity
  8
SCRITTE
100
AcDbLine
 62
253
  6
CONTINUOUS
 10
35.0478226312
 20
-2.9634112188
 11
35.0915726312
 21
-3.0071612188
  0
LINE
  5
53E
100
AcDbEntity
  8
DRAFT
100
AcDbLine
 62
7
  6
CONTINUOUS
 10
36.5763136442
 20
-4.1356522318
 11
36.5728226312
 21
-4.1321612188
  0
LINE
  5
53F
100
AcDbEntity
  8
ASSI
100
AcDbLine
 62
7
  6
CONTINUOUS
 10
36.5763136442
 20
-4.1356522318
 11
36.5728226312
 21
-4.1321612188
  0
LINE
  5
540
100
AcDbEntity
  8
RACCORDO
100
AcDbLine
 62
253
  6
CONTINUOUS
 10
37.3597323295
 20
-4.3190937633
 11
37.3313319316
 21
-4.2906933653
  0
LINE
  5
541
100
AcDbEntity
  8
ASSI
100
AcDbLine
 62
253
  6
CONTINUOUS
 10
37.3597323295
 20
-4.3190937633
 11
37.3313319316
 21
-4.2906933653
  0
LINE
  5
542
100
AcDbEntity
  8
CURVE
100
AcDbLine
 62
253
  6
CONTINUOUS
 10
31.3371082433
 20
1.2178387812
 11
31.515679706
 21
1.0035530796
  0
LINE
  5
543
100
AcDbEntity
  8
CURVE
100
AcDbLine
 62
253
  6
CONTINUOUS
 10
33.3728226312
 20
-0.1035897897
 11
33.3728226312
 21
-0.1393040733
  0
LINE
  5
544
100
AcDbEntity
  8
CURVE
100
AcDbLine
 62
253
  6
CONTINUOUS
 10
33.5156799444
 20
-0.1393040733
 11
33.5156799444
 21
-0.1035897897
  0
LINE
  5
545
100
AcDbEntity
  8
CURVE
100
AcDbLine
 62
253
  6
CONTINUOUS
 10
34.0156794675
 20
1.0035530796
 11
34.0156794675
 21
-0.067875495
  0
LINE
  5
546
100
AcDbEntity
  8
RACCORDO
100
AcDbLine
 62
253
  6
CONTINUOUS
 10
37.3597323295
 20
1.9547713256
 11
37.3313319316
 21
1.9263709277
  0
LINE
  5
547
100
AcDbEntity
  8
ASSI
100
AcDbLine
 62
253
  6
CONTINUOUS
 10
37.3597323295
 20
1.9547713256
 11
37.3313319316
 21
1.9263709277
  0
LINE
  5
548
100
AcDbEntity
  8
SCRITTE
100
AcDbLine
 62
253
  6
CONTINUOUS
 10
35.1790726312
 20
-3.1384112188
 11
35.0040726312
 21
-3.2259112188
  0
LINE
  5
549
100
AcDbEntity
  8
SCRITTE
100
AcDbLine
 62
253
  6
CONTINUOUS
 10
35.2665726312
 20
-2.5696612188
 11
35.1353226312
 21
-2.6134112188
  0
LWPOLYLINE
  5
54A
100
AcDbEntity
  8
RACCORDO
100
AcDbPolyline
 62
7
  6
CONTINUOUS
 90
6
 70
0
 10
16.8461205983
 20
1.2077395971
 10
16.8281507095
 20
1.2049931713
 10
16.8108435454
 20
1.2006336124
 10
16.7941991058
 20
1.194761741
 10
16.7782173909
 20
1.1874871881
 10
16.7628984005
 20
1.1789264575
  0
LWPOLYLINE
  5
54B
100
AcDbEntity
  8
ASSI
100
AcDbPolyline
 62
7
  6
CONTINUOUS
 90
6
 70
0
 10
16.8461205983
 20
1.2077395971
 10
16.8281507095
 20
1.2049931713
 10
16.8108435454
 20
1.2006336124
 10
16.7941991058
 20
1.194761741
 10
16.7782173909
 20
1.1874871881
 10
16.7628984005
 20
1.1789264575
  0
LWPOLYLINE
  5
54C
100
AcDbEntity
  8
RACCORDO
100
AcDbPolyline
 62
253
  6
CONTINUOUS
 90
10
 70
0
 10
18.0643076193
 20
2.5263480815
 10
18.0382599984
 20
2.5240671033
 10
18.0130044838
 20
2.51729766
 10
17.9893084156
 20
2.5062457572
 10
17.9678916064
 20
2.4912474479
 10
17.9494046627
 20
2.4727587208
 10
17.934409143
 20
2.4513417182
 10
17.9233602875
 20
2.4276474101
 10
17.9165933036
 20
2.4023957137
 10
17.9143133309
 20
2.376353793
  0
LWPOLYLINE
  5
54D
100
AcDbEntity
  8
ASSI
100
AcDbPolyline
 62
253
  6
CONTINUOUS
 90
10
 70
0
 10
18.0643076193
 20
2.5263480815
 10
18.0382599984
 20
2.5240671033
 10
18.0130044838
 20
2.51729766
 10
17.9893084156
 20
2.5062457572
 10
17.9678916064
 20
2.4912474479
 10
17.9494046627
 20
2.4727587208
 10
17.934409143
 20
2.4513417182
 10
17.9233602875
 20
2.4276474101
 10
17.9165933036
 20
2.4023957137
 10
17.9143133309
 20
2.376353793
  0
LINE
  5
54E
100
AcDbEntity
  8
SCRITTE
100
AcDbLine
 62
253
  6
CONTINUOUS
 10
33.9061564096
 20
2.5608572869
 11
33.5061566003
 21
2.548639672
  0
LINE
  5
54F
100
AcDbEntity
  8
SCRITTE
100
AcDbLine
 62
253
  6
CONTINUOUS
 10
21.9728227027
 20
2.5608572869
 11
21.5728226431
 21
2.548639672
  0
LINE
  5
550
100
AcDbEntity
  8
SCRITTE
100
AcDbLine
 62
253
  6
CONTINUOUS
 10
21.172822667
 20
2.5608572869
 11
20.7728226491
 21
2.5538757927
  0
LINE
  5
551
100
AcDbEntity
  8
SCRITTE
100
AcDbLine
 62
253
  6
CONTINUOUS
 10
29.439489425
 20
2.5608572869
 11
29.2394895204
 21
2.5591119135
  0
LINE
  5
552
100
AcDbEntity
  8
SCRITTE
100
AcDbLine
 62
253
  6
CONTINUOUS
 10
23.2728225835
 20
2.548639672
 11
23.4728224882
 21
2.5503850457
  0
LINE
  5
553
100
AcDbEntity
  8
RACCORDO
100
AcDbLine
 62
253
  6
CONTINUOUS
 10
17.8325876565
 20
2.4573627028
 11
17.4832073267
 21
2.4573627028
  0
LINE
  5
554
100
AcDbEntity
  8
RACCORDO
100
AcDbLine
 62
7
  6
CONTINUOUS
 10
36.7313547777
 20
2.5263480815
 11
18.0643076193
 21
2.5263480815
  0
LINE
  5
555
100
AcDbEntity
  8
ASSI
100
AcDbLine
 62
7
  6
CONTINUOUS
 10
36.7313547777
 20
2.5263480815
 11
18.0643076193
 21
2.5263480815
  0
LINE
  5
556
100
AcDbEntity
  8
RACCORDO
100
AcDbLine
 62
7
  6
CONTINUOUS
 10
17.4027312483
 20
2.5378387812
 11
17.8728226312
 21
2.5378387812
  0
LINE
  5
557
100
AcDbEntity
  8
SCRITTE
100
AcDbLine
 62
253
  6
CONTINUOUS
 10
22.7728226551
 20
2.548639672
 11
23.2728225835
 21
2.548639672
  0
LINE
  5
558
100
AcDbEntity
  8
SCRITTE
100
AcDbLine
 62
253
  6
CONTINUOUS
 10
24.0394893297
 20
2.548639672
 11
24.6394893774
 21
2.548639672
  0
LINE
  5
559
100
AcDbEntity
  8
SCRITTE
100
AcDbLine
 62
253
  6
CONTINUOUS
 10
29.439489425
 20
2.548639672
 11
29.8394892343
 21
2.548639672
  0
LINE
  5
55A
100
AcDbEntity
  8
SCRITTE
100
AcDbLine
 62
253
  6
CONTINUOUS
 10
34.172822059
 20
2.5521304193
 11
33.639489425
 21
2.5521304193
  0
LINE
  5
55B
100
AcDbEntity
  8
SCRITTE
100
AcDbLine
 62
253
  6
CONTINUOUS
 10
22.2394893535
 20
2.5521304193
 11
21.7061559685
 21
2.5521304193
  0
LINE
  5
55C
100
AcDbEntity
  8
RACCORDO
100
AcDbLine
 62
7
  6
CONTINUOUS
 10
36.5728226312
 20
2.5547484795
 11
36.7597551757
 21
2.5547484795
  0
LINE
  5
55D
100
AcDbEntity
  8
ASSI
100
AcDbLine
 62
7
  6
CONTINUOUS
 10
36.5728226312
 20
2.5547484795
 11
36.7597551757
 21
2.5547484795
  0
LINE
  5
55E
100
AcDbEntity
  8
SCRITTE
100
AcDbLine
 62
253
  6
CONTINUOUS
 10
31.106155742
 20
2.5556211666
 11
30.406155742
 21
2.5556211666
  0
LINE
  5
55F
100
AcDbEntity
  8
SCRITTE
100
AcDbLine
 62
253
  6
CONTINUOUS
 10
24.0394893297
 20
2.5556211666
 11
24.4394891389
 21
2.5556211666
  0
LINE
  5
560
100
AcDbEntity
  8
SCRITTE
100
AcDbLine
 62
253
  6
CONTINUOUS
 10
29.8394892343
 20
2.5608572869
 11
29.439489425
 21
2.5608572869
  0
LINE
  5
561
100
AcDbEntity
  8
SCRITTE
100
AcDbLine
 62
253
  6
CONTINUOUS
 10
24.6394893774
 20
2.5608572869
 11
24.0394893297
 21
2.5608572869
  0
LINE
  5
562
100
AcDbEntity
  8
SCRITTE
100
AcDbLine
 62
253
  6
CONTINUOUS
 10
23.2728225835
 20
2.5608572869
 11
22.7728226551
 21
2.5608572869
  0
LINE
  5
563
100
AcDbEntity
  8
DRAFT
100
AcDbLine
 62
7
  6
CONTINUOUS
 10
36.520441477
 20
2.5678387812
 11
29.1252037855
 21
2.5678387812
  0
LINE
  5
564
100
AcDbEntity
  8
RACCORDO
100
AcDbLine
 62
7
  6
CONTINUOUS
 10
17.3724571274
 20
2.5678387812
 11
25.7728226312
 21
2.5678387812
  0
LINE
  5
565
100
AcDbEntity
  8
DRAFT
100
AcDbLine
 62
7
  6
CONTINUOUS
 10
25.7728226312
 20
2.5678387812
 11
28.9728226312
 21
2.5678387812
  0
LINE
  5
566
100
AcDbEntity
  8
RACCORDO
100
AcDbLine
 62
7
  6
CONTINUOUS
 10
36.8255692892
 20
2.6202199354
 11
36.5728226312
 21
2.6202199354
  0
LINE
  5
567
100
AcDbEntity
  8
RACCORDO
100
AcDbLine
 62
7
  6
CONTINUOUS
 10
36.3088507532
 20
2.5675251451
 11
28.9728226312
 21
2.5678387812
  0
LINE
  5
568
100
AcDbEntity
  8
ASSI
100
AcDbLine
 62
7
  6
CONTINUOUS
 10
36.3088507532
 20
2.5675251451
 11
18.0228169197
 21
2.5678387812
  0
LINE
  5
569
100
AcDbEntity
  8
SCRITTE
100
AcDbLine
 62
253
  6
CONTINUOUS
 10
23.4728224882
 20
2.5591119135
 11
23.2728225835
 21
2.5608572869
  0
LINE
  5
56A
100
AcDbEntity
  8
SCRITTE
100
AcDbLine
 62
253
  6
CONTINUOUS
 10
29.2394895204
 20
2.5503850457
 11
29.439489425
 21
2.548639672
  0
LINE
  5
56B
100
AcDbEntity
  8
RACCORDO
100
AcDbLine
 62
7
  6
CONTINUOUS
 10
36.3948903967
 20
2.5669188183
 11
36.3088507532
 21
2.5675251451
  0
LINE
  5
56C
100
AcDbEntity
  8
ASSI
100
AcDbLine
 62
7
  6
CONTINUOUS
 10
36.3948903967
 20
2.5669188183
 11
36.3088507532
 21
2.5675251451
  0
LINE
  5
56D
100
AcDbEntity
  8
SCRITTE
100
AcDbLine
 62
253
  6
CONTINUOUS
 10
20.7728226491
 20
2.5538757927
 11
20.3728226312
 21
2.5608572869
  0
LINE
  5
56E
100
AcDbEntity
  8
SCRITTE
100
AcDbLine
 62
253
  6
CONTINUOUS
 10
27.7394892343
 20
2.548639672
 11
27.0394892343
 21
2.5608572869
  0
LINE
  5
56F
100
AcDbEntity
  8
SCRITTE
100
AcDbLine
 62
253
  6
CONTINUOUS
 10
33.1061554559
 20
2.548639672
 11
32.4061554559
 21
2.5608572869
  0
LINE
  5
570
100
AcDbEntity
  8
SCRITTE
100
AcDbLine
 62
253
  6
CONTINUOUS
 10
22.3728226789
 20
2.548639672
 11
21.9728227027
 21
2.5608572869
  0
LINE
  5
571
100
AcDbEntity
  8
SCRITTE
100
AcDbLine
 62
253
  6
CONTINUOUS
 10
34.3061562189
 20
2.548639672
 11
33.9061564096
 21
2.5608572869
  0
LWPOLYLINE
  5
572
100
AcDbEntity
  8
RACCORDO
100
AcDbPolyline
 62
7
  6
CONTINUOUS
 90
5
 70
0
 10
36.4655486932
 20
2.5654488998
 10
36.4596815626
 20
2.5657763228
 10
36.4497490495
 20
2.5660862482
 10
36.4357511538
 20
2.5663786762
 10
36.3948903967
 20
2.5669188183
  0
LWPOLYLINE
  5
573
100
AcDbEntity
  8
ASSI
100
AcDbPolyline
 62
7
  6
CONTINUOUS
 90
5
 70
0
 10
36.4655486932
 20
2.5654488998
 10
36.4596815626
 20
2.5657763228
 10
36.4497490495
 20
2.5660862482
 10
36.4357511538
 20
2.5663786762
 10
36.3948903967
 20
2.5669188183
  0
LWPOLYLINE
  5
574
100
AcDbEntity
  8
RACCORDO
100
AcDbPolyline
 62
7
  6
CONTINUOUS
 90
16
 70
0
 10
36.7597551757
 20
2.5547484795
 10
36.8235754634
 20
2.5511660418
 10
36.8853784507
 20
2.5413776285
 10
36.9451641375
 20
2.5253832394
 10
37.0035387059
 20
2.5028739053
 10
37.0598959738
 20
2.4741585954
 10
37.1124173955
 20
2.440164218
 10
37.1609778623
 20
2.4007186697
 10
37.2057024828
 20
2.3559940538
 10
37.2451480371
 20
2.307433588
 10
37.2791424223
 20
2.2549121616
 10
37.3078577413
 20
2.1985548852
 10
37.3303670826
 20
2.1401803085
 10
37.3463614759
 20
2.0803946146
 10
37.3561498915
 20
2.0185916203
 10
37.3597323295
 20
1.9547713256
  0
LWPOLYLINE
  5
575
100
AcDbEntity
  8
ASSI
100
AcDbPolyline
 62
7
  6
CONTINUOUS
 90
16
 70
0
 10
36.7597551757
 20
2.5547484795
 10
36.8235754634
 20
2.5511660418
 10
36.8853784507
 20
2.5413776285
 10
36.9451641375
 20
2.5253832394
 10
37.0035387059
 20
2.5028739053
 10
37.0598959738
 20
2.4741585954
 10
37.1124173955
 20
2.440164218
 10
37.1609778623
 20
2.4007186697
 10
37.2057024828
 20
2.3559940538
 10
37.2451480371
 20
2.307433588
 10
37.2791424223
 20
2.2549121616
 10
37.3078577413
 20
2.1985548852
 10
37.3303670826
 20
2.1401803085
 10
37.3463614759
 20
2.0803946146
 10
37.3561498915
 20
2.0185916203
 10
37.3597323295
 20
1.9547713256
  0
LWPOLYLINE
  5
576
100
AcDbEntity
  8
RACCORDO
100
AcDbPolyline
 62
7
  6
CONTINUOUS
 90
6
 70
0
 10
51.3727769351
 20
1.7178387812
 10
51.3901513758
 20
1.7163224394
 10
51.4069959795
 20
1.7118100526
 10
51.4227986901
 20
1.704439908
 10
51.4370795602
 20
1.6944369804
 10
51.4434965573
 20
1.6885557457
  0
LINE
  5
577
100
AcDbEntity
  8
RACCORDO
100
AcDbLine
 62
7
  6
CONTINUOUS
 10
36.5728226312
 20
2.5547484795
 11
36.4655486932
 21
2.5654488998
  0
LINE
  5
578
100
AcDbEntity
  8
ASSI
100
AcDbLine
 62
7
  6
CONTINUOUS
 10
36.5728226312
 20
2.5547484795
 11
36.4655486932
 21
2.5654488998
  0
LINE
  5
579
100
AcDbEntity
  8
CURVE
100
AcDbLine
 62
253
  6
CONTINUOUS
 10
34.0156794675
 20
-0.067875495
 11
34.2299657949
 21
-0.2821612188
  0
LINE
  5
57A
100
AcDbEntity
  8
CURVE
100
AcDbLine
 62
253
  6
CONTINUOUS
 10
33.3728226312
 20
-0.1393040733
 11
33.4085367807
 21
-0.2107326461
  0
LINE
  5
57B
100
AcDbEntity
  8
CURVE
100
AcDbLine
 62
253
  6
CONTINUOUS
 10
33.5156799444
 20
-0.1035897897
 11
33.4799657949
 21
-0.0321612114
  0
LINE
  5
57C
100
AcDbEntity
  8
SCRITTE
100
AcDbLine
 62
253
  6
CONTINUOUS
 10
35.0040726312
 20
-2.8759112188
 11
35.0478226312
 21
-2.9634112188
  0
LINE
  5
57D
100
AcDbEntity
  8
SCRITTE
100
AcDbLine
 62
253
  6
CONTINUOUS
 10
34.8728226312
 20
-3.5759112188
 11
34.9165726312
 21
-3.7071612188
  0
LINE
  5
57E
100
AcDbEntity
  8
CURVE
100
AcDbLine
 62
253
  6
CONTINUOUS
 10
34.7656794675
 20
-0.2821612188
 11
34.7656794675
 21
0.5749816766
  0
LINE
  5
57F
100
AcDbEntity
  8
SCRITTE
100
AcDbLine
 62
253
  6
CONTINUOUS
 10
34.8728226312
 20
-3.4446612188
 11
34.8728226312
 21
-3.5759112188
  0
LINE
  5
580
100
AcDbEntity
  8
SCRITTE
100
AcDbLine
 62
253
  6
CONTINUOUS
 10
35.0040726312
 20
-2.8321612188
 11
35.0040726312
 21
-2.8759112188
  0
LINE
  5
581
100
AcDbEntity
  8
SCRITTE
100
AcDbLine
 62
253
  6
CONTINUOUS
 10
35.0478226312
 20
-2.7009112188
 11
35.0040726312
 21
-2.8321612188
  0
LINE
  5
582
100
AcDbEntity
  8
SCRITTE
100
AcDbLine
 62
253
  6
CONTINUOUS
 10
34.9165726312
 20
-3.3134112188
 11
34.8728226312
 21
-3.4446612188
  0
LINE
  5
583
100
AcDbEntity
  8
RACCORDO
100
AcDbLine
 62
7
  6
CONTINUOUS
 10
37.3554457469
 20
1.7092649629
 11
37.3597323295
 21
1.7178387812
  0
LINE
  5
584
100
AcDbEntity
  8
ASSI
100
AcDbLine
 62
7
  6
CONTINUOUS
 10
37.3554457469
 20
1.7092649629
 11
37.3597323295
 21
1.7178387812
  0
LINE
  5
585
100
AcDbEntity
  8
SCRITTE
100
AcDbLine
 62
253
  6
CONTINUOUS
 10
35.1353226312
 20
-2.6134112188
 11
35.0478226312
 21
-2.7009112188
  0
LINE
  5
586
100
AcDbEntity
  8
SCRITTE
100
AcDbLine
 62
253
  6
CONTINUOUS
 10
35.0040726312
 20
-3.2259112188
 11
34.9165726312
 21
-3.3134112188
  0
LINE
  5
587
100
AcDbEntity
  8
SCRITTE
100
AcDbLine
 62
253
  6
CONTINUOUS
 10
35.6603226312
 20
-3.7509112188
 11
35.7478226312
 21
-3.6634112188
  0
LINE
  5
588
100
AcDbEntity
  8
SCRITTE
100
AcDbLine
 62
253
  6
CONTINUOUS
 10
35.5290726312
 20
-3.8384112188
 11
35.6603226312
 21
-3.7509112188
  0
LINE
  5
589
100
AcDbEntity
  8
RACCORDO
100
AcDbLine
 62
7
  6
CONTINUOUS
 10
50.4376701765
 20
0.6633479213
 11
50.4898904746
 21
0.6532064421
  0
LINE
  5
58A
100
AcDbEntity
  8
ASSI
100
AcDbLine
 62
7
  6
CONTINUOUS
 10
50.4376701765
 20
0.6633479213
 11
50.4898904746
 21
0.6532064421
  0
LINE
  5
58B
100
AcDbEntity
  8
RACCORDO
100
AcDbLine
 62
7
  6
CONTINUOUS
 10
37.3597323295
 20
-4.0821612188
 11
37.3554457469
 21
-4.0735874006
  0
LINE
  5
58C
100
AcDbEntity
  8
ASSI
100
AcDbLine
 62
7
  6
CONTINUOUS
 10
37.3597323295
 20
-4.0821612188
 11
37.3554457469
 21
-4.0735874006
  0
LWPOLYLINE
  5
58D
100
AcDbEntity
  8
RACCORDO
100
AcDbPolyline
 62
253
  6
CONTINUOUS
 90
19
 70
0
 10
36.83135097
 20
1.9263709277
 10
36.8309671441
 20
1.9351065379
 10
36.8298470814
 20
1.9436752864
 10
36.8279907821
 20
1.952077173
 10
36.8253740446
 20
1.9603821108
 10
36.8220210704
 20
1.9685201868
 10
36.8180044638
 20
1.9762816624
 10
36.8133058149
 20
1.9836522866
 10
36.8079435335
 20
1.9906463103
 10
36.8020454534
 20
1.9970967475
 10
36.7956007556
 20
2.0029870156
 10
36.788620259
 20
2.0083336972
 10
36.7812642538
 20
2.0130195536
 10
36.7735198124
 20
2.0170297929
 10
36.7653998624
 20
2.0203792071
 10
36.7571034767
 20
2.0229949332
 10
36.7486970128
 20
2.0248526835
 10
36.7401141131
 20
2.0259767458
 10
36.7313547777
 20
2.02636712
  0
LWPOLYLINE
  5
58E
100
AcDbEntity
  8
ASSI
100
AcDbPolyline
 62
253
  6
CONTINUOUS
 90
19
 70
0
 10
36.83135097
 20
1.9263709277
 10
36.8309671441
 20
1.9351065379
 10
36.8298470814
 20
1.9436752864
 10
36.8279907821
 20
1.952077173
 10
36.8253740446
 20
1.9603821108
 10
36.8220210704
 20
1.9685201868
 10
36.8180044638
 20
1.9762816624
 10
36.8133058149
 20
1.9836522866
 10
36.8079435335
 20
1.9906463103
 10
36.8020454534
 20
1.9970967475
 10
36.7956007556
 20
2.0029870156
 10
36.788620259
 20
2.0083336972
 10
36.7812642538
 20
2.0130195536
 10
36.7735198124
 20
2.0170297929
 10
36.7653998624
 20
2.0203792071
 10
36.7571034767
 20
2.0229949332
 10
36.7486970128
 20
2.0248526835
 10
36.7401141131
 20
2.0259767458
 10
36.7313547777
 20
2.02636712
  0
LWPOLYLINE
  5
58F
100
AcDbEntity
  8
RACCORDO
100
AcDbPolyline
 62
253
  6
CONTINUOUS
 90
19
 70
0
 10
37.3313319316
 20
1.9263709277
 10
37.3290457143
 20
1.9786605167
 10
37.3222110806
 20
2.0305521163
 10
37.3108800472
 20
2.0816508428
 10
37.2951388527
 20
2.1315678415
 10
37.2751072862
 20
2.1799232591
 10
37.2509377708
 20
2.2263491319
 10
37.2228142339
 20
2.2704921591
 10
37.1909506889
 20
2.3120164244
 10
37.1555895787
 20
2.3506059565
 10
37.1169999352
 20
2.385967122
 10
37.0754754564
 20
2.4178307679
 10
37.0313322664
 20
2.4459543305
 10
36.9849063651
 20
2.4701237809
 10
36.9365510004
 20
2.4901552534
 10
36.8866341066
 20
2.5058963545
 10
36.8355355255
 20
2.5172273088
 10
36.7836441222
 20
2.524061886
 10
36.7313547777
 20
2.5263480815
  0
LWPOLYLINE
  5
590
100
AcDbEntity
  8
ASSI
100
AcDbPolyline
 62
253
  6
CONTINUOUS
 90
19
 70
0
 10
37.3313319316
 20
1.9263709277
 10
37.3290457143
 20
1.9786605167
 10
37.3222110806
 20
2.0305521163
 10
37.3108800472
 20
2.0816508428
 10
37.2951388527
 20
2.1315678415
 10
37.2751072862
 20
2.1799232591
 10
37.2509377708
 20
2.2263491319
 10
37.2228142339
 20
2.2704921591
 10
37.1909506889
 20
2.3120164244
 10
37.1555895787
 20
2.3506059565
 10
37.1169999352
 20
2.385967122
 10
37.0754754564
 20
2.4178307679
 10
37.0313322664
 20
2.4459543305
 10
36.9849063651
 20
2.4701237809
 10
36.9365510004
 20
2.4901552534
 10
36.8866341066
 20
2.5058963545
 10
36.8355355255
 20
2.5172273088
 10
36.7836441222
 20
2.524061886
 10
36.7313547777
 20
2.5263480815
  0
LINE
  5
591
100
AcDbEntity
  8
RACCORDO
100
AcDbLine
 62
7
  6
CONTINUOUS
 10
37.3521675954
 20
-4.0019085128
 11
37.3534779093
 21
-4.043779955
  0
LINE
  5
592
100
AcDbEntity
  8
ASSI
100
AcDbLine
 62
7
  6
CONTINUOUS
 10
37.3521675954
 20
-4.0019085128
 11
37.3534779093
 21
-4.043779955
  0
LINE
  5
593
100
AcDbEntity
  8
RACCORDO
100
AcDbLine
 62
7
  6
CONTINUOUS
 10
37.349627833
 20
-3.8954357692
 11
37.3521675954
 21
-4.0019085128
  0
LINE
  5
594
100
AcDbEntity
  8
ASSI
100
AcDbLine
 62
7
  6
CONTINUOUS
 10
37.349627833
 20
-3.8954357692
 11
37.3521675954
 21
-4.0019085128
  0
LINE
  5
595
100
AcDbEntity
  8
RACCORDO
100
AcDbLine
 62
7
  6
CONTINUOUS
 10
37.3460203527
 20
-3.6789020056
 11
37.349627833
 21
-3.8954357692
  0
LINE
  5
596
100
AcDbEntity
  8
ASSI
100
AcDbLine
 62
7
  6
CONTINUOUS
 10
37.3460203527
 20
-3.6789020056
 11
37.349627833
 21
-3.8954357692
  0
LINE
  5
597
100
AcDbEntity
  8
RACCORDO
100
AcDbLine
 62
7
  6
CONTINUOUS
 10
37.3417690653
 20
-3.2953427217
 11
37.3460203527
 21
-3.6789020056
  0
LINE
  5
598
100
AcDbEntity
  8
ASSI
100
AcDbLine
 62
7
  6
CONTINUOUS
 10
37.3417690653
 20
-3.2953427217
 11
37.3460203527
 21
-3.6789020056
  0
LINE
  5
599
100
AcDbEntity
  8
RACCORDO
100
AcDbLine
 62
7
  6
CONTINUOUS
 10
37.3417690653
 20
-3.2953427217
 11
37.3388304687
 21
-2.8739880796
  0
LINE
  5
59A
100
AcDbEntity
  8
ASSI
100
AcDbLine
 62
7
  6
CONTINUOUS
 10
37.3417690653
 20
-3.2953427217
 11
37.3388304687
 21
-2.8739880796
  0
LINE
  5
59B
100
AcDbEntity
  8
DRAFT
100
AcDbLine
 62
7
  6
CONTINUOUS
 10
36.520441477
 20
2.5678387812
 11
36.520441477
 21
2.5599734239
  0
LINE
  5
59C
100
AcDbEntity
  8
DRAFT
100
AcDbLine
 62
7
  6
CONTINUOUS
 10
36.520441477
 20
-4.9242958616
 11
36.520441477
 21
-4.9321612188
  0
LINE
  5
59D
100
AcDbEntity
  8
DRAFT
100
AcDbLine
 62
7
  6
CONTINUOUS
 10
36.5728226312
 20
2.6202199354
 11
36.5728226312
 21
2.5547484795
  0
LINE
  5
59E
100
AcDbEntity
  8
DRAFT
100
AcDbLine
 62
7
  6
CONTINUOUS
 10
36.5728226312
 20
-4.9190709172
 11
36.5728226312
 21
-4.9845423731
  0
LINE
  5
59F
100
AcDbEntity
  8
DRAFT
100
AcDbLine
 62
7
  6
CONTINUOUS
 10
36.5728226312
 20
-4.1321612188
 11
36.5728226312
 21
1.7678387812
  0
LINE
  5
5A0
100
AcDbEntity
  8
DRAFT
100
AcDbLine
 62
7
  6
CONTINUOUS
 10
36.5763136442
 20
-4.1356522318
 11
36.5763136442
 21
1.7713297941
  0
LINE
  5
5A1
100
AcDbEntity
  8
ASSI
100
AcDbLine
 62
7
  6
CONTINUOUS
 10
36.5763136442
 20
-4.1356522318
 11
36.5763136442
 21
1.7713297941
  0
LINE
  5
5A2
100
AcDbEntity
  8
RACCORDO
100
AcDbLine
 62
253
  6
CONTINUOUS
 10
36.7313547777
 20
-4.3906895576
 11
36.7313547712
 21
-4.8906705192
  0
LINE
  5
5A3
100
AcDbEntity
  8
ASSI
100
AcDbLine
 62
253
  6
CONTINUOUS
 10
36.7313547777
 20
-4.3906895576
 11
36.7313547712
 21
-4.8906705192
  0
LINE
  5
5A4
100
AcDbEntity
  8
RACCORDO
100
AcDbLine
 62
253
  6
CONTINUOUS
 10
36.7313547777
 20
2.02636712
 11
36.7313547777
 21
2.5263480815
  0
LINE
  5
5A5
100
AcDbEntity
  8
ASSI
100
AcDbLine
 62
253
  6
CONTINUOUS
 10
36.7313547777
 20
2.02636712
 11
36.7313547777
 21
2.5263480815
  0
LINE
  5
5A6
100
AcDbEntity
  8
RACCORDO
100
AcDbLine
 62
253
  6
CONTINUOUS
 10
36.83135097
 20
-4.2906933653
 11
36.83135097
 21
1.9263709277
  0
LINE
  5
5A7
100
AcDbEntity
  8
ASSI
100
AcDbLine
 62
253
  6
CONTINUOUS
 10
36.83135097
 20
-4.2906933653
 11
36.83135097
 21
1.9263709277
  0
LINE
  5
5A8
100
AcDbEntity
  8
RACCORDO
100
AcDbLine
 62
7
  6
CONTINUOUS
 10
37.3313319316
 20
-4.2906933653
 11
37.3313319316
 21
1.9263709277
  0
LINE
  5
5A9
100
AcDbEntity
  8
ASSI
100
AcDbLine
 62
7
  6
CONTINUOUS
 10
37.3313319316
 20
-4.2906933653
 11
37.3313319316
 21
1.9263709277
  0
LINE
  5
5AA
100
AcDbEntity
  8
RACCORDO
100
AcDbLine
 62
7
  6
CONTINUOUS
 10
37.3388304687
 20
-2.8739880796
 11
37.3379151601
 21
0.0638323606
  0
LINE
  5
5AB
100
AcDbEntity
  8
ASSI
100
AcDbLine
 62
7
  6
CONTINUOUS
 10
37.3388304687
 20
-2.8739880796
 11
37.3379151601
 21
0.0638323606
  0
LINE
  5
5AC
100
AcDbEntity
  8
RACCORDO
100
AcDbLine
 62
7
  6
CONTINUOUS
 10
37.3597323295
 20
1.9547713256
 11
37.3597323295
 21
1.7178387812
  0
LINE
  5
5AD
100
AcDbEntity
  8
ASSI
100
AcDbLine
 62
7
  6
CONTINUOUS
 10
37.3597323295
 20
1.9547713256
 11
37.3597323295
 21
1.7178387812
  0
LINE
  5
5AE
100
AcDbEntity
  8
RACCORDO
100
AcDbLine
 62
7
  6
CONTINUOUS
 10
37.3597323295
 20
-4.0821612188
 11
37.3597323295
 21
-4.3190937633
  0
LINE
  5
5AF
100
AcDbEntity
  8
ASSI
100
AcDbLine
 62
7
  6
CONTINUOUS
 10
37.3597323295
 20
-4.0821612188
 11
37.3597323295
 21
-4.3190937633
  0
LINE
  5
5B0
100
AcDbEntity
  8
RACCORDO
100
AcDbLine
 62
7
  6
CONTINUOUS
 10
37.4252037855
 20
-4.3849078769
 11
37.4252037855
 21
-4.0821612188
  0
LINE
  5
5B1
100
AcDbEntity
  8
RACCORDO
100
AcDbLine
 62
7
  6
CONTINUOUS
 10
37.4252037855
 20
1.7178387812
 11
37.4252037855
 21
2.0205854392
  0
LINE
  5
5B2
100
AcDbEntity
  8
RACCORDO
100
AcDbLine
 62
7
  6
CONTINUOUS
 10
37.3379151601
 20
0.0638323606
 11
37.3388304687
 21
0.5096656419
  0
LINE
  5
5B3
100
AcDbEntity
  8
ASSI
100
AcDbLine
 62
7
  6
CONTINUOUS
 10
37.3379151601
 20
0.0638323606
 11
37.3388304687
 21
0.5096656419
  0
LINE
  5
5B4
100
AcDbEntity
  8
RACCORDO
100
AcDbLine
 62
7
  6
CONTINUOUS
 10
37.3417690652
 20
0.9310202808
 11
37.3388304687
 21
0.5096656419
  0
LINE
  5
5B5
100
AcDbEntity
  8
ASSI
100
AcDbLine
 62
7
  6
CONTINUOUS
 10
37.3417690652
 20
0.9310202808
 11
37.3388304687
 21
0.5096656419
  0
LINE
  5
5B6
100
AcDbEntity
  8
RACCORDO
100
AcDbLine
 62
7
  6
CONTINUOUS
 10
37.3460203527
 20
1.3145795644
 11
37.3417690652
 21
0.9310202808
  0
LINE
  5
5B7
100
AcDbEntity
  8
ASSI
100
AcDbLine
 62
7
  6
CONTINUOUS
 10
37.3460203527
 20
1.3145795644
 11
37.3417690652
 21
0.9310202808
  0
LINE
  5
5B8
100
AcDbEntity
  8
RACCORDO
100
AcDbLine
 62
7
  6
CONTINUOUS
 10
37.3496278329
 20
1.5311133275
 11
37.3460203527
 21
1.3145795644
  0
LINE
  5
5B9
100
AcDbEntity
  8
ASSI
100
AcDbLine
 62
7
  6
CONTINUOUS
 10
37.3496278329
 20
1.5311133275
 11
37.3460203527
 21
1.3145795644
  0
LWPOLYLINE
  5
5BA
100
AcDbEntity
  8
RACCORDO
100
AcDbPolyline
 62
7
  6
CONTINUOUS
 90
3
 70
0
 10
37.3534779093
 20
1.6794575173
 10
37.3521675954
 20
1.6375860733
 10
37.3496278329
 20
1.5311133275
  0
LWPOLYLINE
  5
5BB
100
AcDbEntity
  8
ASSI
100
AcDbPolyline
 62
7
  6
CONTINUOUS
 90
3
 70
0
 10
37.3534779093
 20
1.6794575173
 10
37.3521675954
 20
1.6375860733
 10
37.3496278329
 20
1.5311133275
  0
LWPOLYLINE
  5
5BC
100
AcDbEntity
  8
RACCORDO
100
AcDbPolyline
 62
7
  6
CONTINUOUS
 90
10
 70
0
 10
37.3534779093
 20
1.6794575173
 10
37.3536932053
 20
1.6853037885
 10
37.3539094448
 20
1.6905180727
 10
37.3541266278
 20
1.69510037
 10
37.3543448948
 20
1.6990528089
 10
37.3545641053
 20
1.7023732608
 10
37.3547838379
 20
1.7050553407
 10
37.3550039521
 20
1.7070969202
 10
37.3552245885
 20
1.7085001276
 10
37.3554457469
 20
1.7092649629
  0
LWPOLYLINE
  5
5BD
100
AcDbEntity
  8
ASSI
100
AcDbPolyline
 62
7
  6
CONTINUOUS
 90
10
 70
0
 10
37.3534779093
 20
1.6794575173
 10
37.3536932053
 20
1.6853037885
 10
37.3539094448
 20
1.6905180727
 10
37.3541266278
 20
1.69510037
 10
37.3543448948
 20
1.6990528089
 10
37.3545641053
 20
1.7023732608
 10
37.3547838379
 20
1.7050553407
 10
37.3550039521
 20
1.7070969202
 10
37.3552245885
 20
1.7085001276
 10
37.3554457469
 20
1.7092649629
  0
LWPOLYLINE
  5
5BE
100
AcDbEntity
  8
RACCORDO
100
AcDbPolyline
 62
7
  6
CONTINUOUS
 90
16
 70
0
 10
37.3597323295
 20
-4.3190937633
 10
37.3561498919
 20
-4.382914051
 10
37.3463614785
 20
-4.4447170383
 10
37.3303670895
 20
-4.5045027251
 10
37.3078577553
 20
-4.5628772935
 10
37.2791424455
 20
-4.6192345614
 10
37.2451480681
 20
-4.6717559831
 10
37.2057025198
 20
-4.7203164499
 10
37.1609779039
 20
-4.7650410704
 10
37.112417438
 20
-4.8044866247
 10
37.0598960116
 20
-4.83848101
 10
37.0035387353
 20
-4.8671963289
 10
36.9451641585
 20
-4.8897056703
 10
36.8853784646
 20
-4.9057000635
 10
36.8235754703
 20
-4.9154884792
 10
36.7597551757
 20
-4.9190709172
  0
LWPOLYLINE
  5
5BF
100
AcDbEntity
  8
ASSI
100
AcDbPolyline
 62
7
  6
CONTINUOUS
 90
16
 70
0
 10
37.3597323295
 20
-4.3190937633
 10
37.3561498919
 20
-4.382914051
 10
37.3463614785
 20
-4.4447170383
 10
37.3303670895
 20
-4.5045027251
 10
37.3078577553
 20
-4.5628772935
 10
37.2791424455
 20
-4.6192345614
 10
37.2451480681
 20
-4.6717559831
 10
37.2057025198
 20
-4.7203164499
 10
37.1609779039
 20
-4.7650410704
 10
37.112417438
 20
-4.8044866247
 10
37.0598960116
 20
-4.83848101
 10
37.0035387353
 20
-4.8671963289
 10
36.9451641585
 20
-4.8897056703
 10
36.8853784646
 20
-4.9057000635
 10
36.8235754703
 20
-4.9154884792
 10
36.7597551757
 20
-4.9190709172
  0
LWPOLYLINE
  5
5C0
100
AcDbEntity
  8
RACCORDO
100
AcDbPolyline
 62
7
  6
CONTINUOUS
 90
10
 70
0
 10
37.3554457469
 20
-4.0735874006
 10
37.3552245885
 20
-4.0728225653
 10
37.3550039521
 20
-4.0714193579
 10
37.3547838379
 20
-4.0693777784
 10
37.3545641053
 20
-4.0666956985
 10
37.3543448948
 20
-4.0633752466
 10
37.3541266278
 20
-4.0594228077
 10
37.3539094448
 20
-4.0548405104
 10
37.3536932053
 20
-4.0496262261
 10
37.3534779093
 20
-4.043779955
  0
LWPOLYLINE
  5
5C1
100
AcDbEntity
  8
ASSI
100
AcDbPolyline
 62
7
  6
CONTINUOUS
 90
10
 70
0
 10
37.3554457469
 20
-4.0735874006
 10
37.3552245885
 20
-4.0728225653
 10
37.3550039521
 20
-4.0714193579
 10
37.3547838379
 20
-4.0693777784
 10
37.3545641053
 20
-4.0666956985
 10
37.3543448948
 20
-4.0633752466
 10
37.3541266278
 20
-4.0594228077
 10
37.3539094448
 20
-4.0548405104
 10
37.3536932053
 20
-4.0496262261
 10
37.3534779093
 20
-4.043779955
  0
LWPOLYLINE
  5
5C2
100
AcDbEntity
  8
RACCORDO
100
AcDbPolyline
 62
7
  6
CONTINUOUS
 90
16
 70
0
 10
37.4252037855
 20
2.0205854392
 10
37.4216191986
 20
2.0844103736
 10
37.4118350028
 20
2.1462072565
 10
37.395851198
 20
2.205976088
 10
37.3733588634
 20
2.2643198761
 10
37.3446669199
 20
2.3206356128
 10
37.3107021296
 20
2.3731142735
 10
37.2712948035
 20
2.4216314478
 10
37.2266146306
 20
2.4663115461
 10
37.178097441
 20
2.5057187755
 10
37.1256188564
 20
2.5396834414
 10
37.0693032551
 20
2.5683752385
 10
37.0109596013
 20
2.5908674573
 10
36.9511908831
 20
2.6068511949
 10
36.8893941124
 20
2.6166353542
 10
36.8255692892
 20
2.6202199354
  0
LWPOLYLINE
  5
5C3
100
AcDbEntity
  8
RACCORDO
100
AcDbPolyline
 62
253
  6
CONTINUOUS
 90
22
 70
0
 10
51.3422805231
 20
0.3801376607
 10
51.348506246
 20
0.3833686658
 10
51.3546898035
 20
0.3868434643
 10
51.3608114423
 20
0.3905620563
 10
51.366848344
 20
0.3945228285
 10
51.3727808479
 20
0.3987273941
 10
51.3785917163
 20
0.4031805927
 10
51.3842567149
 20
0.4078855062
 10
51.389749918
 20
0.4128390527
 10
51.3950486939
 20
0.4180368254
 10
51.4001235312
 20
0.423481013
 10
51.4049469318
 20
0.4291694267
 10
51.4094956591
 20
0.4350910936
 10
51.4137354835
 20
0.4412473356
 10
51.4176357158
 20
0.4476368308
 10
51.4211720463
 20
0.4542446396
 10
51.424302312
 20
0.4610659133
 10
51.4269937395
 20
0.4681055007
 10
51.4292209398
 20
0.4753630093
 10
51.4309368513
 20
0.4828383083
 10
51.4320850491
 20
0.4905315285
 10
51.4326147545
 20
0.4984426698
  0
LINE
  5
5C4
100
AcDbEntity
  8
RACCORDO
100
AcDbLine
 62
253
  6
CONTINUOUS
 10
51.2326455163
 20
0.3253201243
 11
51.3422805231
 21
0.3801376607
  0
LINE
  5
5C5
100
AcDbEntity
  8
RACCORDO
100
AcDbLine
 62
253
  6
CONTINUOUS
 10
51.3422805231
 20
-2.7444600697
 11
51.2326455163
 21
-2.689642562
  0
LINE
  5
5C6
100
AcDbEntity
  8
RACCORDO
100
AcDbLine
 62
7
  6
CONTINUOUS
 10
50.491858626
 20
1.7083236837
 11
50.4761928364
 21
1.716154192
  0
LINE
  5
5C7
100
AcDbEntity
  8
ASSI
100
AcDbLine
 62
7
  6
CONTINUOUS
 10
42.6728226312
 20
-1.6821612188
 11
42.6728226312
 21
-0.6821612188
  0
LINE
  5
5C8
100
AcDbEntity
  8
RACCORDO
100
AcDbLine
 62
7
  6
CONTINUOUS
 10
50.3728226312
 20
1.7178387812
 11
50.364248813
 21
1.7092649629
  0
LINE
  5
5C9
100
AcDbEntity
  8
ASSI
100
AcDbLine
 62
7
  6
CONTINUOUS
 10
50.3728226312
 20
1.7178387812
 11
50.364248813
 21
1.7092649629
  0
LINE
  5
5CA
100
AcDbEntity
  8
RACCORDO
100
AcDbLine
 62
253
  6
CONTINUOUS
 10
51.3728378617
 20
1.7178387812
 11
51.3633226359
 21
1.7083235553
  0
LINE
  5
5CB
100
AcDbEntity
  8
RACCORDO
100
AcDbLine
 62
7
  6
CONTINUOUS
 10
50.491858626
 20
-4.0726461214
 11
50.4761928364
 21
-4.0804766296
  0
LINE
  5
5CC
100
AcDbEntity
  8
RACCORDO
100
AcDbLine
 62
7
  6
CONTINUOUS
 10
50.3728226312
 20
-4.0821612188
 11
50.364248813
 21
-4.0735874006
  0
LINE
  5
5CD
100
AcDbEntity
  8
ASSI
100
AcDbLine
 62
7
  6
CONTINUOUS
 10
50.3728226312
 20
-4.0821612188
 11
50.364248813
 21
-4.0735874006
  0
LINE
  5
5CE
100
AcDbEntity
  8
RACCORDO
100
AcDbLine
 62
253
  6
CONTINUOUS
 10
51.3633226359
 20
-4.072645993
 11
51.3728378617
 21
-4.0821612188
  0
LINE
  5
5CF
100
AcDbEntity
  8
RACCORDO
100
AcDbLine
 62
253
  6
CONTINUOUS
 10
51.4633075338
 20
-3.9726613519
 11
51.4727921679
 21
-3.982145986
  0
LINE
  5
5D0
100
AcDbEntity
  8
ASSI
100
AcDbLine
 62
7
  6
CONTINUOUS
 10
43.7311231556
 20
-1.6821612188
 11
43.7311231556
 21
-0.6821612188
  0
LWPOLYLINE
  5
5D1
100
AcDbEntity
  8
RACCORDO
100
AcDbPolyline
 62
7
  6
CONTINUOUS
 90
13
 70
0
 10
50.3728226312
 20
0.6678387812
 10
50.3716142815
 20
0.666531415
 10
50.3704112074
 20
0.6626675309
 10
50.3692134089
 20
0.656247129
 10
50.3680193208
 20
0.6472541756
 10
50.3668305082
 20
0.6357047043
 10
50.3656516671
 20
0.6216468158
 10
50.3644827466
 20
0.6050698682
 10
50.3633237974
 20
0.5859845035
 10
50.3621796672
 20
0.564470748
 10
50.3610504388
 20
0.5405190145
 10
50.3599360293
 20
0.5141388902
 10
50.3577655405
 20
0.4544105074
  0
LWPOLYLINE
  5
5D2
100
AcDbEntity
  8
ASSI
100
AcDbPolyline
 62
7
  6
CONTINUOUS
 90
13
 70
0
 10
50.3728226312
 20
0.6678387812
 10
50.3716142815
 20
0.666531415
 10
50.3704112074
 20
0.6626675309
 10
50.3692134089
 20
0.656247129
 10
50.3680193208
 20
0.6472541756
 10
50.3668305082
 20
0.6357047043
 10
50.3656516671
 20
0.6216468158
 10
50.3644827466
 20
0.6050698682
 10
50.3633237974
 20
0.5859845035
 10
50.3621796672
 20
0.564470748
 10
50.3610504388
 20
0.5405190145
 10
50.3599360293
 20
0.5141388902
 10
50.3577655405
 20
0.4544105074
  0
LWPOLYLINE
  5
5D3
100
AcDbEntity
  8
RACCORDO
100
AcDbPolyline
 62
253
  6
CONTINUOUS
 90
22
 70
0
 10
51.2874630527
 20
0.4349551311
 10
51.2905928371
 20
0.4383001863
 10
51.2936809665
 20
0.4418981131
 10
51.296727441
 20
0.4457481657
 10
51.2997429223
 20
0.4498466339
 10
51.3027167487
 20
0.4541955736
 10
51.3056169342
 20
0.4588027722
 10
51.3084454735
 20
0.4636703595
 10
51.3112003719
 20
0.4687941176
 10
51.3138436597
 20
0.4741721895
 10
51.3163766974
 20
0.4798054379
 10
51.3187981244
 20
0.4856905359
 10
51.3210658887
 20
0.491819282
 10
51.3231818722
 20
0.4981916881
 10
51.3251441929
 20
0.504804958
 10
51.3269051534
 20
0.5116466779
 10
51.3284679855
 20
0.5187102571
 10
51.3298294574
 20
0.5259992718
 10
51.3309321756
 20
0.5335164981
 10
51.3317570089
 20
0.5412616887
 10
51.3323230886
 20
0.5492316029
 10
51.3326304147
 20
0.5574243969
  0
LINE
  5
5D4
100
AcDbEntity
  8
RACCORDO
100
AcDbLine
 62
253
  6
CONTINUOUS
 10
51.4727921679
 20
1.6178235484
 11
51.4633075338
 21
1.6083389142
  0
LINE
  5
5D5
100
AcDbEntity
  8
RACCORDO
100
AcDbLine
 62
7
  6
CONTINUOUS
 10
51.4722438287
 20
0.717549402
 11
51.4763033214
 21
0.7216088947
  0
LWPOLYLINE
  5
5D6
100
AcDbEntity
  8
RACCORDO
100
AcDbPolyline
 62
253
  6
CONTINUOUS
 90
10
 70
0
 10
51.2874630527
 20
0.4349551253
 10
51.2942393995
 20
0.430000727
 10
51.3009627635
 20
0.4246564505
 10
51.3075805748
 20
0.4189640829
 10
51.3140410887
 20
0.4129681327
 10
51.3202937906
 20
0.4067154823
 10
51.3262897907
 20
0.400255021
 10
51.3319822062
 20
0.3936372634
 10
51.3373265282
 20
0.3869139534
 10
51.3422809695
 20
0.3801376608
  0
LINE
  5
5D7
100
AcDbEntity
  8
RACCORDO
100
AcDbLine
 62
7
  6
CONTINUOUS
 10
51.4763033214
 20
-3.0859313323
 11
51.4722438287
 21
-3.0818718396
  0
LWPOLYLINE
  5
5D8
100
AcDbEntity
  8
RACCORDO
100
AcDbPolyline
 62
253
  6
CONTINUOUS
 90
22
 70
0
 10
51.287463024
 20
-2.7992775688
 10
51.2906669608
 20
-2.8027080131
 10
51.2938198263
 20
-2.8063907833
 10
51.2969216204
 20
-2.8103251164
 10
51.2999840641
 20
-2.8145112985
 10
51.3029954364
 20
-2.8189473461
 10
51.3059205744
 20
-2.8236290189
 10
51.308759161
 20
-2.828556175
 10
51.3115115133
 20
-2.8337269404
 10
51.3141434193
 20
-2.8391344267
 10
51.3166556294
 20
-2.8447781884
 10
51.3190473932
 20
-2.8506563608
 10
51.3212822471
 20
-2.8567599048
 10
51.3233614815
 20
-2.8630837389
 10
51.3252838062
 20
-2.8696303879
 10
51.3270088867
 20
-2.8764021553
 10
51.3285251908
 20
-2.8832541314
 10
51.3298442508
 20
-2.890328867
 10
51.3309603296
 20
-2.8980570111
 10
51.331871515
 20
-2.906577572
 10
51.3325797193
 20
-2.915740946
 10
51.3330849424
 20
-2.9255414608
  0
LWPOLYLINE
  5
5D9
100
AcDbEntity
  8
RACCORDO
100
AcDbPolyline
 62
7
  6
CONTINUOUS
 90
3
 70
0
 10
50.9934557466
 20
-2.7518264177
 10
51.0057623789
 20
-2.7395585244
 10
51.043081889
 20
-2.70213896
  0
LINE
  5
5DA
100
AcDbEntity
  8
RACCORDO
100
AcDbLine
 62
7
  6
CONTINUOUS
 10
51.043081889
 20
-2.70213896
 11
51.0556653437
 21
-2.689642562
  0
LWPOLYLINE
  5
5DB
100
AcDbEntity
  8
RACCORDO
100
AcDbPolyline
 62
7
  6
CONTINUOUS
 90
3
 70
0
 10
50.9460303369
 20
-2.7992775688
 10
50.9576227696
 20
-2.7877921977
 10
50.9934557466
 20
-2.7518264177
  0
LWPOLYLINE
  5
5DC
100
AcDbEntity
  8
RACCORDO
100
AcDbPolyline
 62
7
  6
CONTINUOUS
 90
10
 70
0
 10
50.491858626
 20
1.7083236837
 10
50.4922531394
 20
1.7079984134
 10
50.4926468972
 20
1.7074191017
 10
50.4930398997
 20
1.7065857486
 10
50.4934323483
 20
1.7054976623
 10
50.4938240414
 20
1.7041555346
 10
50.4942143745
 20
1.7025614409
 10
50.4946031458
 20
1.700716073
 10
50.4949905571
 20
1.6986187391
 10
50.4953766083
 20
1.6962694392
  0
LWPOLYLINE
  5
5DD
100
AcDbEntity
  8
RACCORDO
100
AcDbPolyline
 62
7
  6
CONTINUOUS
 90
3
 70
0
 10
50.993481488
 20
0.3875297214
 10
50.957515708
 20
0.4233626984
 10
50.9460303369
 20
0.4349551311
  0
LWPOLYLINE
  5
5DE
100
AcDbEntity
  8
RACCORDO
100
AcDbPolyline
 62
7
  6
CONTINUOUS
 90
3
 70
0
 10
51.0431689457
 20
0.3379035791
 10
51.0057493813
 20
0.3752230891
 10
50.993481488
 20
0.3875297214
  0
LINE
  5
5DF
100
AcDbEntity
  8
RACCORDO
100
AcDbLine
 62
7
  6
CONTINUOUS
 10
51.0556653437
 20
0.3253201243
 11
51.0431689457
 21
0.3379035791
  0
LWPOLYLINE
  5
5E0
100
AcDbEntity
  8
RACCORDO
100
AcDbPolyline
 62
7
  6
CONTINUOUS
 90
10
 70
0
 10
50.364248813
 20
1.7092649629
 10
50.363806461
 20
1.708500122
 10
50.3633651536
 20
1.7070969086
 10
50.3629248908
 20
1.7050553228
 10
50.3624853915
 20
1.7023732338
 10
50.3620469368
 20
1.6990527724
 10
50.3616103698
 20
1.6951003309
 10
50.3611759715
 20
1.6905180399
 10
50.3607434609
 20
1.6853037687
 10
50.360312838
 20
1.6794575173
  0
LWPOLYLINE
  5
5E1
100
AcDbEntity
  8
ASSI
100
AcDbPolyline
 62
7
  6
CONTINUOUS
 90
10
 70
0
 10
50.364248813
 20
1.7092649629
 10
50.363806461
 20
1.708500122
 10
50.3633651536
 20
1.7070969086
 10
50.3629248908
 20
1.7050553228
 10
50.3624853915
 20
1.7023732338
 10
50.3620469368
 20
1.6990527724
 10
50.3616103698
 20
1.6951003309
 10
50.3611759715
 20
1.6905180399
 10
50.3607434609
 20
1.6853037687
 10
50.360312838
 20
1.6794575173
  0
LWPOLYLINE
  5
5E2
100
AcDbEntity
  8
RACCORDO
100
AcDbPolyline
 62
7
  6
CONTINUOUS
 90
10
 70
0
 10
50.6008986949
 20
-3.2251473341
 10
50.5900627936
 20
-3.237237754
 10
50.5802465141
 20
-3.2500222929
 10
50.5714498566
 20
-3.2634869323
 10
50.5635854168
 20
-3.2776593044
 10
50.5567405989
 20
-3.2924801405
 10
50.5511776156
 20
-3.3078063347
 10
50.5469838711
 20
-3.3235811437
 10
50.5440719611
 20
-3.3398310802
 10
50.5424418858
 20
-3.3565395333
  0
LWPOLYLINE
  5
5E3
100
AcDbEntity
  8
RACCORDO
100
AcDbPolyline
 62
7
  6
CONTINUOUS
 90
9
 70
0
 10
50.9460303369
 20
-2.7992775688
 10
50.9421827447
 20
-2.803221937
 10
50.9384142155
 20
-2.8072600571
 10
50.9347247494
 20
-2.8113916008
 10
50.9311145053
 20
-2.8156190243
 10
50.9275833242
 20
-2.8199391804
 10
50.9241307296
 20
-2.8243433505
 10
50.9207565624
 20
-2.8288284157
 10
50.9174609817
 20
-2.8333968228
  0
LINE
  5
5E4
100
AcDbEntity
  8
RACCORDO
100
AcDbLine
 62
253
  6
CONTINUOUS
 10
51.4763033214
 20
-3.9786348325
 11
51.4727921679
 21
-3.982145986
  0
LINE
  5
5E5
100
AcDbEntity
  8
RACCORDO
100
AcDbLine
 62
253
  6
CONTINUOUS
 10
51.4727921679
 20
1.6178235484
 11
51.4763033214
 21
1.6143123949
  0
LWPOLYLINE
  5
5E6
100
AcDbEntity
  8
RACCORDO
100
AcDbPolyline
 62
7
  6
CONTINUOUS
 90
6
 70
0
 10
50.6008986949
 20
0.8608248964
 10
50.6587569217
 20
0.7986434666
 10
50.7143615439
 20
0.7355280012
 10
50.7677125616
 20
0.6714785
 10
50.8188099748
 20
0.6064949632
 10
50.8676537834
 20
0.5405773907
  0
LINE
  5
5E7
100
AcDbEntity
  8
RACCORDO
100
AcDbLine
 62
253
  6
CONTINUOUS
 10
51.4494050417
 20
1.6821063096
 11
51.4529208981
 21
1.6785932965
  0
LWPOLYLINE
  5
5E8
100
AcDbEntity
  8
RACCORDO
100
AcDbPolyline
 62
7
  6
CONTINUOUS
 90
6
 70
0
 10
51.4434965573
 20
1.6885557457
 10
51.4494050417
 20
1.6821063096
 10
51.4594010916
 20
1.6678236374
 10
51.466764848
 20
1.6520235704
 10
51.4712737959
 20
1.6351863594
 10
51.4727921679
 20
1.6178235484
  0
LWPOLYLINE
  5
5E9
100
AcDbEntity
  8
RACCORDO
100
AcDbPolyline
 62
253
  6
CONTINUOUS
 90
6
 70
0
 10
51.3633226618
 20
1.7083235553
 10
51.3630858737
 20
1.707741059
 10
51.362850019
 20
1.7065856398
 10
51.3626150977
 20
1.7048584883
 10
51.3623811098
 20
1.7025614519
 10
51.3621480552
 20
1.699697033
  0
LINE
  5
5EA
100
AcDbEntity
  8
RACCORDO
100
AcDbLine
 62
7
  6
CONTINUOUS
 10
51.476435967
 20
0.7219135273
 11
51.4763033214
 21
0.7216088947
  0
LINE
  5
5EB
100
AcDbEntity
  8
RACCORDO
100
AcDbLine
 62
253
  6
CONTINUOUS
 10
51.2874630527
 20
0.4349551311
 11
51.2326455163
 21
0.3253201243
  0
LWPOLYLINE
  5
5EC
100
AcDbEntity
  8
RACCORDO
100
AcDbPolyline
 62
253
  6
CONTINUOUS
 90
7
 70
0
 10
51.4633075338
 20
1.6083389142
 10
51.4630697236
 20
1.6078641024
 10
51.4628332532
 20
1.6069363223
 10
51.4625981226
 20
1.6055555739
 10
51.4623643318
 20
1.6037218571
 10
51.4621318808
 20
1.601435172
 10
51.4619007696
 20
1.5986955186
  0
LWPOLYLINE
  5
5ED
100
AcDbEntity
  8
RACCORDO
100
AcDbPolyline
 62
7
  6
CONTINUOUS
 90
7
 70
0
 10
50.9174609817
 20
-2.8333968228
 10
50.8676538757
 20
-2.9048997142
 10
50.8188101224
 20
-2.9708172181
 10
50.7677127277
 20
-3.0358007321
 10
50.7143616916
 20
-3.0998502561
 10
50.658757014
 20
-3.1629657901
 10
50.6008986949
 20
-3.2251473341
  0
LWPOLYLINE
  5
5EE
100
AcDbEntity
  8
RACCORDO
100
AcDbPolyline
 62
253
  6
CONTINUOUS
 90
10
 70
0
 10
51.3422807377
 20
-2.7444600697
 10
51.3373263438
 20
-2.7512363922
 10
51.3319820623
 20
-2.757959727
 10
51.3262896804
 20
-2.7645775038
 10
51.3202937075
 20
-2.7710379774
 10
51.3140410266
 20
-2.7772906331
 10
51.307580528
 20
-2.7832865807
 10
51.300962727
 20
-2.7889789374
 10
51.2942393687
 20
-2.7943231943
 10
51.287463024
 20
-2.7992775642
  0
LWPOLYLINE
  5
5EF
100
AcDbEntity
  8
RACCORDO
100
AcDbPolyline
 62
7
  6
CONTINUOUS
 90
4
 70
0
 10
51.4468962393
 20
-4.0494645806
 10
51.457340267
 20
-4.0372420479
 10
51.4655588168
 20
-4.0237944455
 10
51.4718908569
 20
-4.0082211111
  0
LINE
  5
5F0
100
AcDbEntity
  8
RACCORDO
100
AcDbLine
 62
253
  6
CONTINUOUS
 10
51.4494006205
 20
-4.0464338533
 11
51.4529222057
 21
-4.0429141756
  0
LWPOLYLINE
  5
5F1
100
AcDbEntity
  8
RACCORDO
100
AcDbPolyline
 62
7
  6
CONTINUOUS
 90
6
 70
0
 10
51.4434964821
 20
-4.0528781833
 10
51.4494006205
 20
-4.0464338533
 10
51.4593961334
 20
-4.0321546664
 10
51.466761834
 20
-4.0163553298
 10
51.4712731294
 20
-3.9995153098
 10
51.4727921679
 20
-3.982145986
  0
LINE
  5
5F2
100
AcDbEntity
  8
RACCORDO
100
AcDbLine
 62
253
  6
CONTINUOUS
 10
51.4594010916
 20
1.6678236374
 11
51.4629171817
 21
1.6643150876
  0
LWPOLYLINE
  5
5F3
100
AcDbEntity
  8
RACCORDO
100
AcDbPolyline
 62
7
  6
CONTINUOUS
 90
10
 70
0
 10
50.8676537834
 20
0.5405773907
 10
50.9174609817
 20
0.4690743851
 10
50.9207565624
 20
0.464505978
 10
50.9241307296
 20
0.4600209129
 10
50.9275833242
 20
0.4556167427
 10
50.9311145053
 20
0.4512965866
 10
50.9347247494
 20
0.4470691631
 10
50.9384142155
 20
0.4429376194
 10
50.9421827447
 20
0.4388994993
 10
50.9460303369
 20
0.4349551311
  0
LINE
  5
5F4
100
AcDbEntity
  8
RACCORDO
100
AcDbLine
 62
253
  6
CONTINUOUS
 10
51.2326455163
 20
-2.689642562
 11
51.287463024
 21
-2.7992775688
  0
LWPOLYLINE
  5
5F5
100
AcDbEntity
  8
RACCORDO
100
AcDbPolyline
 62
7
  6
CONTINUOUS
 90
10
 70
0
 10
51.4722438287
 20
-3.0818718396
 10
51.4708412968
 20
-3.0787511771
 10
51.4694473321
 20
-3.072288481
 10
51.4680619347
 20
-3.0624837512
 10
51.4666826985
 20
-3.0493074967
 10
51.4653120296
 20
-3.0327892086
 10
51.4639571457
 20
-3.0130173601
 10
51.4626181025
 20
-2.9899744589
 10
51.4612948444
 20
-2.9636779974
 10
51.4599944222
 20
-2.9342689258
  0
LINE
  5
5F6
100
AcDbEntity
  8
RACCORDO
100
AcDbLine
 62
7
  6
CONTINUOUS
 10
51.4763033214
 20
-3.0859313323
 11
51.476435967
 21
-3.0862359649
  0
LWPOLYLINE
  5
5F7
100
AcDbEntity
  8
RACCORDO
100
AcDbPolyline
 62
7
  6
CONTINUOUS
 90
10
 70
0
 10
50.5424418858
 20
0.9922170956
 10
50.5440713236
 20
0.9755112727
 10
50.5469825799
 20
0.9592633849
 10
50.5511756548
 20
0.9434900248
 10
50.5567377185
 20
0.9281647125
 10
50.5635816007
 20
0.913344127
 10
50.5714457906
 20
0.899171209
 10
50.5802431177
 20
0.8857051613
 10
50.5900607525
 20
0.8729183881
 10
50.6008986949
 20
0.8608248964
  0
LWPOLYLINE
  5
5F8
100
AcDbEntity
  8
RACCORDO
100
AcDbPolyline
 62
253
  6
CONTINUOUS
 90
10
 70
0
 10
51.4619007696
 20
1.5986955186
 10
51.4603227902
 20
1.6155982719
 10
51.4557692959
 20
1.6319899
 10
51.4483779738
 20
1.6473747721
 10
51.4383723185
 20
1.6612876986
 10
51.4260548721
 20
1.6733079999
 10
51.4117980753
 20
1.6830722245
 10
51.3960330082
 20
1.6902851357
 10
51.3792363575
 20
1.69472864
 10
51.3619160001
 20
1.6962683825
  0
LWPOLYLINE
  5
5F9
100
AcDbEntity
  8
RACCORDO
100
AcDbPolyline
 62
253
  6
CONTINUOUS
 90
10
 70
0
 10
51.4633075338
 20
1.6083389142
 10
51.4617838264
 20
1.6256978364
 10
51.4572695663
 20
1.6425294947
 10
51.4499018758
 20
1.658322665
 10
51.4399045448
 20
1.6725976665
 10
51.4275812287
 20
1.6849209363
 10
51.4133062222
 20
1.6949181949
 10
51.3975130976
 20
1.7022858063
 10
51.3806815384
 20
1.7068000025
 10
51.3633227642
 20
1.7083236837
  0
LINE
  5
5FA
100
AcDbEntity
  8
RACCORDO
100
AcDbLine
 62
253
  6
CONTINUOUS
 10
51.4747889004
 20
1.631678636
 11
51.4763033214
 21
1.6143123949
  0
LWPOLYLINE
  5
5FB
100
AcDbEntity
  8
RACCORDO
100
AcDbPolyline
 62
253
  6
CONTINUOUS
 90
7
 70
0
 10
51.4619007696
 20
-3.9630179562
 10
51.4621318808
 20
-3.9657576097
 10
51.4623643318
 20
-3.9680442948
 10
51.4625981226
 20
-3.9698780116
 10
51.4628332532
 20
-3.97125876
 10
51.4630697236
 20
-3.9721865401
 10
51.4633075338
 20
-3.9726613519
  0
LWPOLYLINE
  5
5FC
100
AcDbEntity
  8
RACCORDO
100
AcDbPolyline
 62
253
  6
CONTINUOUS
 90
6
 70
0
 10
51.3621480246
 20
-4.0640190587
 10
51.3623810975
 20
-4.0668837544
 10
51.3626150977
 20
-4.069180926
 10
51.3628500251
 20
-4.0709081152
 10
51.3630858798
 20
-4.0720635195
 10
51.3633226618
 20
-4.0726459929
  0
LWPOLYLINE
  5
5FD
100
AcDbEntity
  8
RACCORDO
100
AcDbPolyline
 62
7
  6
CONTINUOUS
 90
10
 70
0
 10
50.360312838
 20
-4.043779955
 10
50.3607434609
 20
-4.0496262064
 10
50.3611759715
 20
-4.0548404775
 10
50.3616103698
 20
-4.0594227685
 10
50.3620469368
 20
-4.0633752101
 10
50.3624853915
 20
-4.0666956715
 10
50.3629248908
 20
-4.0693777605
 10
50.3633651536
 20
-4.0714193463
 10
50.363806461
 20
-4.0728225597
 10
50.364248813
 20
-4.0735874006
  0
LWPOLYLINE
  5
5FE
100
AcDbEntity
  8
ASSI
100
AcDbPolyline
 62
7
  6
CONTINUOUS
 90
10
 70
0
 10
50.360312838
 20
-4.043779955
 10
50.3607434609
 20
-4.0496262064
 10
50.3611759715
 20
-4.0548404775
 10
50.3616103698
 20
-4.0594227685
 10
50.3620469368
 20
-4.0633752101
 10
50.3624853915
 20
-4.0666956715
 10
50.3629248908
 20
-4.0693777605
 10
50.3633651536
 20
-4.0714193463
 10
50.363806461
 20
-4.0728225597
 10
50.364248813
 20
-4.0735874006
  0
LWPOLYLINE
  5
5FF
100
AcDbEntity
  8
RACCORDO
100
AcDbPolyline
 62
7
  6
CONTINUOUS
 90
4
 70
0
 10
51.4764448459
 20
1.6140406061
 10
51.4754449104
 20
1.628164903
 10
51.4712096022
 20
1.6460172044
 10
51.4641819209
 20
1.6620956218
  0
LWPOLYLINE
  5
600
100
AcDbEntity
  8
RACCORDO
100
AcDbPolyline
 62
253
  6
CONTINUOUS
 90
22
 70
0
 10
51.4326150553
 20
-2.8627768475
 10
51.4320927078
 20
-2.8549282913
 10
51.4309618473
 20
-2.847298223
 10
51.4292734444
 20
-2.8398866425
 10
51.427084268
 20
-2.8326943362
 10
51.4244412582
 20
-2.8257205178
 10
51.4213687321
 20
-2.818962828
 10
51.4179013312
 20
-2.8124202756
 10
51.4140788266
 20
-2.806093852
 10
51.4099146729
 20
-2.7999841719
 10
51.4054333356
 20
-2.7940876796
 10
51.4006684539
 20
-2.7884079308
 10
51.3956377279
 20
-2.7829562086
 10
51.3903648163
 20
-2.7777333877
 10
51.3848771567
 20
-2.7727385934
 10
51.3791942641
 20
-2.7679804837
 10
51.3733362387
 20
-2.7634604431
 10
51.3673286139
 20
-2.7591770872
 10
51.3611977166
 20
-2.7551349214
 10
51.3549665673
 20
-2.7513354474
 10
51.3486542904
 20
-2.7477771635
 10
51.3422805231
 20
-2.7444600697
  0
LWPOLYLINE
  5
601
100
AcDbEntity
  8
RACCORDO
100
AcDbPolyline
 62
7
  6
CONTINUOUS
 90
11
 70
0
 10
50.3610504708
 20
-2.9048421727
 10
50.3621796959
 20
-2.9287937599
 10
50.363323822
 20
-2.9503073792
 10
50.3644827663
 20
-2.9693926125
 10
50.3656516822
 20
-2.9859694508
 10
50.3668305189
 20
-3.0000272597
 10
50.3680193272
 20
-3.0115766736
 10
50.369213412
 20
-3.020569587
 10
50.3704112085
 20
-3.0269899648
 10
50.3716142816
 20
-3.0308538421
 10
50.3728226312
 20
-3.0321612188
  0
LWPOLYLINE
  5
602
100
AcDbEntity
  8
ASSI
100
AcDbPolyline
 62
7
  6
CONTINUOUS
 90
11
 70
0
 10
50.3610504708
 20
-2.9048421727
 10
50.3621796959
 20
-2.9287937599
 10
50.363323822
 20
-2.9503073792
 10
50.3644827663
 20
-2.9693926125
 10
50.3656516822
 20
-2.9859694508
 10
50.3668305189
 20
-3.0000272597
 10
50.3680193272
 20
-3.0115766736
 10
50.369213412
 20
-3.020569587
 10
50.3704112085
 20
-3.0269899648
 10
50.3716142816
 20
-3.0308538421
 10
50.3728226312
 20
-3.0321612188
  0
LWPOLYLINE
  5
603
100
AcDbEntity
  8
RACCORDO
100
AcDbPolyline
 62
253
  6
CONTINUOUS
 90
5
 70
0
 10
51.4526533559
 20
-3.7883405476
 10
51.4548646469
 20
-3.8406568053
 10
51.4571441669
 20
-3.8871734376
 10
51.4594895411
 20
-3.9279604879
 10
51.4619007696
 20
-3.9630179562
  0
LWPOLYLINE
  5
604
100
AcDbEntity
  8
RACCORDO
100
AcDbPolyline
 62
253
  6
CONTINUOUS
 90
5
 70
0
 10
51.35268279
 20
-3.8799672736
 10
51.3548948266
 20
-3.9342853813
 10
51.3571716792
 20
-3.9827698106
 10
51.3595120232
 20
-4.0249701093
 10
51.3621480246
 20
-4.0640190587
  0
LWPOLYLINE
  5
605
100
AcDbEntity
  8
RACCORDO
100
AcDbPolyline
 62
7
  6
CONTINUOUS
 90
5
 70
0
 10
50.3501451039
 20
-3.8306023847
 10
50.3526120049
 20
-3.8954334707
 10
50.3551250353
 20
-3.9524591733
 10
50.3576919797
 20
-4.0019080015
 10
50.360312838
 20
-4.043779955
  0
LWPOLYLINE
  5
606
100
AcDbEntity
  8
ASSI
100
AcDbPolyline
 62
7
  6
CONTINUOUS
 90
5
 70
0
 10
50.3501451039
 20
-3.8306023847
 10
50.3526120049
 20
-3.8954334707
 10
50.3551250353
 20
-3.9524591733
 10
50.3576919797
 20
-4.0019080015
 10
50.360312838
 20
-4.043779955
  0
LINE
  5
607
100
AcDbEntity
  8
RACCORDO
100
AcDbLine
 62
7
  6
CONTINUOUS
 10
50.3588410736
 20
-2.8497625955
 11
50.3610504708
 21
-2.9048421727
  0
LINE
  5
608
100
AcDbEntity
  8
ASSI
100
AcDbLine
 62
7
  6
CONTINUOUS
 10
50.3588410736
 20
-2.8497625955
 11
50.3610504708
 21
-2.9048421727
  0
LINE
  5
609
100
AcDbEntity
  8
RACCORDO
100
AcDbLine
 62
7
  6
CONTINUOUS
 10
51.4599944222
 20
-2.9342689258
 11
51.4574623446
 21
-2.8660800921
  0
LINE
  5
60A
100
AcDbEntity
  8
RACCORDO
100
AcDbLine
 62
253
  6
CONTINUOUS
 10
51.4484212129
 20
-3.6667294161
 11
51.4526533559
 21
-3.7883405476
  0
LINE
  5
60B
100
AcDbEntity
  8
RACCORDO
100
AcDbLine
 62
253
  6
CONTINUOUS
 10
51.348445217
 20
-3.7542020537
 11
51.35268279
 21
-3.8799672736
  0
LINE
  5
60C
100
AcDbEntity
  8
RACCORDO
100
AcDbLine
 62
7
  6
CONTINUOUS
 10
50.3567094962
 20
-2.7853858421
 11
50.3588410736
 21
-2.8497625955
  0
LINE
  5
60D
100
AcDbEntity
  8
ASSI
100
AcDbLine
 62
7
  6
CONTINUOUS
 10
50.3567094962
 20
-2.7853858421
 11
50.3588410736
 21
-2.8497625955
  0
LINE
  5
60E
100
AcDbEntity
  8
ASSI
100
AcDbLine
 62
7
  6
CONTINUOUS
 10
50.5189817007
 20
0.1825731768
 11
50.5247677322
 21
-0.0000784035
  0
LINE
  5
60F
100
AcDbEntity
  8
RACCORDO
100
AcDbLine
 62
7
  6
CONTINUOUS
 10
50.3453963977
 20
-3.6788951154
 11
50.3501451039
 21
-3.8306023847
  0
LINE
  5
610
100
AcDbEntity
  8
ASSI
100
AcDbLine
 62
7
  6
CONTINUOUS
 10
50.3453963977
 20
-3.6788951154
 11
50.3501451039
 21
-3.8306023847
  0
LINE
  5
611
100
AcDbEntity
  8
RACCORDO
100
AcDbLine
 62
7
  6
CONTINUOUS
 10
51.4574623446
 20
-2.8660800921
 11
51.455041755
 21
-2.7859961469
  0
LINE
  5
612
100
AcDbEntity
  8
RACCORDO
100
AcDbLine
 62
7
  6
CONTINUOUS
 10
50.3546687787
 20
-2.7121319361
 11
50.3567094962
 21
-2.7853858421
  0
LINE
  5
613
100
AcDbEntity
  8
ASSI
100
AcDbLine
 62
7
  6
CONTINUOUS
 10
50.3546687787
 20
-2.7121319361
 11
50.3567094962
 21
-2.7853858421
  0
LINE
  5
614
100
AcDbEntity
  8
RACCORDO
100
AcDbLine
 62
253
  6
CONTINUOUS
 10
51.4444133936
 20
-3.5229293592
 11
51.4484212129
 21
-3.6667294161
  0
LINE
  5
615
100
AcDbEntity
  8
RACCORDO
100
AcDbLine
 62
253
  6
CONTINUOUS
 10
51.3444384076
 20
-3.6055320884
 11
51.348445217
 21
-3.7542020537
  0
LINE
  5
616
100
AcDbEntity
  8
RACCORDO
100
AcDbLine
 62
7
  6
CONTINUOUS
 10
50.3409603589
 20
-3.4995332589
 11
50.3453963977
 21
-3.6788951154
  0
LINE
  5
617
100
AcDbEntity
  8
ASSI
100
AcDbLine
 62
7
  6
CONTINUOUS
 10
50.3409603589
 20
-3.4995332589
 11
50.3453963977
 21
-3.6788951154
  0
LINE
  5
618
100
AcDbEntity
  8
ASSI
100
AcDbLine
 62
7
  6
CONTINUOUS
 10
50.5247677322
 20
-0.0000784035
 11
50.5296935987
 21
-0.2035115869
  0
LINE
  5
619
100
AcDbEntity
  8
RACCORDO
100
AcDbLine
 62
7
  6
CONTINUOUS
 10
51.455041755
 20
-2.7859961469
 11
51.4516510882
 21
-2.6446245018
  0
LINE
  5
61A
100
AcDbEntity
  8
RACCORDO
100
AcDbLine
 62
7
  6
CONTINUOUS
 10
50.3517998367
 20
-2.5864102379
 11
50.3546687787
 21
-2.7121319361
  0
LINE
  5
61B
100
AcDbEntity
  8
ASSI
100
AcDbLine
 62
7
  6
CONTINUOUS
 10
50.3517998367
 20
-2.5864102379
 11
50.3546687787
 21
-2.7121319361
  0
LINE
  5
61C
100
AcDbEntity
  8
RACCORDO
100
AcDbLine
 62
253
  6
CONTINUOUS
 10
51.4388920573
 20
-3.2679226199
 11
51.4444133936
 21
-3.5229293592
  0
LINE
  5
61D
100
AcDbEntity
  8
RACCORDO
100
AcDbLine
 62
253
  6
CONTINUOUS
 10
51.33887774
 20
-3.3411900047
 11
51.3444384076
 21
-3.6055320884
  0
LINE
  5
61E
100
AcDbEntity
  8
RACCORDO
100
AcDbLine
 62
7
  6
CONTINUOUS
 10
50.3350055462
 20
-3.1842674822
 11
50.3409603589
 21
-3.4995332589
  0
LINE
  5
61F
100
AcDbEntity
  8
ASSI
100
AcDbLine
 62
7
  6
CONTINUOUS
 10
50.3350055462
 20
-3.1842674822
 11
50.3409603589
 21
-3.4995332589
  0
LINE
  5
620
100
AcDbEntity
  8
RACCORDO
100
AcDbLine
 62
7
  6
CONTINUOUS
 10
50.5296935987
 20
-0.2035115869
 11
50.5306662675
 21
-0.2569198966
  0
LINE
  5
621
100
AcDbEntity
  8
RACCORDO
100
AcDbLine
 62
7
  6
CONTINUOUS
 10
51.4516510882
 20
-2.6446245018
 11
51.4485989353
 21
-2.4798670021
  0
LINE
  5
622
100
AcDbEntity
  8
RACCORDO
100
AcDbLine
 62
7
  6
CONTINUOUS
 10
50.3517998367
 20
-2.5864102379
 11
50.348985031
 21
-2.4272665102
  0
LINE
  5
623
100
AcDbEntity
  8
ASSI
100
AcDbLine
 62
7
  6
CONTINUOUS
 10
50.3517998367
 20
-2.5864102379
 11
50.348985031
 21
-2.4272665102
  0
LWPOLYLINE
  5
624
100
AcDbEntity
  8
RACCORDO
100
AcDbPolyline
 62
253
  6
CONTINUOUS
 90
3
 70
0
 10
51.4326150553
 20
-2.8627783399
 10
51.4340626763
 20
-2.9707742363
 10
51.4388920573
 20
-3.2679226199
  0
LINE
  5
625
100
AcDbEntity
  8
RACCORDO
100
AcDbLine
 62
7
  6
CONTINUOUS
 10
51.4485989353
 20
-2.4798670021
 11
51.4451427139
 21
-2.2287089357
  0
LINE
  5
626
100
AcDbEntity
  8
RACCORDO
100
AcDbLine
 62
7
  6
CONTINUOUS
 10
50.5306662675
 20
-0.2569198966
 11
50.5314043164
 21
-0.3129739755
  0
LINE
  5
627
100
AcDbEntity
  8
RACCORDO
100
AcDbLine
 62
7
  6
CONTINUOUS
 10
50.3316558686
 20
-2.9409965178
 11
50.3350055462
 21
-3.1842674822
  0
LINE
  5
628
100
AcDbEntity
  8
ASSI
100
AcDbLine
 62
7
  6
CONTINUOUS
 10
50.3316558686
 20
-2.9409965178
 11
50.3350055462
 21
-3.1842674822
  0
LWPOLYLINE
  5
629
100
AcDbEntity
  8
RACCORDO
100
AcDbPolyline
 62
253
  6
CONTINUOUS
 90
3
 70
0
 10
51.3330849424
 20
-2.9255414608
 10
51.3343302956
 20
-3.0351771314
 10
51.33887774
 20
-3.3411900047
  0
LINE
  5
62A
100
AcDbEntity
  8
RACCORDO
100
AcDbLine
 62
7
  6
CONTINUOUS
 10
50.348985031
 20
-2.4272665102
 11
50.3465399922
 21
-2.207887755
  0
LINE
  5
62B
100
AcDbEntity
  8
ASSI
100
AcDbLine
 62
7
  6
CONTINUOUS
 10
50.348985031
 20
-2.4272665102
 11
50.3465399922
 21
-2.207887755
  0
LINE
  5
62C
100
AcDbEntity
  8
RACCORDO
100
AcDbLine
 62
7
  6
CONTINUOUS
 10
50.5314043164
 20
-0.3129739755
 11
50.5319047314
 21
-0.3713612688
  0
LINE
  5
62D
100
AcDbEntity
  8
RACCORDO
100
AcDbLine
 62
7
  6
CONTINUOUS
 10
51.4451427139
 20
-2.2287089357
 11
51.4437107289
 21
-2.0797499919
  0
LINE
  5
62E
100
AcDbEntity
  8
RACCORDO
100
AcDbLine
 62
7
  6
CONTINUOUS
 10
50.3300067795
 20
-2.7312081316
 11
50.3316558686
 21
-2.9409965178
  0
LINE
  5
62F
100
AcDbEntity
  8
ASSI
100
AcDbLine
 62
7
  6
CONTINUOUS
 10
50.3300067795
 20
-2.7312081316
 11
50.3316558686
 21
-2.9409965178
  0
LINE
  5
630
100
AcDbEntity
  8
RACCORDO
100
AcDbLine
 62
7
  6
CONTINUOUS
 10
50.3465399922
 20
-2.207887755
 11
50.3451645487
 21
-1.9591252635
  0
LINE
  5
631
100
AcDbEntity
  8
ASSI
100
AcDbLine
 62
7
  6
CONTINUOUS
 10
50.3465399922
 20
-2.207887755
 11
50.3451645487
 21
-1.9591252635
  0
LINE
  5
632
100
AcDbEntity
  8
RACCORDO
100
AcDbLine
 62
7
  6
CONTINUOUS
 10
51.4437107289
 20
-2.0797499919
 11
51.4432124521
 21
-1.9633905098
  0
LINE
  5
633
100
AcDbEntity
  8
RACCORDO
100
AcDbLine
 62
7
  6
CONTINUOUS
 10
50.5319047314
 20
-0.3713612688
 11
50.5321879394
 21
-0.4610509637
  0
LINE
  5
634
100
AcDbEntity
  8
RACCORDO
100
AcDbLine
 62
7
  6
CONTINUOUS
 10
50.3291849689
 20
-2.4281547983
 11
50.3300067795
 21
-2.7312081316
  0
LINE
  5
635
100
AcDbEntity
  8
ASSI
100
AcDbLine
 62
7
  6
CONTINUOUS
 10
50.3291849689
 20
-2.4281547983
 11
50.3300067795
 21
-2.7312081316
  0
LINE
  5
636
100
AcDbEntity
  8
DRAFT
100
AcDbLine
 62
7
  6
CONTINUOUS
 10
50.3728226312
 20
-4.0821612188
 11
50.3728226312
 21
-3.0321612188
  0
LINE
  5
637
100
AcDbEntity
  8
ASSI
100
AcDbLine
 62
7
  6
CONTINUOUS
 10
50.3728226312
 20
-4.0821612188
 11
50.3728226312
 21
-3.0321612188
  0
LINE
  5
638
100
AcDbEntity
  8
DRAFT
100
AcDbLine
 62
7
  6
CONTINUOUS
 10
50.3728226312
 20
0.6678387812
 11
50.3728226312
 21
1.7178387812
  0
LINE
  5
639
100
AcDbEntity
  8
ASSI
100
AcDbLine
 62
7
  6
CONTINUOUS
 10
50.3728226312
 20
0.6678387812
 11
50.3728226312
 21
1.7178387812
  0
LINE
  5
63A
100
AcDbEntity
  8
ASSI
100
AcDbLine
 62
253
  6
CONTINUOUS
 10
50.3762537537
 20
-4.0821612188
 11
50.3762537537
 21
-3.0321612188
  0
LINE
  5
63B
100
AcDbEntity
  8
ASSI
100
AcDbLine
 62
253
  6
CONTINUOUS
 10
50.3762537537
 20
0.6678387812
 11
50.3762537537
 21
1.7178387812
  0
LINE
  5
63C
100
AcDbEntity
  8
ASSI
100
AcDbLine
 62
253
  6
CONTINUOUS
 10
50.4761928364
 20
1.716154192
 11
50.4761928364
 21
0.7153860955
  0
LINE
  5
63D
100
AcDbEntity
  8
ASSI
100
AcDbLine
 62
7
  6
CONTINUOUS
 10
50.4761928364
 20
0.7153860955
 11
50.4761928364
 21
0.6558666014
  0
LINE
  5
63E
100
AcDbEntity
  8
ASSI
100
AcDbLine
 62
7
  6
CONTINUOUS
 10
50.4761928364
 20
-3.0201890386
 11
50.4761928364
 21
-3.0797085332
  0
LINE
  5
63F
100
AcDbEntity
  8
ASSI
100
AcDbLine
 62
253
  6
CONTINUOUS
 10
50.4761928364
 20
-3.0797085332
 11
50.4761928364
 21
-4.0804766296
  0
LINE
  5
640
100
AcDbEntity
  8
RACCORDO
100
AcDbLine
 62
253
  6
CONTINUOUS
 10
50.5424418858
 20
0.9922170956
 11
50.5424418858
 21
-3.3565395333
  0
LINE
  5
641
100
AcDbEntity
  8
RACCORDO
100
AcDbLine
 62
253
  6
CONTINUOUS
 10
50.6008986949
 20
0.8608248964
 11
50.6008986949
 21
-3.2251473341
  0
LINE
  5
642
100
AcDbEntity
  8
RACCORDO
100
AcDbLine
 62
253
  6
CONTINUOUS
 10
50.9142439875
 20
0.4737257825
 11
50.9142439875
 21
-2.8380482202
  0
LINE
  5
643
100
AcDbEntity
  8
RACCORDO
100
AcDbLine
 62
253
  6
CONTINUOUS
 10
51.0556653437
 20
0.3253201243
 11
51.0556653437
 21
-2.689642562
  0
LINE
  5
644
100
AcDbEntity
  8
RACCORDO
100
AcDbLine
 62
253
  6
CONTINUOUS
 10
51.2326455163
 20
-2.689642562
 11
51.2326455163
 21
0.3253201243
  0
LINE
  5
645
100
AcDbEntity
  8
RACCORDO
100
AcDbLine
 62
253
  6
CONTINUOUS
 10
51.4326150553
 20
-2.8627783399
 11
51.4326150553
 21
0.4984516912
  0
LINE
  5
646
100
AcDbEntity
  8
RACCORDO
100
AcDbLine
 62
7
  6
CONTINUOUS
 10
51.4764556263
 20
-3.9783608615
 11
51.4764556263
 21
-3.0862359652
  0
LINE
  5
647
100
AcDbEntity
  8
RACCORDO
100
AcDbLine
 62
7
  6
CONTINUOUS
 10
51.4764556263
 20
0.7219135275
 11
51.4764556263
 21
1.6140382983
  0
LINE
  5
648
100
AcDbEntity
  8
RACCORDO
100
AcDbLine
 62
7
  6
CONTINUOUS
 10
51.4432124521
 20
-1.9633905098
 11
51.4431652609
 21
-0.4308298379
  0
LINE
  5
649
100
AcDbEntity
  8
RACCORDO
100
AcDbLine
 62
7
  6
CONTINUOUS
 10
50.3451645487
 20
-1.9591252635
 11
50.3449654352
 21
-0.4916534033
  0
LINE
  5
64A
100
AcDbEntity
  8
ASSI
100
AcDbLine
 62
7
  6
CONTINUOUS
 10
50.3451645487
 20
-1.9591252635
 11
50.3449654352
 21
-0.4916534033
  0
LINE
  5
64B
100
AcDbEntity
  8
RACCORDO
100
AcDbLine
 62
7
  6
CONTINUOUS
 10
50.5321879394
 20
-0.4610509637
 11
50.5320610542
 21
-1.9633874452
  0
LINE
  5
64C
100
AcDbEntity
  8
RACCORDO
100
AcDbLine
 62
7
  6
CONTINUOUS
 10
50.3296488029
 20
0.2928300354
 11
50.3291849689
 21
-2.4281547983
  0
LINE
  5
64D
100
AcDbEntity
  8
ASSI
100
AcDbLine
 62
7
  6
CONTINUOUS
 10
50.3296488029
 20
0.2928300354
 11
50.3291849689
 21
-2.4281547983
  0
LINE
  5
64E
100
AcDbEntity
  8
RACCORDO
100
AcDbLine
 62
7
  6
CONTINUOUS
 10
51.4431652609
 20
-0.4308298379
 11
51.4435407413
 21
-0.3129689751
  0
LINE
  5
64F
100
AcDbEntity
  8
RACCORDO
100
AcDbLine
 62
7
  6
CONTINUOUS
 10
50.3449654352
 20
-0.4916534033
 11
50.3459518272
 21
-0.2375878139
  0
LINE
  5
650
100
AcDbEntity
  8
ASSI
100
AcDbLine
 62
7
  6
CONTINUOUS
 10
50.3449654352
 20
-0.4916534033
 11
50.3459518272
 21
-0.2375878139
  0
LINE
  5
651
100
AcDbEntity
  8
RACCORDO
100
AcDbLine
 62
7
  6
CONTINUOUS
 10
50.5320610542
 20
-1.9633874452
 11
50.531685484
 21
-2.0223162362
  0
LINE
  5
652
100
AcDbEntity
  8
RACCORDO
100
AcDbLine
 62
7
  6
CONTINUOUS
 10
50.3310156873
 20
0.5096612378
 11
50.3296488029
 21
0.2928300354
  0
LINE
  5
653
100
AcDbEntity
  8
ASSI
100
AcDbLine
 62
7
  6
CONTINUOUS
 10
50.3310156873
 20
0.5096612378
 11
50.3296488029
 21
0.2928300354
  0
LINE
  5
654
100
AcDbEntity
  8
RACCORDO
100
AcDbLine
 62
7
  6
CONTINUOUS
 10
51.4435407413
 20
-0.3129689751
 11
51.4443958112
 21
-0.2035115869
  0
LINE
  5
655
100
AcDbEntity
  8
RACCORDO
100
AcDbLine
 62
7
  6
CONTINUOUS
 10
50.3459518272
 20
-0.2375878139
 11
50.3480565941
 21
-0.0061687395
  0
LINE
  5
656
100
AcDbEntity
  8
ASSI
100
AcDbLine
 62
7
  6
CONTINUOUS
 10
50.3459518272
 20
-0.2375878139
 11
50.3480565941
 21
-0.0061687395
  0
LINE
  5
657
100
AcDbEntity
  8
RACCORDO
100
AcDbLine
 62
7
  6
CONTINUOUS
 10
50.531685484
 20
-2.0223162362
 11
50.5310642427
 21
-2.0797452921
  0
LINE
  5
658
100
AcDbEntity
  8
RACCORDO
100
AcDbLine
 62
7
  6
CONTINUOUS
 10
50.3332130608
 20
0.702803427
 11
50.3310156873
 21
0.5096612378
  0
LINE
  5
659
100
AcDbEntity
  8
ASSI
100
AcDbLine
 62
7
  6
CONTINUOUS
 10
50.3332130608
 20
0.702803427
 11
50.3310156873
 21
0.5096612378
  0
LINE
  5
65A
100
AcDbEntity
  8
RACCORDO
100
AcDbLine
 62
7
  6
CONTINUOUS
 10
51.4443958112
 20
-0.2035115869
 11
51.4476644029
 21
0.0558081658
  0
LINE
  5
65B
100
AcDbEntity
  8
RACCORDO
100
AcDbLine
 62
7
  6
CONTINUOUS
 10
50.3480565941
 20
-0.0061687395
 11
50.35002837
 21
0.128247603
  0
LINE
  5
65C
100
AcDbEntity
  8
ASSI
100
AcDbLine
 62
7
  6
CONTINUOUS
 10
50.3480565941
 20
-0.0061687395
 11
50.35002837
 21
0.128247603
  0
LWPOLYLINE
  5
65D
100
AcDbEntity
  8
RACCORDO
100
AcDbPolyline
 62
7
  6
CONTINUOUS
 90
3
 70
0
 10
50.5310642427
 20
-2.0797452921
 10
50.5302093862
 20
-2.134424394
 10
50.5296935987
 20
-2.1608108508
  0
LINE
  5
65E
100
AcDbEntity
  8
RACCORDO
100
AcDbLine
 62
253
  6
CONTINUOUS
 10
51.3382940288
 20
0.9423514448
 11
51.3326304147
 21
0.5574243969
  0
LINE
  5
65F
100
AcDbEntity
  8
RACCORDO
100
AcDbLine
 62
253
  6
CONTINUOUS
 10
51.4382773301
 20
0.8702091669
 11
51.4326150553
 21
0.4984516912
  0
LINE
  5
660
100
AcDbEntity
  8
RACCORDO
100
AcDbLine
 62
7
  6
CONTINUOUS
 10
51.4476644029
 20
0.0558081658
 11
51.4505927134
 21
0.2278151623
  0
LINE
  5
661
100
AcDbEntity
  8
RACCORDO
100
AcDbLine
 62
7
  6
CONTINUOUS
 10
50.3388762018
 20
1.0360121886
 11
50.3332130608
 21
0.702803427
  0
LINE
  5
662
100
AcDbEntity
  8
ASSI
100
AcDbLine
 62
7
  6
CONTINUOUS
 10
50.3388762018
 20
1.0360121886
 11
50.3332130608
 21
0.702803427
  0
LINE
  5
663
100
AcDbEntity
  8
RACCORDO
100
AcDbLine
 62
7
  6
CONTINUOUS
 10
50.3527273555
 20
0.2659775874
 11
50.35002837
 21
0.128247603
  0
LINE
  5
664
100
AcDbEntity
  8
ASSI
100
AcDbLine
 62
7
  6
CONTINUOUS
 10
50.3527273555
 20
0.2659775874
 11
50.35002837
 21
0.128247603
  0
LINE
  5
665
100
AcDbEntity
  8
RACCORDO
100
AcDbLine
 62
253
  6
CONTINUOUS
 10
51.3428272142
 20
1.1719466125
 11
51.3382940288
 21
0.9423514448
  0
LINE
  5
666
100
AcDbEntity
  8
RACCORDO
100
AcDbLine
 62
253
  6
CONTINUOUS
 10
51.4428091513
 20
1.0920236375
 11
51.4382773301
 21
0.8702091669
  0
LINE
  5
667
100
AcDbEntity
  8
RACCORDO
100
AcDbLine
 62
7
  6
CONTINUOUS
 10
50.3431397444
 20
1.2283374236
 11
50.3388762018
 21
1.0360121886
  0
LINE
  5
668
100
AcDbEntity
  8
ASSI
100
AcDbLine
 62
7
  6
CONTINUOUS
 10
50.3431397444
 20
1.2283374236
 11
50.3388762018
 21
1.0360121886
  0
LINE
  5
669
100
AcDbEntity
  8
RACCORDO
100
AcDbLine
 62
7
  6
CONTINUOUS
 10
51.4505927134
 20
0.2278151623
 11
51.4538762975
 21
0.3772609077
  0
LINE
  5
66A
100
AcDbEntity
  8
RACCORDO
100
AcDbLine
 62
253
  6
CONTINUOUS
 10
51.3462120055
 20
1.3108736162
 11
51.3428272142
 21
1.1719466125
  0
LINE
  5
66B
100
AcDbEntity
  8
ASSI
100
AcDbLine
 62
7
  6
CONTINUOUS
 10
50.5296935987
 20
-2.1608108508
 11
50.5247677342
 21
-2.3642439627
  0
LINE
  5
66C
100
AcDbEntity
  8
RACCORDO
100
AcDbLine
 62
7
  6
CONTINUOUS
 10
50.3556771665
 20
0.3855311512
 11
50.3527273555
 21
0.2659775874
  0
LINE
  5
66D
100
AcDbEntity
  8
ASSI
100
AcDbLine
 62
7
  6
CONTINUOUS
 10
50.3556771665
 20
0.3855311512
 11
50.3527273555
 21
0.2659775874
  0
LINE
  5
66E
100
AcDbEntity
  8
RACCORDO
100
AcDbLine
 62
253
  6
CONTINUOUS
 10
51.4461957236
 20
1.2263258006
 11
51.4428091513
 21
1.0920236375
  0
LINE
  5
66F
100
AcDbEntity
  8
RACCORDO
100
AcDbLine
 62
7
  6
CONTINUOUS
 10
51.4538762975
 20
0.3772609077
 11
51.4562377717
 21
0.4632027649
  0
LINE
  5
670
100
AcDbEntity
  8
RACCORDO
100
AcDbLine
 62
253
  6
CONTINUOUS
 10
51.349775305
 20
1.4326185524
 11
51.3462120055
 21
1.3108736162
  0
LINE
  5
671
100
AcDbEntity
  8
RACCORDO
100
AcDbLine
 62
7
  6
CONTINUOUS
 10
50.3577655405
 20
0.4544105074
 11
50.3556771665
 21
0.3855311512
  0
LINE
  5
672
100
AcDbEntity
  8
ASSI
100
AcDbLine
 62
7
  6
CONTINUOUS
 10
50.3577655405
 20
0.4544105074
 11
50.3556771665
 21
0.3855311512
  0
LINE
  5
673
100
AcDbEntity
  8
RACCORDO
100
AcDbLine
 62
253
  6
CONTINUOUS
 10
51.449761562
 20
1.3440264313
 11
51.4461957236
 21
1.2263258006
  0
LWPOLYLINE
  5
674
100
AcDbEntity
  8
ASSI
100
AcDbPolyline
 62
7
  6
CONTINUOUS
 90
13
 70
0
 10
50.5247677342
 20
-2.3642439627
 10
50.5189817056
 20
-2.5468954807
 10
50.5157643425
 20
-2.6304772334
 10
50.5123784081
 20
-2.7075872113
 10
50.5088223225
 20
-2.7781079604
 10
50.5050976657
 20
-2.8421569347
 10
50.5012520723
 20
-2.8989083034
 10
50.4972844309
 20
-2.9482648116
 10
50.4931958529
 20
-2.9903237142
 10
50.4890373075
 20
-3.0245509443
 10
50.4848257845
 20
-3.0507684797
 10
50.4805442942
 20
-3.0691543427
 10
50.4761928364
 20
-3.0797085332
  0
LWPOLYLINE
  5
675
100
AcDbEntity
  8
RACCORDO
100
AcDbPolyline
 62
7
  6
CONTINUOUS
 90
12
 70
0
 10
51.4562377717
 20
0.4632027649
 10
51.4587174756
 20
0.537422121
 10
51.4599948912
 20
0.5699577597
 10
51.4612952582
 20
0.5993644278
 10
51.4626184488
 20
0.6256584957
 10
51.4639574244
 20
0.6486993515
 10
51.4653122405
 20
0.6684696216
 10
51.4666828416
 20
0.6849866798
 10
51.4680620216
 20
0.6981620359
 10
51.4694473784
 20
0.7079661933
 10
51.4708413142
 20
0.7144286486
 10
51.4722438287
 20
0.717549402
  0
LINE
  5
676
100
AcDbEntity
  8
RACCORDO
100
AcDbLine
 62
253
  6
CONTINUOUS
 10
51.3523232283
 20
1.5061238935
 11
51.349775305
 21
1.4326185524
  0
LINE
  5
677
100
AcDbEntity
  8
RACCORDO
100
AcDbLine
 62
253
  6
CONTINUOUS
 10
51.4523092682
 20
1.4150119516
 11
51.449761562
 21
1.3440264313
  0
LWPOLYLINE
  5
678
100
AcDbEntity
  8
RACCORDO
100
AcDbPolyline
 62
7
  6
CONTINUOUS
 90
10
 70
0
 10
50.5424418858
 20
-3.3565395333
 10
50.537911682
 20
-3.4686636356
 10
50.5331919717
 20
-3.5725388444
 10
50.5282827547
 20
-3.6681651598
 10
50.5231644462
 20
-3.7558427453
 10
50.517856631
 20
-3.8352714374
 10
50.5124180641
 20
-3.9055507456
 10
50.5068683305
 20
-3.9663805065
 10
50.5011878452
 20
-4.0180608836
 10
50.4953766083
 20
-4.0605918769
  0
LWPOLYLINE
  5
679
100
AcDbEntity
  8
RACCORDO
100
AcDbPolyline
 62
7
  6
CONTINUOUS
 90
7
 70
0
 10
50.360312838
 20
1.6794575173
 10
50.3576919797
 20
1.6375855638
 10
50.3551250353
 20
1.5881367357
 10
50.3526120049
 20
1.531111033
 10
50.3501451039
 20
1.466279947
 10
50.3477321169
 20
1.3938719865
 10
50.3431397444
 20
1.2283374236
  0
LWPOLYLINE
  5
67A
100
AcDbEntity
  8
ASSI
100
AcDbPolyline
 62
7
  6
CONTINUOUS
 90
7
 70
0
 10
50.360312838
 20
1.6794575173
 10
50.3576919797
 20
1.6375855638
 10
50.3551250353
 20
1.5881367357
 10
50.3526120049
 20
1.531111033
 10
50.3501451039
 20
1.466279947
 10
50.3477321169
 20
1.3938719865
 10
50.3431397444
 20
1.2283374236
  0
LWPOLYLINE
  5
67B
100
AcDbEntity
  8
RACCORDO
100
AcDbPolyline
 62
253
  6
CONTINUOUS
 90
7
 70
0
 10
51.3621480552
 20
1.699697033
 10
51.3604721554
 20
1.6757330349
 10
51.3590536668
 20
1.6528711978
 10
51.3576604563
 20
1.6277691446
 10
51.3562946246
 20
1.6005762597
 10
51.3549540708
 20
1.5713269822
 10
51.3523232283
 20
1.5061238935
  0
LWPOLYLINE
  5
67C
100
AcDbEntity
  8
RACCORDO
100
AcDbPolyline
 62
253
  6
CONTINUOUS
 90
7
 70
0
 10
51.4619007696
 20
1.5986955186
 10
51.46045784
 20
1.5787317457
 10
51.4590399228
 20
1.5566833401
 10
51.457647018
 20
1.5325503019
 10
51.4562810993
 20
1.5063307182
 10
51.454940193
 20
1.4780265019
 10
51.4523092682
 20
1.4150119516
  0
LINE
  5
67D
100
AcDbEntity
  8
RACCORDO
100
AcDbLine
 62
253
  6
CONTINUOUS
 10
51.4747890296
 20
-3.9960003393
 11
51.4763033214
 21
-3.9786348325
  0
LWPOLYLINE
  5
67E
100
AcDbEntity
  8
RACCORDO
100
AcDbPolyline
 62
253
  6
CONTINUOUS
 90
10
 70
0
 10
51.4633075338
 20
-3.9726613519
 10
51.4617838407
 20
-3.9900201933
 10
51.4572696148
 20
-4.0068517991
 10
51.4499019655
 20
-4.0226449474
 10
51.4399046685
 20
-4.0369199568
 10
51.4275813691
 20
-4.0492432561
 10
51.4133063597
 20
-4.0592405531
 10
51.3975132115
 20
-4.0666082024
 10
51.3806816057
 20
-4.0711224283
 10
51.3633227642
 20
-4.0726461214
  0
LWPOLYLINE
  5
67F
100
AcDbEntity
  8
RACCORDO
100
AcDbPolyline
 62
253
  6
CONTINUOUS
 90
10
 70
0
 10
51.4619007696
 20
-3.9630179562
 10
51.4603226709
 20
-3.9799205205
 10
51.4557690981
 20
-3.9963119551
 10
51.4483777354
 20
-4.0116966402
 10
51.4383720718
 20
-4.0256093967
 10
51.4260546437
 20
-4.0376295513
 10
51.411797887
 20
-4.0473936566
 10
51.3960328764
 20
-4.05460648
 10
51.3792362907
 20
-4.0590499309
 10
51.3619160001
 20
-4.0605896549
  0
LWPOLYLINE
  5
680
100
AcDbEntity
  8
RACCORDO
100
AcDbPolyline
 62
7
  6
CONTINUOUS
 90
10
 70
0
 10
50.4953766083
 20
-4.0605918769
 10
50.4949905571
 20
-4.0629411767
 10
50.4946031458
 20
-4.0650385106
 10
50.4942143745
 20
-4.0668838785
 10
50.4938240414
 20
-4.0684779723
 10
50.4934323483
 20
-4.0698201
 10
50.4930398997
 20
-4.0709081863
 10
50.4926468972
 20
-4.0717415394
 10
50.4922531394
 20
-4.0723208511
 10
50.491858626
 20
-4.0726461214
  0
LWPOLYLINE
  5
681
100
AcDbEntity
  8
RACCORDO
100
AcDbPolyline
 62
253
  6
CONTINUOUS
 90
10
 70
0
 10
51.4326150571
 20
-2.8627767716
 10
51.4308805786
 20
-2.872926562
 10
51.4262140593
 20
-2.8827734809
 10
51.4187547406
 20
-2.8920236676
 10
51.4087110937
 20
-2.900410947
 10
51.3963912484
 20
-2.9076723114
 10
51.382220463
 20
-2.9135709581
 10
51.3666589796
 20
-2.9179432312
 10
51.3501614277
 20
-2.9206865901
 10
51.3332176673
 20
-2.9217397842
  0
LWPOLYLINE
  5
682
100
AcDbEntity
  8
RACCORDO
100
AcDbPolyline
 62
7
  6
CONTINUOUS
 90
3
 70
0
 10
51.4718908569
 20
-4.0082211111
 10
51.4756530873
 20
-3.990893055
 10
51.4764390468
 20
-3.9783656386
  0
LINE
  5
683
100
AcDbEntity
  8
RACCORDO
100
AcDbLine
 62
253
  6
CONTINUOUS
 10
51.4702816046
 20
-4.0128379997
 11
51.4747890296
 21
-3.9960003393
  0
LINE
  5
684
100
AcDbEntity
  8
RACCORDO
100
AcDbLine
 62
253
  6
CONTINUOUS
 10
51.4629180552
 20
-4.0286360119
 11
51.4702816046
 21
-4.0128379997
  0
LINE
  5
685
100
AcDbEntity
  8
RACCORDO
100
AcDbLine
 62
253
  6
CONTINUOUS
 10
51.4764556095
 20
-3.9783614188
 11
51.4763033214
 21
-3.9786348325
  0
LINE
  5
686
100
AcDbEntity
  8
RACCORDO
100
AcDbLine
 62
253
  6
CONTINUOUS
 10
51.460413157
 20
-4.0322140316
 11
51.4629180552
 21
-4.0286360119
  0
LWPOLYLINE
  5
687
100
AcDbEntity
  8
RACCORDO
100
AcDbPolyline
 62
7
  6
CONTINUOUS
 90
3
 70
0
 10
51.4641819209
 20
1.6620956218
 10
51.4549376989
 20
1.6761062562
 10
51.4467778968
 20
1.6852642357
  0
LINE
  5
688
100
AcDbEntity
  8
RACCORDO
100
AcDbLine
 62
253
  6
CONTINUOUS
 10
51.4763033214
 20
1.6143123949
 11
51.4764556211
 21
1.6140375597
  0
LINE
  5
689
100
AcDbEntity
  8
RACCORDO
100
AcDbLine
 62
253
  6
CONTINUOUS
 10
51.4629171817
 20
1.6643150876
 11
51.4702811506
 21
1.6485168101
  0
LWPOLYLINE
  5
68A
100
AcDbEntity
  8
ASSI
100
AcDbPolyline
 62
7
  6
CONTINUOUS
 90
12
 70
0
 10
50.4761928364
 20
0.7153860955
 10
50.4805442896
 20
0.7048319293
 10
50.4848257764
 20
0.6864460922
 10
50.4890372968
 20
0.660228584
 10
50.4931958407
 20
0.6260013859
 10
50.4972844183
 20
0.5839425169
 10
50.5012520599
 20
0.5345860334
 10
50.5050976542
 20
0.4778346779
 10
50.5088223125
 20
0.4137857081
 10
50.5123783996
 20
0.3432649536
 10
50.5157643357
 20
0.2661549575
 10
50.5189817007
 20
0.1825731768
  0
LINE
  5
68B
100
AcDbEntity
  8
RACCORDO
100
AcDbLine
 62
253
  6
CONTINUOUS
 10
51.4702811506
 20
1.6485168101
 11
51.4747889004
 21
1.631678636
  0
LWPOLYLINE
  5
68C
100
AcDbEntity
  8
RACCORDO
100
AcDbPolyline
 62
7
  6
CONTINUOUS
 90
10
 70
0
 10
50.4953766083
 20
1.6962694392
 10
50.5011878827
 20
1.6537380069
 10
50.5068683912
 20
1.6020573533
 10
50.5124181337
 20
1.5412274785
 10
50.5178566886
 20
1.4709482893
 10
50.5231644777
 20
1.3915198789
 10
50.5282827654
 20
1.3038425265
 10
50.5331919735
 20
1.2082163249
 10
50.5379116803
 20
1.1043411813
 10
50.5424418858
 20
0.9922170956
  0
LWPOLYLINE
  5
68D
100
AcDbEntity
  8
RACCORDO
100
AcDbPolyline
 62
253
  6
CONTINUOUS
 90
15
 70
0
 10
-37.3241859574
 20
-3.5622897513
 10
-37.2727904094
 20
-3.5537401182
 10
-37.222558343
 20
-3.5398951519
 10
-37.1740280366
 20
-3.5209009669
 10
-37.1277316255
 20
-3.496962905
 10
-37.084186931
 20
-3.4683481052
 10
-37.0438674274
 20
-3.4353724882
 10
-37.0072031871
 20
-3.3983933604
 10
-36.974591975
 20
-3.3578145002
 10
-36.9463858052
 20
-3.314080499
 10
-36.9228841365
 20
-3.2676640716
 10
-36.9043368028
 20
-3.2190604515
 10
-36.8909436563
 20
-3.168792863
 10
-36.882849616
 20
-3.117408238
 10
-36.880141693
 20
-3.0654627781
  0
LWPOLYLINE
  5
68E
100
AcDbEntity
  8
ASSI
100
AcDbPolyline
 62
253
  6
CONTINUOUS
 90
15
 70
0
 10
-37.3241859574
 20
-3.5622897513
 10
-37.2727904094
 20
-3.5537401182
 10
-37.222558343
 20
-3.5398951519
 10
-37.1740280366
 20
-3.5209009669
 10
-37.1277316255
 20
-3.496962905
 10
-37.084186931
 20
-3.4683481052
 10
-37.0438674274
 20
-3.4353724882
 10
-37.0072031871
 20
-3.3983933604
 10
-36.974591975
 20
-3.3578145002
 10
-36.9463858052
 20
-3.314080499
 10
-36.9228841365
 20
-3.2676640716
 10
-36.9043368028
 20
-3.2190604515
 10
-36.8909436563
 20
-3.168792863
 10
-36.882849616
 20
-3.117408238
 10
-36.880141693
 20
-3.0654627781
  0
LINE
  5
68F
100
AcDbEntity
  8
RACCORDO
100
AcDbLine
 62
7
  6
CONTINUOUS
 10
-39.2907265636
 20
-4.9021612188
 11
-34.6802551198
 21
-4.8216851404
  0
LINE
  5
690
100
AcDbEntity
  8
RACCORDO
100
AcDbLine
 62
7
  6
CONTINUOUS
 10
-34.5363632959
 20
-4.8906705192
 11
-39.2907265636
 21
-4.9321612188
  0
LINE
  5
691
100
AcDbEntity
  8
ASSI
100
AcDbLine
 62
7
  6
CONTINUOUS
 10
-34.5363632959
 20
-4.8906705192
 11
-39.2907265636
 21
-4.9321612188
  0
LINE
  5
692
100
AcDbEntity
  8
RACCORDO
100
AcDbLine
 62
7
  6
CONTINUOUS
 10
-39.2907265636
 20
-4.9321612188
 11
-40.2907265636
 21
-4.9234343511
  0
LINE
  5
693
100
AcDbEntity
  8
ASSI
100
AcDbLine
 62
7
  6
CONTINUOUS
 10
-39.2907265636
 20
-4.9321612188
 11
-40.2907265636
 21
-4.9234343511
  0
LINE
  5
694
100
AcDbEntity
  8
DRAFT
100
AcDbLine
 62
7
  6
CONTINUOUS
 10
-37.7907265636
 20
-4.9845423731
 11
-39.2907265636
 21
-4.9321612188
  0
LINE
  5
695
100
AcDbEntity
  8
RACCORDO
100
AcDbLine
 62
7
  6
CONTINUOUS
 10
-39.2907265636
 20
-4.9321612188
 11
-41.058176312
 21
-4.8704405136
  0
LWPOLYLINE
  5
696
100
AcDbEntity
  8
RACCORDO
100
AcDbPolyline
 62
253
  6
CONTINUOUS
 90
16
 70
0
 10
-37.3744435273
 20
-3.3654609154
 10
-37.3427382642
 20
-3.3634446768
 10
-37.3120154953
 20
-3.3583480478
 10
-37.2822752209
 20
-3.3501710285
 10
-37.2532016585
 20
-3.3387564745
 10
-37.2251105906
 20
-3.3242615303
 10
-37.1989493637
 20
-3.3071576284
 10
-37.1747976362
 20
-3.2873611599
 10
-37.1525757497
 20
-3.2649557337
 10
-37.1329920768
 20
-3.2406636105
 10
-37.11613208
 20
-3.2144022834
 10
-37.1019102967
 20
-3.1862542592
 10
-37.0907787106
 20
-3.1571893185
 10
-37.0828879828
 20
-3.1275307215
 10
-37.0780874521
 20
-3.0969552081
 10
-37.0763771186
 20
-3.0654627781
  0
LWPOLYLINE
  5
697
100
AcDbEntity
  8
ASSI
100
AcDbPolyline
 62
253
  6
CONTINUOUS
 90
16
 70
0
 10
-37.3744435273
 20
-3.3654609154
 10
-37.3427382642
 20
-3.3634446768
 10
-37.3120154953
 20
-3.3583480478
 10
-37.2822752209
 20
-3.3501710285
 10
-37.2532016585
 20
-3.3387564745
 10
-37.2251105906
 20
-3.3242615303
 10
-37.1989493637
 20
-3.3071576284
 10
-37.1747976362
 20
-3.2873611599
 10
-37.1525757497
 20
-3.2649557337
 10
-37.1329920768
 20
-3.2406636105
 10
-37.11613208
 20
-3.2144022834
 10
-37.1019102967
 20
-3.1862542592
 10
-37.0907787106
 20
-3.1571893185
 10
-37.0828879828
 20
-3.1275307215
 10
-37.0780874521
 20
-3.0969552081
 10
-37.0763771186
 20
-3.0654627781
  0
LINE
  5
698
100
AcDbEntity
  8
RACCORDO
100
AcDbLine
 62
253
  6
CONTINUOUS
 10
-37.3761887015
 20
-3.5654533
 11
-37.3241859574
 21
-3.5622897513
  0
LINE
  5
699
100
AcDbEntity
  8
ASSI
100
AcDbLine
 62
253
  6
CONTINUOUS
 10
-37.3761887015
 20
-3.5654533
 11
-37.3241859574
 21
-3.5622897513
  0
LINE
  5
69A
100
AcDbEntity
  8
RACCORDO
100
AcDbLine
 62
7
  6
CONTINUOUS
 10
-37.1224089789
 20
-3.6495439577
 11
-41.5407265636
 21
-3.8810981704
  0
LINE
  5
69B
100
AcDbEntity
  8
RACCORDO
100
AcDbLine
 62
253
  6
CONTINUOUS
 10
-39.2907265636
 20
-4.3022526017
 11
-34.6802551198
 21
-4.2217765233
  0
LINE
  5
69C
100
AcDbEntity
  8
RACCORDO
100
AcDbLine
 62
253
  6
CONTINUOUS
 10
-34.0407265636
 20
-4.3906895576
 11
-34.1156077314
 21
-4.3906895329
  0
LINE
  5
69D
100
AcDbEntity
  8
ASSI
100
AcDbLine
 62
253
  6
CONTINUOUS
 10
-34.0407265636
 20
-4.3906895576
 11
-34.1156077314
 21
-4.3906895329
  0
LINE
  5
69E
100
AcDbEntity
  8
RACCORDO
100
AcDbLine
 62
253
  6
CONTINUOUS
 10
-41.5407265636
 20
-4.2708060174
 11
-41.058176312
 21
-4.2708060174
  0
LINE
  5
69F
100
AcDbEntity
  8
RACCORDO
100
AcDbLine
 62
253
  6
CONTINUOUS
 10
-34.6802551198
 20
-4.2217765233
 11
-34.0907265636
 21
-4.2217765233
  0
LINE
  5
6A0
100
AcDbEntity
  8
RACCORDO
100
AcDbLine
 62
253
  6
CONTINUOUS
 10
-39.2907265636
 20
-4.3325267226
 11
-41.058176312
 21
-4.2708060174
  0
LINE
  5
6A1
100
AcDbEntity
  8
RACCORDO
100
AcDbLine
 62
7
  6
CONTINUOUS
 10
-37.3232603017
 20
-3.5649914009
 11
-39.2907265636
 21
-3.5821612188
  0
LINE
  5
6A2
100
AcDbEntity
  8
ASSI
100
AcDbLine
 62
7
  6
CONTINUOUS
 10
-37.3232603017
 20
-3.5649914009
 11
-39.2907265636
 21
-3.5821612188
  0
LINE
  5
6A3
100
AcDbEntity
  8
RACCORDO
100
AcDbLine
 62
253
  6
CONTINUOUS
 10
-37.9190307667
 20
-3.3702134563
 11
-37.3744435273
 21
-3.3654609154
  0
LINE
  5
6A4
100
AcDbEntity
  8
ASSI
100
AcDbLine
 62
253
  6
CONTINUOUS
 10
-37.9190307667
 20
-3.3702134563
 11
-37.3744435273
 21
-3.3654609154
  0
LINE
  5
6A5
100
AcDbEntity
  8
RACCORDO
100
AcDbLine
 62
253
  6
CONTINUOUS
 10
-36.880141693
 20
-3.0654627781
 11
-36.8267102964
 21
-3.0649964894
  0
LINE
  5
6A6
100
AcDbEntity
  8
ASSI
100
AcDbLine
 62
253
  6
CONTINUOUS
 10
-36.880141693
 20
-3.0654627781
 11
-36.8267102964
 21
-3.0649964894
  0
LINE
  5
6A7
100
AcDbEntity
  8
RACCORDO
100
AcDbLine
 62
253
  6
CONTINUOUS
 10
-37.0763771186
 20
-3.0654627781
 11
-36.880141693
 21
-3.0654627781
  0
LINE
  5
6A8
100
AcDbEntity
  8
ASSI
100
AcDbLine
 62
253
  6
CONTINUOUS
 10
-37.0763771186
 20
-3.0654627781
 11
-36.880141693
 21
-3.0654627781
  0
LINE
  5
6A9
100
AcDbEntity
  8
RACCORDO
100
AcDbLine
 62
7
  6
CONTINUOUS
 10
-39.2907265636
 20
-3.5821612188
 11
-39.7197639213
 21
-3.5784170665
  0
LINE
  5
6AA
100
AcDbEntity
  8
ASSI
100
AcDbLine
 62
7
  6
CONTINUOUS
 10
-39.2907265636
 20
-3.5821612188
 11
-39.7197639213
 21
-3.5784170665
  0
LINE
  5
6AB
100
AcDbEntity
  8
DRAFT
100
AcDbLine
 62
7
  6
CONTINUOUS
 10
-40.4697902
 20
-3.7115805865
 11
-40.5407265636
 21
-3.7103423877
  0
LINE
  5
6AC
100
AcDbEntity
  8
RACCORDO
100
AcDbLine
 62
253
  6
CONTINUOUS
 10
-41.5407265636
 20
-2.6287768239
 11
-41.7372360823
 21
-2.6287768239
  0
LINE
  5
6AD
100
AcDbEntity
  8
RACCORDO
100
AcDbLine
 62
253
  6
CONTINUOUS
 10
-42.2459622855
 20
-2.619896975
 11
-42.5407265636
 21
-2.619896975
  0
LINE
  5
6AE
100
AcDbEntity
  8
RACCORDO
100
AcDbLine
 62
7
  6
CONTINUOUS
 10
-42.2459622855
 20
-2.9198512835
 11
-41.7372360823
 21
-2.9287311324
  0
LINE
  5
6AF
100
AcDbEntity
  8
RACCORDO
100
AcDbLine
 62
7
  6
CONTINUOUS
 10
-36.8267102964
 20
-2.8989881854
 11
-37.5539948935
 21
-2.8862933855
  0
LINE
  5
6B0
100
AcDbEntity
  8
ASSI
100
AcDbLine
 62
7
  6
CONTINUOUS
 10
-36.8267102964
 20
-2.8989881854
 11
-37.5539948935
 21
-2.8862933855
  0
LINE
  5
6B1
100
AcDbEntity
  8
RACCORDO
100
AcDbLine
 62
253
  6
CONTINUOUS
 10
-42.2459622855
 20
-2.619896975
 11
-41.7372360823
 21
-2.628854454
  0
LINE
  5
6B2
100
AcDbEntity
  8
RACCORDO
100
AcDbLine
 62
7
  6
CONTINUOUS
 10
-39.4076206692
 20
-1.3866864386
 11
-38.5941902487
 21
-1.3440563566
  0
LINE
  5
6B3
100
AcDbEntity
  8
RACCORDO
100
AcDbLine
 62
7
  6
CONTINUOUS
 10
-39.8329789306
 20
-0.4953439172
 11
-39.6624980544
 21
-0.5042784414
  0
LINE
  5
6B4
100
AcDbEntity
  8
RACCORDO
100
AcDbLine
 62
7
  6
CONTINUOUS
 10
-38.3554300959
 20
-0.5727789704
 11
-38.1873604726
 21
-0.5815871262
  0
LWPOLYLINE
  5
6B5
100
AcDbEntity
  8
RACCORDO
100
AcDbPolyline
 62
253
  6
CONTINUOUS
 90
10
 70
0
 10
-41.058176312
 20
-4.8704405136
 10
-41.0596255704
 20
-4.8681088281
 10
-41.0609346195
 20
-4.8612372448
 10
-41.0620915343
 20
-4.8498780862
 10
-41.0630845531
 20
-4.8341178207
 10
-41.0639058696
 20
-4.8140762465
 10
-41.0645517004
 20
-4.7899055531
 10
-41.0650167762
 20
-4.7617894303
 10
-41.0652962371
 20
-4.729941581
 10
-41.0653893742
 20
-4.694603898
  0
LINE
  5
6B6
100
AcDbEntity
  8
RACCORDO
100
AcDbLine
 62
7
  6
CONTINUOUS
 10
-42.5407265636
 20
-2.619896975
 11
-42.5407265636
 21
0.2555745373
  0
LINE
  5
6B7
100
AcDbEntity
  8
RACCORDO
100
AcDbLine
 62
253
  6
CONTINUOUS
 10
-42.2459622855
 20
0.2555745373
 11
-41.7372360823
 21
0.2644467629
  0
LINE
  5
6B8
100
AcDbEntity
  8
RACCORDO
100
AcDbLine
 62
7
  6
CONTINUOUS
 10
-36.8267102964
 20
0.5346657477
 11
-37.5539948935
 21
0.5219709478
  0
LINE
  5
6B9
100
AcDbEntity
  8
ASSI
100
AcDbLine
 62
7
  6
CONTINUOUS
 10
-36.8267102964
 20
0.5346657477
 11
-37.5539948935
 21
0.5219709478
  0
LINE
  5
6BA
100
AcDbEntity
  8
RACCORDO
100
AcDbLine
 62
7
  6
CONTINUOUS
 10
-42.2459622855
 20
0.5555288458
 11
-41.7372360823
 21
0.5644086948
  0
LINE
  5
6BB
100
AcDbEntity
  8
DRAFT
100
AcDbLine
 62
7
  6
CONTINUOUS
 10
-38.6092014064
 20
0.629734847
 11
-39.0496276965
 21
0.6220471775
  0
LINE
  5
6BC
100
AcDbEntity
  8
RACCORDO
100
AcDbLine
 62
253
  6
CONTINUOUS
 10
-42.5407265636
 20
0.2555745373
 11
-42.2459622855
 21
0.2555745373
  0
LINE
  5
6BD
100
AcDbEntity
  8
RACCORDO
100
AcDbLine
 62
253
  6
CONTINUOUS
 10
-41.5407265636
 20
0.2644543862
 11
-41.7372360823
 21
0.2644543862
  0
LWPOLYLINE
  5
6BE
100
AcDbEntity
  8
RACCORDO
100
AcDbPolyline
 62
253
  6
CONTINUOUS
 90
7
 70
0
 10
-42.2459622855
 20
-2.9198512835
 10
-42.2466030408
 20
-2.9172526338
 10
-42.2471425829
 20
-2.909522509
 10
-42.2475715098
 20
-2.8967899664
 10
-42.2478823483
 20
-2.8792682036
 10
-42.2480695628
 20
-2.857257321
 10
-42.2481298101
 20
-2.83114467
  0
LINE
  5
6BF
100
AcDbEntity
  8
RACCORDO
100
AcDbLine
 62
253
  6
CONTINUOUS
 10
-42.2459622855
 20
0.2555745373
 11
-42.2471425829
 21
0.3335224989
  0
LINE
  5
6C0
100
AcDbEntity
  8
RACCORDO
100
AcDbLine
 62
253
  6
CONTINUOUS
 10
-42.2471425829
 20
0.3335224989
 11
-42.2478823483
 21
0.4061579379
  0
LWPOLYLINE
  5
6C1
100
AcDbEntity
  8
RACCORDO
100
AcDbPolyline
 62
253
  6
CONTINUOUS
 90
8
 70
0
 10
-42.2478823483
 20
0.4061579379
 10
-42.2481298101
 20
0.468458551
 10
-42.248061811
 20
0.4943894916
 10
-42.2478665232
 20
0.5161738615
 10
-42.2475498429
 20
0.5333373995
 10
-42.2471206458
 20
0.545656108
 10
-42.2465878258
 20
0.5530613385
 10
-42.2459622855
 20
0.5555288458
  0
LINE
  5
6C2
100
AcDbEntity
  8
RACCORDO
100
AcDbLine
 62
253
  6
CONTINUOUS
 10
-42.2459622855
 20
-2.619896975
 11
-42.2459622855
 21
0.2555745373
  0
LINE
  5
6C3
100
AcDbEntity
  8
RACCORDO
100
AcDbLine
 62
253
  6
CONTINUOUS
 10
-42.2481298101
 20
-2.83114467
 11
-42.2478665232
 21
-2.7683456637
  0
LINE
  5
6C4
100
AcDbEntity
  8
RACCORDO
100
AcDbLine
 62
253
  6
CONTINUOUS
 10
-42.2478665232
 20
-2.7683456637
 11
-42.2471206458
 21
-2.6961321248
  0
LINE
  5
6C5
100
AcDbEntity
  8
RACCORDO
100
AcDbLine
 62
253
  6
CONTINUOUS
 10
-42.2471206458
 20
-2.6961321248
 11
-42.2459622855
 21
-2.619896975
  0
LINE
  5
6C6
100
AcDbEntity
  8
DRAFT
100
AcDbLine
 62
7
  6
CONTINUOUS
 10
-40.4697902
 20
1.3472581488
 11
-40.5407265636
 21
1.34601995
  0
LINE
  5
6C7
100
AcDbEntity
  8
RACCORDO
100
AcDbLine
 62
7
  6
CONTINUOUS
 10
-39.2907265636
 20
1.2178387812
 11
-39.7197639213
 21
1.2140946289
  0
LINE
  5
6C8
100
AcDbEntity
  8
ASSI
100
AcDbLine
 62
7
  6
CONTINUOUS
 10
-39.2907265636
 20
1.2178387812
 11
-39.7197639213
 21
1.2140946289
  0
LINE
  5
6C9
100
AcDbEntity
  8
RACCORDO
100
AcDbLine
 62
253
  6
CONTINUOUS
 10
-37.0763771186
 20
0.7011403405
 11
-36.880141693
 21
0.7011403502
  0
LINE
  5
6CA
100
AcDbEntity
  8
ASSI
100
AcDbLine
 62
253
  6
CONTINUOUS
 10
-37.0763771186
 20
0.7011403405
 11
-36.880141693
 21
0.7011403502
  0
LINE
  5
6CB
100
AcDbEntity
  8
RACCORDO
100
AcDbLine
 62
253
  6
CONTINUOUS
 10
-36.880141693
 20
0.7011403405
 11
-36.8267102964
 21
0.7006740517
  0
LINE
  5
6CC
100
AcDbEntity
  8
ASSI
100
AcDbLine
 62
253
  6
CONTINUOUS
 10
-36.880141693
 20
0.7011403405
 11
-36.8267102964
 21
0.7006740517
  0
LINE
  5
6CD
100
AcDbEntity
  8
RACCORDO
100
AcDbLine
 62
253
  6
CONTINUOUS
 10
-37.3744435273
 20
1.0011384777
 11
-37.9190307667
 21
1.0058910186
  0
LINE
  5
6CE
100
AcDbEntity
  8
ASSI
100
AcDbLine
 62
253
  6
CONTINUOUS
 10
-37.3744435273
 20
1.0011384777
 11
-37.9190307667
 21
1.0058910186
  0
LINE
  5
6CF
100
AcDbEntity
  8
RACCORDO
100
AcDbLine
 62
7
  6
CONTINUOUS
 10
-37.3232603017
 20
1.2006689632
 11
-39.2907265636
 21
1.2178387812
  0
LINE
  5
6D0
100
AcDbEntity
  8
ASSI
100
AcDbLine
 62
7
  6
CONTINUOUS
 10
-37.3232603017
 20
1.2006689632
 11
-39.2907265636
 21
1.2178387812
  0
LWPOLYLINE
  5
6D1
100
AcDbEntity
  8
DRAFT
100
AcDbPolyline
 62
7
  6
CONTINUOUS
 90
10
 70
0
 10
-39.389719383
 20
-1.3765603131
 10
-39.4114692502
 20
-1.3631828892
 10
-39.4333383039
 20
-1.3499364722
 10
-39.4553265443
 20
-1.3368210621
 10
-39.4774346947
 20
-1.3238417491
 10
-39.4996620317
 20
-1.3109934431
 10
-39.5220063847
 20
-1.2982608732
 10
-39.5444670303
 20
-1.2856389492
 10
-39.5670446919
 20
-1.2731327614
 10
-39.5897393697
 20
-1.2607423097
  0
LWPOLYLINE
  5
6D2
100
AcDbEntity
  8
ASSI
100
AcDbPolyline
 62
7
  6
CONTINUOUS
 90
10
 70
0
 10
-39.389719383
 20
-1.3765603131
 10
-39.4114692502
 20
-1.3631828892
 10
-39.4333383039
 20
-1.3499364722
 10
-39.4553265443
 20
-1.3368210621
 10
-39.4774346947
 20
-1.3238417491
 10
-39.4996620317
 20
-1.3109934431
 10
-39.5220063847
 20
-1.2982608732
 10
-39.5444670303
 20
-1.2856389492
 10
-39.5670446919
 20
-1.2731327614
 10
-39.5897393697
 20
-1.2607423097
  0
LWPOLYLINE
  5
6D3
100
AcDbEntity
  8
RACCORDO
100
AcDbPolyline
 62
253
  6
CONTINUOUS
 90
6
 70
0
 10
-41.7360887794
 20
0.5363031591
 10
-41.736255499
 20
0.5463296471
 10
-41.7364518992
 20
0.5542010072
 10
-41.7366772742
 20
0.5598594244
 10
-41.7369374533
 20
0.5632692833
 10
-41.7372354988
 20
0.5644086949
  0
LINE
  5
6D4
100
AcDbEntity
  8
RACCORDO
100
AcDbLine
 62
253
  6
CONTINUOUS
 10
-41.736255499
 20
-2.7314133767
 11
-41.7372354988
 21
-2.6288544643
  0
LINE
  5
6D5
100
AcDbEntity
  8
RACCORDO
100
AcDbLine
 62
253
  6
CONTINUOUS
 10
-41.7358675592
 20
0.5101530657
 11
-41.7360887794
 21
0.5363031591
  0
LINE
  5
6D6
100
AcDbEntity
  8
RACCORDO
100
AcDbLine
 62
253
  6
CONTINUOUS
 10
-41.735810769
 20
-2.8216443345
 11
-41.736255499
 21
-2.7314133767
  0
LINE
  5
6D7
100
AcDbEntity
  8
RACCORDO
100
AcDbLine
 62
253
  6
CONTINUOUS
 10
-41.7357912234
 20
0.4765757228
 11
-41.7358675592
 21
0.5101530657
  0
LINE
  5
6D8
100
AcDbEntity
  8
RACCORDO
100
AcDbLine
 62
253
  6
CONTINUOUS
 10
-41.7372360823
 20
-2.628854454
 11
-41.7372360823
 21
0.2644467629
  0
LINE
  5
6D9
100
AcDbEntity
  8
DRAFT
100
AcDbLine
 62
7
  6
CONTINUOUS
 10
-41.5407265636
 20
1.5167757328
 11
-41.5407265636
 21
-3.8810981704
  0
LINE
  5
6DA
100
AcDbEntity
  8
RACCORDO
100
AcDbLine
 62
7
  6
CONTINUOUS
 10
-41.5407265636
 20
-4.3707451001
 11
-41.5407265636
 21
-3.8810981704
  0
LINE
  5
6DB
100
AcDbEntity
  8
RACCORDO
100
AcDbLine
 62
7
  6
CONTINUOUS
 10
-41.5407265636
 20
1.5167757328
 11
-41.5407265636
 21
2.0064226624
  0
LINE
  5
6DC
100
AcDbEntity
  8
RACCORDO
100
AcDbLine
 62
253
  6
CONTINUOUS
 10
-41.7358106417
 20
-2.8585790259
 11
-41.735810769
 21
-2.8216443345
  0
LINE
  5
6DD
100
AcDbEntity
  8
RACCORDO
100
AcDbLine
 62
253
  6
CONTINUOUS
 10
-41.7359588281
 20
0.4144975449
 11
-41.7357912234
 21
0.4765757228
  0
LINE
  5
6DE
100
AcDbEntity
  8
RACCORDO
100
AcDbLine
 62
253
  6
CONTINUOUS
 10
-41.7366777174
 20
0.316567307
 11
-41.7359588281
 21
0.4144975449
  0
LINE
  5
6DF
100
AcDbEntity
  8
RACCORDO
100
AcDbLine
 62
253
  6
CONTINUOUS
 10
-41.7372361396
 20
0.2644467619
 11
-41.7366777174
 21
0.316567307
  0
LWPOLYLINE
  5
6E0
100
AcDbEntity
  8
RACCORDO
100
AcDbPolyline
 62
253
  6
CONTINUOUS
 90
8
 70
0
 10
-41.7372361396
 20
-2.9287311313
 10
-41.7369380812
 20
-2.9275947691
 10
-41.7366777174
 20
-2.9241821265
 10
-41.7364520594
 20
-2.9185194879
 10
-41.7362553472
 20
-2.910649431
 10
-41.7360884289
 20
-2.9006325393
 10
-41.7359588281
 20
-2.8885489974
 10
-41.7358106417
 20
-2.8585790259
  0
LWPOLYLINE
  5
6E1
100
AcDbEntity
  8
DRAFT
100
AcDbPolyline
 62
7
  6
CONTINUOUS
 90
10
 70
0
 10
-39.389719383
 20
-0.9877621246
 10
-39.4114692502
 20
-1.0011395485
 10
-39.4333383039
 20
-1.0143859655
 10
-39.4553265443
 20
-1.0275013756
 10
-39.4774346947
 20
-1.0404806886
 10
-39.4996620317
 20
-1.0533289946
 10
-39.5220063847
 20
-1.0660615645
 10
-39.5444670303
 20
-1.0786834885
 10
-39.5670446919
 20
-1.0911896763
 10
-39.5897393697
 20
-1.1035801279
  0
LWPOLYLINE
  5
6E2
100
AcDbEntity
  8
ASSI
100
AcDbPolyline
 62
7
  6
CONTINUOUS
 90
10
 70
0
 10
-39.389719383
 20
-0.9877621246
 10
-39.4114692502
 20
-1.0011395485
 10
-39.4333383039
 20
-1.0143859655
 10
-39.4553265443
 20
-1.0275013756
 10
-39.4774346947
 20
-1.0404806886
 10
-39.4996620317
 20
-1.0533289946
 10
-39.5220063847
 20
-1.0660615645
 10
-39.5444670303
 20
-1.0786834885
 10
-39.5670446919
 20
-1.0911896763
 10
-39.5897393697
 20
-1.1035801279
  0
LINE
  5
6E3
100
AcDbEntity
  8
RACCORDO
100
AcDbLine
 62
253
  6
CONTINUOUS
 10
-41.058176312
 20
1.9064835797
 11
-39.2907265636
 21
1.9682042849
  0
LINE
  5
6E4
100
AcDbEntity
  8
RACCORDO
100
AcDbLine
 62
253
  6
CONTINUOUS
 10
-34.6802551198
 20
1.8574540857
 11
-34.0907265636
 21
1.8574540799
  0
LINE
  5
6E5
100
AcDbEntity
  8
RACCORDO
100
AcDbLine
 62
253
  6
CONTINUOUS
 10
-41.5407265636
 20
1.9064835797
 11
-41.0581763121
 21
1.906483583
  0
LINE
  5
6E6
100
AcDbEntity
  8
RACCORDO
100
AcDbLine
 62
253
  6
CONTINUOUS
 10
-34.0407265636
 20
2.02636712
 11
-34.1156077379
 21
2.02636712
  0
LINE
  5
6E7
100
AcDbEntity
  8
ASSI
100
AcDbLine
 62
253
  6
CONTINUOUS
 10
-34.0407265636
 20
2.02636712
 11
-34.1156077379
 21
2.02636712
  0
LINE
  5
6E8
100
AcDbEntity
  8
RACCORDO
100
AcDbLine
 62
253
  6
CONTINUOUS
 10
-34.6802551198
 20
1.8574540857
 11
-39.2907265636
 21
1.9379301641
  0
LINE
  5
6E9
100
AcDbEntity
  8
RACCORDO
100
AcDbLine
 62
7
  6
CONTINUOUS
 10
-37.1224089789
 20
1.28522152
 11
-41.5407265636
 21
1.5167757328
  0
LINE
  5
6EA
100
AcDbEntity
  8
RACCORDO
100
AcDbLine
 62
7
  6
CONTINUOUS
 10
-37.3241686431
 20
1.19796535
 11
-37.3761887015
 21
1.2011308624
  0
LINE
  5
6EB
100
AcDbEntity
  8
ASSI
100
AcDbLine
 62
7
  6
CONTINUOUS
 10
-37.3241686431
 20
1.19796535
 11
-37.3761887015
 21
1.2011308624
  0
LINE
  5
6EC
100
AcDbEntity
  8
0
100
AcDbLine
 62
7
  6
CONTINUOUS
 10
-38.1214863238
 20
0.0417498028
 11
-38.295217892
 21
0.0883010362
  0
LWPOLYLINE
  5
6ED
100
AcDbEntity
  8
DRAFT
100
AcDbPolyline
 62
7
  6
CONTINUOUS
 90
10
 70
0
 10
-38.3919880456
 20
-1.1034312759
 10
-38.4147198096
 20
-1.0910186035
 10
-38.4373379312
 20
-1.0784874172
 10
-38.4598424104
 20
-1.0658377169
 10
-38.4822339779
 20
-1.053074739
 10
-38.504511903
 20
-1.0401932472
 10
-38.526673993
 20
-1.0271775327
 10
-38.5487195169
 20
-1.0140223593
 10
-38.5706492057
 20
-1.0007329632
 10
-38.5924630594
 20
-0.9873093445
  0
LWPOLYLINE
  5
6EE
100
AcDbEntity
  8
ASSI
100
AcDbPolyline
 62
7
  6
CONTINUOUS
 90
10
 70
0
 10
-38.3919880456
 20
-1.1034312759
 10
-38.4147198096
 20
-1.0910186035
 10
-38.4373379312
 20
-1.0784874172
 10
-38.4598424104
 20
-1.0658377169
 10
-38.4822339779
 20
-1.053074739
 10
-38.504511903
 20
-1.0401932472
 10
-38.526673993
 20
-1.0271775327
 10
-38.5487195169
 20
-1.0140223593
 10
-38.5706492057
 20
-1.0007329632
 10
-38.5924630594
 20
-0.9873093445
  0
LINE
  5
6EF
100
AcDbEntity
  8
RACCORDO
100
AcDbLine
 62
253
  6
CONTINUOUS
 10
-41.058176312
 20
1.9064835797
 11
-41.0609343902
 21
2.010548815
  0
LINE
  5
6F0
100
AcDbEntity
  8
RACCORDO
100
AcDbLine
 62
253
  6
CONTINUOUS
 10
-41.0609343902
 20
2.010548815
 11
-41.0630847727
 21
2.1114526942
  0
LINE
  5
6F1
100
AcDbEntity
  8
RACCORDO
100
AcDbLine
 62
253
  6
CONTINUOUS
 10
-41.0630847727
 20
2.1114526942
 11
-41.064552675
 21
2.2061345452
  0
LWPOLYLINE
  5
6F2
100
AcDbEntity
  8
RACCORDO
100
AcDbPolyline
 62
253
  6
CONTINUOUS
 90
12
 70
0
 10
-41.064552675
 20
2.2061345452
 10
-41.0652966411
 20
2.2917223642
 10
-41.0653893742
 20
2.3302814603
 10
-41.0652962371
 20
2.3656191433
 10
-41.0650167762
 20
2.3974669926
 10
-41.0645517004
 20
2.4255831155
 10
-41.0639058696
 20
2.4497538088
 10
-41.0630845531
 20
2.469795383
 10
-41.0620915342
 20
2.4855556485
 10
-41.0609346194
 20
2.4969148071
 10
-41.0596255704
 20
2.5037863904
 10
-41.058176312
 20
2.5061180759
  0
LINE
  5
6F3
100
AcDbEntity
  8
RACCORDO
100
AcDbLine
 62
253
  6
CONTINUOUS
 10
-41.058176312
 20
-4.2708060174
 11
-41.058176312
 21
-3.8558087834
  0
LINE
  5
6F4
100
AcDbEntity
  8
RACCORDO
100
AcDbLine
 62
253
  6
CONTINUOUS
 10
-41.058176312
 20
1.4914863457
 11
-41.058176312
 21
1.9064835797
  0
LINE
  5
6F5
100
AcDbEntity
  8
DRAFT
100
AcDbLine
 62
7
  6
CONTINUOUS
 10
-40.5407265636
 20
1.4643679535
 11
-40.5407265636
 21
-3.8286903912
  0
LINE
  5
6F6
100
AcDbEntity
  8
RACCORDO
100
AcDbLine
 62
7
  6
CONTINUOUS
 10
-40.4907265636
 20
-3.5690092356
 11
-40.4907265636
 21
1.2046867979
  0
LINE
  5
6F7
100
AcDbEntity
  8
ASSI
100
AcDbLine
 62
7
  6
CONTINUOUS
 10
-40.4907265636
 20
-3.5690092356
 11
-40.4907265636
 21
1.2046867979
  0
LINE
  5
6F8
100
AcDbEntity
  8
RACCORDO
100
AcDbLine
 62
253
  6
CONTINUOUS
 10
-41.0653893742
 20
-4.694603898
 11
-41.0650175821
 21
-4.6145573679
  0
LINE
  5
6F9
100
AcDbEntity
  8
RACCORDO
100
AcDbLine
 62
253
  6
CONTINUOUS
 10
-41.0650175821
 20
-4.6145573679
 11
-41.063906582
 21
-4.5240787904
  0
LINE
  5
6FA
100
AcDbEntity
  8
RACCORDO
100
AcDbLine
 62
253
  6
CONTINUOUS
 10
-41.063906582
 20
-4.5240787904
 11
-41.062091399
 21
-4.4259130094
  0
LWPOLYLINE
  5
6FB
100
AcDbEntity
  8
RACCORDO
100
AcDbPolyline
 62
253
  6
CONTINUOUS
 90
3
 70
0
 10
-41.062091399
 20
-4.4259130094
 10
-41.0596253861
 20
-4.3230376542
 10
-41.058176312
 20
-4.2708060174
  0
LWPOLYLINE
  5
6FC
100
AcDbEntity
  8
DRAFT
100
AcDbPolyline
 62
7
  6
CONTINUOUS
 90
10
 70
0
 10
-38.3919880456
 20
-1.2608911618
 10
-38.4147198096
 20
-1.2733038342
 10
-38.4373379312
 20
-1.2858350205
 10
-38.4598424104
 20
-1.2984847208
 10
-38.4822339779
 20
-1.3112476987
 10
-38.504511903
 20
-1.3241291905
 10
-38.526673993
 20
-1.337144905
 10
-38.5487195169
 20
-1.3503000784
 10
-38.5706492057
 20
-1.3635894745
 10
-38.5924630594
 20
-1.3770130932
  0
LWPOLYLINE
  5
6FD
100
AcDbEntity
  8
ASSI
100
AcDbPolyline
 62
7
  6
CONTINUOUS
 90
10
 70
0
 10
-38.3919880456
 20
-1.2608911618
 10
-38.4147198096
 20
-1.2733038342
 10
-38.4373379312
 20
-1.2858350205
 10
-38.4598424104
 20
-1.2984847208
 10
-38.4822339779
 20
-1.3112476987
 10
-38.504511903
 20
-1.3241291905
 10
-38.526673993
 20
-1.337144905
 10
-38.5487195169
 20
-1.3503000784
 10
-38.5706492057
 20
-1.3635894745
 10
-38.5924630594
 20
-1.3770130932
  0
LINE
  5
6FE
100
AcDbEntity
  8
RACCORDO
100
AcDbLine
 62
7
  6
CONTINUOUS
 10
-41.058176312
 20
2.5061180759
 11
-39.2907265636
 21
2.5678387812
  0
LINE
  5
6FF
100
AcDbEntity
  8
DRAFT
100
AcDbLine
 62
7
  6
CONTINUOUS
 10
-37.7907265636
 20
2.6202199354
 11
-39.2907265636
 21
2.5678387812
  0
LINE
  5
700
100
AcDbEntity
  8
RACCORDO
100
AcDbLine
 62
7
  6
CONTINUOUS
 10
-39.2907265636
 20
2.5678387812
 11
-40.2907265636
 21
2.5591119134
  0
LINE
  5
701
100
AcDbEntity
  8
ASSI
100
AcDbLine
 62
7
  6
CONTINUOUS
 10
-39.2907265636
 20
2.5678387812
 11
-40.2907265636
 21
2.5591119134
  0
LINE
  5
702
100
AcDbEntity
  8
RACCORDO
100
AcDbLine
 62
7
  6
CONTINUOUS
 10
-39.2907265636
 20
2.5678387812
 11
-34.5363632959
 21
2.5263480815
  0
LINE
  5
703
100
AcDbEntity
  8
ASSI
100
AcDbLine
 62
7
  6
CONTINUOUS
 10
-39.2907265636
 20
2.5678387812
 11
-34.5363632959
 21
2.5263480815
  0
LINE
  5
704
100
AcDbEntity
  8
RACCORDO
100
AcDbLine
 62
7
  6
CONTINUOUS
 10
-34.6802551198
 20
2.4573627028
 11
-39.2907265636
 21
2.5378387812
  0
LINE
  5
705
100
AcDbEntity
  8
RACCORDO
100
AcDbLine
 62
7
  6
CONTINUOUS
 10
-37.2874018875
 20
1.1924099158
 11
-37.3241686431
 21
1.19796535
  0
LINE
  5
706
100
AcDbEntity
  8
ASSI
100
AcDbLine
 62
7
  6
CONTINUOUS
 10
-37.2874018875
 20
1.1924099158
 11
-37.3241686431
 21
1.19796535
  0
LINE
  5
707
100
AcDbEntity
  8
RACCORDO
100
AcDbLine
 62
7
  6
CONTINUOUS
 10
-40.2907265636
 20
-4.9234343511
 11
-40.2907265636
 21
-4.8972404494
  0
LINE
  5
708
100
AcDbEntity
  8
ASSI
100
AcDbLine
 62
7
  6
CONTINUOUS
 10
-40.2907265636
 20
-4.9234343511
 11
-40.2907265636
 21
-4.8972404494
  0
LINE
  5
709
100
AcDbEntity
  8
RACCORDO
100
AcDbLine
 62
7
  6
CONTINUOUS
 10
-40.2907265636
 20
2.5329180117
 11
-40.2907265636
 21
2.5591119134
  0
LINE
  5
70A
100
AcDbEntity
  8
ASSI
100
AcDbLine
 62
7
  6
CONTINUOUS
 10
-40.2907265636
 20
2.5329180117
 11
-40.2907265636
 21
2.5591119134
  0
LINE
  5
70B
100
AcDbEntity
  8
RACCORDO
100
AcDbLine
 62
253
  6
CONTINUOUS
 10
-39.8775506525
 20
-4.9270400826
 11
-39.8775506525
 21
-4.9116688701
  0
LINE
  5
70C
100
AcDbEntity
  8
ASSI
100
AcDbLine
 62
253
  6
CONTINUOUS
 10
-39.8775506525
 20
-4.9270400826
 11
-39.8775506525
 21
-4.9116688701
  0
LINE
  5
70D
100
AcDbEntity
  8
RACCORDO
100
AcDbLine
 62
253
  6
CONTINUOUS
 10
-39.8775506525
 20
2.5473464324
 11
-39.8775506525
 21
2.5627176449
  0
LINE
  5
70E
100
AcDbEntity
  8
ASSI
100
AcDbLine
 62
253
  6
CONTINUOUS
 10
-39.8775506525
 20
2.5473464324
 11
-39.8775506525
 21
2.5627176449
  0
LINE
  5
70F
100
AcDbEntity
  8
DRAFT
100
AcDbLine
 62
7
  6
CONTINUOUS
 10
-39.5897393697
 20
-1.1035801279
 11
-39.5897393697
 21
-1.2607423097
  0
LINE
  5
710
100
AcDbEntity
  8
ASSI
100
AcDbLine
 62
7
  6
CONTINUOUS
 10
-39.5897393697
 20
-1.1035801279
 11
-39.5897393697
 21
-1.2607423097
  0
LINE
  5
711
100
AcDbEntity
  8
DRAFT
100
AcDbLine
 62
7
  6
CONTINUOUS
 10
-39.389719383
 20
-0.9877621246
 11
-39.389719383
 21
-1.3765603131
  0
LINE
  5
712
100
AcDbEntity
  8
ASSI
100
AcDbLine
 62
7
  6
CONTINUOUS
 10
-39.389719383
 20
-0.9877621246
 11
-39.389719383
 21
-1.3765603131
  0
LINE
  5
713
100
AcDbEntity
  8
RACCORDO
100
AcDbLine
 62
7
  6
CONTINUOUS
 10
-39.2907265636
 20
-4.9321612188
 11
-39.2907265636
 21
-3.763180667
  0
LINE
  5
714
100
AcDbEntity
  8
DRAFT
100
AcDbLine
 62
7
  6
CONTINUOUS
 10
-39.2907265636
 20
-3.763180667
 11
-39.2907265636
 21
-3.2395777678
  0
LINE
  5
715
100
AcDbEntity
  8
ASSI
100
AcDbLine
 62
7
  6
CONTINUOUS
 10
-39.2907265636
 20
-3.763180667
 11
-39.2907265636
 21
-3.2395777678
  0
LINE
  5
716
100
AcDbEntity
  8
DRAFT
100
AcDbLine
 62
7
  6
CONTINUOUS
 10
-39.2907265636
 20
0.8752553301
 11
-39.2907265636
 21
1.3988582294
  0
LINE
  5
717
100
AcDbEntity
  8
ASSI
100
AcDbLine
 62
7
  6
CONTINUOUS
 10
-39.2907265636
 20
0.8752553301
 11
-39.2907265636
 21
1.3988582294
  0
LINE
  5
718
100
AcDbEntity
  8
RACCORDO
100
AcDbLine
 62
7
  6
CONTINUOUS
 10
-39.2907265636
 20
1.3988582294
 11
-39.2907265636
 21
2.5678387812
  0
LINE
  5
719
100
AcDbEntity
  8
DRAFT
100
AcDbLine
 62
7
  6
CONTINUOUS
 10
-38.5924630594
 20
-1.3770130932
 11
-38.5924630594
 21
-0.9873093445
  0
LINE
  5
71A
100
AcDbEntity
  8
ASSI
100
AcDbLine
 62
7
  6
CONTINUOUS
 10
-38.5924630594
 20
-1.3770130932
 11
-38.5924630594
 21
-0.9873093445
  0
LINE
  5
71B
100
AcDbEntity
  8
DRAFT
100
AcDbLine
 62
7
  6
CONTINUOUS
 10
-38.3919880456
 20
-1.2608911618
 11
-38.3919880456
 21
-1.1034312759
  0
LINE
  5
71C
100
AcDbEntity
  8
ASSI
100
AcDbLine
 62
7
  6
CONTINUOUS
 10
-38.3919880456
 20
-1.2608911618
 11
-38.3919880456
 21
-1.1034312759
  0
LINE
  5
71D
100
AcDbEntity
  8
0
100
AcDbLine
 62
7
  6
CONTINUOUS
 10
-38.7977356373
 20
-1.463037271
 11
-38.7682997514
 21
-1.353181049
  0
LINE
  5
71E
100
AcDbEntity
  8
DRAFT
100
AcDbLine
 62
7
  6
CONTINUOUS
 10
-38.7662624058
 20
-2.8910588938
 11
-38.8118580703
 21
-3.0612242305
  0
LINE
  5
71F
100
AcDbEntity
  8
0
100
AcDbLine
 62
7
  6
CONTINUOUS
 10
-38.7001200684
 20
-3.0305826608
 11
-38.6508768765
 21
-2.8468045666
  0
LINE
  5
720
100
AcDbEntity
  8
0
100
AcDbLine
 62
7
  6
CONTINUOUS
 10
-38.364701295
 20
-1.7787827564
 11
-38.3148134269
 21
-1.5925986981
  0
LINE
  5
721
100
AcDbEntity
  8
DRAFT
100
AcDbLine
 62
7
  6
CONTINUOUS
 10
-37.7907265636
 20
2.6202199354
 11
-37.7907265636
 21
2.5547484795
  0
LINE
  5
722
100
AcDbEntity
  8
DRAFT
100
AcDbLine
 62
7
  6
CONTINUOUS
 10
-37.7907265636
 20
-4.9190709172
 11
-37.7907265636
 21
-4.9845423731
  0
LWPOLYLINE
  5
723
100
AcDbEntity
  8
RACCORDO
100
AcDbPolyline
 62
253
  6
CONTINUOUS
 90
16
 70
0
 10
-37.0763771186
 20
0.7011403405
 10
-37.0781149601
 20
0.7327566321
 10
-37.082945619
 20
0.7634254325
 10
-37.0908690956
 20
0.7931467415
 10
-37.1020382689
 20
0.8222367299
 10
-37.1163002598
 20
0.8503792269
 10
-37.1331964306
 20
0.8766257207
 10
-37.152811675
 20
0.9008989506
 10
-37.1750610994
 20
0.9232761771
 10
-37.1992313848
 20
0.9430406699
 10
-37.2254077591
 20
0.96010864
 10
-37.2535049944
 20
0.9745638764
 10
-37.2825540891
 20
0.9859410147
 10
-37.3122320425
 20
0.9940849337
 10
-37.3428618552
 20
0.9991507547
 10
-37.3744435273
 20
1.0011384777
  0
LWPOLYLINE
  5
724
100
AcDbEntity
  8
ASSI
100
AcDbPolyline
 62
253
  6
CONTINUOUS
 90
16
 70
0
 10
-37.0763771186
 20
0.7011403405
 10
-37.0781149601
 20
0.7327566321
 10
-37.082945619
 20
0.7634254325
 10
-37.0908690956
 20
0.7931467415
 10
-37.1020382689
 20
0.8222367299
 10
-37.1163002598
 20
0.8503792269
 10
-37.1331964306
 20
0.8766257207
 10
-37.152811675
 20
0.9008989506
 10
-37.1750610994
 20
0.9232761771
 10
-37.1992313848
 20
0.9430406699
 10
-37.2254077591
 20
0.96010864
 10
-37.2535049944
 20
0.9745638764
 10
-37.2825540891
 20
0.9859410147
 10
-37.3122320425
 20
0.9940849337
 10
-37.3428618552
 20
0.9991507547
 10
-37.3744435273
 20
1.0011384777
  0
LWPOLYLINE
  5
725
100
AcDbEntity
  8
RACCORDO
100
AcDbPolyline
 62
253
  6
CONTINUOUS
 90
15
 70
0
 10
-36.880141693
 20
0.7011403405
 10
-36.8828478575
 20
0.7530690659
 10
-36.8909390992
 20
0.8044488736
 10
-36.9043320202
 20
0.8547231632
 10
-36.9228881024
 20
0.9033505177
 10
-36.9464090704
 20
0.9497985398
 10
-36.97463498
 20
0.9935516076
 10
-37.007258183
 20
1.0341324226
 10
-37.0439276783
 20
1.0711047284
 10
-37.0842439835
 20
1.1040675067
 10
-37.1277694909
 20
1.1326625777
 10
-37.1740348519
 20
1.1565815916
 10
-37.2225420097
 20
1.1755672695
 10
-37.2727677895
 20
1.1894126888
 10
-37.2874018875
 20
1.1924099158
  0
LWPOLYLINE
  5
726
100
AcDbEntity
  8
ASSI
100
AcDbPolyline
 62
253
  6
CONTINUOUS
 90
15
 70
0
 10
-36.880141693
 20
0.7011403405
 10
-36.8828478575
 20
0.7530690659
 10
-36.8909390992
 20
0.8044488736
 10
-36.9043320202
 20
0.8547231632
 10
-36.9228881024
 20
0.9033505177
 10
-36.9464090704
 20
0.9497985398
 10
-36.97463498
 20
0.9935516076
 10
-37.007258183
 20
1.0341324226
 10
-37.0439276783
 20
1.0711047284
 10
-37.0842439835
 20
1.1040675067
 10
-37.1277694909
 20
1.1326625777
 10
-37.1740348519
 20
1.1565815916
 10
-37.2225420097
 20
1.1755672695
 10
-37.2727677895
 20
1.1894126888
 10
-37.2874018875
 20
1.1924099158
  0
LWPOLYLINE
  5
727
100
AcDbEntity
  8
RACCORDO
100
AcDbPolyline
 62
253
  6
CONTINUOUS
 90
6
 70
0
 10
-37.374138565
 20
1.1296807335
 10
-37.3743536663
 20
1.1543306549
 10
-37.3746775328
 20
1.17432681
 10
-37.3751003258
 20
1.1890617433
 10
-37.3756092017
 20
1.1980878275
 10
-37.3761887015
 20
1.2011308624
  0
LWPOLYLINE
  5
728
100
AcDbEntity
  8
ASSI
100
AcDbPolyline
 62
253
  6
CONTINUOUS
 90
6
 70
0
 10
-37.374138565
 20
1.1296807335
 10
-37.3743536663
 20
1.1543306549
 10
-37.3746775328
 20
1.17432681
 10
-37.3751003258
 20
1.1890617433
 10
-37.3756092017
 20
1.1980878275
 10
-37.3761887015
 20
1.2011308624
  0
LINE
  5
729
100
AcDbEntity
  8
RACCORDO
100
AcDbLine
 62
253
  6
CONTINUOUS
 10
-37.3744435273
 20
-3.3654609154
 11
-37.37405737
 21
-3.433850915
  0
LINE
  5
72A
100
AcDbEntity
  8
ASSI
100
AcDbLine
 62
253
  6
CONTINUOUS
 10
-37.3744435273
 20
-3.3654609154
 11
-37.37405737
 21
-3.433850915
  0
LINE
  5
72B
100
AcDbEntity
  8
RACCORDO
100
AcDbLine
 62
253
  6
CONTINUOUS
 10
-37.0763771186
 20
-3.0654627781
 11
-37.0763771186
 21
-2.8946302348
  0
LINE
  5
72C
100
AcDbEntity
  8
ASSI
100
AcDbLine
 62
253
  6
CONTINUOUS
 10
-37.0763771186
 20
-3.0654627781
 11
-37.0763771186
 21
-2.8946302348
  0
LINE
  5
72D
100
AcDbEntity
  8
RACCORDO
100
AcDbLine
 62
253
  6
CONTINUOUS
 10
-37.0763771186
 20
0.5303077971
 11
-37.0763771186
 21
0.7011403405
  0
LINE
  5
72E
100
AcDbEntity
  8
ASSI
100
AcDbLine
 62
253
  6
CONTINUOUS
 10
-37.0763771186
 20
0.5303077971
 11
-37.0763771186
 21
0.7011403405
  0
LINE
  5
72F
100
AcDbEntity
  8
RACCORDO
100
AcDbLine
 62
253
  6
CONTINUOUS
 10
-36.880141693
 20
-3.0654627781
 11
-36.880141693
 21
-2.8980555369
  0
LINE
  5
730
100
AcDbEntity
  8
ASSI
100
AcDbLine
 62
253
  6
CONTINUOUS
 10
-36.880141693
 20
-3.0654627781
 11
-36.880141693
 21
-2.8980555369
  0
LINE
  5
731
100
AcDbEntity
  8
RACCORDO
100
AcDbLine
 62
253
  6
CONTINUOUS
 10
-36.880141693
 20
0.5337330992
 11
-36.880141693
 21
0.7011403405
  0
LINE
  5
732
100
AcDbEntity
  8
ASSI
100
AcDbLine
 62
253
  6
CONTINUOUS
 10
-36.880141693
 20
0.5337330992
 11
-36.880141693
 21
0.7011403405
  0
LINE
  5
733
100
AcDbEntity
  8
RACCORDO
100
AcDbLine
 62
7
  6
CONTINUOUS
 10
-36.8267102964
 20
-3.0649964894
 11
-36.8267102964
 21
-2.8989881854
  0
LINE
  5
734
100
AcDbEntity
  8
ASSI
100
AcDbLine
 62
7
  6
CONTINUOUS
 10
-36.8267102964
 20
-3.0649964894
 11
-36.8267102964
 21
-2.8989881854
  0
LINE
  5
735
100
AcDbEntity
  8
RACCORDO
100
AcDbLine
 62
7
  6
CONTINUOUS
 10
-36.8267102964
 20
0.5346657477
 11
-36.8267102964
 21
0.7006740517
  0
LINE
  5
736
100
AcDbEntity
  8
ASSI
100
AcDbLine
 62
7
  6
CONTINUOUS
 10
-36.8267102964
 20
0.5346657477
 11
-36.8267102964
 21
0.7006740517
  0
LINE
  5
737
100
AcDbEntity
  8
RACCORDO
100
AcDbLine
 62
7
  6
CONTINUOUS
 10
-36.7907265636
 20
-3.3000236205
 11
-36.7907265636
 21
0.9357011828
  0
LINE
  5
738
100
AcDbEntity
  8
RACCORDO
100
AcDbLine
 62
253
  6
CONTINUOUS
 10
-37.3740572962
 20
1.0695335406
 11
-37.374138565
 21
1.1296807335
  0
LINE
  5
739
100
AcDbEntity
  8
ASSI
100
AcDbLine
 62
253
  6
CONTINUOUS
 10
-37.3740572962
 20
1.0695335406
 11
-37.374138565
 21
1.1296807335
  0
LWPOLYLINE
  5
73A
100
AcDbEntity
  8
RACCORDO
100
AcDbPolyline
 62
253
  6
CONTINUOUS
 90
7
 70
0
 10
-37.37405737
 20
-3.433850915
 10
-37.3741386163
 20
-3.4939974723
 10
-37.3743536924
 20
-3.5186484604
 10
-37.3746775359
 20
-3.5386460834
 10
-37.3751003131
 20
-3.5533825173
 10
-37.3756091843
 20
-3.5624097867
 10
-37.3761886924
 20
-3.5654533
  0
LWPOLYLINE
  5
73B
100
AcDbEntity
  8
ASSI
100
AcDbPolyline
 62
253
  6
CONTINUOUS
 90
7
 70
0
 10
-37.37405737
 20
-3.433850915
 10
-37.3741386163
 20
-3.4939974723
 10
-37.3743536924
 20
-3.5186484604
 10
-37.3746775359
 20
-3.5386460834
 10
-37.3751003131
 20
-3.5533825173
 10
-37.3756091843
 20
-3.5624097867
 10
-37.3761886924
 20
-3.5654533
  0
LINE
  5
73C
100
AcDbEntity
  8
RACCORDO
100
AcDbLine
 62
253
  6
CONTINUOUS
 10
-37.3744435273
 20
1.0011384777
 11
-37.3740572962
 21
1.0695335406
  0
LINE
  5
73D
100
AcDbEntity
  8
ASSI
100
AcDbLine
 62
253
  6
CONTINUOUS
 10
-37.3744435273
 20
1.0011384777
 11
-37.3740572962
 21
1.0695335406
  0
LINE
  5
73E
100
AcDbEntity
  8
RACCORDO
100
AcDbLine
 62
253
  6
CONTINUOUS
 10
-34.6802551198
 20
-4.2217765233
 11
-34.6775265446
 21
-4.4076865947
  0
LWPOLYLINE
  5
73F
100
AcDbEntity
  8
RACCORDO
100
AcDbPolyline
 62
253
  6
CONTINUOUS
 90
7
 70
0
 10
-34.6761082763
 20
2.3436446067
 10
-34.6764356756
 20
2.3778138866
 10
-34.6769206048
 20
2.4062455994
 10
-34.6775548527
 20
2.4285496292
 10
-34.678328554
 20
2.4445392104
 10
-34.6792324
 20
2.4541519641
 10
-34.6802551198
 20
2.4573627028
  0
LINE
  5
740
100
AcDbEntity
  8
RACCORDO
100
AcDbLine
 62
253
  6
CONTINUOUS
 10
-34.6775265446
 20
-4.4076865947
 11
-34.6764179182
 21
-4.5225442367
  0
LINE
  5
741
100
AcDbEntity
  8
RACCORDO
100
AcDbLine
 62
253
  6
CONTINUOUS
 10
-34.6764179182
 20
-4.5225442367
 11
-34.6759385684
 21
-4.6241147703
  0
LINE
  5
742
100
AcDbEntity
  8
RACCORDO
100
AcDbLine
 62
253
  6
CONTINUOUS
 10
-34.6802551198
 20
-4.2217765233
 11
-34.6802551198
 21
1.8574540857
  0
LINE
  5
743
100
AcDbEntity
  8
RACCORDO
100
AcDbLine
 62
253
  6
CONTINUOUS
 10
-34.6759385686
 20
2.259792219
 11
-34.6761082763
 21
2.3436446067
  0
LWPOLYLINE
  5
744
100
AcDbEntity
  8
RACCORDO
100
AcDbPolyline
 62
253
  6
CONTINUOUS
 90
8
 70
0
 10
-34.6759385684
 20
-4.6241147703
 10
-34.6761082771
 20
-4.7079671642
 10
-34.6764356771
 20
-4.7421364285
 10
-34.6769206068
 20
-4.7705681189
 10
-34.6775548547
 20
-4.7928721216
 10
-34.6783285552
 20
-4.8088616761
 10
-34.6792323996
 20
-4.8184744097
 10
-34.6802551168
 20
-4.8216851404
  0
LINE
  5
745
100
AcDbEntity
  8
RACCORDO
100
AcDbLine
 62
253
  6
CONTINUOUS
 10
-34.6764179189
 20
2.158221707
 11
-34.6759385686
 21
2.259792219
  0
LINE
  5
746
100
AcDbEntity
  8
RACCORDO
100
AcDbLine
 62
253
  6
CONTINUOUS
 10
-34.6783024977
 20
1.9825443992
 11
-34.6764179189
 21
2.158221707
  0
LINE
  5
747
100
AcDbEntity
  8
RACCORDO
100
AcDbLine
 62
253
  6
CONTINUOUS
 10
-34.6802551198
 20
1.8574540857
 11
-34.6783024977
 21
1.9825443992
  0
LWPOLYLINE
  5
748
100
AcDbEntity
  8
RACCORDO
100
AcDbPolyline
 62
253
  6
CONTINUOUS
 90
4
 70
0
 10
-34.5363632959
 20
2.5263480815
 10
-34.5361558984
 20
2.5240671033
 10
-34.5359945808
 20
2.51729766
 10
-34.5358842419
 20
2.5062457572
  0
LWPOLYLINE
  5
749
100
AcDbEntity
  8
ASSI
100
AcDbPolyline
 62
253
  6
CONTINUOUS
 90
4
 70
0
 10
-34.5363632959
 20
2.5263480815
 10
-34.5361558984
 20
2.5240671033
 10
-34.5359945808
 20
2.51729766
 10
-34.5358842419
 20
2.5062457572
  0
LINE
  5
74A
100
AcDbEntity
  8
RACCORDO
100
AcDbLine
 62
253
  6
CONTINUOUS
 10
-34.5358282138
 20
-4.8370868097
 11
-34.5359539111
 21
-4.8007092836
  0
LINE
  5
74B
100
AcDbEntity
  8
ASSI
100
AcDbLine
 62
253
  6
CONTINUOUS
 10
-34.5358282138
 20
-4.8370868097
 11
-34.5359539111
 21
-4.8007092836
  0
LINE
  5
74C
100
AcDbEntity
  8
RACCORDO
100
AcDbLine
 62
253
  6
CONTINUOUS
 10
-34.5358842419
 20
2.5062457572
 11
-34.5358282447
 21
2.4727587208
  0
LINE
  5
74D
100
AcDbEntity
  8
ASSI
100
AcDbLine
 62
253
  6
CONTINUOUS
 10
-34.5358842419
 20
2.5062457572
 11
-34.5358282447
 21
2.4727587208
  0
LINE
  5
74E
100
AcDbEntity
  8
RACCORDO
100
AcDbLine
 62
7
  6
CONTINUOUS
 10
-34.0907265636
 20
-4.2217765233
 11
-34.0907265636
 21
1.8574540857
  0
LINE
  5
74F
100
AcDbEntity
  8
RACCORDO
100
AcDbLine
 62
7
  6
CONTINUOUS
 10
-34.0407265636
 20
2.0262029546
 11
-34.0407265636
 21
-4.3905763397
  0
LINE
  5
750
100
AcDbEntity
  8
ASSI
100
AcDbLine
 62
7
  6
CONTINUOUS
 10
-34.0407265636
 20
2.0262029546
 11
-34.0407265636
 21
-4.3905763397
  0
LINE
  5
751
100
AcDbEntity
  8
RACCORDO
100
AcDbLine
 62
253
  6
CONTINUOUS
 10
-34.5358282447
 20
2.4727587208
 11
-34.5359539295
 21
2.4363868511
  0
LINE
  5
752
100
AcDbEntity
  8
ASSI
100
AcDbLine
 62
253
  6
CONTINUOUS
 10
-34.5358282447
 20
2.4727587208
 11
-34.5359539295
 21
2.4363868511
  0
LWPOLYLINE
  5
753
100
AcDbEntity
  8
RACCORDO
100
AcDbPolyline
 62
253
  6
CONTINUOUS
 90
5
 70
0
 10
-34.5363632959
 20
-4.8906705192
 10
-34.5361559079
 20
-4.8883900056
 10
-34.535994589
 20
-4.8816217174
 10
-34.5358842405
 20
-4.870571286
 10
-34.5358282138
 20
-4.8370868097
  0
LWPOLYLINE
  5
754
100
AcDbEntity
  8
ASSI
100
AcDbPolyline
 62
253
  6
CONTINUOUS
 90
5
 70
0
 10
-34.5363632959
 20
-4.8906705192
 10
-34.5361559079
 20
-4.8883900056
 10
-34.535994589
 20
-4.8816217174
 10
-34.5358842405
 20
-4.870571286
 10
-34.5358282138
 20
-4.8370868097
  0
ARC
  5
755
100
AcDbEntity
  8
RACCORDO
100
AcDbCircle
 62
7
  6
CONTINUOUS
 10
-38.9907265636
 20
-2.1821612188
 40
1.6
100
AcDbArc
 50
301.7143149194
 51
38.6821874535
  0
ARC
  5
756
100
AcDbEntity
  8
RACCORDO
100
AcDbCircle
 62
7
  6
CONTINUOUS
 10
-38.9907265636
 20
-2.1821612188
 40
1.6
100
AcDbArc
 50
201.7867892983
 51
238.7016622811
  0
ARC
  5
757
100
AcDbEntity
  8
ASSI
100
AcDbCircle
 62
7
  6
CONTINUOUS
 10
-38.9907265636
 20
-2.1821612188
 40
1.6
100
AcDbArc
 50
301.7143149194
 51
38.6821874535
  0
ARC
  5
758
100
AcDbEntity
  8
ASSI
100
AcDbCircle
 62
7
  6
CONTINUOUS
 10
-38.9907265636
 20
-2.1821612188
 40
1.6
100
AcDbArc
 50
201.7867892983
 51
238.7016622811
  0
CIRCLE
  5
759
100
AcDbEntity
  8
0
100
AcDbCircle
 62
7
  6
CONTINUOUS
 10
-38.9907265636
 20
-2.1821612188
 40
0.75
  0
ARC
  5
75A
100
AcDbEntity
  8
RACCORDO
100
AcDbCircle
 62
7
  6
CONTINUOUS
 10
-39.9907265636
 20
-3.5690092356
 40
0.5
100
AcDbArc
 50
180.0
 51
210.5064810837
  0
ARC
  5
75B
100
AcDbEntity
  8
ASSI
100
AcDbCircle
 62
7
  6
CONTINUOUS
 10
-39.9907265636
 20
-3.5690092356
 40
0.5
100
AcDbArc
 50
180.0
 51
210.5064810837
  0
ARC
  5
75C
100
AcDbEntity
  8
RACCORDO
100
AcDbCircle
 62
7
  6
CONTINUOUS
 10
-41.0407265636
 20
-4.370739633
 40
0.5
100
AcDbArc
 50
180.0006264786
 51
268.0000218541
  0
CIRCLE
  5
75D
100
AcDbEntity
  8
0
100
AcDbCircle
 62
7
  6
CONTINUOUS
 10
-38.9907265636
 20
-2.1821612188
 40
0.4
  0
ARC
  5
75E
100
AcDbEntity
  8
RACCORDO
100
AcDbCircle
 62
7
  6
CONTINUOUS
 10
-42.2407265636
 20
-2.619896975
 40
0.3
100
AcDbArc
 50
180.0
 51
269.0
  0
ARC
  5
75F
100
AcDbEntity
  8
RACCORDO
100
AcDbCircle
 62
7
  6
CONTINUOUS
 10
-39.7180186142
 20
-3.3784246819
 40
0.2
100
AcDbArc
 50
238.7016622811
 51
269.5
  0
ARC
  5
760
100
AcDbEntity
  8
RACCORDO
100
AcDbCircle
 62
7
  6
CONTINUOUS
 10
-40.2907265636
 20
-2.7017764611
 40
0.2
100
AcDbArc
 50
180.0
 51
201.7867892983
  0
ARC
  5
761
100
AcDbEntity
  8
ASSI
100
AcDbCircle
 62
7
  6
CONTINUOUS
 10
-39.7180186142
 20
-3.3784246819
 40
0.2
100
AcDbArc
 50
238.7016622811
 51
269.5
  0
ARC
  5
762
100
AcDbEntity
  8
ASSI
100
AcDbCircle
 62
7
  6
CONTINUOUS
 10
-40.2907265636
 20
-2.7017764611
 40
0.2
100
AcDbArc
 50
180.0
 51
201.7867892983
  0
ARC
  5
763
100
AcDbEntity
  8
RACCORDO
100
AcDbCircle
 62
7
  6
CONTINUOUS
 10
-41.7407265636
 20
-3.1287006715
 40
0.2
100
AcDbArc
 50
0.0
 51
89.0000119293
  0
ARC
  5
764
100
AcDbEntity
  8
RACCORDO
100
AcDbCircle
 62
7
  6
CONTINUOUS
 10
-40.3407265636
 20
-1.6358629155
 40
0.2
100
AcDbArc
 50
138.7022362975
 51
180.0
  0
ARC
  5
765
100
AcDbEntity
  8
RACCORDO
100
AcDbCircle
 62
7
  6
CONTINUOUS
 10
-38.9907265636
 20
-0.1821612188
 40
1.6
100
AcDbArc
 50
321.3178125465
 51
58.2856850806
  0
ARC
  5
766
100
AcDbEntity
  8
RACCORDO
100
AcDbCircle
 62
7
  6
CONTINUOUS
 10
-38.9907265636
 20
-0.1821612188
 40
1.6
100
AcDbArc
 50
121.2983377189
 51
158.2132107017
  0
ARC
  5
767
100
AcDbEntity
  8
ASSI
100
AcDbCircle
 62
7
  6
CONTINUOUS
 10
-38.9907265636
 20
-0.1821612188
 40
1.6
100
AcDbArc
 50
321.3178125465
 51
58.2856850806
  0
ARC
  5
768
100
AcDbEntity
  8
ASSI
100
AcDbCircle
 62
7
  6
CONTINUOUS
 10
-38.9907265636
 20
-0.1821612188
 40
1.6
100
AcDbArc
 50
121.2983377189
 51
158.2132107017
  0
CIRCLE
  5
769
100
AcDbEntity
  8
0
100
AcDbCircle
 62
7
  6
CONTINUOUS
 10
-38.9907265636
 20
-0.1821612188
 40
0.75
  0
ARC
  5
76A
100
AcDbEntity
  8
RACCORDO
100
AcDbCircle
 62
7
  6
CONTINUOUS
 10
-39.9907265636
 20
1.2046867979
 40
0.5
100
AcDbArc
 50
149.4935189164
 51
180.0
  0
ARC
  5
76B
100
AcDbEntity
  8
ASSI
100
AcDbCircle
 62
7
  6
CONTINUOUS
 10
-39.9907265636
 20
1.2046867979
 40
0.5
100
AcDbArc
 50
149.4935189164
 51
180.0
  0
ARC
  5
76C
100
AcDbEntity
  8
RACCORDO
100
AcDbCircle
 62
7
  6
CONTINUOUS
 10
-41.0407265636
 20
2.0064170205
 40
0.5
100
AcDbArc
 50
91.9999774483
 51
179.9993534814
  0
CIRCLE
  5
76D
100
AcDbEntity
  8
0
100
AcDbCircle
 62
7
  6
CONTINUOUS
 10
-38.9907265636
 20
-0.1821612188
 40
0.4
  0
ARC
  5
76E
100
AcDbEntity
  8
RACCORDO
100
AcDbCircle
 62
7
  6
CONTINUOUS
 10
-42.2407265636
 20
0.2555745373
 40
0.3
100
AcDbArc
 50
91.0
 51
180.0
  0
ARC
  5
76F
100
AcDbEntity
  8
RACCORDO
100
AcDbCircle
 62
7
  6
CONTINUOUS
 10
-39.7180186142
 20
1.0141022442
 40
0.2
100
AcDbArc
 50
90.5
 51
121.2983377189
  0
ARC
  5
770
100
AcDbEntity
  8
RACCORDO
100
AcDbCircle
 62
7
  6
CONTINUOUS
 10
-40.2907265636
 20
0.3374540234
 40
0.2
100
AcDbArc
 50
158.2132107017
 51
180.0
  0
ARC
  5
771
100
AcDbEntity
  8
ASSI
100
AcDbCircle
 62
7
  6
CONTINUOUS
 10
-39.7180186142
 20
1.0141022442
 40
0.2
100
AcDbArc
 50
90.5
 51
121.2983377189
  0
ARC
  5
772
100
AcDbEntity
  8
ASSI
100
AcDbCircle
 62
7
  6
CONTINUOUS
 10
-40.2907265636
 20
0.3374540234
 40
0.2
100
AcDbArc
 50
158.2132107017
 51
180.0
  0
ARC
  5
773
100
AcDbEntity
  8
RACCORDO
100
AcDbCircle
 62
7
  6
CONTINUOUS
 10
-41.7407265636
 20
0.7643782338
 40
0.2
100
AcDbArc
 50
271.0
 51
360.0
  0
ARC
  5
774
100
AcDbEntity
  8
RACCORDO
100
AcDbCircle
 62
7
  6
CONTINUOUS
 10
-40.3407265636
 20
-0.2684595222
 40
0.2
100
AcDbArc
 50
180.0
 51
221.2977640754
  0
ARC
  5
775
100
AcDbEntity
  8
RACCORDO
100
AcDbCircle
 62
7
  6
CONTINUOUS
 10
-34.6907265636
 20
-4.2217765233
 40
0.6
100
AcDbArc
 50
271.0
 51
360.0
  0
ARC
  5
776
100
AcDbEntity
  8
RACCORDO
100
AcDbCircle
 62
7
  6
CONTINUOUS
 10
-34.5407265636
 20
-4.3906840822
 40
0.5
100
AcDbArc
 50
270.499994527
 51
359.9993725557
  0
ARC
  5
777
100
AcDbEntity
  8
ASSI
100
AcDbCircle
 62
7
  6
CONTINUOUS
 10
-34.5407265636
 20
-4.3906840822
 40
0.5
100
AcDbArc
 50
270.499994527
 51
359.9993725557
  0
ARC
  5
778
100
AcDbEntity
  8
RACCORDO
100
AcDbCircle
 62
7
  6
CONTINUOUS
 10
-37.1407265636
 20
-3.3000236205
 40
0.35
100
AcDbArc
 50
273.0
 51
360.0
  0
ARC
  5
779
100
AcDbEntity
  8
RACCORDO
100
AcDbCircle
 62
7
  6
CONTINUOUS
 10
-38.2547686788
 20
-3.3731129357
 40
0.2
100
AcDbArc
 50
270.5
 51
301.7143149194
  0
ARC
  5
77A
100
AcDbEntity
  8
ASSI
100
AcDbCircle
 62
7
  6
CONTINUOUS
 10
-38.2547686788
 20
-3.3731129357
 40
0.2
100
AcDbArc
 50
270.5
 51
301.7143149194
  0
ARC
  5
77B
100
AcDbEntity
  8
DRAFT
100
AcDbCircle
 62
7
  6
CONTINUOUS
 10
-37.7907265636
 20
-1.1821612188
 40
2.2
100
AcDbArc
 50
200.0883146301
 51
207.8619718643
  0
ARC
  5
77C
100
AcDbEntity
  8
DRAFT
100
AcDbCircle
 62
7
  6
CONTINUOUS
 10
-37.7907265636
 20
-1.1821612188
 40
2.2
100
AcDbArc
 50
152.1284458219
 51
159.9211106176
  0
ARC
  5
77D
100
AcDbEntity
  8
DRAFT
100
AcDbCircle
 62
7
  6
CONTINUOUS
 10
-37.7907265636
 20
-1.1821612188
 40
2.2
100
AcDbArc
 50
124.9057227251
 51
128.1596397213
  0
ARC
  5
77E
100
AcDbEntity
  8
RACCORDO
100
AcDbCircle
 62
7
  6
CONTINUOUS
 10
-34.6907265636
 20
1.8574540857
 40
0.6
100
AcDbArc
 50
0.0
 51
89.0
  0
ARC
  5
77F
100
AcDbEntity
  8
RACCORDO
100
AcDbCircle
 62
7
  6
CONTINUOUS
 10
-34.5407265636
 20
2.02636712
 40
0.5
100
AcDbArc
 50
359.981188034
 51
89.5
  0
ARC
  5
780
100
AcDbEntity
  8
ASSI
100
AcDbCircle
 62
7
  6
CONTINUOUS
 10
-34.5407265636
 20
2.02636712
 40
0.5
100
AcDbArc
 50
359.981188034
 51
89.5
  0
ARC
  5
781
100
AcDbEntity
  8
RACCORDO
100
AcDbCircle
 62
7
  6
CONTINUOUS
 10
-37.1407265636
 20
0.9357011828
 40
0.35
100
AcDbArc
 50
0.0
 51
87.0
  0
ARC
  5
782
100
AcDbEntity
  8
RACCORDO
100
AcDbCircle
 62
7
  6
CONTINUOUS
 10
-38.2547686788
 20
1.008790498
 40
0.2
100
AcDbArc
 50
58.2856850806
 51
89.5
  0
ARC
  5
783
100
AcDbEntity
  8
ASSI
100
AcDbCircle
 62
7
  6
CONTINUOUS
 10
-38.2547686788
 20
1.008790498
 40
0.2
100
AcDbArc
 50
58.2856850806
 51
89.5
  0
ELLIPSE
  5
784
100
AcDbEntity
  8
DRAFT
100
AcDbEllipse
 62
7
  6
CONTINUOUS
 10
-38.9915486121
 20
-0.1821612188
 30
0.0
 11
0.8986285802
 21
0.0
 31
0.0
 40
0.9999995816
 41
5.1725642146
 42
10.5365348994
  0
ELLIPSE
  5
785
100
AcDbEntity
  8
DRAFT
100
AcDbEllipse
 62
7
  6
CONTINUOUS
 10
-38.9915486121
 20
-2.1821612188
 30
0.0
 11
0.8986285802
 21
-0.0
 31
0.0
 40
0.9999995816
 41
2.029835715
 42
7.3938063997
  0
ELLIPSE
  5
786
100
AcDbEntity
  8
DRAFT
100
AcDbEllipse
 62
7
  6
CONTINUOUS
 10
-38.9912292034
 20
-2.1821612188
 30
0.0
 11
1.0990125844
 21
-0.0
 31
0.0
 40
0.9999998954
 41
-1.8468022765
 42
0.9941040743
  0
ELLIPSE
  5
787
100
AcDbEntity
  8
DRAFT
100
AcDbEllipse
 62
7
  6
CONTINUOUS
 10
-38.9912292034
 20
-0.1821612188
 30
0.0
 11
1.0990125844
 21
-0.0
 31
0.0
 40
0.9999998954
 41
-0.9941040743
 42
1.8468022765
  0
ELLIPSE
  5
788
100
AcDbEntity
  8
RACCORDO
100
AcDbEllipse
 62
7
  6
CONTINUOUS
 10
-37.3276255659
 20
0.7006880191
 30
0.0
 11
0.5009007152
 21
-0.0038254608
 31
0.0
 40
0.9981726973
 41
0.0076230607
 42
1.4635937072
  0
ELLIPSE
  5
789
100
AcDbEntity
  8
DRAFT
100
AcDbEllipse
 62
7
  6
CONTINUOUS
 10
-38.9902237984
 20
-0.1821612188
 30
0.0
 11
1.0992869979
 21
-0.0
 31
0.0
 40
0.9999998954
 41
1.8476822578
 42
4.1355613032
  0
ELLIPSE
  5
78A
100
AcDbEntity
  8
DRAFT
100
AcDbEllipse
 62
7
  6
CONTINUOUS
 10
-38.9902237984
 20
-2.1821612188
 30
0.0
 11
1.0992869979
 21
-0.0
 31
0.0
 40
0.9999998954
 41
2.147624004
 42
4.4355030494
  0
ELLIPSE
  5
78B
100
AcDbEntity
  8
RACCORDO
100
AcDbEllipse
 62
7
  6
CONTINUOUS
 10
-37.3276255659
 20
-3.0650104568
 30
0.0
 11
0.5009007152
 21
0.0038254608
 31
0.0
 40
0.9981726973
 41
-1.5697047011
 42
-0.0076230607
  0
ELLIPSE
  5
78C
100
AcDbEntity
  8
ASSI
100
AcDbEllipse
 62
7
  6
CONTINUOUS
 10
-38.9915486121
 20
-0.1821612188
 30
0.0
 11
0.8986285802
 21
0.0
 31
0.0
 40
0.9999995816
 41
5.1725642146
 42
10.5365348994
  0
ELLIPSE
  5
78D
100
AcDbEntity
  8
ASSI
100
AcDbEllipse
 62
7
  6
CONTINUOUS
 10
-38.9915486121
 20
-2.1821612188
 30
0.0
 11
0.8986285802
 21
-0.0
 31
0.0
 40
0.9999995816
 41
2.029835715
 42
7.3938063997
  0
ELLIPSE
  5
78E
100
AcDbEntity
  8
ASSI
100
AcDbEllipse
 62
7
  6
CONTINUOUS
 10
-38.9902237984
 20
-0.1821612188
 30
0.0
 11
1.0992869979
 21
-0.0
 31
0.0
 40
0.9999998954
 41
1.8476822578
 42
4.1355613032
  0
ELLIPSE
  5
78F
100
AcDbEntity
  8
ASSI
100
AcDbEllipse
 62
7
  6
CONTINUOUS
 10
-38.9902237984
 20
-2.1821612188
 30
0.0
 11
1.0992869979
 21
-0.0
 31
0.0
 40
0.9999998954
 41
2.147624004
 42
4.4355030494
  0
ELLIPSE
  5
790
100
AcDbEntity
  8
ASSI
100
AcDbEllipse
 62
7
  6
CONTINUOUS
 10
-37.3276255659
 20
0.7006880191
 30
0.0
 11
0.5009007152
 21
-0.0038254608
 31
0.0
 40
0.9981726973
 41
0.0076230607
 42
1.4635937072
  0
ELLIPSE
  5
791
100
AcDbEntity
  8
ASSI
100
AcDbEllipse
 62
7
  6
CONTINUOUS
 10
-37.3276255659
 20
-3.0650104568
 30
0.0
 11
0.5009007152
 21
0.0038254608
 31
0.0
 40
0.9981726973
 41
-1.5697047011
 42
-0.0076230607
  0
ELLIPSE
  5
792
100
AcDbEntity
  8
ASSI
100
AcDbEllipse
 62
7
  6
CONTINUOUS
 10
-38.9912292034
 20
-2.1821612188
 30
0.0
 11
1.0990125844
 21
-0.0
 31
0.0
 40
0.9999998954
 41
-1.8468022765
 42
0.9941040743
  0
ELLIPSE
  5
793
100
AcDbEntity
  8
ASSI
100
AcDbEllipse
 62
7
  6
CONTINUOUS
 10
-38.9912292034
 20
-0.1821612188
 30
0.0
 11
1.0990125844
 21
-0.0
 31
0.0
 40
0.9999998954
 41
-0.9941040743
 42
1.8468022765
  0
ENDSEC
  0
SECTION
  2
OBJECTS
  0
DICTIONARY
  5
C
100
AcDbDictionary
280
0
281
1
  3
ACAD_GROUP
350
D
  3
ACAD_MLINESTYLE
350
17
  3
ACAD_LAYOUT
350
1A
  3
ACAD_PLOTSETTINGS
350
19
  3
ACAD_PLOTSTYLENAME
350
E
  0
DICTIONARY
  5
D
102
{ACAD_REACTORS
330
C
102
}
100
AcDbDictionary
280
0
281
1
  0
ACDBDICTIONARYWDFLT
  5
E
102
{ACAD_REACTORS
330
C
102
}
100
AcDbDictionary
281
1
  3
Normal
350
F
100
AcDbDictionaryWithDefault
340
F
  0
DICTIONARY
  5
17
102
{ACAD_REACTORS
330
C
102
}
100
AcDbDictionary
280
0
281
1
  3
Standard
350
18
  0
DICTIONARY
  5
19
102
{ACAD_REACTORS
330
C
102
}
100
AcDbDictionary
281
1
  0
DICTIONARY
  5
1A
102
{ACAD_REACTORS
330
C
102
}
100
AcDbDictionary
281
1
  3
Model
350
794
  3
Layout1
350
795
  0
ACDBPLACEHOLDER
  5
F
102
{ACAD_REACTORS
330
E
102
}
  0
MLINESTYLE
  5
18
102
{ACAD_REACTORS
330
17
102
}
100
AcDbMlineStyle
  2
STANDARD
 70
0
  3

 62
256
 51
90.0
 52
90.0
 71
2
 49
0.5
 62
256
  6
BYLAYER
 49
-0.5
 62
256
  6
BYLAYER
  0
LAYOUT
  5
794
102
{ACAD_REACTORS
330
1A
102
}
100
AcDbPlotSettings
  1

  2
none_device
  4
ISO_A4_(297.00_x_210.00_MM)
  6

 40
0.0
 41
0.0
 42
0.0
 43
0.0
 44
297.0
 45
210.0
 46
0.0
 47
0.0
 48
0.0
 49
0.0
140
0.0
141
0.0
142
1.0
143
1.0
 70
1024
 72
1
 73
0
 74
0
  7

 75
0
147
1.0
148
0.0
149
0.0
100
AcDbLayout
  1
Model
 70
0
 71
0
 10
0.0
 20
0.0
 11
297.0
 21
210.0
 12
0.0
 22
0.0
 32
0.0
 14
0.0
 24
0.0
 34
0.0
 15
0.0
 25
0.0
 35
0.0
146
0.0
 13
0.0
 23
0.0
 33
0.0
 16
1.0
 26
0.0
 36
0.0
 17
0.0
 27
1.0
 37
0.0
 76
0
330
212
345
0
346
0
  0
LAYOUT
  5
795
102
{ACAD_REACTORS
330
1A
102
}
100
AcDbPlotSettings
  1

  2
none_device
  4
ISO_A4_(297.00_x_210.00_MM)
  6

 40
0.0
 41
0.0
 42
0.0
 43
0.0
 44
297.0
 45
210.0
 46
0.0
 47
0.0
 48
0.0
 49
0.0
140
0.0
141
0.0
142
1.0
143
1.0
 70
0
 72
1
 73
0
 74
0
  7

 75
0
147
1.0
148
0.0
149
0.0
100
AcDbLayout
  1
Layout1
 70
0
 71
1
 10
0.0
 20
0.0
 11
297.0
 21
210.0
 12
0.0
 22
0.0
 32
0.0
 14
0.0
 24
0.0
 34
0.0
 15
0.0
 25
0.0
 35
0.0
146
0.0
 13
0.0
 23
0.0
 33
0.0
 16
1.0
 26
0.0
 36
0.0
 17
0.0
 27
1.0
 37
0.0
 76
0
330
213
345
0
346
0
  0
ENDSEC
  0
EOF
