  0
SECTION
  2
HEADER
  9
$ACADVER
  1
AC1021
  9
$DWGCODEPAGE
  3
ANSI_1252
  9
$EXTMAX
 10
297.0
 20
210.0
 30
0.0
  9
$EXTMIN
 10
0.0
 20
0.0
 30
0.0
  9
$LIMMIN
 10
0.0
 20
0.0
  9
$LIMMAX
 10
297.0
 20
210.0
  9
$VIEWCTR
 10
148.5
 20
105.0
  9
$VIEWSIZE
 40
210.0
  9
$CLAYER
  8
0
  9
$LTSCALE
 40
16.335
  9
$CELTYPE
  6
BYLAYER
  9
$DIMSCALE
 40
1.0
  9
$DIMASZ
 40
3.0
  9
$DIMEXO
 40
1.85625
  9
$DIMDLI
 40
11.286
  9
$DIMEXE
 40
5.346
  9
$DIMCEN
 40
2.673
  9
$DIMLFAC
 40
1.0
  9
$DIMBLK
  1
_FILLED
  9
$DIMTXT
 40
3.0
  9
$DIMTOL
 70
1
  9
$DIMLIM
 70
0
  9
$DIMTFAC
 40
1.0
  9
$DIMTP
 40
0.01
  9
$DIMTM
 40
0.01
  9
$PDMODE
 70
3
  9
$PDSIZE
 40
3.0
  9
$HANDSEED
  5
3EB
  9
$TILEMODE
 70
1
  9
$MEASUREMENT
 70
1
  9
$INSUNITS
 70
4
  0
ENDSEC
  0
SECTION
  2
CLASSES
  0
CLASS
  1
ACDBDICTIONARYWDFLT
  2
AcDbDictionaryWithDefault
  3
AutoCAD 2000
 90
0
 91
1
280
0
281
0
  0
CLASS
  1
ACDBPLACEHOLDER
  2
AcDbPlaceHolder
  3
AutoCAD 2000
 90
0
 91
1
280
0
281
0
  0
CLASS
  1
LAYOUT
  2
AcDbLayout
  3
AutoCAD 2000
 90
0
 91
0
280
0
281
0
  0
ENDSEC
  0
SECTION
  2
TABLES
  0
TABLE
  2
VPORT
  5
8
100
AcDbSymbolTable
 70
2
  0
VPORT
  5
1F4
100
AcDbSymbolTableRecord
100
AcDbViewportTableRecord
  2
*ACTIVE
 70
0
 10
0.0
 20
0.0
 11
1.0
 21
1.0
 12
148.5
 22
105.0
 13
0.0
 23
0.0
 14
1.0
 24
1.0
 15
0.0
 25
0.0
 16
0.0
 26
0.0
 36
1.0
 17
0.0
 27
0.0
 37
0.0
 40
210.0
 41
1.4142857143
 42
50.0
 43
0.0
 44
0.0
 50
0.0
 51
0.0
 71
0
 72
100
 73
1
 74
1
 75
0
 76
0
 77
0
 78
0
  0
ENDTAB
  0
TABLE
  2
LTYPE
  5
5
100
AcDbSymbolTable
 70
6
  0
LTYPE
  5
14
100
AcDbSymbolTableRecord
100
AcDbLinetypeTableRecord
  2
BYBLOCK
 70
0
  3

 72
65
 73
0
 40
0.0
  0
LTYPE
  5
15
100
AcDbSymbolTableRecord
100
AcDbLinetypeTableRecord
  2
BYLAYER
 70
0
  3

 72
65
 73
0
 40
0.0
  0
LTYPE
  5
16
100
AcDbSymbolTableRecord
100
AcDbLinetypeTableRecord
  2
CONTINUOUS
 70
64
  3
Solid line
 72
65
 73
0
 40
0.0
  0
LTYPE
  5
1F5
100
AcDbSymbolTableRecord
100
AcDbLinetypeTableRecord
  2
CENTER
 70
64
  3
____ _ ____ _ ____ _ ____ _ ____ _ ____ _ ____
 72
65
 73
4
 40
0.6
 49
0.375
 74
0
 49
-0.075
 74
0
 49
0.075
 74
0
 49
-0.075
 74
0
  0
LTYPE
  5
1F6
100
AcDbSymbolTableRecord
100
AcDbLinetypeTableRecord
  2
HIDDEN
 70
64
  3
- - - - - - - - - - - - - - - - - - - -
 72
65
 73
2
 40
0.2
 49
0.1
 74
0
 49
-0.1
 74
0
  0
LTYPE
  5
1F7
100
AcDbSymbolTableRecord
100
AcDbLinetypeTableRecord
  2
PHANTOM
 70
64
  3
_____ _ _ _____ _ _ _____ _ _ _____
 72
65
 73
6
 40
0.8
 49
0.45
 74
0
 49
-0.05
 74
0
 49
0.1
 74
0
 49
-0.05
 74
0
 49
0.1
 74
0
 49
-0.05
 74
0
  0
LTYPE
  5
1F8
100
AcDbSymbolTableRecord
100
AcDbLinetypeTableRecord
  2
DOT
 70
64
  3
. . . . . . . . . . . . . . . . . . . .
 72
65
 73
2
 40
0.2
 49
0.1
 74
0
 49
-0.1
 74
0
  0
LTYPE
  5
1F9
100
AcDbSymbolTableRecord
100
AcDbLinetypeTableRecord
  2
DASHED
 70
64
  3
- - - - - - - - - - - - - - - - - - - -
 72
65
 73
2
 40
0.2
 49
0.1
 74
0
 49
-0.1
 74
0
  0
ENDTAB
  0
TABLE
  2
LAYER
  5
2
100
AcDbSymbolTable
 70
36
  0
LAYER
  5
10
100
AcDbSymbolTableRecord
100
AcDbLayerTableRecord
  2
0
 70
0
 62
7
  6
CONTINUOUS
370
-3
390
F
  0
LAYER
  5
1FA
100
AcDbSymbolTableRecord
100
AcDbLayerTableRecord
  2
DEFAULT_1
 70
0
 62
7
  6
CENTER
370
-3
390
F
  0
LAYER
  5
1FB
100
AcDbSymbolTableRecord
100
AcDbLayerTableRecord
  2
DEFAULT_2
 70
0
 62
7
  6
HIDDEN
370
-3
390
F
  0
LAYER
  5
1FC
100
AcDbSymbolTableRecord
100
AcDbLayerTableRecord
  2
DEFAULT_3
 70
0
 62
7
  6
PHANTOM
370
-3
390
F
  0
LAYER
  5
1FD
100
AcDbSymbolTableRecord
100
AcDbLayerTableRecord
  2
ASSI
 70
0
 62
7
  6
CONTINUOUS
370
-3
390
F
  0
LAYER
  5
1FE
100
AcDbSymbolTableRecord
100
AcDbLayerTableRecord
  2
COLORE
 70
0
 62
7
  6
CONTINUOUS
370
-3
390
F
  0
LAYER
  5
1FF
100
AcDbSymbolTableRecord
100
AcDbLayerTableRecord
  2
COORDINATE
 70
0
 62
7
  6
CONTINUOUS
370
-3
390
F
  0
LAYER
  5
200
100
AcDbSymbolTableRecord
100
AcDbLayerTableRecord
  2
COORD_ORIGINE
 70
0
 62
7
  6
CONTINUOUS
370
-3
390
F
  0
LAYER
  5
201
100
AcDbSymbolTableRecord
100
AcDbLayerTableRecord
  2
CURVE
 70
0
 62
7
  6
CONTINUOUS
370
-3
390
F
  0
LAYER
  5
202
100
AcDbSymbolTableRecord
100
AcDbLayerTableRecord
  2
DRAFT
 70
0
 62
7
  6
CONTINUOUS
370
-3
390
F
  0
LAYER
  5
203
100
AcDbSymbolTableRecord
100
AcDbLayerTableRecord
  2
IGES_SCRITTE
 70
0
 62
7
  6
CONTINUOUS
370
-3
390
F
  0
LAYER
  5
204
100
AcDbSymbolTableRecord
100
AcDbLayerTableRecord
  2
IMPORT
 70
0
 62
7
  6
CONTINUOUS
370
-3
390
F
  0
LAYER
  5
205
100
AcDbSymbolTableRecord
100
AcDbLayerTableRecord
  2
INTF_1
 70
0
 62
7
  6
CONTINUOUS
370
-3
390
F
  0
LAYER
  5
206
100
AcDbSymbolTableRecord
100
AcDbLayerTableRecord
  2
INTF_RED
 70
0
 62
7
  6
CONTINUOUS
370
-3
390
F
  0
LAYER
  5
207
100
AcDbSymbolTableRecord
100
AcDbLayerTableRecord
  2
INTF_YELLOW
 70
0
 62
7
  6
CONTINUOUS
370
-3
390
F
  0
LAYER
  5
208
100
AcDbSymbolTableRecord
100
AcDbLayerTableRecord
  2
NOTE
 70
0
 62
7
  6
CONTINUOUS
370
-3
390
F
  0
LAYER
  5
209
100
AcDbSymbolTableRecord
100
AcDbLayerTableRecord
  2
PIANI
 70
0
 62
7
  6
CONTINUOUS
370
-3
390
F
  0
LAYER
  5
20A
100
AcDbSymbolTableRecord
100
AcDbLayerTableRecord
  2
PIANI_DI_RIFERIMENTO
 70
0
 62
7
  6
CONTINUOUS
370
-3
390
F
  0
LAYER
  5
20B
100
AcDbSymbolTableRecord
100
AcDbLayerTableRecord
  2
PIANI_ORIGINE
 70
0
 62
7
  6
CONTINUOUS
370
-3
390
F
  0
LAYER
  5
20C
100
AcDbSymbolTableRecord
100
AcDbLayerTableRecord
  2
PUNTI
 70
0
 62
7
  6
CONTINUOUS
370
-3
390
F
  0
LAYER
  5
20D
100
AcDbSymbolTableRecord
100
AcDbLayerTableRecord
  2
RACCORDO
 70
0
 62
7
  6
CONTINUOUS
370
-3
390
F
  0
LAYER
  5
20E
100
AcDbSymbolTableRecord
100
AcDbLayerTableRecord
  2
RGB____0____0____0__
 70
0
 62
7
  6
CONTINUOUS
370
-3
390
F
  0
LAYER
  5
20F
100
AcDbSymbolTableRecord
100
AcDbLayerTableRecord
  2
SMUSSO
 70
0
 62
7
  6
CONTINUOUS
370
-3
390
F
  0
LAYER
  5
210
100
AcDbSymbolTableRecord
100
AcDbLayerTableRecord
  2
SNAPLINE
 70
0
 62
7
  6
CONTINUOUS
370
-3
390
F
  0
LAYER
  5
211
100
AcDbSymbolTableRecord
100
AcDbLayerTableRecord
  2
SUPERFICI
 70
0
 62
7
  6
CONTINUOUS
370
-3
390
F
  0
LAYER
  5
212
100
AcDbSymbolTableRecord
100
AcDbLayerTableRecord
  2
SUP_COSTRUZIONE
 70
0
 62
7
  6
CONTINUOUS
370
-3
390
F
  0
LAYER
  5
213
100
AcDbSymbolTableRecord
100
AcDbLayerTableRecord
  2
TRASH
 70
0
 62
7
  6
CONTINUOUS
370
-3
390
F
  0
LAYER
  5
214
100
AcDbSymbolTableRecord
100
AcDbLayerTableRecord
  2
XSEC_DATUMS
 70
0
 62
7
  6
CONTINUOUS
370
-3
390
F
  0
ENDTAB
  0
TABLE
  2
STYLE
  5
3
100
AcDbSymbolTable
 70
1
  0
STYLE
  5
11
100
AcDbSymbolTableRecord
100
AcDbTextStyleTableRecord
  2
STANDARD
 70
0
 40
0.0
 41
0.8
 50
0.0
 71
0
 42
0.2
  3
txt
  4

  0
STYLE
  5
215
100
AcDbSymbolTableRecord
100
AcDbTextStyleTableRecord
  2
TEXTSTYLE_1
 70
0
 40
0.0
 41
0.8
 50
0.0
 71
0
 42
0.2
  3
gdt
  4

  0
ENDTAB
  0
TABLE
  2
VIEW
  5
6
100
AcDbSymbolTable
 70
0
  0
ENDTAB
  0
TABLE
  2
UCS
  5
7
100
AcDbSymbolTable
 70
0
  0
ENDTAB
  0
TABLE
  2
APPID
  5
9
100
AcDbSymbolTable
 70
1
  0
APPID
  5
216
100
AcDbSymbolTableRecord
100
AcDbRegAppTableRecord
  2
ACAD
 70
0
  0
ENDTAB
  0
TABLE
  2
BLOCK_RECORD
  5
1
100
AcDbSymbolTable
 70
0
  0
BLOCK_RECORD
  5
217
100
AcDbSymbolTableRecord
100
AcDbBlockTableRecord
  2
*Model_Space
  0
BLOCK_RECORD
  5
218
100
AcDbSymbolTableRecord
100
AcDbBlockTableRecord
  2
*Paper_Space
  0
BLOCK_RECORD
  5
219
100
AcDbSymbolTableRecord
100
AcDbBlockTableRecord
  2
_FILLED
  0
BLOCK_RECORD
  5
21A
100
AcDbSymbolTableRecord
100
AcDbBlockTableRecord
  2
*D0
  0
BLOCK_RECORD
  5
21B
100
AcDbSymbolTableRecord
100
AcDbBlockTableRecord
  2
*D1
  0
BLOCK_RECORD
  5
21C
100
AcDbSymbolTableRecord
100
AcDbBlockTableRecord
  2
*D2
  0
BLOCK_RECORD
  5
21D
100
AcDbSymbolTableRecord
100
AcDbBlockTableRecord
  2
*D3
  0
BLOCK_RECORD
  5
21E
100
AcDbSymbolTableRecord
100
AcDbBlockTableRecord
  2
*D4
  0
BLOCK_RECORD
  5
21F
100
AcDbSymbolTableRecord
100
AcDbBlockTableRecord
  2
*D5
  0
BLOCK_RECORD
  5
220
100
AcDbSymbolTableRecord
100
AcDbBlockTableRecord
  2
*D6
  0
BLOCK_RECORD
  5
221
100
AcDbSymbolTableRecord
100
AcDbBlockTableRecord
  2
*D7
  0
BLOCK_RECORD
  5
222
100
AcDbSymbolTableRecord
100
AcDbBlockTableRecord
  2
*D8
  0
ENDTAB
  0
TABLE
  2
DIMSTYLE
  5
A
100
AcDbSymbolTable
 70
1
100
AcDbDimStyleTable
 71
0
  0
DIMSTYLE
105
223
100
AcDbSymbolTableRecord
100
AcDbDimStyleTableRecord
  2
STANDARD
 70
0
  3

  4

 40
1.0
 41
3.0
 42
0.0625
 43
0.38
 44
0.18
 45
0.0
 46
0.0
 47
0.01
 48
0.01
140
3.0
141
0.09
142
0.0
143
25.4
144
1.0
145
0.0
146
1.0
147
0.09
 71
1.0
 72
0.0
 73
0
 74
0
 75
0
 76
0
 77
1
 78
8
170
0
171
2
172
0
173
0
174
0
175
0
176
0
177
0
178
0
270
2
271
2
272
2
273
2
274
2
275
0
280
0
281
0
282
0
283
1
284
8
285
0
286
0
287
3
288
0
340
11
341
219
342
219
343
219
344
219
  0
DIMSTYLE
105
224
100
AcDbSymbolTableRecord
100
AcDbDimStyleTableRecord
  2
DIMSTYLE_1
 70
0
  3

  4

 40
1.0
 41
3.0
 42
0.0625
 43
0.38
 44
0.18
 45
0.0
 46
0.0
 47
0.0
 48
0.0
140
3.0
141
0.09
142
0.0
143
25.4
144
1.0
145
0.0
146
1.0
147
0.09
 71
0.0
 72
0.0
 73
0
 74
0
 75
0
 76
0
 77
1
 78
8
170
0
171
2
172
0
173
0
174
0
175
0
176
0
177
0
178
0
270
2
271
2
272
2
273
2
274
2
275
0
280
0
281
0
282
0
283
1
284
8
285
0
286
0
287
3
288
0
340
11
341
219
342
219
343
219
344
219
  0
DIMSTYLE
105
225
100
AcDbSymbolTableRecord
100
AcDbDimStyleTableRecord
  2
DIMSTYLE_2
 70
0
  3

  4

 40
1.0
 41
3.0
 42
0.0625
 43
0.38
 44
0.18
 45
0.0
 46
0.0
 47
0.0
 48
0.0
140
3.0
141
0.09
142
0.0
143
25.4
144
1.0
145
0.0
146
1.0
147
0.09
 71
0.0
 72
0.0
 73
0
 74
0
 75
0
 76
0
 77
1
 78
8
170
0
171
2
172
0
173
0
174
0
175
0
176
0
177
0
178
0
270
2
271
1
272
1
273
2
274
2
275
0
280
0
281
0
282
0
283
1
284
8
285
0
286
0
287
3
288
0
340
11
341
219
342
219
343
219
344
219
  0
ENDTAB
  0
ENDSEC
  0
SECTION
  2
BLOCKS
  0
BLOCK
  5
20
100
AcDbEntity
  8
0
100
AcDbBlockBegin
  2
*Model_Space
 70
0
 10
0.0
 20
0.0
 30
0.0
  3
*Model_Space
  1

  0
ENDBLK
  5
21
100
AcDbEntity
  8
0
100
AcDbBlockEnd
  0
BLOCK
  5
1C
100
AcDbEntity
  8
0
100
AcDbBlockBegin
  2
*Paper_Space
 70
0
 10
0.0
 20
0.0
 30
0.0
  3
*Paper_Space
  1

  0
ENDBLK
  5
1D
100
AcDbEntity
  8
0
100
AcDbBlockEnd
  0
BLOCK
  5
226
100
AcDbEntity
  8
0
100
AcDbBlockBegin
  2
_FILLED
 70
64
 10
0.0
 20
0.0
  3
_FILLED
  1

  0
SOLID
  5
227
100
AcDbEntity
  8
0
  6
BYBLOCK
 62
0
100
AcDbTrace
 10
0.0
 20
0.0
 11
-1.0
 21
0.3166666667
 12
-1.0
 22
-0.3166666667
 13
-1.0
 23
-0.3166666667
  0
ENDBLK
  5
228
100
AcDbEntity
  8
0
  6
BYBLOCK
 62
0
100
AcDbBlockEnd
  0
BLOCK
  5
229
100
AcDbEntity
  8
0
100
AcDbBlockBegin
 62
7
  6
CONTINUOUS
  2
*D0
 70
65
 10
0.0
 20
0.0
  3
*D0
  1

  0
MTEXT
  5
22A
100
AcDbEntity
  8
0
100
AcDbMText
 62
7
  6
CONTINUOUS
  7
STANDARD
 71
2
 72
1
 10
191.5690104167
 20
171.9943576389
 30
0.0
 11
1.0
 21
0.0
 31
0.0
 44
0.9
  1
24,6
 40
3.0
 41
8.7857142857
  0
LINE
  5
22B
100
AcDbEntity
  8
0
100
AcDbLine
 62
7
  6
CONTINUOUS
 10
203.8690104167
 20
159.7443576389
 11
203.8690104167
 21
169.7443576389
  0
LINE
  5
22C
100
AcDbEntity
  8
0
100
AcDbLine
 62
7
  6
CONTINUOUS
 10
179.2690104167
 20
159.7443576389
 11
179.2690104167
 21
169.7443576389
  0
LINE
  5
22D
100
AcDbEntity
  8
0
100
AcDbLine
 62
7
  6
CONTINUOUS
 10
203.8690104167
 20
168.2443576389
 11
191.5690104167
 21
168.2443576389
  0
LINE
  5
22E
100
AcDbEntity
  8
0
100
AcDbLine
 62
7
  6
CONTINUOUS
 10
179.2690104167
 20
168.2443576389
 11
191.5690104167
 21
168.2443576389
  0
INSERT
  5
22F
100
AcDbEntity
  8
0
100
AcDbBlockReference
 62
7
  6
CONTINUOUS
  2
_FILLED
 10
203.8690104167
 20
168.2443576389
 41
3.0
 42
3.0
 43
3.0
  0
INSERT
  5
230
100
AcDbEntity
  8
0
100
AcDbBlockReference
 62
7
  6
CONTINUOUS
  2
_FILLED
 10
179.2690104167
 20
168.2443576389
 41
3.0
 42
3.0
 43
3.0
 50
180.0
  0
ENDBLK
  5
231
100
AcDbEntity
  8
0
  6
BYBLOCK
 62
0
100
AcDbBlockEnd
  0
BLOCK
  5
232
100
AcDbEntity
  8
0
100
AcDbBlockBegin
 62
7
  6
CONTINUOUS
  2
*D1
 70
65
 10
0.0
 20
0.0
  3
*D1
  1

  0
MTEXT
  5
233
100
AcDbEntity
  8
0
100
AcDbMText
 62
7
  6
CONTINUOUS
  7
STANDARD
 71
2
 72
1
 10
215.286019503
 20
77.7443576389
 30
0.0
 11
0.0
 21
1.0
 31
0.0
 44
0.9
  1
63
 40
3.0
 41
4.5
  0
LINE
  5
234
100
AcDbEntity
  8
0
100
AcDbLine
 62
7
  6
CONTINUOUS
 10
210.0703808819
 20
109.2443576389
 11
220.536019503
 21
109.2443576389
  0
LINE
  5
235
100
AcDbEntity
  8
0
100
AcDbLine
 62
7
  6
CONTINUOUS
 10
210.0703808819
 20
46.2443576389
 11
220.536019503
 21
46.2443576389
  0
LINE
  5
236
100
AcDbEntity
  8
0
100
AcDbLine
 62
7
  6
CONTINUOUS
 10
219.036019503
 20
109.2443576389
 11
219.036019503
 21
77.7443576389
  0
LINE
  5
237
100
AcDbEntity
  8
0
100
AcDbLine
 62
7
  6
CONTINUOUS
 10
219.036019503
 20
46.2443576389
 11
219.036019503
 21
77.7443576389
  0
INSERT
  5
238
100
AcDbEntity
  8
0
100
AcDbBlockReference
 62
7
  6
CONTINUOUS
  2
_FILLED
 10
219.036019503
 20
109.2443576389
 41
3.0
 42
3.0
 43
3.0
 50
90.0
  0
INSERT
  5
239
100
AcDbEntity
  8
0
100
AcDbBlockReference
 62
7
  6
CONTINUOUS
  2
_FILLED
 10
219.036019503
 20
46.2443576389
 41
3.0
 42
3.0
 43
3.0
 50
270.0
  0
ENDBLK
  5
23A
100
AcDbEntity
  8
0
  6
BYBLOCK
 62
0
100
AcDbBlockEnd
  0
BLOCK
  5
23B
100
AcDbEntity
  8
0
100
AcDbBlockBegin
 62
7
  6
CONTINUOUS
  2
*D2
 70
65
 10
0.0
 20
0.0
  3
*D2
  1

  0
MTEXT
  5
23C
100
AcDbEntity
  8
0
100
AcDbMText
 62
7
  6
CONTINUOUS
  7
STANDARD
 71
2
 72
1
 10
191.5690104167
 20
41.9943576389
 30
0.0
 11
1.0
 21
0.0
 31
0.0
 44
0.9
  1
38
 40
3.0
 41
4.5
  0
LINE
  5
23D
100
AcDbEntity
  8
0
100
AcDbLine
 62
7
  6
CONTINUOUS
 10
210.5690104167
 20
46.7429871736
 11
210.5690104167
 21
36.7443576389
  0
LINE
  5
23E
100
AcDbEntity
  8
0
100
AcDbLine
 62
7
  6
CONTINUOUS
 10
172.5690104167
 20
46.7429871736
 11
172.5690104167
 21
36.7443576389
  0
LINE
  5
23F
100
AcDbEntity
  8
0
100
AcDbLine
 62
7
  6
CONTINUOUS
 10
210.5690104167
 20
38.2443576389
 11
191.5690104167
 21
38.2443576389
  0
LINE
  5
240
100
AcDbEntity
  8
0
100
AcDbLine
 62
7
  6
CONTINUOUS
 10
172.5690104167
 20
38.2443576389
 11
191.5690104167
 21
38.2443576389
  0
INSERT
  5
241
100
AcDbEntity
  8
0
100
AcDbBlockReference
 62
7
  6
CONTINUOUS
  2
_FILLED
 10
210.5690104167
 20
38.2443576389
 41
3.0
 42
3.0
 43
3.0
  0
INSERT
  5
242
100
AcDbEntity
  8
0
100
AcDbBlockReference
 62
7
  6
CONTINUOUS
  2
_FILLED
 10
172.5690104167
 20
38.2443576389
 41
3.0
 42
3.0
 43
3.0
 50
180.0
  0
ENDBLK
  5
243
100
AcDbEntity
  8
0
  6
BYBLOCK
 62
0
100
AcDbBlockEnd
  0
BLOCK
  5
244
100
AcDbEntity
  8
0
100
AcDbBlockBegin
 62
7
  6
CONTINUOUS
  2
*D3
 70
65
 10
0.0
 20
0.0
  3
*D3
  1

  0
MTEXT
  5
245
100
AcDbEntity
  8
0
100
AcDbMText
 62
7
  6
CONTINUOUS
  7
STANDARD
 71
2
 72
1
 10
225.286019503
 20
103.2443576389
 30
0.0
 11
0.0
 21
1.0
 31
0.0
 44
0.9
  1
114
 40
3.0
 41
5.7857142857
  0
LINE
  5
246
100
AcDbEntity
  8
0
100
AcDbLine
 62
7
  6
CONTINUOUS
 10
210.0703808819
 20
46.2443576389
 11
230.536019503
 21
46.2443576389
  0
LINE
  5
247
100
AcDbEntity
  8
0
100
AcDbLine
 62
7
  6
CONTINUOUS
 10
202.7313346991
 20
160.2443576389
 11
230.536019503
 21
160.2443576389
  0
LINE
  5
248
100
AcDbEntity
  8
0
100
AcDbLine
 62
7
  6
CONTINUOUS
 10
229.036019503
 20
46.2443576389
 11
229.036019503
 21
103.2443576389
  0
LINE
  5
249
100
AcDbEntity
  8
0
100
AcDbLine
 62
7
  6
CONTINUOUS
 10
229.036019503
 20
160.2443576389
 11
229.036019503
 21
103.2443576389
  0
INSERT
  5
24A
100
AcDbEntity
  8
0
100
AcDbBlockReference
 62
7
  6
CONTINUOUS
  2
_FILLED
 10
229.036019503
 20
46.2443576389
 41
3.0
 42
3.0
 43
3.0
 50
270.0
  0
INSERT
  5
24B
100
AcDbEntity
  8
0
100
AcDbBlockReference
 62
7
  6
CONTINUOUS
  2
_FILLED
 10
229.036019503
 20
160.2443576389
 41
3.0
 42
3.0
 43
3.0
 50
90.0
  0
ENDBLK
  5
24C
100
AcDbEntity
  8
0
  6
BYBLOCK
 62
0
100
AcDbBlockEnd
  0
BLOCK
  5
24D
100
AcDbEntity
  8
0
100
AcDbBlockBegin
 62
7
  6
CONTINUOUS
  2
*D4
 70
65
 10
0.0
 20
0.0
  3
*D4
  1

  0
MTEXT
  5
24E
100
AcDbEntity
  8
0
100
AcDbMText
 62
7
  6
CONTINUOUS
  7
STANDARD
 71
2
 72
1
 10
215.286019503
 20
137.9943576389
 30
0.0
 11
0.0
 21
1.0
 31
0.0
 44
0.9
  1
44,5
 40
3.0
 41
8.5714285714
  0
LINE
  5
24F
100
AcDbEntity
  8
0
100
AcDbLine
 62
7
  6
CONTINUOUS
 10
202.7313346991
 20
160.2443576389
 11
220.536019503
 21
160.2443576389
  0
LINE
  5
250
100
AcDbEntity
  8
0
100
AcDbLine
 62
7
  6
CONTINUOUS
 10
210.0435593036
 20
115.7443576389
 11
220.536019503
 21
115.7443576389
  0
LINE
  5
251
100
AcDbEntity
  8
0
100
AcDbLine
 62
7
  6
CONTINUOUS
 10
219.036019503
 20
160.2443576389
 11
219.036019503
 21
137.9943576389
  0
LINE
  5
252
100
AcDbEntity
  8
0
100
AcDbLine
 62
7
  6
CONTINUOUS
 10
219.036019503
 20
115.7443576389
 11
219.036019503
 21
137.9943576389
  0
INSERT
  5
253
100
AcDbEntity
  8
0
100
AcDbBlockReference
 62
7
  6
CONTINUOUS
  2
_FILLED
 10
219.036019503
 20
160.2443576389
 41
3.0
 42
3.0
 43
3.0
 50
90.0
  0
INSERT
  5
254
100
AcDbEntity
  8
0
100
AcDbBlockReference
 62
7
  6
CONTINUOUS
  2
_FILLED
 10
219.036019503
 20
115.7443576389
 41
3.0
 42
3.0
 43
3.0
 50
270.0
  0
ENDBLK
  5
255
100
AcDbEntity
  8
0
  6
BYBLOCK
 62
0
100
AcDbBlockEnd
  0
BLOCK
  5
256
100
AcDbEntity
  8
0
100
AcDbBlockBegin
 62
7
  6
CONTINUOUS
  2
*D5
 70
65
 10
0.0
 20
0.0
  3
*D5
  1

  0
MTEXT
  5
257
100
AcDbEntity
  8
0
100
AcDbMText
 62
7
  6
CONTINUOUS
  7
STANDARD
 71
2
 72
1
 10
114.9379373722
 20
181.9943576389
 30
0.0
 11
1.0
 21
0.0
 31
0.0
 44
0.9
  1
85,6
 40
3.0
 41
8.5714285714
  0
LINE
  5
258
100
AcDbEntity
  8
0
100
AcDbLine
 62
7
  6
CONTINUOUS
 10
157.7129373722
 20
160.7429871736
 11
157.7129373722
 21
179.7443576389
  0
LINE
  5
259
100
AcDbEntity
  8
0
100
AcDbLine
 62
7
  6
CONTINUOUS
 10
72.1629373722
 20
108.0514077851
 11
72.1629373722
 21
179.7443576389
  0
LINE
  5
25A
100
AcDbEntity
  8
0
100
AcDbLine
 62
7
  6
CONTINUOUS
 10
157.7129373722
 20
178.2443576389
 11
114.9379373722
 21
178.2443576389
  0
LINE
  5
25B
100
AcDbEntity
  8
0
100
AcDbLine
 62
7
  6
CONTINUOUS
 10
72.1629373722
 20
178.2443576389
 11
114.9379373722
 21
178.2443576389
  0
INSERT
  5
25C
100
AcDbEntity
  8
0
100
AcDbBlockReference
 62
7
  6
CONTINUOUS
  2
_FILLED
 10
157.7129373722
 20
178.2443576389
 41
3.0
 42
3.0
 43
3.0
  0
INSERT
  5
25D
100
AcDbEntity
  8
0
100
AcDbBlockReference
 62
7
  6
CONTINUOUS
  2
_FILLED
 10
72.1629373722
 20
178.2443576389
 41
3.0
 42
3.0
 43
3.0
 50
180.0
  0
ENDBLK
  5
25E
100
AcDbEntity
  8
0
  6
BYBLOCK
 62
0
100
AcDbBlockEnd
  0
BLOCK
  5
25F
100
AcDbEntity
  8
0
100
AcDbBlockBegin
 62
7
  6
CONTINUOUS
  2
*D6
 70
65
 10
0.0
 20
0.0
  3
*D6
  1

  0
MTEXT
  5
260
100
AcDbEntity
  8
0
100
AcDbMText
 62
7
  6
CONTINUOUS
  7
STANDARD
 71
2
 72
1
 10
98.5629373722
 20
41.9943576389
 30
0.0
 11
1.0
 21
0.0
 31
0.0
 44
0.9
  1
52,8
 40
3.0
 41
8.5714285714
  0
LINE
  5
261
100
AcDbEntity
  8
0
100
AcDbLine
 62
7
  6
CONTINUOUS
 10
124.9629373722
 20
47.7616005592
 11
124.9629373722
 21
36.7443576389
  0
LINE
  5
262
100
AcDbEntity
  8
0
100
AcDbLine
 62
7
  6
CONTINUOUS
 10
72.1629373722
 20
47.4373074927
 11
72.1629373722
 21
36.7443576389
  0
LINE
  5
263
100
AcDbEntity
  8
0
100
AcDbLine
 62
7
  6
CONTINUOUS
 10
124.9629373722
 20
38.2443576389
 11
98.5629373722
 21
38.2443576389
  0
LINE
  5
264
100
AcDbEntity
  8
0
100
AcDbLine
 62
7
  6
CONTINUOUS
 10
72.1629373722
 20
38.2443576389
 11
98.5629373722
 21
38.2443576389
  0
INSERT
  5
265
100
AcDbEntity
  8
0
100
AcDbBlockReference
 62
7
  6
CONTINUOUS
  2
_FILLED
 10
124.9629373722
 20
38.2443576389
 41
3.0
 42
3.0
 43
3.0
  0
INSERT
  5
266
100
AcDbEntity
  8
0
100
AcDbBlockReference
 62
7
  6
CONTINUOUS
  2
_FILLED
 10
72.1629373722
 20
38.2443576389
 41
3.0
 42
3.0
 43
3.0
 50
180.0
  0
ENDBLK
  5
267
100
AcDbEntity
  8
0
  6
BYBLOCK
 62
0
100
AcDbBlockEnd
  0
BLOCK
  5
268
100
AcDbEntity
  8
0
100
AcDbBlockBegin
 62
7
  6
CONTINUOUS
  2
*D7
 70
65
 10
0.0
 20
0.0
  3
*D7
  1

  0
MTEXT
  5
269
100
AcDbEntity
  8
0
100
AcDbMText
 62
7
  6
CONTINUOUS
  7
STANDARD
 71
2
 72
1
 10
125.4629373722
 20
171.9943576389
 30
0.0
 11
1.0
 21
0.0
 31
0.0
 44
0.9
  1
64,5
 40
3.0
 41
8.5714285714
  0
LINE
  5
26A
100
AcDbEntity
  8
0
100
AcDbLine
 62
7
  6
CONTINUOUS
 10
157.7129373722
 20
160.7429871736
 11
157.7129373722
 21
169.7443576389
  0
LINE
  5
26B
100
AcDbEntity
  8
0
100
AcDbLine
 62
7
  6
CONTINUOUS
 10
93.2129373722
 20
127.2443576389
 11
93.2129373722
 21
169.7443576389
  0
LINE
  5
26C
100
AcDbEntity
  8
0
100
AcDbLine
 62
7
  6
CONTINUOUS
 10
157.7129373722
 20
168.2443576389
 11
125.4629373722
 21
168.2443576389
  0
LINE
  5
26D
100
AcDbEntity
  8
0
100
AcDbLine
 62
7
  6
CONTINUOUS
 10
93.2129373722
 20
168.2443576389
 11
125.4629373722
 21
168.2443576389
  0
INSERT
  5
26E
100
AcDbEntity
  8
0
100
AcDbBlockReference
 62
7
  6
CONTINUOUS
  2
_FILLED
 10
157.7129373722
 20
168.2443576389
 41
3.0
 42
3.0
 43
3.0
  0
INSERT
  5
26F
100
AcDbEntity
  8
0
100
AcDbBlockReference
 62
7
  6
CONTINUOUS
  2
_FILLED
 10
93.2129373722
 20
168.2443576389
 41
3.0
 42
3.0
 43
3.0
 50
180.0
  0
ENDBLK
  5
270
100
AcDbEntity
  8
0
  6
BYBLOCK
 62
0
100
AcDbBlockEnd
  0
BLOCK
  5
271
100
AcDbEntity
  8
0
100
AcDbBlockBegin
 62
7
  6
CONTINUOUS
  2
*D8
 70
65
 10
0.0
 20
0.0
  3
*D8
  1

  0
MTEXT
  5
272
100
AcDbEntity
  8
0
100
AcDbMText
 62
7
  6
CONTINUOUS
  7
STANDARD
 71
2
 72
1
 10
191.5690104167
 20
181.9943576389
 30
0.0
 11
1.0
 21
0.0
 31
0.0
 44
0.9
  1
39
 40
3.0
 41
4.5
  0
LINE
  5
273
100
AcDbEntity
  8
0
100
AcDbLine
 62
7
  6
CONTINUOUS
 10
211.0690104167
 20
127.2443576389
 11
211.0690104167
 21
179.7443576389
  0
LINE
  5
274
100
AcDbEntity
  8
0
100
AcDbLine
 62
7
  6
CONTINUOUS
 10
172.0690104167
 20
127.2443576389
 11
172.0690104167
 21
179.7443576389
  0
LINE
  5
275
100
AcDbEntity
  8
0
100
AcDbLine
 62
7
  6
CONTINUOUS
 10
211.0690104167
 20
178.2443576389
 11
191.5690104167
 21
178.2443576389
  0
LINE
  5
276
100
AcDbEntity
  8
0
100
AcDbLine
 62
7
  6
CONTINUOUS
 10
172.0690104167
 20
178.2443576389
 11
191.5690104167
 21
178.2443576389
  0
INSERT
  5
277
100
AcDbEntity
  8
0
100
AcDbBlockReference
 62
7
  6
CONTINUOUS
  2
_FILLED
 10
211.0690104167
 20
178.2443576389
 41
3.0
 42
3.0
 43
3.0
  0
INSERT
  5
278
100
AcDbEntity
  8
0
100
AcDbBlockReference
 62
7
  6
CONTINUOUS
  2
_FILLED
 10
172.0690104167
 20
178.2443576389
 41
3.0
 42
3.0
 43
3.0
 50
180.0
  0
ENDBLK
  5
279
100
AcDbEntity
  8
0
  6
BYBLOCK
 62
0
100
AcDbBlockEnd
  0
ENDSEC
  0
SECTION
  2
ENTITIES
  0
DIMENSION
  5
27A
100
AcDbEntity
  8
0
100
AcDbDimension
 62
7
  6
CONTINUOUS
  2
*D0
 10
179.2690104167
 20
168.2443576389
 11
187.1761532738
 21
170.4943576389
 70
160
 71
2
 42
24.6
  3
DIMSTYLE_1
100
AcDbAlignedDimension
 13
203.8690104167
 23
159.7443576389
 14
179.2690104167
 24
159.7443576389
 50
180.0
100
AcDbRotatedDimension
  0
DIMENSION
  5
27B
100
AcDbEntity
  8
0
100
AcDbDimension
 62
7
  6
CONTINUOUS
  2
*D1
 10
219.036019503
 20
46.2443576389
 11
217.7941851392
 21
75.7328651458
 70
160
 71
2
 42
63.0
  3
DIMSTYLE_1
100
AcDbAlignedDimension
 13
210.0703808819
 23
109.2443576389
 14
210.0703808819
 24
46.2443576389
 50
270.0
100
AcDbRotatedDimension
  0
DIMENSION
  5
27C
100
AcDbEntity
  8
0
100
AcDbDimension
 62
7
  6
CONTINUOUS
  2
*D2
 10
172.5690104167
 20
38.2443576389
 11
189.3190104167
 21
40.4943576389
 70
160
 71
2
 42
38.0
  3
DIMSTYLE_1
100
AcDbAlignedDimension
 13
210.5690104167
 23
46.7429871736
 14
172.5690104167
 24
46.7429871736
 50
180.0
100
AcDbRotatedDimension
  0
DIMENSION
  5
27D
100
AcDbEntity
  8
0
100
AcDbDimension
 62
7
  6
CONTINUOUS
  2
*D3
 10
229.036019503
 20
160.2443576389
 11
228.0822324639
 21
100.6581530049
 70
160
 71
2
 42
114.0
  3
DIMSTYLE_1
100
AcDbAlignedDimension
 13
210.0703808819
 23
46.2443576389
 14
202.7313346991
 24
160.2443576389
 50
90.0
100
AcDbRotatedDimension
  0
DIMENSION
  5
27E
100
AcDbEntity
  8
0
100
AcDbDimension
 62
7
  6
CONTINUOUS
  2
*D4
 10
219.036019503
 20
115.7443576389
 11
218.7063350007
 21
134.1629433663
 70
160
 71
2
 42
44.5
  3
DIMSTYLE_1
100
AcDbAlignedDimension
 13
202.7313346991
 23
160.2443576389
 14
210.0435593036
 24
115.7443576389
 50
270.0
100
AcDbRotatedDimension
  0
DIMENSION
  5
27F
100
AcDbEntity
  8
0
100
AcDbDimension
 62
7
  6
CONTINUOUS
  2
*D5
 10
72.1629373722
 20
178.2443576389
 11
110.6522230865
 21
180.4943576389
 70
160
 71
2
 42
85.55
  3
DIMSTYLE_2
100
AcDbAlignedDimension
 13
157.7129373722
 23
160.7429871736
 14
72.1629373722
 24
108.0514077851
 50
180.0
100
AcDbRotatedDimension
  0
DIMENSION
  5
280
100
AcDbEntity
  8
0
100
AcDbDimension
 62
7
  6
CONTINUOUS
  2
*D6
 10
72.1629373722
 20
38.2443576389
 11
94.2772230865
 21
40.4943576389
 70
160
 71
2
 42
52.8
  3
DIMSTYLE_1
100
AcDbAlignedDimension
 13
124.9629373722
 23
47.7616005592
 14
72.1629373722
 24
47.4373074927
 50
180.0
100
AcDbRotatedDimension
  0
DIMENSION
  5
281
100
AcDbEntity
  8
0
100
AcDbDimension
 62
7
  6
CONTINUOUS
  2
*D7
 10
93.2129373722
 20
168.2443576389
 11
121.1772230865
 21
170.4943576389
 70
160
 71
2
 42
64.5
  3
DIMSTYLE_1
100
AcDbAlignedDimension
 13
157.7129373722
 23
160.7429871736
 14
93.2129373722
 24
127.2443576389
 50
180.0
100
AcDbRotatedDimension
  0
DIMENSION
  5
282
100
AcDbEntity
  8
0
100
AcDbDimension
 62
7
  6
CONTINUOUS
  2
*D8
 10
172.0690104167
 20
178.2443576389
 11
189.3190104167
 21
180.4943576389
 70
160
 71
2
 42
39.0
  3
DIMSTYLE_1
100
AcDbAlignedDimension
 13
211.0690104167
 23
127.2443576389
 14
172.0690104167
 24
127.2443576389
 50
180.0
100
AcDbRotatedDimension
  0
LINE
  5
283
100
AcDbEntity
  8
RACCORDO
100
AcDbLine
 62
7
  6
CONTINUOUS
 10
173.5676399514
 20
46.2443576389
 11
209.5703808819
 21
46.2443576389
  0
LWPOLYLINE
  5
284
100
AcDbEntity
  8
RACCORDO
100
AcDbPolyline
 62
253
  6
CONTINUOUS
 90
19
 70
0
 10
208.7761976094
 20
47.0385409114
 10
206.866853275
 20
47.0417624995
 10
204.9571736546
 20
47.0446055921
 10
203.0471587481
 20
47.0470701893
 10
201.1367988177
 20
47.0491564172
 10
199.2261036012
 20
47.0508641497
 10
197.3151023122
 20
47.0521930084
 10
195.4037955255
 20
47.0531430194
 10
193.4921826662
 20
47.0537141566
 10
191.5802912232
 20
47.0539059634
 10
189.6681211743
 20
47.0537184668
 10
187.7556725415
 20
47.0531516399
 10
185.8429728803
 20
47.0522049447
 10
183.9300215682
 20
47.0508784075
 10
182.0168192276
 20
47.049172002
 10
180.1033952807
 20
47.0470851113
 10
178.1897595348
 20
47.0446175298
 10
176.2759021825
 20
47.0417694632
 10
174.3618232239
 20
47.0385409114
  0
LWPOLYLINE
  5
285
100
AcDbEntity
  8
RACCORDO
100
AcDbPolyline
 62
253
  6
CONTINUOUS
 90
19
 70
0
 10
174.331163021
 20
47.9373074927
 10
174.3223887879
 20
47.9376781064
 10
174.3137881872
 20
47.9387824836
 10
174.3053612185
 20
47.9406206243
 10
174.2970397168
 20
47.943216646
 10
174.2888918467
 20
47.9465464312
 10
174.281122102
 20
47.9505376272
 10
174.2737446106
 20
47.9552061841
 10
174.2667452433
 20
47.9605361517
 10
174.2602861078
 20
47.9664073271
 10
174.2543800415
 20
47.9728340234
 10
174.2490142056
 20
47.9798019276
 10
174.2443121921
 20
47.987147897
 10
174.2402909375
 20
47.9948859062
 10
174.2369335041
 20
48.0030019807
 10
174.2343126732
 20
48.0112910548
 10
174.2324527049
 20
48.0196847735
 10
174.2313293385
 20
48.0282514919
 10
174.2309425737
 20
48.0369912099
  0
LWPOLYLINE
  5
286
100
AcDbEntity
  8
RACCORDO
100
AcDbPolyline
 62
253
  6
CONTINUOUS
 90
19
 70
0
 10
174.3618232239
 20
47.0385409114
 10
174.2748974715
 20
47.0425272935
 10
174.1886342284
 20
47.0540599353
 10
174.1036874486
 20
47.0730509269
 10
174.0207010367
 20
47.0993556004
 10
173.9403041425
 20
47.1327742633
 10
173.8631064313
 20
47.1730538156
 10
173.7896932063
 20
47.2198884705
 10
173.7206209545
 20
47.2729228677
 10
173.6564134435
 20
47.3317556179
 10
173.5975576325
 20
47.3959408025
 10
173.5444998311
 20
47.4649913588
 10
173.4976424438
 20
47.5383837849
 10
173.4573409538
 20
47.615561736
 10
173.4239011412
 20
47.6959397599
 10
173.3975766658
 20
47.778907863
 10
173.3785672525
 20
47.8638367236
 10
173.3670172554
 20
47.9500824958
 10
173.363014453
 20
48.0369912099
  0
LINE
  5
287
100
AcDbEntity
  8
RACCORDO
100
AcDbLine
 62
253
  6
CONTINUOUS
 10
209.7750063804
 20
48.0369912099
 11
208.9070782597
 21
48.0369912099
  0
LINE
  5
288
100
AcDbEntity
  8
RACCORDO
100
AcDbLine
 62
253
  6
CONTINUOUS
 10
173.363014453
 20
48.0369912099
 11
174.2309425737
 21
48.0369912099
  0
LWPOLYLINE
  5
289
100
AcDbEntity
  8
RACCORDO
100
AcDbPolyline
 62
253
  6
CONTINUOUS
 90
19
 70
0
 10
208.8068578123
 20
47.9373074927
 10
206.8941403194
 20
47.9405291016
 10
204.9810377483
 20
47.9433722075
 10
203.0675774148
 20
47.9458368103
 10
201.1538060038
 20
47.9479230329
 10
199.2397315151
 20
47.9496307524
 10
197.3253232507
 20
47.9509596001
 10
195.410607544
 20
47.9519096055
 10
193.4956128307
 20
47.9524807391
 10
191.5803115821
 20
47.9526725446
 10
189.6647312794
 20
47.9524850494
 10
187.7488993369
 20
47.9519182262
 10
185.8327881615
 20
47.9509715367
 10
183.9164264316
 20
47.9496450105
 10
181.9998405259
 20
47.9479386182
 10
180.0829994573
 20
47.9458517329
 10
178.1659113217
 20
47.9433841457
 10
176.2486232842
 20
47.9405360657
 10
174.331163021
 20
47.9373074927
  0
LWPOLYLINE
  5
28A
100
AcDbEntity
  8
RACCORDO
100
AcDbPolyline
 62
253
  6
CONTINUOUS
 90
10
 70
0
 10
202.5385886531
 20
55.5250534955
 10
202.5732093169
 20
55.5281717731
 10
202.60678215
 20
55.5372426679
 10
202.6382906315
 20
55.5519917268
 10
202.666780639
 20
55.5719725164
 10
202.6913895132
 20
55.5965802409
 10
202.7113721043
 20
55.6250701268
 10
202.7261231339
 20
55.656579749
 10
202.7351956234
 20
55.6901550524
 10
202.7383145601
 20
55.7247794024
  0
LWPOLYLINE
  5
28B
100
AcDbEntity
  8
RACCORDO
100
AcDbPolyline
 62
253
  6
CONTINUOUS
 90
10
 70
0
 10
202.6230923404
 20
53.0611322214
 10
202.6567747198
 20
53.0630162125
 10
202.6894944559
 20
53.0672621061
 10
202.7203163916
 20
53.0737485563
 10
202.7483596094
 20
53.0822901808
 10
202.7728226017
 20
53.0926428564
 10
202.7930061828
 20
53.1045106955
 10
202.8083334806
 20
53.1175545054
 10
202.8183664216
 20
53.1314014844
 10
202.8228182473
 20
53.1456558738
  0
LWPOLYLINE
  5
28C
100
AcDbEntity
  8
RACCORDO
100
AcDbPolyline
 62
253
  6
CONTINUOUS
 90
10
 70
0
 10
202.5699169902
 20
55.237047859
 10
202.6035994563
 20
55.2389318587
 10
202.636319249
 20
55.2431777688
 10
202.6671412091
 20
55.2496642376
 10
202.6951844189
 20
55.258205876
 10
202.7196473801
 20
55.268558557
 10
202.7398309208
 20
55.2804263932
 10
202.7551581783
 20
55.2934701922
 10
202.7651910868
 20
55.3073171508
 10
202.7696428972
 20
55.3215715113
  0
LWPOLYLINE
  5
28D
100
AcDbEntity
  8
RACCORDO
100
AcDbPolyline
 62
253
  6
CONTINUOUS
 90
61
 70
0
 10
202.8614712812
 20
52.3208450675
 10
202.1124198724
 20
52.2864539999
 10
201.3827497995
 20
52.2548963092
 10
200.6724610624
 20
52.2261719953
 10
199.9820844072
 20
52.2004582176
 10
199.3110890878
 20
52.1775778167
 10
198.6578828666
 20
52.1569993148
 10
198.022451883
 20
52.1386931849
 10
197.4048099977
 20
52.1226889539
 10
196.8034065552
 20
52.1085437242
 10
196.218216537
 20
52.0962318589
 10
195.6492649617
 20
52.0857789949
 10
195.0950762301
 20
52.0768191453
 10
194.5555580294
 20
52.0693299206
 10
194.0308026724
 20
52.0633337103
 10
193.5196114981
 20
52.0585316966
 10
193.0219747862
 20
52.0549065024
 10
192.5379022571
 20
52.0524755048
 10
192.0662244104
 20
52.0509920164
 10
191.6069348999
 20
52.0504409184
 10
191.160040072
 20
52.0508373296
 10
190.7243894652
 20
52.0519799202
 10
190.299876832
 20
52.0538568845
 10
189.88660842
 20
52.056480028
 10
189.4837525099
 20
52.0596834375
 10
189.0912529455
 20
52.0634583713
 10
188.709165883
 20
52.0678135711
 10
188.336828072
 20
52.072609348
 10
187.974219383
 20
52.0778383894
 10
187.6213599454
 20
52.0835080081
 10
187.277646897
 20
52.0895004538
 10
186.9430658963
 20
52.0958094471
 10
186.6176312848
 20
52.1024412676
 10
186.3007832247
 20
52.1092970029
 10
185.9925177578
 20
52.1163710304
 10
185.6928388423
 20
52.1236689727
 10
185.4011985157
 20
52.1311087865
 10
185.117619454
 20
52.138684617
 10
184.8420789812
 20
52.1464023191
 10
184.5739611067
 20
52.1541974137
 10
184.3132922918
 20
52.1620640626
 10
184.0600460752
 20
52.1700081041
 10
183.8135270827
 20
52.1779825751
 10
183.5737534006
 20
52.18598216
 10
183.3407069426
 20
52.1940121745
 10
183.1136380755
 20
52.2020416013
 10
182.8925578987
 20
52.2100657529
 10
182.6774553127
 20
52.2180893169
 10
182.4675473863
 20
52.2260953394
 10
182.2628400747
 20
52.2340797628
 10
182.0633274226
 20
52.2420466448
 10
181.868208632
 20
52.2499912049
 10
181.6774821881
 20
52.257910141
 10
181.4911496058
 20
52.2658067553
 10
181.3084146313
 20
52.2736861737
 10
181.1293604555
 20
52.281541464
 10
180.9539038876
 20
52.2893795584
 10
180.7809991018
 20
52.2972263801
 10
180.6102974897
 20
52.3050905701
 10
180.4421476597
 20
52.3129634873
 10
180.276549612
 20
52.3208451317
  0
LWPOLYLINE
  5
28E
100
AcDbEntity
  8
RACCORDO
100
AcDbPolyline
 62
253
  6
CONTINUOUS
 90
10
 70
0
 10
203.0270730328
 20
52.2440904438
 10
200.4807449545
 20
52.1341975636
 10
197.9343781642
 20
52.0517781284
 10
195.3880372046
 20
51.9968321382
 10
192.8419050397
 20
51.9693598921
 10
190.2959277164
 20
51.9693610912
 10
187.7498143634
 20
51.9968348378
 10
185.203511025
 20
52.0517808331
 10
182.6572006593
 20
52.134199376
 10
180.1109478005
 20
52.2440904666
  0
LINE
  5
28F
100
AcDbEntity
  8
RACCORDO
100
AcDbLine
 62
253
  6
CONTINUOUS
 10
180.5681038431
 20
55.237047859
 11
202.5699169902
 21
55.237047859
  0
LINE
  5
290
100
AcDbEntity
  8
RACCORDO
100
AcDbLine
 62
253
  6
CONTINUOUS
 10
180.5994321802
 20
55.5250534955
 11
202.5385886531
 21
55.5250534955
  0
LINE
  5
291
100
AcDbEntity
  8
RACCORDO
100
AcDbLine
 62
7
  6
CONTINUOUS
 10
202.5192845097
 20
55.5443576389
 11
180.6187363236
 21
55.5443576389
  0
LWPOLYLINE
  5
292
100
AcDbEntity
  8
RACCORDO
100
AcDbPolyline
 62
253
  6
CONTINUOUS
 90
8
 70
0
 10
179.74697016
 20
141.665361088
 10
179.940179874
 20
141.7480141341
 10
180.1101061054
 20
141.8317937826
 10
180.2571140141
 20
141.9166567311
 10
180.3801897842
 20
142.0019086829
 10
180.4789954769
 20
142.0873182056
 10
180.5538690309
 20
142.1731167317
 10
180.6048104463
 20
142.259304261
  0
LINE
  5
293
100
AcDbEntity
  8
RACCORDO
100
AcDbLine
 62
253
  6
CONTINUOUS
 10
202.8614711822
 20
52.320845177
 11
202.8780211314
 21
52.313232704
  0
LINE
  5
294
100
AcDbEntity
  8
RACCORDO
100
AcDbLine
 62
253
  6
CONTINUOUS
 10
203.0061443693
 20
52.2537475323
 11
203.0270479414
 21
52.244089236
  0
LINE
  5
295
100
AcDbEntity
  8
RACCORDO
100
AcDbLine
 62
253
  6
CONTINUOUS
 10
202.8780211314
 20
52.313232704
 11
202.9554762743
 21
52.2772978558
  0
LINE
  5
296
100
AcDbEntity
  8
RACCORDO
100
AcDbLine
 62
253
  6
CONTINUOUS
 10
202.9554762743
 20
52.2772978558
 11
203.0061443693
 21
52.2537475323
  0
LWPOLYLINE
  5
297
100
AcDbEntity
  8
RACCORDO
100
AcDbPolyline
 62
253
  6
CONTINUOUS
 90
10
 70
0
 10
180.1960135733
 20
52.405368834
 10
180.2040585179
 20
52.3954118017
 10
180.2124174566
 20
52.3854978993
 10
180.2210541826
 20
52.375670068
 10
180.2299312858
 20
52.3659708764
 10
180.2390103153
 20
52.3564423356
 10
180.248251945
 20
52.3471257178
 10
180.2576161449
 20
52.338061377
 10
180.267062354
 20
52.3292885747
 10
180.276549656
 20
52.3208453096
  0
LWPOLYLINE
  5
298
100
AcDbEntity
  8
RACCORDO
100
AcDbPolyline
 62
7
  6
CONTINUOUS
 90
13
 70
0
 10
179.7605741222
 20
141.7915946945
 10
179.7705467728
 20
141.8029377046
 10
179.7774680154
 20
141.8099719993
 10
179.7641777784
 20
141.7994753487
 10
179.729829193
 20
141.7759436649
 10
179.6714130475
 20
141.7411003763
 10
179.5862309466
 20
141.6965508601
 10
179.4750570597
 20
141.6451404263
 10
179.336374073
 20
141.5879870659
 10
179.1675294117
 20
141.5256324147
 10
178.9675075777
 20
141.4591583568
 10
178.7344387848
 20
141.3892013472
 10
178.4659535072
 20
141.3162188707
  0
LWPOLYLINE
  5
299
100
AcDbEntity
  8
RACCORDO
100
AcDbPolyline
 62
253
  6
CONTINUOUS
 90
16
 70
0
 10
174.3618232297
 20
47.0385797807
 10
174.3587204163
 20
47.0479377383
 10
174.3556493765
 20
47.0664019572
 10
174.3526415564
 20
47.0937833832
 10
174.3497277546
 20
47.1298016595
 10
174.3469378072
 20
47.1740879967
 10
174.3443002823
 20
47.2261889496
 10
174.3418421871
 20
47.2855710592
 10
174.3395886911
 20
47.3516263155
 10
174.3375628691
 20
47.4236783823
 10
174.3357854644
 20
47.5009895223
 10
174.3342746769
 20
47.5827681512
 10
174.333045976
 20
47.6681769418
 10
174.332111943
 20
47.7563413984
 10
174.3314821419
 20
47.8463588098
 10
174.3311630211
 20
47.9373074927
  0
LINE
  5
29A
100
AcDbEntity
  8
RACCORDO
100
AcDbLine
 62
253
  6
CONTINUOUS
 10
208.7761976094
 20
47.0385409114
 11
209.5703808819
 21
46.2443576389
  0
LWPOLYLINE
  5
29B
100
AcDbEntity
  8
RACCORDO
100
AcDbPolyline
 62
7
  6
CONTINUOUS
 90
15
 70
0
 10
179.2836208477
 20
159.4157773373
 10
179.3022537156
 20
159.4998089588
 10
179.3287534299
 20
159.5835380058
 10
179.3627847908
 20
159.6660620759
 10
179.4032818333
 20
159.7444154875
 10
179.4502636207
 20
159.818007729
 10
179.5037110897
 20
159.8874293119
 10
179.5625010862
 20
159.9514860883
 10
179.6266537696
 20
160.0101402548
 10
179.6961489804
 20
160.0634296149
 10
179.7698030867
 20
160.1102734303
 10
179.8481741796
 20
160.1506618541
 10
179.9307041679
 20
160.1846047333
 10
180.0145351465
 20
160.211050871
 10
180.0987144803
 20
160.2296498684
  0
LINE
  5
29C
100
AcDbEntity
  8
RACCORDO
100
AcDbLine
 62
253
  6
CONTINUOUS
 10
209.7750063804
 20
48.0369912099
 11
210.5690104167
 21
47.2429871736
  0
LINE
  5
29D
100
AcDbEntity
  8
RACCORDO
100
AcDbLine
 62
253
  6
CONTINUOUS
 10
202.5192845097
 20
55.5443576389
 11
202.5385886531
 21
55.5250534955
  0
LINE
  5
29E
100
AcDbEntity
  8
RACCORDO
100
AcDbLine
 62
253
  6
CONTINUOUS
 10
202.7190104167
 20
55.7440835458
 11
202.7383145601
 21
55.7247794024
  0
LWPOLYLINE
  5
29F
100
AcDbEntity
  8
RACCORDO
100
AcDbPolyline
 62
253
  6
CONTINUOUS
 90
10
 70
0
 10
180.315202586
 20
53.1456558738
 10
180.3196544052
 20
53.1314014973
 10
180.3296873325
 20
53.1175545273
 10
180.3450146134
 20
53.1045107222
 10
180.3651981776
 20
53.092642884
 10
180.3896611572
 20
53.0822902055
 10
180.4177043719
 20
53.0737485748
 10
180.4485263178
 20
53.0672621166
 10
180.4812460775
 20
53.0630162161
 10
180.5149284929
 20
53.0611322214
  0
LWPOLYLINE
  5
2A0
100
AcDbEntity
  8
RACCORDO
100
AcDbPolyline
 62
253
  6
CONTINUOUS
 90
10
 70
0
 10
180.3683779362
 20
55.3215715113
 10
180.3728297465
 20
55.3073171511
 10
180.382862655
 20
55.2934701925
 10
180.3981899126
 20
55.2804263932
 10
180.4183734534
 20
55.268558556
 10
180.4428364148
 20
55.2582058737
 10
180.4708796248
 20
55.2496642348
 10
180.5017015849
 20
55.2431777663
 10
180.5344213774
 20
55.2389318572
 10
180.5681038431
 20
55.237047859
  0
LINE
  5
2A1
100
AcDbEntity
  8
RACCORDO
100
AcDbLine
 62
7
  6
CONTINUOUS
 10
172.6863760473
 20
138.5241085883
 11
172.6865308418
 21
138.5273491337
  0
LINE
  5
2A2
100
AcDbEntity
  8
DRAFT
100
AcDbLine
 62
7
  6
CONTINUOUS
 10
172.0690104167
 20
126.7443576389
 11
172.6865244759
 21
138.5272278093
  0
LWPOLYLINE
  5
2A3
100
AcDbEntity
  8
RACCORDO
100
AcDbPolyline
 62
253
  6
CONTINUOUS
 90
13
 70
0
 10
202.5385886531
 20
55.5250534955
 10
202.5419407844
 20
55.52063211
 10
202.5451916375
 20
55.5121672868
 10
202.5483412126
 20
55.4997552686
 10
202.5514106166
 20
55.4835368902
 10
202.5543787426
 20
55.4636612455
 10
202.5571822695
 20
55.4402571336
 10
202.5598187281
 20
55.413514911
 10
202.5622905876
 20
55.3836493653
 10
202.5645419349
 20
55.3508206404
 10
202.5665541322
 20
55.3152462918
 10
202.5683458173
 20
55.2772234358
 10
202.5699169902
 20
55.237047859
  0
LINE
  5
2A4
100
AcDbEntity
  8
SUP_COSTRUZIONE
100
AcDbLine
 62
7
  6
CONTINUOUS
 10
172.5958310244
 20
116.6920216137
 11
172.0690104167
 21
126.7443576389
  0
LINE
  5
2A5
100
AcDbEntity
  8
RACCORDO
100
AcDbLine
 62
7
  6
CONTINUOUS
 10
172.5690104167
 20
108.2457281041
 11
172.5690104167
 21
47.2429871736
  0
LINE
  5
2A6
100
AcDbEntity
  8
RACCORDO
100
AcDbLine
 62
253
  6
CONTINUOUS
 10
173.363014453
 20
48.0369912099
 11
173.363014453
 21
107.4517240678
  0
LINE
  5
2A7
100
AcDbEntity
  8
RACCORDO
100
AcDbLine
 62
253
  6
CONTINUOUS
 10
174.2309425737
 20
48.0369912099
 11
174.2309425737
 21
107.4517240678
  0
LWPOLYLINE
  5
2A8
100
AcDbEntity
  8
RACCORDO
100
AcDbPolyline
 62
253
  6
CONTINUOUS
 90
19
 70
0
 10
174.2309425737
 20
107.4517240678
 10
174.2313302072
 20
107.4604663253
 10
174.2324539504
 20
107.4690342764
 10
174.2343138035
 20
107.477427921
 10
174.2369340999
 20
107.485715155
 10
174.2402905068
 20
107.4938280825
 10
174.2443100255
 20
107.5015630161
 10
174.2490086508
 20
107.5089058336
 10
174.2543703891
 20
107.5158706571
 10
174.2602742589
 20
107.5222961656
 10
174.266734579
 20
107.5281695185
 10
174.2737370321
 20
107.5335035563
 10
174.281117683
 20
107.5381754796
 10
174.288890512
 20
107.5421684006
 10
174.2970415399
 20
107.545499207
 10
174.305364892
 20
107.5480957623
 10
174.3137919435
 20
107.549934021
 10
174.3223913198
 20
107.5510380286
 10
174.331163021
 20
107.5514077851
  0
LWPOLYLINE
  5
2A9
100
AcDbEntity
  8
RACCORDO
100
AcDbPolyline
 62
253
  6
CONTINUOUS
 90
19
 70
0
 10
173.363014453
 20
107.4517240678
 10
173.367017262
 20
107.538632821
 10
173.3785672687
 20
107.6248786002
 10
173.3975766867
 20
107.7098074365
 10
173.4239011568
 20
107.7927754694
 10
173.4573409427
 20
107.873153398
 10
173.4976423758
 20
107.950331282
 10
173.5444996623
 20
108.0237236953
 10
173.5975573375
 20
108.0927742686
 10
173.656413047
 20
108.1569594716
 10
173.7206205065
 20
108.2157922203
 10
173.7896927398
 20
108.2688266123
 10
173.8631059707
 20
108.3156612804
 10
173.940303719
 20
108.3559408668
 10
174.0207006818
 20
108.3893595678
 10
174.1036871736
 20
108.4156642779
 10
174.1886340366
 20
108.4346553023
 10
174.2748973719
 20
108.4461879694
 10
174.3618232239
 20
108.4501743664
  0
LINE
  5
2AA
100
AcDbEntity
  8
RACCORDO
100
AcDbLine
 62
7
  6
CONTINUOUS
 10
179.2725584416
 20
159.3306727621
 11
179.2836409694
 21
159.4158634957
  0
LWPOLYLINE
  5
2AB
100
AcDbEntity
  8
RACCORDO
100
AcDbPolyline
 62
253
  6
CONTINUOUS
 90
16
 70
0
 10
174.3618232239
 20
108.4501743664
 10
174.3587205099
 20
108.4408158178
 10
174.3556495641
 20
108.4223506275
 10
174.3526418299
 20
108.3949678605
 10
174.3497281032
 20
108.3589478887
 10
174.3469382179
 20
108.3146595203
 10
174.3443007401
 20
108.2625562236
 10
174.3418426751
 20
108.2031714838
 10
174.3395891908
 20
108.1371133408
 10
174.3375633606
 20
108.0650581633
 10
174.3357859271
 20
107.9877437238
 10
174.3342750893
 20
107.9059616441
 10
174.3330463167
 20
107.8205492904
 10
174.3321121908
 20
107.7323811989
 10
174.3314822759
 20
107.6423601221
 10
174.3311630218
 20
107.5514077851
  0
LWPOLYLINE
  5
2AC
100
AcDbEntity
  8
RACCORDO
100
AcDbPolyline
 62
253
  6
CONTINUOUS
 90
10
 70
0
 10
180.3997062732
 20
55.7247794024
 10
180.4028256348
 20
55.6901526753
 10
180.411899132
 20
55.6565758346
 10
180.4266513637
 20
55.6250655749
 10
180.446634926
 20
55.5965759464
 10
180.4712442461
 20
55.571969113
 10
180.4997341377
 20
55.5519894476
 10
180.5312419298
 20
55.537241479
 10
180.564813427
 20
55.5281714312
 10
180.5994321802
 20
55.5250534955
  0
LINE
  5
2AD
100
AcDbEntity
  8
RACCORDO
100
AcDbLine
 62
7
  6
CONTINUOUS
 10
179.2690104167
 20
141.5631095408
 11
179.2690104167
 21
159.2443576389
  0
LWPOLYLINE
  5
2AE
100
AcDbEntity
  8
RACCORDO
100
AcDbPolyline
 62
253
  6
CONTINUOUS
 90
6
 70
0
 10
179.6484573706
 20
142.1478157265
 10
179.6477556585
 20
142.0371340482
 10
179.6468903657
 20
141.9328849644
 10
179.6457511791
 20
141.8350713157
 10
179.644208393
 20
141.7431310786
 10
179.6438298829
 20
141.7266746152
  0
LWPOLYLINE
  5
2AF
100
AcDbEntity
  8
RACCORDO
100
AcDbPolyline
 62
253
  6
CONTINUOUS
 90
7
 70
0
 10
179.9088413448
 20
159.2640418534
 10
179.8769810471
 20
156.551516451
 10
179.8412170182
 20
153.8394136705
 10
179.8015490605
 20
151.127733512
 10
179.7579771886
 20
148.4164759756
 10
179.7105016298
 20
145.7056410611
 10
179.6591228239
 20
142.9952287687
  0
LWPOLYLINE
  5
2B0
100
AcDbEntity
  8
RACCORDO
100
AcDbPolyline
 62
253
  6
CONTINUOUS
 90
7
 70
0
 10
179.6591228239
 20
142.9952287687
 10
179.6563046794
 20
142.8419995028
 10
179.6539129749
 20
142.6935677472
 10
179.6519396447
 20
142.5499335018
 10
179.6503772129
 20
142.4110967666
 10
179.649218794
 20
142.2770575415
 10
179.6484580924
 20
142.1478158267
  0
LINE
  5
2B1
100
AcDbEntity
  8
RACCORDO
100
AcDbLine
 62
253
  6
CONTINUOUS
 10
179.6484580924
 20
142.1478158267
 11
179.6376786142
 21
141.7234575538
  0
LWPOLYLINE
  5
2B2
100
AcDbEntity
  8
RACCORDO
100
AcDbPolyline
 62
253
  6
CONTINUOUS
 90
7
 70
0
 10
180.6583442278
 20
143.1103992288
 10
180.6555475896
 20
143.0344636999
 10
180.6531609047
 20
142.960092184
 10
180.6511841732
 20
142.8877068524
 10
180.6496173951
 20
142.8177099379
 10
180.6484605703
 20
142.7504817737
 10
180.6477136989
 20
142.6863790372
  0
LINE
  5
2B3
100
AcDbEntity
  8
RACCORDO
100
AcDbLine
 62
7
  6
CONTINUOUS
 10
179.2725584416
 20
159.3306727621
 11
179.2690104167
 21
159.2443576389
  0
LINE
  5
2B4
100
AcDbEntity
  8
RACCORDO
100
AcDbLine
 62
7
  6
CONTINUOUS
 10
179.2690104167
 20
159.2443576389
 11
179.2725598698
 21
159.3307130557
  0
LINE
  5
2B5
100
AcDbEntity
  8
0
100
AcDbLine
 62
7
  6
CONTINUOUS
 10
179.5854559996
 20
113.6723891138
 11
179.3533927034
 21
109.2443576389
  0
LWPOLYLINE
  5
2B6
100
AcDbEntity
  8
RACCORDO
100
AcDbPolyline
 62
253
  6
CONTINUOUS
 90
3
 70
0
 10
202.9420076682
 20
52.4053688294
 10
202.9506826229
 20
52.3888975315
 10
202.9675793367
 20
52.3570329552
  0
LINE
  5
2B7
100
AcDbEntity
  8
RACCORDO
100
AcDbLine
 62
253
  6
CONTINUOUS
 10
202.9675793367
 20
52.3570329552
 11
202.9913662211
 21
52.3119311395
  0
LINE
  5
2B8
100
AcDbEntity
  8
RACCORDO
100
AcDbLine
 62
253
  6
CONTINUOUS
 10
202.9913662211
 20
52.3119311395
 11
203.0270730328
 21
52.2440904469
  0
LWPOLYLINE
  5
2B9
100
AcDbEntity
  8
RACCORDO
100
AcDbPolyline
 62
253
  6
CONTINUOUS
 90
13
 70
0
 10
202.7383145601
 20
55.7247794024
 10
202.7416670516
 20
55.718299273
 10
202.7449186318
 20
55.7064883019
 10
202.7480693007
 20
55.6893464891
 10
202.7511404138
 20
55.6666482853
 10
202.7541106157
 20
55.6386192397
 10
202.7569158393
 20
55.6059360005
 10
202.7595536776
 20
55.5685233868
 10
202.7620265377
 20
55.5264565795
 10
202.7642775742
 20
55.4806377692
 10
202.7662878388
 20
55.4313676861
 10
202.7680762797
 20
55.3783456002
 10
202.7696428972
 20
55.3215715113
  0
LWPOLYLINE
  5
2BA
100
AcDbEntity
  8
RACCORDO
100
AcDbPolyline
 62
253
  6
CONTINUOUS
 90
13
 70
0
 10
180.3997062732
 20
99.7639358754
 10
180.3963537817
 20
99.7704160048
 10
180.3931022015
 20
99.7822269758
 10
180.3899515327
 20
99.7993687886
 10
180.3868804195
 20
99.8220669925
 10
180.3839102177
 20
99.850096038
 10
180.381104994
 20
99.8827792772
 10
180.3784671558
 20
99.920191891
 10
180.3759942957
 20
99.9622586983
 10
180.3737432591
 20
100.0080775086
 10
180.3717329946
 20
100.0573475916
 10
180.3699445536
 20
100.1103696776
 10
180.3683779362
 20
100.1671437665
  0
LWPOLYLINE
  5
2BB
100
AcDbEntity
  8
RACCORDO
100
AcDbPolyline
 62
253
  6
CONTINUOUS
 90
28
 70
0
 10
180.5149284929
 20
102.4275830563
 10
180.5133723627
 20
102.4685296782
 10
180.5110899262
 20
102.5082973021
 10
180.5080811834
 20
102.5468859282
 10
180.5043019794
 20
102.5842674946
 10
180.499796469
 20
102.6204700632
 10
180.4946971173
 20
102.6555778191
 10
180.4890195456
 20
102.6895909255
 10
180.4827481324
 20
102.7225092193
 10
180.4759684781
 20
102.7544163962
 10
180.4686905589
 20
102.7853221868
 10
180.4609043986
 20
102.8152168606
 10
180.4526656688
 20
102.8441549223
 10
180.4439795204
 20
102.8721489326
 10
180.4348408025
 20
102.8991863309
 10
180.4252897351
 20
102.9252839403
 10
180.415339249
 20
102.9504343507
 10
180.4049764133
 20
102.9746449722
 10
180.3942026549
 20
102.9979548581
 10
180.3830347699
 20
103.0203664721
 10
180.3714559621
 20
103.0418773504
 10
180.3594172702
 20
103.0625191546
 10
180.3469349735
 20
103.0823140093
 10
180.3339927927
 20
103.10123979
 10
180.3204929282
 20
103.119261785
 10
180.30640278
 20
103.1363684237
 10
180.2917549481
 20
103.1525712767
 10
180.2765494325
 20
103.167870344
  0
LINE
  5
2BC
100
AcDbEntity
  8
RACCORDO
100
AcDbLine
 62
253
  6
CONTINUOUS
 10
180.3683779362
 20
100.1671437665
 11
180.315202586
 21
102.343059404
  0
LINE
  5
2BD
100
AcDbEntity
  8
RACCORDO
100
AcDbLine
 62
253
  6
CONTINUOUS
 10
180.5681038431
 20
100.2516674188
 11
180.5149284929
 21
102.4275830563
  0
LWPOLYLINE
  5
2BE
100
AcDbEntity
  8
RACCORDO
100
AcDbPolyline
 62
253
  6
CONTINUOUS
 90
28
 70
0
 10
180.315202586
 20
102.343059404
 10
180.3144751155
 20
102.3840076387
 10
180.3133234954
 20
102.4237767595
 10
180.3117783564
 20
102.4623667665
 10
180.309874434
 20
102.4997495925
 10
180.3076393486
 20
102.5359533046
 10
180.3050859393
 20
102.5710621044
 10
180.3022362406
 20
102.6050761577
 10
180.2991137265
 20
102.6379952987
 10
180.2957210821
 20
102.6699032308
 10
180.2920740349
 20
102.700809666
 10
180.2881909044
 20
102.7307048923
 10
180.2840690695
 20
102.759643478
 10
180.2797199753
 20
102.7876380352
 10
180.275158397
 20
102.8146759519
 10
180.2703803644
 20
102.8407739607
 10
180.2653995998
 20
102.8659246555
 10
180.260224268
 20
102.8901354424
 10
180.2548362174
 20
102.9134452719
 10
180.2492475816
 20
102.935856589
 10
180.243462457
 20
102.9573669487
 10
180.2374433038
 20
102.9780079672
 10
180.2311990125
 20
102.9978018391
 10
180.2247309612
 20
103.0167263699
 10
180.2179821248
 20
103.0347465921
 10
180.210933324
 20
103.05185085
 10
180.2036086911
 20
103.0680507994
 10
180.1960131694
 20
103.0833464403
  0
LINE
  5
2BF
100
AcDbEntity
  8
RACCORDO
100
AcDbLine
 62
253
  6
CONTINUOUS
 10
180.1109478005
 20
103.2446248316
 11
180.1109478005
 21
52.2440904666
  0
LINE
  5
2C0
100
AcDbEntity
  8
RACCORDO
100
AcDbLine
 62
253
  6
CONTINUOUS
 10
180.315202586
 20
102.343059404
 11
180.315202586
 21
53.1456558738
  0
LINE
  5
2C1
100
AcDbEntity
  8
RACCORDO
100
AcDbLine
 62
7
  6
CONTINUOUS
 10
180.4190104167
 20
55.7440835458
 11
180.4190104167
 21
99.7446317319
  0
LINE
  5
2C2
100
AcDbEntity
  8
RACCORDO
100
AcDbLine
 62
253
  6
CONTINUOUS
 10
180.9066861342
 20
160.2443576389
 11
180.9066861342
 21
159.3835307398
  0
LWPOLYLINE
  5
2C3
100
AcDbEntity
  8
RACCORDO
100
AcDbPolyline
 62
253
  6
CONTINUOUS
 90
13
 70
0
 10
180.6477136989
 20
142.6863790372
 10
180.6473611769
 20
142.6311680746
 10
180.646568615
 20
142.5786165845
 10
180.6453360132
 20
142.5290158022
 10
180.6437694768
 20
142.4825881435
 10
180.6417629006
 20
142.4396777805
 10
180.638997969
 20
142.4006968054
 10
180.6354297354
 20
142.3658481551
 10
180.6311031464
 20
142.3353012101
 10
180.6258347263
 20
142.3092955712
 10
180.6195633165
 20
142.2879399459
 10
180.6123500756
 20
142.2712634015
 10
180.6041950036
 20
142.259304261
  0
LWPOLYLINE
  5
2C4
100
AcDbEntity
  8
RACCORDO
100
AcDbPolyline
 62
253
  6
CONTINUOUS
 90
7
 70
0
 10
180.9066838104
 20
159.3835307398
 10
180.8751229305
 20
156.6702850743
 10
180.8396304304
 20
153.9574622408
 10
180.8002063101
 20
151.2450622396
 10
180.7568505696
 20
148.5330850705
 10
180.7095632088
 20
145.8215307336
 10
180.6583442278
 20
143.1103992288
  0
LWPOLYLINE
  5
2C5
100
AcDbEntity
  8
RACCORDO
100
AcDbPolyline
 62
253
  6
CONTINUOUS
 90
25
 70
0
 10
180.315202586
 20
53.1456558738
 10
180.3143902141
 20
53.1011259078
 10
180.3130751609
 20
53.0579142628
 10
180.3112934067
 20
53.0160209387
 10
180.3090873293
 20
52.9754880972
 10
180.3064887997
 20
52.9362735768
 10
180.3035074379
 20
52.8982508927
 10
180.3001659712
 20
52.8614030822
 10
180.2964913992
 20
52.8257471081
 10
180.2924822812
 20
52.7912073745
 10
180.2881535809
 20
52.7577596365
 10
180.2835263323
 20
52.725428139
 10
180.2785970796
 20
52.6942100207
 10
180.2733819208
 20
52.6641071028
 10
180.2678941682
 20
52.6351175641
 10
180.2621176932
 20
52.6072330801
 10
180.256069455
 20
52.5804559677
 10
180.2497553175
 20
52.5547839101
 10
180.2431322688
 20
52.5302016319
 10
180.236226873
 20
52.5067112243
 10
180.2290280393
 20
52.4843105961
 10
180.2214200096
 20
52.4629781979
 10
180.2133595702
 20
52.4427068466
 10
180.2048890296
 20
52.4235037253
 10
180.1960131675
 20
52.405368834
  0
LINE
  5
2C6
100
AcDbEntity
  8
RACCORDO
100
AcDbLine
 62
253
  6
CONTINUOUS
 10
180.3683779362
 20
55.3215715113
 11
180.315202586
 21
53.1456558738
  0
LINE
  5
2C7
100
AcDbEntity
  8
RACCORDO
100
AcDbLine
 62
253
  6
CONTINUOUS
 10
180.5681038431
 20
55.237047859
 11
180.5149284929
 21
53.0611322214
  0
LWPOLYLINE
  5
2C8
100
AcDbEntity
  8
RACCORDO
100
AcDbPolyline
 62
253
  6
CONTINUOUS
 90
25
 70
0
 10
180.5149284929
 20
53.0611322214
 10
180.5131840844
 20
53.0166025735
 10
180.5105781076
 20
52.9733911568
 10
180.5071105626
 20
52.9314979712
 10
180.5027342072
 20
52.8909651589
 10
180.4974962837
 20
52.8517505777
 10
180.4915385182
 20
52.8137278015
 10
180.4848800605
 20
52.7768798739
 10
180.4775017609
 20
52.7412237512
 10
180.4694878968
 20
52.7066838758
 10
180.4608469
 20
52.6732360223
 10
180.4515703387
 20
52.6409044161
 10
180.4417171942
 20
52.609686176
 10
180.431300568
 20
52.5795831399
 10
180.4203073586
 20
52.55059347
 10
180.4087572425
 20
52.5227087717
 10
180.3966731902
 20
52.4959312906
 10
180.3840322313
 20
52.4702587811
 10
180.3707851304
 20
52.4456761117
 10
180.3569867891
 20
52.4221853251
 10
180.3425823058
 20
52.3997843786
 10
180.3273577405
 20
52.3784520121
 10
180.3112417797
 20
52.3581811387
 10
180.2943057369
 20
52.3389788452
 10
180.276549612
 20
52.3208451317
  0
LINE
  5
2C9
100
AcDbEntity
  8
RACCORDO
100
AcDbLine
 62
253
  6
CONTINUOUS
 10
180.4190104167
 20
99.7446317319
 11
180.3997062732
 21
99.7639358754
  0
LINE
  5
2CA
100
AcDbEntity
  8
RACCORDO
100
AcDbLine
 62
253
  6
CONTINUOUS
 10
180.6187363236
 20
99.9443576389
 11
180.5994321802
 21
99.9636617823
  0
LINE
  5
2CB
100
AcDbEntity
  8
RACCORDO
100
AcDbLine
 62
253
  6
CONTINUOUS
 10
173.363014453
 20
107.4517240678
 11
172.5690104167
 21
108.2457281041
  0
LINE
  5
2CC
100
AcDbEntity
  8
RACCORDO
100
AcDbLine
 62
253
  6
CONTINUOUS
 10
174.3618232239
 20
108.4501743664
 11
173.5676399514
 21
109.2443576389
  0
LWPOLYLINE
  5
2CD
100
AcDbEntity
  8
RACCORDO
100
AcDbPolyline
 62
253
  6
CONTINUOUS
 90
13
 70
0
 10
180.5994321802
 20
99.9636617823
 10
180.596080049
 20
99.9680831678
 10
180.5928291958
 20
99.976547991
 10
180.5896796207
 20
99.9889600092
 10
180.5866102167
 20
100.0051783876
 10
180.5836420907
 20
100.0250540323
 10
180.5808385638
 20
100.0484581441
 10
180.5782021053
 20
100.0752003667
 10
180.5757302457
 20
100.1050659125
 10
180.5734788985
 20
100.1378946374
 10
180.5714667011
 20
100.173468986
 10
180.569675016
 20
100.211491842
 10
180.5681038431
 20
100.2516674188
  0
LWPOLYLINE
  5
2CE
100
AcDbEntity
  8
RACCORDO
100
AcDbPolyline
 62
253
  6
CONTINUOUS
 90
3
 70
0
 10
180.1960131694
 20
103.0833464403
 10
180.1873382057
 20
103.0998177566
 10
180.1704414775
 20
103.1316823623
  0
LWPOLYLINE
  5
2CF
100
AcDbEntity
  8
RACCORDO
100
AcDbPolyline
 62
253
  6
CONTINUOUS
 90
4
 70
0
 10
180.1542623566
 20
103.1623488539
 10
180.1394391672
 20
103.1904917355
 10
180.1326297987
 20
103.2034810424
 10
180.1109478005
 20
103.2446248283
  0
LINE
  5
2D0
100
AcDbEntity
  8
RACCORDO
100
AcDbLine
 62
253
  6
CONTINUOUS
 10
180.1704414775
 20
103.1316823623
 11
180.1542623566
 21
103.1623488539
  0
LWPOLYLINE
  5
2D1
100
AcDbEntity
  8
RACCORDO
100
AcDbPolyline
 62
253
  6
CONTINUOUS
 90
10
 70
0
 10
180.2765496597
 20
103.1678699336
 10
180.2670623265
 20
103.1594267026
 10
180.2576160954
 20
103.1506539231
 10
180.2482518812
 20
103.141589595
 10
180.2390102435
 20
103.1322729817
 10
180.229931211
 20
103.1227444388
 10
180.2210541081
 20
103.1130452401
 10
180.2124173846
 20
103.1032173985
 10
180.2040584489
 20
103.0933034842
 10
180.1960135063
 20
103.0833464403
  0
LINE
  5
2D2
100
AcDbEntity
  8
RACCORDO
100
AcDbLine
 62
253
  6
CONTINUOUS
 10
180.2765496597
 20
103.1678700926
 11
180.259999718
 21
103.1754825629
  0
LWPOLYLINE
  5
2D3
100
AcDbEntity
  8
RACCORDO
100
AcDbPolyline
 62
253
  6
CONTINUOUS
 90
4
 70
0
 10
180.155745923
 20
103.2238775396
 10
180.14343555
 20
103.2295969044
 10
180.1318765586
 20
103.2349677089
 10
180.1109729195
 20
103.2446260406
  0
LINE
  5
2D4
100
AcDbEntity
  8
RACCORDO
100
AcDbLine
 62
253
  6
CONTINUOUS
 10
180.1825446272
 20
103.2114173906
 11
180.155745923
 21
103.2238775396
  0
LINE
  5
2D5
100
AcDbEntity
  8
RACCORDO
100
AcDbLine
 62
253
  6
CONTINUOUS
 10
180.259999718
 20
103.1754825629
 11
180.1825446272
 21
103.2114173906
  0
LINE
  5
2D6
100
AcDbEntity
  8
DRAFT
100
AcDbLine
 62
7
  6
CONTINUOUS
 10
189.3190104167
 20
125.7443576389
 11
189.3015553517
 21
126.7443576389
  0
LINE
  5
2D7
100
AcDbEntity
  8
DRAFT
100
AcDbLine
 62
7
  6
CONTINUOUS
 10
189.3190104167
 20
125.7443576389
 11
189.3190104167
 21
126.7443576389
  0
LWPOLYLINE
  5
2D8
100
AcDbEntity
  8
RACCORDO
100
AcDbPolyline
 62
253
  6
CONTINUOUS
 90
10
 70
0
 10
180.5994321802
 20
99.9636617823
 10
180.5648115165
 20
99.9605435047
 10
180.5312386833
 20
99.9514726098
 10
180.4997302018
 20
99.936723551
 10
180.4712401944
 20
99.9167427614
 10
180.4466313202
 20
99.8921350369
 10
180.4266487291
 20
99.863645151
 10
180.4118976994
 20
99.8321355288
 10
180.4028252099
 20
99.7985602254
 10
180.3997062732
 20
99.7639358754
  0
LWPOLYLINE
  5
2D9
100
AcDbEntity
  8
RACCORDO
100
AcDbPolyline
 62
253
  6
CONTINUOUS
 90
10
 70
0
 10
180.5681038431
 20
100.2516674188
 10
180.534421377
 20
100.2497834191
 10
180.5017015843
 20
100.2455375089
 10
180.4708796243
 20
100.2390510402
 10
180.4428364144
 20
100.2305094018
 10
180.4183734532
 20
100.2201567207
 10
180.3981899125
 20
100.2082888845
 10
180.382862655
 20
100.1952450856
 10
180.3728297465
 20
100.181398127
 10
180.3683779362
 20
100.1671437665
  0
LWPOLYLINE
  5
2DA
100
AcDbEntity
  8
RACCORDO
100
AcDbPolyline
 62
253
  6
CONTINUOUS
 90
10
 70
0
 10
180.5149284929
 20
102.4275830563
 10
180.481246119
 20
102.4256990658
 10
180.4485263864
 20
102.4214531733
 10
180.4177044522
 20
102.4149667242
 10
180.389661234
 20
102.4064251007
 10
180.3651982397
 20
102.3960724255
 10
180.3450146561
 20
102.3842045863
 10
180.3296873558
 20
102.3711607757
 10
180.3196544127
 20
102.3573137953
 10
180.315202586
 20
102.343059404
  0
LWPOLYLINE
  5
2DB
100
AcDbEntity
  8
RACCORDO
100
AcDbPolyline
 62
253
  6
CONTINUOUS
 90
16
 70
0
 10
180.2765494325
 20
103.167870344
 10
181.4908585761
 20
103.2239268787
 10
182.7427227488
 20
103.2739107158
 10
184.0321419506
 20
103.3178218554
 10
185.3576376891
 20
103.3563179058
 10
186.7206884566
 20
103.3887412587
 10
188.1257297313
 20
103.4131190889
 10
189.5725750043
 20
103.4296305183
 10
191.0614107844
 20
103.4380964249
 10
192.5972320757
 20
103.4360066172
 10
194.1797547898
 20
103.4235950124
 10
195.8092630151
 20
103.4006276933
 10
197.4916040216
 20
103.3638927163
 10
199.228726899
 20
103.3123194336
 10
201.0186825574
 20
103.2469784929
 10
202.8614709969
 20
103.1678698943
  0
LWPOLYLINE
  5
2DC
100
AcDbEntity
  8
RACCORDO
100
AcDbPolyline
 62
253
  6
CONTINUOUS
 90
10
 70
0
 10
180.1109478005
 20
103.2446248316
 10
182.6572006427
 20
103.3545159128
 10
185.2035109948
 20
103.4369344488
 10
187.7498143227
 20
103.4918804395
 10
190.2959276666
 20
103.5193541867
 10
192.841904984
 20
103.5193553887
 10
195.3880371505
 20
103.4918831402
 10
197.9343781206
 20
103.4369371396
 10
200.480744929
 20
103.3545176887
 10
203.0270730328
 20
103.2446247873
  0
LINE
  5
2DD
100
AcDbEntity
  8
RACCORDO
100
AcDbLine
 62
7
  6
CONTINUOUS
 10
180.6187363236
 20
99.9443576389
 11
202.5192845097
 21
99.9443576389
  0
LINE
  5
2DE
100
AcDbEntity
  8
RACCORDO
100
AcDbLine
 62
253
  6
CONTINUOUS
 10
202.5385886531
 20
99.9636617823
 11
180.5994321802
 21
99.9636617823
  0
LINE
  5
2DF
100
AcDbEntity
  8
RACCORDO
100
AcDbLine
 62
253
  6
CONTINUOUS
 10
202.5699169902
 20
100.2516674188
 11
180.5681038431
 21
100.2516674188
  0
LINE
  5
2E0
100
AcDbEntity
  8
DRAFT
100
AcDbLine
 62
7
  6
CONTINUOUS
 10
193.8190104167
 20
125.7443576389
 11
193.8190104167
 21
126.7443576389
  0
LINE
  5
2E1
100
AcDbEntity
  8
DRAFT
100
AcDbLine
 62
7
  6
CONTINUOUS
 10
193.8364654816
 20
126.7443576389
 11
193.8190104167
 21
125.7443576389
  0
LINE
  5
2E2
100
AcDbEntity
  8
RACCORDO
100
AcDbLine
 62
253
  6
CONTINUOUS
 10
209.7750063804
 20
107.4517240678
 11
208.9070782597
 21
107.4517240678
  0
LINE
  5
2E3
100
AcDbEntity
  8
RACCORDO
100
AcDbLine
 62
253
  6
CONTINUOUS
 10
173.363014453
 20
107.4517240678
 11
174.2309425737
 21
107.4517240678
  0
LWPOLYLINE
  5
2E4
100
AcDbEntity
  8
RACCORDO
100
AcDbPolyline
 62
253
  6
CONTINUOUS
 90
19
 70
0
 10
174.331163021
 20
107.5514077851
 10
176.2498624378
 20
107.5481773933
 10
178.168244037
 20
107.5453280145
 10
180.0862800485
 20
107.5428596487
 10
182.003923193
 20
107.5407725916
 10
183.9211653378
 20
107.5390665475
 10
185.8380375103
 20
107.5377406291
 10
187.7545133034
 20
107.536794807
 10
189.670563992
 20
107.5362291106
 10
191.586217201
 20
107.5360427418
 10
193.5014455439
 20
107.5362356734
 10
195.4162215121
 20
107.5368079326
 10
197.3305726019
 20
107.5377588033
 10
199.2444704244
 20
107.5390882564
 10
201.1578886746
 20
107.5407963211
 10
203.07085801
 20
107.5428823691
 10
204.9833704674
 20
107.5453461911
 10
206.8953794754
 20
107.5481879964
 10
208.8068578123
 20
107.5514077851
  0
LINE
  5
2E5
100
AcDbEntity
  8
RACCORDO
100
AcDbLine
 62
253
  6
CONTINUOUS
 10
208.7761976094
 20
108.4501743664
 11
209.5703808819
 21
109.2443576389
  0
LINE
  5
2E6
100
AcDbEntity
  8
RACCORDO
100
AcDbLine
 62
253
  6
CONTINUOUS
 10
203.0056316641
 20
103.2347195867
 11
203.0270477408
 21
103.2446260038
  0
LWPOLYLINE
  5
2E7
100
AcDbEntity
  8
RACCORDO
100
AcDbPolyline
 62
253
  6
CONTINUOUS
 90
3
 70
0
 10
202.8614711858
 20
103.1678701042
 10
202.8773987908
 20
103.1752197636
 10
203.0056316641
 20
103.2347195867
  0
LINE
  5
2E8
100
AcDbEntity
  8
RACCORDO
100
AcDbLine
 62
7
  6
CONTINUOUS
 10
209.5703808819
 20
109.2443576389
 11
173.5676399514
 21
109.2443576389
  0
LWPOLYLINE
  5
2E9
100
AcDbEntity
  8
RACCORDO
100
AcDbPolyline
 62
253
  6
CONTINUOUS
 90
19
 70
0
 10
174.3618232239
 20
108.4501743664
 10
176.2771394427
 20
108.4469439955
 10
178.1920885193
 20
108.44409463
 10
180.1066704537
 20
108.4416262697
 10
182.0208950659
 20
108.4395392073
 10
183.9347525359
 20
108.4378331501
 10
185.8482134042
 20
108.4365072208
 10
187.7612770444
 20
108.435561393
 10
189.673944083
 20
108.4349956931
 10
191.5861869395
 20
108.4348093231
 10
193.498005575
 20
108.435002256
 10
195.4094000285
 20
108.4355745189
 10
197.3203428364
 20
108.4365253954
 10
199.2308345695
 20
108.4378548595
 10
201.140874657
 20
108.4395629372
 10
203.0504339223
 20
108.4416489906
 10
204.9595026401
 20
108.4441128069
 10
206.8680905358
 20
108.4469545988
 10
208.7761976094
 20
108.4501743664
  0
LWPOLYLINE
  5
2EA
100
AcDbEntity
  8
RACCORDO
100
AcDbPolyline
 62
253
  6
CONTINUOUS
 90
19
 70
0
 10
208.8068578123
 20
107.5514077851
 10
208.8156320454
 20
107.5510371714
 10
208.8242326462
 20
107.5499327942
 10
208.8326596148
 20
107.5480946535
 10
208.8409811165
 20
107.5454986318
 10
208.8491289866
 20
107.5421688465
 10
208.8568987313
 20
107.5381776506
 10
208.8642762227
 20
107.5335090937
 10
208.87127559
 20
107.5281791261
 10
208.8777347256
 20
107.5223079507
 10
208.8836407918
 20
107.5158812543
 10
208.8890066277
 20
107.5089133502
 10
208.8937086412
 20
107.5015673807
 10
208.8977298959
 20
107.4938293716
 10
208.9010873293
 20
107.4857132971
 10
208.9037081602
 20
107.4774242229
 10
208.9055681284
 20
107.4690305043
 10
208.9066914949
 20
107.4604637859
 10
208.9070782597
 20
107.4517240678
  0
LWPOLYLINE
  5
2EB
100
AcDbEntity
  8
RACCORDO
100
AcDbPolyline
 62
253
  6
CONTINUOUS
 90
19
 70
0
 10
208.7761976094
 20
108.4501743664
 10
208.8631233618
 20
108.4461879843
 10
208.9493866049
 20
108.4346553425
 10
209.0343333847
 20
108.4156643508
 10
209.1173197966
 20
108.3893596774
 10
209.1977166908
 20
108.3559410144
 10
209.274914402
 20
108.3156614621
 10
209.348327627
 20
108.2688268073
 10
209.4173998788
 20
108.21579241
 10
209.4816073898
 20
108.1569596599
 10
209.5404632008
 20
108.0927744753
 10
209.5935210023
 20
108.023723919
 10
209.6403783895
 20
107.9503314928
 10
209.6806798795
 20
107.8731535417
 10
209.7141196921
 20
107.7927755179
 10
209.7404441675
 20
107.7098074148
 10
209.7594535808
 20
107.6248785542
 10
209.7710035779
 20
107.5386327819
 10
209.7750063804
 20
107.4517240678
  0
LWPOLYLINE
  5
2EC
100
AcDbEntity
  8
RACCORDO
100
AcDbPolyline
 62
253
  6
CONTINUOUS
 90
10
 70
0
 10
202.7383145601
 20
99.7639358754
 10
202.7351951986
 20
99.7985626025
 10
202.7261217014
 20
99.8321394432
 10
202.7113694697
 20
99.8636497028
 10
202.6913859073
 20
99.8921393314
 10
202.6667765872
 20
99.9167461648
 10
202.6382866956
 20
99.9367258302
 10
202.6067789036
 20
99.9514737987
 10
202.5732074063
 20
99.9605438466
 10
202.5385886531
 20
99.9636617823
  0
LINE
  5
2ED
100
AcDbEntity
  8
0
100
AcDbLine
 62
7
  6
CONTINUOUS
 10
203.5525648337
 20
113.6723891138
 11
203.7846281299
 21
109.2443576389
  0
LWPOLYLINE
  5
2EE
100
AcDbEntity
  8
RACCORDO
100
AcDbPolyline
 62
253
  6
CONTINUOUS
 90
28
 70
0
 10
202.6230923404
 20
53.0611322214
 10
202.62464857
 20
53.0201859776
 10
202.626930919
 20
52.9804195671
 10
202.6299393872
 20
52.9418329898
 10
202.6337181488
 20
52.9044544687
 10
202.6382230297
 20
52.8682557809
 10
202.6433215078
 20
52.8331522572
 10
202.6489978931
 20
52.7991438467
 10
202.6552678757
 20
52.7662306003
 10
202.6620460032
 20
52.7343280018
 10
202.6693222166
 20
52.7034263358
 10
202.677106575
 20
52.6735353177
 10
202.6853438034
 20
52.6445995771
 10
202.6940289254
 20
52.6166059434
 10
202.7031669174
 20
52.5895675872
 10
202.7127174332
 20
52.5634686502
 10
202.7226674632
 20
52.5383168451
 10
202.733030017
 20
52.5141044592
 10
202.7438037773
 20
52.490792495
 10
202.7549719709
 20
52.468378428
 10
202.766551371
 20
52.4468647829
 10
202.7785909795
 20
52.426220136
 10
202.791074528
 20
52.4064226539
 10
202.8040182849
 20
52.38749417
 10
202.8175200579
 20
52.3694687617
 10
202.8316124496
 20
52.3523577881
 10
202.8462628573
 20
52.33614989
 10
202.8614712812
 20
52.3208450675
  0
LINE
  5
2EF
100
AcDbEntity
  8
RACCORDO
100
AcDbLine
 62
253
  6
CONTINUOUS
 10
202.5699169902
 20
55.237047859
 11
202.6230923404
 21
53.0611322214
  0
LINE
  5
2F0
100
AcDbEntity
  8
RACCORDO
100
AcDbLine
 62
253
  6
CONTINUOUS
 10
202.7696428972
 20
55.3215715113
 11
202.8228182473
 21
53.1456558738
  0
LWPOLYLINE
  5
2F1
100
AcDbEntity
  8
RACCORDO
100
AcDbPolyline
 62
253
  6
CONTINUOUS
 90
7
 70
0
 10
202.4796766055
 20
143.1103992288
 10
202.4284576245
 20
145.8215307336
 10
202.3811702638
 20
148.5330850705
 10
202.3378145232
 20
151.2450622396
 10
202.2983904029
 20
153.9574622408
 10
202.2628979028
 20
156.6702850743
 10
202.2313370229
 20
159.3835307398
  0
LWPOLYLINE
  5
2F2
100
AcDbEntity
  8
RACCORDO
100
AcDbPolyline
 62
253
  6
CONTINUOUS
 90
28
 70
0
 10
202.8228182473
 20
53.1456558738
 10
202.8235456937
 20
53.1047086856
 10
202.8246972373
 20
53.0649414151
 10
202.8262422205
 20
53.0263540623
 10
202.8281458765
 20
52.988974855
 10
202.8303805657
 20
52.9527755654
 10
202.8329334536
 20
52.9176715102
 10
202.8357824828
 20
52.8836626376
 10
202.8389041802
 20
52.8507489994
 10
202.842295933
 20
52.8188460671
 10
202.8459420161
 20
52.787944138
 10
202.8498241314
 20
52.7580529148
 10
202.8539450494
 20
52.7291169767
 10
202.8582934529
 20
52.7011231088
 10
202.8628545201
 20
52.6740845259
 10
202.8676321102
 20
52.6479854524
 10
202.8726124515
 20
52.6228336109
 10
202.8777874428
 20
52.5986212787
 10
202.8831752769
 20
52.5753095125
 10
202.8887638349
 20
52.5528958225
 10
202.894549029
 20
52.5313826984
 10
202.9005684376
 20
52.5107386653
 10
202.906813094
 20
52.4909418837
 10
202.9132817147
 20
52.4720141931
 10
202.9200316465
 20
52.453989638
 10
202.9270822062
 20
52.4368795663
 10
202.9344091872
 20
52.4206726302
 10
202.9420076682
 20
52.4053688294
  0
LWPOLYLINE
  5
2F3
100
AcDbEntity
  8
RACCORDO
100
AcDbPolyline
 62
253
  6
CONTINUOUS
 90
7
 70
0
 10
202.490307569
 20
142.6850857529
 10
202.4895704771
 20
142.7493546257
 10
202.488419491
 20
142.8167739664
 10
202.4868546108
 20
142.886983314
 10
202.4848758365
 20
142.9595983057
 10
202.482483168
 20
143.0342124704
 10
202.4796766055
 20
143.1103992288
  0
LWPOLYLINE
  5
2F4
100
AcDbEntity
  8
RACCORDO
100
AcDbPolyline
 62
253
  6
CONTINUOUS
 90
16
 70
0
 10
202.490307569
 20
142.6850857529
 10
202.4906613316
 20
142.6394670753
 10
202.4912507833
 20
142.5959531999
 10
202.492075924
 20
142.5546580411
 10
202.4930808046
 20
142.5157069483
 10
202.4943213742
 20
142.4791712798
 10
202.4959654811
 20
142.4450811791
 10
202.4980249028
 20
142.413526574
 10
202.5004878616
 20
142.3845840228
 10
202.5034868729
 20
142.3582764992
 10
202.5070374474
 20
142.3346790633
 10
202.5111240743
 20
142.3138614673
 10
202.5158327367
 20
142.2958550568
 10
202.5211920956
 20
142.2807177669
 10
202.5271734899
 20
142.2685179477
 10
202.5337769197
 20
142.259304261
  0
LWPOLYLINE
  5
2F5
100
AcDbEntity
  8
RACCORDO
100
AcDbPolyline
 62
253
  6
CONTINUOUS
 90
7
 70
0
 10
203.4895619494
 20
142.1478749489
 10
203.4901237254
 20
142.0562539116
 10
203.4907898505
 20
141.9692954969
 10
203.4916126897
 20
141.8870010898
 10
203.4926484769
 20
141.8092334726
 10
203.4939563443
 20
141.7361330812
 10
203.494173414
 20
141.7266973741
  0
LWPOLYLINE
  5
2F6
100
AcDbEntity
  8
RACCORDO
100
AcDbPolyline
 62
253
  6
CONTINUOUS
 90
7
 70
0
 10
203.4895590549
 20
142.1479599388
 10
203.4887998318
 20
142.277151072
 10
203.4876425407
 20
142.4111503405
 10
203.4860808909
 20
142.5499577444
 10
203.4841080001
 20
142.6935732838
 10
203.4817163947
 20
142.8419969585
 10
203.4788980094
 20
142.9952287687
  0
LINE
  5
2F7
100
AcDbEntity
  8
RACCORDO
100
AcDbLine
 62
253
  6
CONTINUOUS
 10
202.2313346991
 20
159.3835307398
 11
202.2313346991
 21
160.2443576389
  0
LINE
  5
2F8
100
AcDbEntity
  8
RACCORDO
100
AcDbLine
 62
7
  6
CONTINUOUS
 10
202.7190104167
 20
99.7446317319
 11
202.7190104167
 21
55.7440835458
  0
LINE
  5
2F9
100
AcDbEntity
  8
RACCORDO
100
AcDbLine
 62
253
  6
CONTINUOUS
 10
202.8228182473
 20
53.1456558738
 11
202.8228182473
 21
102.343059404
  0
LINE
  5
2FA
100
AcDbEntity
  8
RACCORDO
100
AcDbLine
 62
253
  6
CONTINUOUS
 10
203.0270730328
 20
52.2440904438
 11
203.0270730328
 21
103.2446247873
  0
LINE
  5
2FB
100
AcDbEntity
  8
RACCORDO
100
AcDbLine
 62
7
  6
CONTINUOUS
 10
203.8690104167
 20
141.5631191378
 11
203.8690104167
 21
159.2443576389
  0
LWPOLYLINE
  5
2FC
100
AcDbEntity
  8
RACCORDO
100
AcDbPolyline
 62
253
  6
CONTINUOUS
 90
28
 70
0
 10
202.8228182473
 20
102.343059404
 10
202.8235244824
 20
102.3830916744
 10
202.8246373669
 20
102.4220225355
 10
202.8261290239
 20
102.4598519871
 10
202.8279674022
 20
102.4965497448
 10
202.8301275096
 20
102.532146093
 10
202.8325990763
 20
102.5667318854
 10
202.8353626425
 20
102.6003112198
 10
202.8383969809
 20
102.6328799982
 10
202.8417012721
 20
102.6645167804
 10
202.8452624862
 20
102.6952375338
 10
202.8490637362
 20
102.7250262909
 10
202.8531069121
 20
102.7539137096
 10
202.857379151
 20
102.7818972909
 10
202.8618693567
 20
102.8089795338
 10
202.8665887872
 20
102.8351985932
 10
202.8715273835
 20
102.8605593155
 10
202.8766773474
 20
102.8850568543
 10
202.8820601878
 20
102.9087148255
 10
202.8876673214
 20
102.9315436887
 10
202.893494741
 20
102.9535329842
 10
202.8995779516
 20
102.9746749487
 10
202.9059043598
 20
102.9949807278
 10
202.9124781536
 20
103.0144391759
 10
202.919368841
 20
103.0330090924
 10
202.9266012516
 20
103.0506767438
 10
202.9341488395
 20
103.0674558636
 10
202.9420076701
 20
103.0833464518
  0
LINE
  5
2FD
100
AcDbEntity
  8
RACCORDO
100
AcDbLine
 62
253
  6
CONTINUOUS
 10
202.5699169902
 20
100.2516674188
 11
202.6230923404
 21
102.4275830563
  0
LINE
  5
2FE
100
AcDbEntity
  8
RACCORDO
100
AcDbLine
 62
253
  6
CONTINUOUS
 10
202.7696428972
 20
100.1671437665
 11
202.8228182473
 21
102.343059404
  0
LWPOLYLINE
  5
2FF
100
AcDbEntity
  8
RACCORDO
100
AcDbPolyline
 62
253
  6
CONTINUOUS
 90
28
 70
0
 10
202.6230923404
 20
102.4275830563
 10
202.6245971192
 20
102.4676154765
 10
202.6268040981
 20
102.5065465715
 10
202.6297132768
 20
102.5443763412
 10
202.6333637358
 20
102.5810745028
 10
202.6377163947
 20
102.6166713393
 10
202.6426540127
 20
102.6512576989
 10
202.6481618596
 20
102.6848376902
 10
202.6542546656
 20
102.7174072048
 10
202.6608593803
 20
102.7490447657
 10
202.6679685069
 20
102.7797663643
 10
202.6755895421
 20
102.8095560092
 10
202.6836719259
 20
102.8384442498
 10
202.6922053027
 20
102.866428613
 10
202.7012000281
 20
102.8935115718
 10
202.7106366087
 20
102.9197310945
 10
202.7205042541
 20
102.9450920456
 10
202.7308137547
 20
102.9695895606
 10
202.7415779885
 20
102.9932470149
 10
202.7527852008
 20
103.0160745354
 10
202.7644471464
 20
103.0380619953
 10
202.7766119676
 20
103.0592023893
 10
202.78925077
 20
103.0795071776
 10
202.8023924479
 20
103.0989649001
 10
202.816171827
 20
103.1175341716
 10
202.8306338492
 20
103.1352011969
 10
202.8457335725
 20
103.1519797711
 10
202.8614709969
 20
103.1678698943
  0
LWPOLYLINE
  5
300
100
AcDbEntity
  8
RACCORDO
100
AcDbPolyline
 62
253
  6
CONTINUOUS
 90
13
 70
0
 10
202.7383145601
 20
99.7639358754
 10
202.7416616001
 20
99.7703957465
 10
202.7449085918
 20
99.7821778157
 10
202.7480555353
 20
99.799282083
 10
202.751123712
 20
99.8219292504
 10
202.7540918404
 20
99.8498986159
 10
202.7568960764
 20
99.8825280736
 10
202.7595339963
 20
99.9198820616
 10
202.7620080238
 20
99.9618961418
 10
202.764261585
 20
100.0077148944
 10
202.766275822
 20
100.0570531794
 10
202.7680695927
 20
100.1101961368
 10
202.7696428972
 20
100.1671437665
  0
LWPOLYLINE
  5
301
100
AcDbEntity
  8
RACCORDO
100
AcDbPolyline
 62
253
  6
CONTINUOUS
 90
13
 70
0
 10
180.3997062732
 20
55.7247794024
 10
180.3963592333
 20
55.7183195313
 10
180.3931122415
 20
55.7065374621
 10
180.3899652981
 20
55.6894331948
 10
180.3868971214
 20
55.6667860274
 10
180.3839289929
 20
55.6388166619
 10
180.381124757
 20
55.6061872041
 10
180.378486837
 20
55.5688332162
 10
180.3760128095
 20
55.5268191359
 10
180.3737592483
 20
55.4810003834
 10
180.3717450113
 20
55.4316620984
 10
180.3699512406
 20
55.378519141
 10
180.3683779362
 20
55.3215715113
  0
LINE
  5
302
100
AcDbEntity
  8
RACCORDO
100
AcDbLine
 62
253
  6
CONTINUOUS
 10
203.0164901095
 20
103.2244397024
 11
203.0270730328
 21
103.2446246212
  0
LINE
  5
303
100
AcDbEntity
  8
RACCORDO
100
AcDbLine
 62
253
  6
CONTINUOUS
 10
202.9677728626
 20
103.1320477267
 11
203.0164901095
 21
103.2244397024
  0
LINE
  5
304
100
AcDbEntity
  8
RACCORDO
100
AcDbLine
 62
253
  6
CONTINUOUS
 10
202.9420076701
 20
103.0833464518
 11
202.9677728626
 21
103.1320477267
  0
LWPOLYLINE
  5
305
100
AcDbEntity
  8
RACCORDO
100
AcDbPolyline
 62
253
  6
CONTINUOUS
 90
13
 70
0
 10
202.5385886531
 20
99.9636617823
 10
202.5419538542
 20
99.9681089452
 10
202.5452146243
 20
99.9766232337
 10
202.5483709633
 20
99.9890977446
 10
202.5514432794
 20
100.0053785851
 10
202.5544111646
 20
100.0253080279
 10
202.5572133945
 20
100.0487582907
 10
202.5598483975
 20
100.0755443875
 10
202.5623177453
 20
100.1054396098
 10
202.5645649293
 20
100.1382582932
 10
202.5665711134
 20
100.1737672071
 10
202.5683551337
 20
100.2116700848
 10
202.5699169902
 20
100.2516674188
  0
LINE
  5
306
100
AcDbEntity
  8
RACCORDO
100
AcDbLine
 62
253
  6
CONTINUOUS
 10
209.7750063804
 20
107.4517240678
 11
210.5690104167
 21
108.2457281041
  0
LINE
  5
307
100
AcDbEntity
  8
RACCORDO
100
AcDbLine
 62
253
  6
CONTINUOUS
 10
202.5192845097
 20
99.9443576389
 11
202.5385886531
 21
99.9636617823
  0
LINE
  5
308
100
AcDbEntity
  8
RACCORDO
100
AcDbLine
 62
253
  6
CONTINUOUS
 10
202.7190104167
 20
99.7446317319
 11
202.7383145601
 21
99.7639358754
  0
LINE
  5
309
100
AcDbEntity
  8
0
100
AcDbLine
 62
253
  6
CONTINUOUS
 10
179.5854559996
 20
113.6723891138
 11
203.5525648337
 21
113.6723891138
  0
LINE
  5
30A
100
AcDbEntity
  8
RACCORDO
100
AcDbLine
 62
7
  6
CONTINUOUS
 10
209.5438113792
 20
115.7443576389
 11
173.5944483604
 21
115.7443576389
  0
LWPOLYLINE
  5
30B
100
AcDbEntity
  8
RACCORDO
100
AcDbPolyline
 62
253
  6
CONTINUOUS
 90
10
 70
0
 10
202.9420072643
 20
103.0833464518
 10
202.9339623201
 20
103.0933034841
 10
202.9256033818
 20
103.1032173865
 10
202.9169666563
 20
103.1130452178
 10
202.9080895535
 20
103.1227444094
 10
202.8990105246
 20
103.1322729502
 10
202.8897688954
 20
103.141589568
 10
202.880404696
 20
103.1506539088
 10
202.8709584874
 20
103.1594267111
 10
202.8614711858
 20
103.1678699762
  0
LWPOLYLINE
  5
30C
100
AcDbEntity
  8
RACCORDO
100
AcDbPolyline
 62
253
  6
CONTINUOUS
 90
10
 70
0
 10
202.7696428972
 20
100.1671437665
 10
202.7651910868
 20
100.1813981267
 10
202.7551581784
 20
100.1952450853
 10
202.7398309208
 20
100.2082888846
 10
202.71964738
 20
100.2201567217
 10
202.6951844185
 20
100.230509404
 10
202.6671412085
 20
100.239051043
 10
202.6363192485
 20
100.2455375115
 10
202.603599456
 20
100.2497834206
 10
202.5699169902
 20
100.2516674188
  0
LWPOLYLINE
  5
30D
100
AcDbEntity
  8
RACCORDO
100
AcDbPolyline
 62
253
  6
CONTINUOUS
 90
10
 70
0
 10
202.8228182473
 20
102.343059404
 10
202.8183664181
 20
102.3573138
 10
202.8083334697
 20
102.3711607837
 10
202.7930061628
 20
102.384204596
 10
202.7728225725
 20
102.3960724355
 10
202.748359573
 20
102.4064251097
 10
202.7203163534
 20
102.4149667309
 10
202.6894944232
 20
102.421453177
 10
202.6567747
 20
102.425699067
 10
202.6230923404
 20
102.4275830563
  0
LINE
  5
30E
100
AcDbEntity
  8
RACCORDO
100
AcDbLine
 62
7
  6
CONTINUOUS
 10
203.8654609635
 20
159.3307130557
 11
203.8690104167
 21
159.2443576389
  0
LWPOLYLINE
  5
30F
100
AcDbEntity
  8
RACCORDO
100
AcDbPolyline
 62
7
  6
CONTINUOUS
 90
3
 70
0
 10
203.8690104167
 20
159.2443576389
 10
203.8654623918
 20
159.3306727621
 10
203.8543798639
 20
159.4158634957
  0
LINE
  5
310
100
AcDbEntity
  8
RACCORDO
100
AcDbLine
 62
253
  6
CONTINUOUS
 10
203.4895590549
 20
142.1479599388
 11
203.5003420455
 21
141.7234636316
  0
LWPOLYLINE
  5
311
100
AcDbEntity
  8
RACCORDO
100
AcDbPolyline
 62
253
  6
CONTINUOUS
 90
7
 70
0
 10
203.4788980094
 20
142.9952287687
 10
203.4275192035
 20
145.7056410611
 10
203.3800436448
 20
148.4164759755
 10
203.3364717729
 20
151.127733512
 10
203.2968038151
 20
153.8394136705
 10
203.2610397863
 20
156.5515164509
 10
203.2291794886
 20
159.2640418534
  0
LINE
  5
312
100
AcDbEntity
  8
RACCORDO
100
AcDbLine
 62
253
  6
CONTINUOUS
 10
180.1215307098
 20
52.2642755454
 11
180.1109478005
 21
52.2440906591
  0
LINE
  5
313
100
AcDbEntity
  8
RACCORDO
100
AcDbLine
 62
253
  6
CONTINUOUS
 10
180.170247941
 20
52.3566674914
 11
180.1215307098
 21
52.2642755454
  0
LINE
  5
314
100
AcDbEntity
  8
RACCORDO
100
AcDbLine
 62
253
  6
CONTINUOUS
 10
180.1960131675
 20
52.405368834
 11
180.170247941
 21
52.3566674914
  0
LINE
  5
315
100
AcDbEntity
  8
RACCORDO
100
AcDbLine
 62
253
  6
CONTINUOUS
 10
210.5421896845
 20
116.6920215254
 11
172.5958310249
 21
116.6920216137
  0
LINE
  5
316
100
AcDbEntity
  8
RACCORDO
100
AcDbLine
 62
7
  6
CONTINUOUS
 10
210.4514898997
 20
138.5273508803
 11
210.4516450489
 21
138.5241023704
  0
LINE
  5
317
100
AcDbEntity
  8
RACCORDO
100
AcDbLine
 62
253
  6
CONTINUOUS
 10
208.9070782597
 20
107.4517240678
 11
208.9070782597
 21
48.0369912099
  0
LINE
  5
318
100
AcDbEntity
  8
RACCORDO
100
AcDbLine
 62
253
  6
CONTINUOUS
 10
209.7750063804
 20
107.4517240678
 11
209.7750063804
 21
48.0369912099
  0
LINE
  5
319
100
AcDbEntity
  8
RACCORDO
100
AcDbLine
 62
7
  6
CONTINUOUS
 10
210.5690104167
 20
47.2429871736
 11
210.5690104167
 21
108.2457281041
  0
LWPOLYLINE
  5
31A
100
AcDbEntity
  8
RACCORDO
100
AcDbPolyline
 62
253
  6
CONTINUOUS
 90
66
 70
0
 10
210.4516450489
 20
138.5241023704
 10
210.4492992383
 20
138.467793323
 10
210.4099093956
 20
138.3423715493
 10
210.3235247866
 20
138.2171200366
 10
210.1908191415
 20
138.093281579
 10
210.0129607581
 20
137.9711016504
 10
209.7906371246
 20
137.8503347769
 10
209.5239218879
 20
137.7314873305
 10
209.2132482288
 20
137.6144715866
 10
208.8596118359
 20
137.4993752697
 10
208.4636008311
 20
137.3869679259
 10
208.0259031046
 20
137.2772129212
 10
207.5477505654
 20
137.1701468895
 10
207.0307301123
 20
137.0666492789
 10
206.4763148115
 20
136.9667789509
 10
205.8858137575
 20
136.8704770439
 10
205.2608351351
 20
136.7784464208
 10
204.6030909867
 20
136.6907333453
 10
203.9141789619
 20
136.6072915538
 10
203.1956508823
 20
136.5286851183
 10
202.4492940522
 20
136.4549455765
 10
201.6769908077
 20
136.3860413908
 10
200.8804980731
 20
136.3224420205
 10
200.0617467106
 20
136.2641824056
 10
199.2227912784
 20
136.2112276063
 10
198.3656368678
 20
136.1639422616
 10
197.4924207636
 20
136.1223680297
 10
196.6052487837
 20
136.0864632525
 10
195.7061252915
 20
136.0564675954
 10
194.7972398645
 20
136.0324209809
 10
193.8808028202
 20
136.0142834865
 10
192.9588732898
 20
136.0021750096
 10
192.0337055227
 20
135.9961354934
 10
191.1075234344
 20
135.9961249947
 10
190.1823481491
 20
136.0021435813
 10
189.2604036315
 20
136.0142311945
 10
188.3439441236
 20
136.0323478931
 10
187.4350286899
 20
136.0563739208
 10
186.5358677232
 20
136.0863491975
 10
185.6486508644
 20
136.1222338034
 10
184.7753824203
 20
136.1637882223
 10
183.9181682225
 20
136.2110541192
 10
183.0791458
 20
136.2639898293
 10
182.2603205542
 20
136.3222308414
 10
181.4637470917
 20
136.3858121165
 10
180.6913565692
 20
136.4546986938
 10
179.9449065509
 20
136.5284211799
 10
179.2262798732
 20
136.6070110754
 10
178.5372636138
 20
136.6904368798
 10
177.8794091809
 20
136.7781346982
 10
177.2543147856
 20
136.8701507236
 10
176.6636923939
 20
136.966438763
 10
176.1091491885
 20
137.0662963421
 10
175.5919940131
 20
137.1697824965
 10
175.113701516
 20
137.2768381907
 10
174.6758603842
 20
137.3865838434
 10
174.279702136
 20
137.4989831387
 10
173.925916029
 20
137.6140723926
 10
173.6150931569
 20
137.7310809715
 10
173.3482299201
 20
137.8499204609
 10
173.1257566031
 20
137.9706792754
 10
172.9477442407
 20
138.0928520256
 10
172.814881208
 20
138.2166830199
 10
172.7283344646
 20
138.3419279499
 10
172.688777851
 20
138.4673485012
 10
172.6863760473
 20
138.5241085883
  0
LWPOLYLINE
  5
31B
100
AcDbEntity
  8
RACCORDO
100
AcDbPolyline
 62
253
  6
CONTINUOUS
 90
19
 70
0
 10
208.9070782597
 20
48.0369912099
 10
208.9066906262
 20
48.0282489524
 10
208.9055668829
 20
48.0196810014
 10
208.9037070298
 20
48.0112873568
 10
208.9010867334
 20
48.0030001228
 10
208.8977303265
 20
47.9948871953
 10
208.8937108078
 20
47.9871522617
 10
208.8890121825
 20
47.9798094442
 10
208.8836504443
 20
47.9728446206
 10
208.8777465744
 20
47.9664191121
 10
208.8712862543
 20
47.9605457593
 10
208.8642838012
 20
47.9552117214
 10
208.8569031503
 20
47.9505397982
 10
208.8491303214
 20
47.9465468772
 10
208.8409792935
 20
47.9432160708
 10
208.8326559413
 20
47.9406195155
 10
208.8242288898
 20
47.9387812568
 10
208.8156295136
 20
47.9376772492
 10
208.8068578123
 20
47.9373074927
  0
LINE
  5
31C
100
AcDbEntity
  8
SUP_COSTRUZIONE
100
AcDbLine
 62
7
  6
CONTINUOUS
 10
210.5421898043
 20
116.6920215253
 11
211.0690104167
 21
126.7443576389
  0
LWPOLYLINE
  5
31D
100
AcDbEntity
  8
RACCORDO
100
AcDbPolyline
 62
253
  6
CONTINUOUS
 90
13
 70
0
 10
180.5994321802
 20
55.5250534955
 10
180.5960669791
 20
55.5206063325
 10
180.5928062091
 20
55.512092044
 10
180.58964987
 20
55.4996175332
 10
180.5865775539
 20
55.4833366927
 10
180.5836096688
 20
55.4634072498
 10
180.5808074388
 20
55.4399569871
 10
180.5781724358
 20
55.4131708903
 10
180.575703088
 20
55.3832756679
 10
180.573455904
 20
55.3504569846
 10
180.5714497199
 20
55.3149480707
 10
180.5696656996
 20
55.2770451929
 10
180.5681038431
 20
55.237047859
  0
LWPOLYLINE
  5
31E
100
AcDbEntity
  8
RACCORDO
100
AcDbPolyline
 62
253
  6
CONTINUOUS
 90
16
 70
0
 10
208.7761976036
 20
108.4501354971
 10
208.779300417
 20
108.4407775395
 10
208.7823714568
 20
108.4223133206
 10
208.7853792769
 20
108.3949318945
 10
208.7882930788
 20
108.3589136183
 10
208.7910830262
 20
108.3146272811
 10
208.793720551
 20
108.2625263282
 10
208.7961786463
 20
108.2031442185
 10
208.7984321423
 20
108.1370889623
 10
208.8004579643
 20
108.0650368955
 10
208.8022353689
 20
107.9877257554
 10
208.8037461565
 20
107.9059471266
 10
208.8049748573
 20
107.820538336
 10
208.8059088903
 20
107.7323738794
 10
208.8065386915
 20
107.642356468
 10
208.8068578122
 20
107.5514077851
  0
LWPOLYLINE
  5
31F
100
AcDbEntity
  8
RACCORDO
100
AcDbPolyline
 62
253
  6
CONTINUOUS
 90
16
 70
0
 10
203.4895504711
 20
142.1478095717
 10
203.4804272927
 20
142.2049060364
 10
203.460978699
 20
142.2611652654
 10
203.4314078867
 20
142.3159984453
 10
203.3920237548
 20
142.3688313218
 10
203.3432372636
 20
142.4191107199
 10
203.2855568084
 20
142.4663102276
 10
203.2195836386
 20
142.5099349897
 10
203.1460059364
 20
142.5495270048
 10
203.0655910053
 20
142.5846703728
 10
202.9791774235
 20
142.6149954658
 10
202.8876663061
 20
142.6401827335
 10
202.7920119359
 20
142.6599660916
 10
202.6932117832
 20
142.6741357838
 10
202.5922961009
 20
142.6825405748
 10
202.4903171981
 20
142.6850892849
  0
LWPOLYLINE
  5
320
100
AcDbEntity
  8
RACCORDO
100
AcDbPolyline
 62
7
  6
CONTINUOUS
 90
21
 70
0
 10
210.4516376539
 20
138.5241793665
 10
210.4420321436
 20
138.6311353266
 10
210.4048512159
 20
138.8163718942
 10
210.3422886709
 20
138.9964922994
 10
210.2563308081
 20
139.1674706978
 10
210.1528414579
 20
139.3226520981
 10
210.0368764604
 20
139.4610754363
 10
209.909445099
 20
139.5865049779
 10
209.771494336
 20
139.7011887784
 10
209.6246345865
 20
139.8062709322
 10
209.4687545627
 20
139.9037733209
 10
209.3013764042
 20
139.9963862297
 10
209.1220398529
 20
140.0849811989
 10
208.9306376078
 20
140.1700928945
 10
208.7250792422
 20
140.2529353238
 10
208.5046435759
 20
140.3338939094
 10
208.2691867246
 20
140.4130745075
 10
208.0177193654
 20
140.4908179669
 10
207.7498186924
 20
140.5672265629
 10
207.4654061655
 20
140.6422872435
 10
207.2331461526
 20
140.6996233317
  0
LINE
  5
321
100
AcDbEntity
  8
DRAFT
100
AcDbLine
 62
7
  6
CONTINUOUS
 10
211.0690104167
 20
126.7443576389
 11
210.4514963217
 21
138.5272284921
  0
LWPOLYLINE
  5
322
100
AcDbEntity
  8
RACCORDO
100
AcDbPolyline
 62
253
  6
CONTINUOUS
 90
19
 70
0
 10
209.7750063804
 20
48.0369912099
 10
209.7710035714
 20
47.9500824568
 10
209.7594535647
 20
47.8638366776
 10
209.7404441466
 20
47.7789078412
 10
209.7141196765
 20
47.6959398084
 10
209.6806798907
 20
47.6155618798
 10
209.6403784575
 20
47.5383839958
 10
209.593521171
 20
47.4649915824
 10
209.5404634958
 20
47.3959410092
 10
209.4816077863
 20
47.3317558062
 10
209.4174003268
 20
47.2729230575
 10
209.3483280935
 20
47.2198886655
 10
209.2749148626
 20
47.1730539973
 10
209.1977171144
 20
47.132774411
 10
209.1173201516
 20
47.0993557099
 10
209.0343336597
 20
47.0730509999
 10
208.9493867968
 20
47.0540599755
 10
208.8631234614
 20
47.0425273083
 10
208.7761976094
 20
47.0385409114
  0
LINE
  5
323
100
AcDbEntity
  8
DRAFT
100
AcDbLine
 62
7
  6
CONTINUOUS
 10
189.3190104167
 20
125.7443576389
 11
193.8190104167
 21
125.7443576389
  0
LINE
  5
324
100
AcDbEntity
  8
DRAFT
100
AcDbLine
 62
7
  6
CONTINUOUS
 10
172.0694494452
 20
126.7443576389
 11
211.0685713881
 21
126.7443576389
  0
LINE
  5
325
100
AcDbEntity
  8
RACCORDO
100
AcDbLine
 62
7
  6
CONTINUOUS
 10
203.8543999856
 20
159.4157773373
 11
203.8357671177
 21
159.4998089588
  0
LINE
  5
326
100
AcDbEntity
  8
RACCORDO
100
AcDbLine
 62
253
  6
CONTINUOUS
 10
180.4190104167
 20
55.7440835458
 11
180.3997062732
 21
55.7247794024
  0
LINE
  5
327
100
AcDbEntity
  8
RACCORDO
100
AcDbLine
 62
253
  6
CONTINUOUS
 10
180.6187363236
 20
55.5443576389
 11
180.5994321802
 21
55.5250534955
  0
LINE
  5
328
100
AcDbEntity
  8
RACCORDO
100
AcDbLine
 62
253
  6
CONTINUOUS
 10
173.363014453
 20
48.0369912099
 11
172.5690104167
 21
47.2429871736
  0
LINE
  5
329
100
AcDbEntity
  8
RACCORDO
100
AcDbLine
 62
253
  6
CONTINUOUS
 10
174.3618232239
 20
47.0385409114
 11
173.5676399514
 21
46.2443576389
  0
LWPOLYLINE
  5
32A
100
AcDbEntity
  8
RACCORDO
100
AcDbPolyline
 62
253
  6
CONTINUOUS
 90
22
 70
0
 10
175.9803943651
 20
138.2148747851
 10
175.5660650471
 20
138.3246275923
 10
175.1914839374
 20
138.4370339081
 10
174.8561362425
 20
138.5521301029
 10
174.5622138424
 20
138.6691456055
 10
174.3099248275
 20
138.7879921098
 10
174.0990611075
 20
138.9087579218
 10
173.9311902921
 20
139.0309373888
 10
173.8063165215
 20
139.1547750539
 10
173.7244356555
 20
139.2800263741
 10
173.6871028831
 20
139.4054520673
 10
173.6958690337
 20
139.5314285489
 10
173.749183278
 20
139.6575794036
 10
173.8439483163
 20
139.7815361032
 10
173.9825051332
 20
139.9032367838
 10
174.162512744
 20
140.0227433094
 10
174.3738508956
 20
140.1378727435
 10
174.6183908994
 20
140.2484502512
 10
174.8942614438
 20
140.3546506675
 10
175.1857283411
 20
140.4548155614
 10
175.4875468617
 20
140.5483921225
 10
175.8049617352
 20
140.6359331613
  0
LINE
  5
32B
100
AcDbEntity
  8
RACCORDO
100
AcDbLine
 62
253
  6
CONTINUOUS
 10
203.3859285411
 20
141.7911978456
 11
203.3336953113
 21
141.8682459267
  0
LWPOLYLINE
  5
32C
100
AcDbEntity
  8
RACCORDO
100
AcDbPolyline
 62
253
  6
CONTINUOUS
 90
8
 70
0
 10
202.5337769197
 20
142.259304261
 10
202.5844188383
 20
142.1731648027
 10
202.6590533001
 20
142.0874050245
 10
202.7576803052
 20
142.0020249265
 10
202.8806372837
 20
141.9167973783
 10
203.0275868055
 20
141.8319495103
 10
203.1975165802
 20
141.7481627136
 10
203.3908293305
 20
141.6654616577
  0
LWPOLYLINE
  5
32D
100
AcDbEntity
  8
RACCORDO
100
AcDbPolyline
 62
7
  6
CONTINUOUS
 90
15
 70
0
 10
203.8358231981
 20
159.4996713645
 10
203.809379565
 20
159.5833367342
 10
203.7754215506
 20
159.6657915558
 10
203.7350065481
 20
159.7440901577
 10
203.6881117985
 20
159.8176511087
 10
203.6347600607
 20
159.8870558399
 10
203.5760770049
 20
159.9511029733
 10
203.5120392699
 20
160.0097518987
 10
203.4426702168
 20
160.0630432263
 10
203.369165599
 20
160.1098974079
 10
203.2909859316
 20
160.1503000253
 10
203.2086706996
 20
160.1842654967
 10
203.1250341112
 20
160.2107575292
 10
203.041014236
 20
160.2294306917
 10
202.9556730045
 20
160.2406304152
  0
LWPOLYLINE
  5
32E
100
AcDbEntity
  8
RACCORDO
100
AcDbPolyline
 62
253
  6
CONTINUOUS
 90
16
 70
0
 10
208.7761976094
 20
47.0385409114
 10
208.7793003234
 20
47.04789946
 10
208.7823712692
 20
47.0663646502
 10
208.7853790035
 20
47.0937474173
 10
208.7882927301
 20
47.1297673891
 10
208.7910826154
 20
47.1740557574
 10
208.7937200932
 20
47.2261590542
 10
208.7961781583
 20
47.285543794
 10
208.7984316426
 20
47.351601937
 10
208.8004574727
 20
47.4236571144
 10
208.8022349062
 20
47.5009715539
 10
208.803745744
 20
47.5827536336
 10
208.8049745166
 20
47.6681659874
 10
208.8059086426
 20
47.7563340788
 10
208.8065385575
 20
47.8463551556
 10
208.8068578116
 20
47.9373074927
  0
LWPOLYLINE
  5
32F
100
AcDbEntity
  8
RACCORDO
100
AcDbPolyline
 62
253
  6
CONTINUOUS
 90
4
 70
0
 10
198.008731321
 20
137.1018853338
 10
197.1820411549
 20
137.0603080572
 10
196.3401046919
 20
137.0244006834
 10
195.4889196859
 20
136.9944029231
  0
LWPOLYLINE
  5
330
100
AcDbEntity
  8
RACCORDO
100
AcDbPolyline
 62
253
  6
CONTINUOUS
 90
12
 70
0
 10
195.4889196859
 20
136.9944029231
 10
194.6284310685
 20
136.9703547061
 10
193.7586939082
 20
136.9522161024
 10
192.885871165
 20
136.9401070326
 10
192.0099623258
 20
136.9340674499
 10
191.1309679036
 20
136.934057401
 10
190.2550523978
 20
136.9400769464
 10
189.3822163647
 20
136.9521660352
 10
188.512459248
 20
136.9702847184
 10
187.6519438785
 20
136.9943132095
 10
186.8007252426
 20
137.0242914353
 10
185.958748354
 20
137.0601794691
  0
LWPOLYLINE
  5
331
100
AcDbEntity
  8
RACCORDO
100
AcDbPolyline
 62
253
  6
CONTINUOUS
 90
16
 70
0
 10
185.958748354
 20
137.0601794691
 10
185.1320110839
 20
137.1017377441
 10
184.3205788801
 20
137.1490079313
 10
183.5243862949
 20
137.2019483598
 10
182.7492348565
 20
137.2601944497
 10
181.9952935949
 20
137.3237811655
 10
181.2623934802
 20
137.3926735428
 10
180.5558289496
 20
137.4664021076
 10
179.8757744798
 20
137.5449983686
 10
179.2220555942
 20
137.6284308171
 10
178.599443301
 20
137.7161354536
 10
178.0080644159
 20
137.8081584867
 10
177.4477921232
 20
137.9044537078
 10
176.9230169839
 20
138.0043184915
 10
176.4339570978
 20
138.107811857
 10
175.9803943651
 20
138.2148747851
  0
LWPOLYLINE
  5
332
100
AcDbEntity
  8
RACCORDO
100
AcDbPolyline
 62
253
  6
CONTINUOUS
 90
10
 70
0
 10
203.3336953113
 20
141.8682459267
 10
203.2678793116
 20
141.9463590569
 10
203.1942359112
 20
142.0172499018
 10
203.1135503693
 20
142.0801625527
 10
203.026683035
 20
142.1344261726
 10
202.934560174
 20
142.1794621489
 10
202.8381640917
 20
142.2147902633
 10
202.7385226587
 20
142.2400338125
 10
202.6366983508
 20
142.2549236246
 10
202.5337769198
 20
142.2593009296
  0
LWPOLYLINE
  5
333
100
AcDbEntity
  8
RACCORDO
100
AcDbPolyline
 62
253
  6
CONTINUOUS
 90
6
 70
0
 10
178.4603490088
 20
141.2745536479
 10
178.7590100523
 20
141.3493445038
 10
179.0368620695
 20
141.4257830498
 10
179.2939050603
 20
141.5038692858
 10
179.5308421233
 20
141.5837913419
 10
179.74697016
 20
141.665361088
  0
LINE
  5
334
100
AcDbEntity
  8
RACCORDO
100
AcDbLine
 62
7
  6
CONTINUOUS
 10
178.4659535072
 20
141.3162188707
 11
178.227287953
 21
141.256748758
  0
LWPOLYLINE
  5
335
100
AcDbEntity
  8
RACCORDO
100
AcDbPolyline
 62
7
  6
CONTINUOUS
 90
21
 70
0
 10
175.9048608455
 20
140.6996199128
 10
175.6673801541
 20
140.6409559745
 10
175.3834718032
 20
140.5659283099
 10
175.1160658276
 20
140.4895599832
 10
174.8650817917
 20
140.411864344
 10
174.6300871826
 20
140.3327374696
 10
174.4100819081
 20
140.2518350673
 10
174.2049215483
 20
140.1690509698
 10
174.0138854768
 20
140.0839995956
 10
173.8348792537
 20
139.995463928
 10
173.6677962185
 20
139.90290936
 10
173.5121786765
 20
139.8054647613
 10
173.3655513791
 20
139.7004389402
 10
173.2278078292
 20
139.5858126877
 10
173.1005600652
 20
139.4604445221
 10
172.9847551159
 20
139.3220878994
 10
172.881405758
 20
139.1669841009
 10
172.7955645983
 20
138.9960969424
 10
172.7330883709
 20
138.8160749156
 10
172.6959628467
 20
138.6309383306
 10
172.6863833128
 20
138.5241870518
  0
LINE
  5
336
100
AcDbEntity
  8
RACCORDO
100
AcDbLine
 62
253
  6
CONTINUOUS
 10
175.8049617352
 20
140.6359331613
 11
176.1379729614
 21
140.7174386776
  0
LINE
  5
337
100
AcDbEntity
  8
RACCORDO
100
AcDbLine
 62
253
  6
CONTINUOUS
 10
176.1379729614
 20
140.7174386776
 11
178.4603490088
 21
141.2745536479
  0
LINE
  5
338
100
AcDbEntity
  8
RACCORDO
100
AcDbLine
 62
7
  6
CONTINUOUS
 10
175.9047010784
 20
140.699582162
 11
178.2272881993
 21
141.2567477337
  0
LWPOLYLINE
  5
339
100
AcDbEntity
  8
RACCORDO
100
AcDbPolyline
 62
253
  6
CONTINUOUS
 90
4
 70
0
 10
175.904860719
 20
140.6996204393
 10
175.9561425226
 20
140.7099926227
 10
176.0465455752
 20
140.7192733076
 10
176.1379729614
 20
140.7174386776
  0
LWPOLYLINE
  5
33A
100
AcDbEntity
  8
RACCORDO
100
AcDbPolyline
 62
253
  6
CONTINUOUS
 90
4
 70
0
 10
178.2272881993
 20
141.2567477337
 10
178.2785180419
 20
141.2671075056
 10
178.3689213289
 20
141.2763882658
 10
178.4603490088
 20
141.2745536479
  0
LWPOLYLINE
  5
33B
100
AcDbEntity
  8
RACCORDO
100
AcDbPolyline
 62
253
  6
CONTINUOUS
 90
11
 70
0
 10
180.604250607
 20
142.2593044349
 10
180.5013400857
 20
142.2549511817
 10
180.3995282363
 20
142.2400859745
 10
180.2999011466
 20
142.2148687925
 10
180.2035218807
 20
142.1795702522
 10
180.1114181613
 20
142.1345680199
 10
180.0245715159
 20
142.0803424586
 10
179.9439081265
 20
142.0174725664
 10
179.87028876
 20
141.9466300639
 10
179.8044987149
 20
141.8685712983
 10
179.7519787998
 20
141.7911180174
  0
LWPOLYLINE
  5
33C
100
AcDbEntity
  8
RACCORDO
100
AcDbPolyline
 62
253
  6
CONTINUOUS
 90
16
 70
0
 10
180.6477136989
 20
142.6863882136
 10
180.5457323664
 20
142.6837587006
 10
180.4448146435
 20
142.6752836533
 10
180.3460129036
 20
142.6610514585
 10
180.2503574179
 20
142.6412105198
 10
180.1588457067
 20
142.6159677577
 10
180.0724321231
 20
142.5855864728
 10
179.9920177721
 20
142.5503835198
 10
179.9184411458
 20
142.5107260001
 10
179.8524694598
 20
142.4670275015
 10
179.7947906177
 20
142.4197437479
 10
179.7460060051
 20
142.3693678097
 10
179.7066242517
 20
142.3164249773
 10
179.6770559675
 20
142.2614673235
 10
179.6576094425
 20
142.2050679523
 10
179.6484874088
 20
142.1478149864
  0
LWPOLYLINE
  5
33D
100
AcDbEntity
  8
RACCORDO
100
AcDbPolyline
 62
253
  6
CONTINUOUS
 90
16
 70
0
 10
202.4796766055
 20
143.1103992303
 10
202.5819077307
 20
143.1116364278
 10
202.6830672014
 20
143.1114017576
 10
202.7820946016
 20
143.1096976797
 10
202.8779518651
 20
143.1065420572
 10
202.9696341572
 20
143.1019679697
 10
203.0561804081
 20
143.0960233658
 10
203.136683387
 20
143.0887705608
 10
203.2102992124
 20
143.0802855829
 10
203.2762561989
 20
143.070657377
 10
203.3338629449
 20
143.059986872
 10
203.3825155816
 20
143.0483859226
 10
203.4217041031
 20
143.0359761367
 10
203.4510177112
 20
143.0228876012
 10
203.4701491226
 20
143.0092575182
 10
203.4788977901
 20
142.9952287667
  0
LINE
  5
33E
100
AcDbEntity
  8
RACCORDO
100
AcDbLine
 62
253
  6
CONTINUOUS
 10
180.6048104463
 20
142.259304261
 11
202.5337769197
 21
142.259304261
  0
LINE
  5
33F
100
AcDbEntity
  8
RACCORDO
100
AcDbLine
 62
253
  6
CONTINUOUS
 10
180.6583442278
 20
143.1103992288
 11
202.4796766055
 21
143.1103992288
  0
LWPOLYLINE
  5
340
100
AcDbEntity
  8
RACCORDO
100
AcDbPolyline
 62
253
  6
CONTINUOUS
 90
16
 70
0
 10
180.6583442278
 20
143.1104032242
 10
180.556114575
 20
143.1116403971
 10
180.4549566546
 20
143.1114056344
 10
180.3559309442
 20
143.1097013963
 10
180.2600755684
 20
143.1065455477
 10
180.1683954164
 20
143.1019711716
 10
180.0818516067
 20
143.0960262219
 10
180.0013514113
 20
143.088773021
 10
179.927738745
 20
143.0802876058
 10
179.8617853177
 20
143.0706589314
 10
179.8041825448
 20
143.0599879379
 10
179.7555342984
 20
143.0483864927
 10
179.7163505767
 20
143.035976217
 10
179.6870421579
 20
143.0228872118
 10
179.6679162936
 20
143.0092566935
 10
179.6591734875
 20
142.9952275553
  0
LWPOLYLINE
  5
341
100
AcDbEntity
  8
RACCORDO
100
AcDbPolyline
 62
253
  6
CONTINUOUS
 90
4
 70
0
 10
207.2331462556
 20
140.6996237605
 10
207.1818781536
 20
140.7099926487
 10
207.0914751708
 20
140.7192733112
 10
207.000047872
 20
140.7174386776
  0
LWPOLYLINE
  5
342
100
AcDbEntity
  8
RACCORDO
100
AcDbPolyline
 62
253
  6
CONTINUOUS
 90
4
 70
0
 10
204.9107497213
 20
141.2567436398
 10
204.8595022603
 20
141.2671075937
 10
204.7690992077
 20
141.2763882786
 10
204.6776718215
 20
141.2745536486
  0
LINE
  5
343
100
AcDbEntity
  8
RACCORDO
100
AcDbLine
 62
253
  6
CONTINUOUS
 10
204.6776718215
 20
141.2745536486
 11
207.000047872
 21
140.7174386776
  0
LINE
  5
344
100
AcDbEntity
  8
RACCORDO
100
AcDbLine
 62
7
  6
CONTINUOUS
 10
207.2333197469
 20
140.6995821639
 11
207.2331462556
 21
140.6996237605
  0
LINE
  5
345
100
AcDbEntity
  8
RACCORDO
100
AcDbLine
 62
7
  6
CONTINUOUS
 10
204.9107497213
 20
141.2567436398
 11
207.2333197548
 21
140.6995821621
  0
LINE
  5
346
100
AcDbEntity
  8
RACCORDO
100
AcDbLine
 62
253
  6
CONTINUOUS
 10
207.000047872
 20
140.7174386776
 11
207.3328761284
 21
140.6359805415
  0
LINE
  5
347
100
AcDbEntity
  8
RACCORDO
100
AcDbLine
 62
7
  6
CONTINUOUS
 10
204.9107499909
 20
141.2567447603
 11
204.6670271537
 21
141.3175256284
  0
LWPOLYLINE
  5
348
100
AcDbEntity
  8
RACCORDO
100
AcDbPolyline
 62
7
  6
CONTINUOUS
 90
10
 70
0
 10
204.6670271537
 20
141.3175256284
 10
204.3990899151
 20
141.390486094
 10
204.1665719198
 20
141.4604045858
 10
203.9670941958
 20
141.5268241805
 10
203.7987825743
 20
141.5891062741
 10
203.6606276647
 20
141.6461618183
 10
203.5499754407
 20
141.6974446322
 10
203.4652957911
 20
141.7418357069
 10
203.4073487292
 20
141.776485451
 10
203.3734345239
 20
141.7997793254
  0
LWPOLYLINE
  5
349
100
AcDbEntity
  8
RACCORDO
100
AcDbPolyline
 62
253
  6
CONTINUOUS
 90
36
 70
0
 10
207.3328761284
 20
140.6359805415
 10
207.650141232
 20
140.5484875874
 10
207.9518431831
 20
140.4549598155
 10
208.2432240048
 20
140.3548464875
 10
208.519041674
 20
140.2486983417
 10
208.76357012
 20
140.138167592
 10
208.9749468386
 20
140.0230780455
 10
209.1550343341
 20
139.9036058952
 10
209.2936940499
 20
139.7819319338
 10
209.3885860445
 20
139.6579927765
 10
209.4420502594
 20
139.5318518082
 10
209.4509679619
 20
139.4058799768
 10
209.4137828939
 20
139.2804530387
 10
209.3320513135
 20
139.1551952374
 10
209.2073232616
 20
139.0313502512
 10
209.0395918768
 20
138.9091637676
 10
208.8288640206
 20
138.7883900991
 10
208.5767103181
 20
138.6695358609
 10
208.2829244531
 20
138.5525134233
 10
207.9477127419
 20
138.437410416
 10
207.573264758
 20
138.3249963433
 10
207.1590657905
 20
138.2152345228
 10
206.7056305503
 20
138.1081616369
 10
206.2166927444
 20
138.0046572374
 10
205.6920333746
 20
137.9047801731
 10
205.1318714389
 20
137.8084715953
 10
204.5405976383
 20
137.716434509
 10
203.9180851986
 20
137.6287151922
 10
203.264460894
 20
137.5452673671
 10
202.5844957478
 20
137.4666552052
 10
201.8780155799
 20
137.3929102516
 10
201.1451945705
 20
137.3240009614
 10
200.3913262836
 20
137.2603968708
 10
199.6162415801
 20
137.2021329244
 10
198.820109599
 20
137.1491741777
 10
198.008731321
 20
137.1018853338
  0
LWPOLYLINE
  5
34A
100
AcDbEntity
  8
RACCORDO
100
AcDbPolyline
 62
253
  6
CONTINUOUS
 90
6
 70
0
 10
203.3908293305
 20
141.6654616577
 10
203.6071223336
 20
141.5838216731
 10
203.8441751302
 20
141.5038501416
 10
204.1012475672
 20
141.4257495241
 10
204.3790797976
 20
141.3493173597
 10
204.6776718215
 20
141.2745536486
  0
LINE
  5
34B
100
AcDbEntity
  8
RACCORDO
100
AcDbLine
 62
253
  6
CONTINUOUS
 10
180.1323891706
 20
52.2539956847
 11
180.1109730675
 21
52.244089251
  0
LWPOLYLINE
  5
34C
100
AcDbEntity
  8
RACCORDO
100
AcDbPolyline
 62
253
  6
CONTINUOUS
 90
3
 70
0
 10
180.276549656
 20
52.3208451817
 10
180.2606220352
 20
52.3134955148
 10
180.1323891706
 20
52.2539956847
  0
LWPOLYLINE
  5
34D
100
AcDbEntity
  8
RACCORDO
100
AcDbPolyline
 62
253
  6
CONTINUOUS
 90
10
 70
0
 10
202.8614711822
 20
52.3208453361
 10
202.8709585149
 20
52.329288567
 10
202.8804047455
 20
52.3380613466
 10
202.8897689592
 20
52.3471256746
 10
202.8990105964
 20
52.356442288
 10
202.9080896283
 20
52.365970831
 10
202.9169667307
 20
52.3756700297
 10
202.9256034538
 20
52.3854978713
 10
202.9339623891
 20
52.3954117855
 10
202.9420073313
 20
52.4053688294
  0
LINE
  5
34E
100
AcDbEntity
  8
RACCORDO
100
AcDbLine
 62
7
  6
CONTINUOUS
 10
180.0987144803
 20
160.2296498684
 11
180.1841948044
 21
160.2407521243
  0
LWPOLYLINE
  5
34F
100
AcDbEntity
  8
RACCORDO
100
AcDbPolyline
 62
253
  6
CONTINUOUS
 90
16
 70
0
 10
180.9066861342
 20
160.2443576389
 10
180.8037969777
 20
160.2390376892
 10
180.7015657732
 20
160.2230240308
 10
180.6013289021
 20
160.1964025876
 10
180.5045667396
 20
160.1595908356
 10
180.4123283145
 20
160.1130761621
 10
180.3252599705
 20
160.0571378543
 10
180.2443755525
 20
159.992418245
 10
180.1707791594
 20
159.9198916039
 10
180.1051023493
 20
159.8401190889
 10
180.0477149495
 20
159.7534796731
 10
179.9996264071
 20
159.6615040595
 10
179.9617078879
 20
159.5660686603
 10
179.9339850337
 20
159.4679688208
 10
179.9162932748
 20
159.3672345091
 10
179.9088437239
 20
159.2640419781
  0
LWPOLYLINE
  5
350
100
AcDbEntity
  8
RACCORDO
100
AcDbPolyline
 62
7
  6
CONTINUOUS
 90
16
 70
0
 10
180.2690104167
 20
160.2443566998
 10
180.1823478288
 20
160.2406304152
 10
180.0970065973
 20
160.2294306917
 10
180.0129867221
 20
160.2107575292
 10
179.9293501338
 20
160.1842654967
 10
179.8470349017
 20
160.1503000253
 10
179.7688552343
 20
160.1098974079
 10
179.6953506166
 20
160.0630432263
 10
179.6259815634
 20
160.0097518987
 10
179.5619438284
 20
159.9511029733
 10
179.5032607726
 20
159.8870558399
 10
179.4499090349
 20
159.8176511087
 10
179.4030142853
 20
159.7440901577
 10
179.3625992827
 20
159.6657915558
 10
179.3286412683
 20
159.5833367342
 10
179.3021976352
 20
159.4996713645
  0
LINE
  5
351
100
AcDbEntity
  8
RACCORDO
100
AcDbLine
 62
7
  6
CONTINUOUS
 10
180.1841948044
 20
160.2407521243
 11
180.2709761188
 21
160.2443576389
  0
LINE
  5
352
100
AcDbEntity
  8
RACCORDO
100
AcDbLine
 62
253
  6
CONTINUOUS
 10
179.2690104167
 20
159.2443576503
 11
179.9088413448
 21
159.2640418534
  0
LINE
  5
353
100
AcDbEntity
  8
RACCORDO
100
AcDbLine
 62
253
  6
CONTINUOUS
 10
180.9066838104
 20
159.3835307398
 11
202.2313370229
 21
159.3835307398
  0
LINE
  5
354
100
AcDbEntity
  8
RACCORDO
100
AcDbLine
 62
7
  6
CONTINUOUS
 10
180.270382812
 20
160.2443576389
 11
202.8676380213
 21
160.2443576389
  0
LWPOLYLINE
  5
355
100
AcDbEntity
  8
RACCORDO
100
AcDbPolyline
 62
253
  6
CONTINUOUS
 90
16
 70
0
 10
180.9066861342
 20
159.3835307398
 10
180.8064614484
 20
159.3839016977
 10
180.7072461772
 20
159.382867235
 10
180.6100395692
 20
159.3804377704
 10
180.5158206424
 20
159.3766377724
 10
180.4255383244
 20
159.3715055126
 10
180.3401018952
 20
159.3650926807
 10
180.2603718294
 20
159.3574638636
 10
180.1871511296
 20
159.3486958952
 10
180.1211772397
 20
159.3388770822
 10
180.0631146166
 20
159.3281063149
 10
180.0135480393
 20
159.3164920713
 10
179.9729767184
 20
159.3041513244
 10
179.9418092686
 20
159.2912083644
 10
179.9203595935
 20
159.2777935464
 10
179.9088437239
 20
159.2640419781
  0
LWPOLYLINE
  5
356
100
AcDbEntity
  8
RACCORDO
100
AcDbPolyline
 62
253
  6
CONTINUOUS
 90
16
 70
0
 10
202.2313346991
 20
159.3835307398
 10
202.3313893269
 20
159.3825762866
 10
202.4309225823
 20
159.3817976408
 10
202.5286711506
 20
159.3804151372
 10
202.6231846422
 20
159.3767844751
 10
202.7134974863
 20
159.3710510004
 10
202.7991074663
 20
159.3649912481
 10
202.8790200478
 20
159.3575601494
 10
202.9521560801
 20
159.3481105015
 10
203.0180264613
 20
159.3386814792
 10
203.0762668241
 20
159.3283270437
 10
203.1258220593
 20
159.3160527922
 10
203.1658884074
 20
159.3038505007
 10
203.196454642
 20
159.29203785
 10
203.2176293451
 20
159.279023514
 10
203.2291771095
 20
159.2640419781
  0
LINE
  5
357
100
AcDbEntity
  8
RACCORDO
100
AcDbLine
 62
253
  6
CONTINUOUS
 10
203.2291794886
 20
159.2640418534
 11
203.8690104167
 21
159.2443576503
  0
LINE
  5
358
100
AcDbEntity
  8
RACCORDO
100
AcDbLine
 62
7
  6
CONTINUOUS
 10
202.8670447145
 20
160.2443576389
 11
202.9538260289
 21
160.2407521243
  0
LINE
  5
359
100
AcDbEntity
  8
RACCORDO
100
AcDbLine
 62
7
  6
CONTINUOUS
 10
202.9556730045
 20
160.2406304152
 11
202.8690104167
 21
160.2443566998
  0
LWPOLYLINE
  5
35A
100
AcDbEntity
  8
RACCORDO
100
AcDbPolyline
 62
253
  6
CONTINUOUS
 90
16
 70
0
 10
202.2313346991
 20
160.2443576389
 10
202.3343551355
 20
160.2390158582
 10
202.4362749467
 20
160.2230475854
 10
202.5360052663
 20
160.1966234186
 10
202.6324806191
 20
160.1600256618
 10
202.7246703049
 20
160.1136453096
 10
202.8115894095
 20
160.0579778692
 10
202.8923093272
 20
159.9936180671
 10
202.965967682
 20
159.9212534953
 10
203.0317775403
 20
159.8416572651
 10
203.0890358183
 20
159.7556797477
 10
203.1371307938
 20
159.6642394892
 10
203.1755486412
 20
159.5683133972
 10
203.203878921
 20
159.4689263039
 10
203.2218189649
 20
159.3671400176
 10
203.2291771095
 20
159.2640419781
  0
LWPOLYLINE
  5
35B
100
AcDbEntity
  8
RACCORDO
100
AcDbPolyline
 62
7
  6
CONTINUOUS
 90
15
 70
0
 10
202.9538260289
 20
160.2407521243
 10
203.039306353
 20
160.2296498684
 10
203.1234856868
 20
160.211050871
 10
203.2073166654
 20
160.1846047333
 10
203.2898466538
 20
160.1506618541
 10
203.3682177466
 20
160.1102734303
 10
203.4418718529
 20
160.0634296149
 10
203.5113670638
 20
160.0101402548
 10
203.5755197471
 20
159.9514860883
 10
203.6343097436
 20
159.8874293119
 10
203.6877572127
 20
159.818007729
 10
203.734739
 20
159.7444154875
 10
203.7752360426
 20
159.6660620759
 10
203.8092674034
 20
159.5835380058
 10
203.8357671177
 20
159.4998089588
  0
LINE
  5
35C
100
AcDbEntity
  8
RACCORDO
100
AcDbLine
 62
7
  6
CONTINUOUS
 10
73.0158350394
 20
47.0539059685
 11
88.4629373722
 21
46.2443576389
  0
LINE
  5
35D
100
AcDbEntity
  8
RACCORDO
100
AcDbLine
 62
253
  6
CONTINUOUS
 10
72.4566425556
 20
47.9373074927
 11
72.1629373722
 21
47.9526725498
  0
LINE
  5
35E
100
AcDbEntity
  8
RACCORDO
100
AcDbLine
 62
253
  6
CONTINUOUS
 10
73.312437825
 20
48.0369912099
 11
88.4629373722
 21
47.2429871736
  0
LWPOLYLINE
  5
35F
100
AcDbEntity
  8
RACCORDO
100
AcDbPolyline
 62
253
  6
CONTINUOUS
 90
16
 70
0
 10
73.3090177944
 20
47.0385409114
 10
73.2184839652
 20
47.04789946
 10
73.1293593921
 20
47.0663646502
 10
73.0425566209
 20
47.0937474173
 10
72.9589644245
 20
47.1297673891
 10
72.8794387027
 20
47.1740557574
 10
72.8047937186
 20
47.2261590542
 10
72.7357937617
 20
47.285543794
 10
72.673145322
 20
47.351601937
 10
72.6174898563
 20
47.4236571144
 10
72.5693972204
 20
47.5009715539
 10
72.5293598345
 20
47.5827536336
 10
72.4977876411
 20
47.6681659874
 10
72.4750039075
 20
47.7563340788
 10
72.4612419163
 20
47.8463551556
 10
72.4566425764
 20
47.9373074927
  0
LINE
  5
360
100
AcDbEntity
  8
RACCORDO
100
AcDbLine
 62
7
  6
CONTINUOUS
 10
88.4629373722
 20
46.2443576389
 11
124.0152733179
 21
48.1075766141
  0
LINE
  5
361
100
AcDbEntity
  8
RACCORDO
100
AcDbLine
 62
253
  6
CONTINUOUS
 10
88.4629373722
 20
47.2429871736
 11
107.8992386147
 21
48.2616005592
  0
LWPOLYLINE
  5
362
100
AcDbEntity
  8
RACCORDO
100
AcDbPolyline
 62
253
  6
CONTINUOUS
 90
6
 70
0
 10
107.8992386147
 20
48.2616005592
 10
108.5609081962
 20
48.2945101768
 10
109.2573919396
 20
48.3289589233
 10
109.9871590749
 20
48.3649467989
 10
110.7517842965
 20
48.4027720537
 10
111.5453816068
 20
48.4421364375
  0
LINE
  5
363
100
AcDbEntity
  8
RACCORDO
100
AcDbLine
 62
253
  6
CONTINUOUS
 10
118.0375186683
 20
48.7633566673
 11
118.7786340139
 21
48.8001194389
  0
LWPOLYLINE
  5
364
100
AcDbEntity
  8
RACCORDO
100
AcDbPolyline
 62
253
  6
CONTINUOUS
 90
3
 70
0
 10
115.6632313632
 20
48.6458279378
 10
116.4771279927
 20
48.6862109168
 10
118.0375186683
 20
48.7633566673
  0
LWPOLYLINE
  5
365
100
AcDbEntity
  8
RACCORDO
100
AcDbPolyline
 62
253
  6
CONTINUOUS
 90
4
 70
0
 10
111.5453816068
 20
48.4421364375
 10
113.1775898798
 20
48.5228155339
 10
114.0102300788
 20
48.5641302464
 10
115.6632313632
 20
48.6458279378
  0
LWPOLYLINE
  5
366
100
AcDbEntity
  8
RACCORDO
100
AcDbPolyline
 62
253
  6
CONTINUOUS
 90
3
 70
0
 10
124.3259423875
 20
49.0746544788
 10
124.7329073454
 20
49.0948202979
 10
124.9629373722
 20
49.1062061488
  0
LWPOLYLINE
  5
367
100
AcDbEntity
  8
RACCORDO
100
AcDbPolyline
 62
253
  6
CONTINUOUS
 90
11
 70
0
 10
118.7786340139
 20
48.8001194389
 10
120.1600049834
 20
48.8684280242
 10
120.7960890454
 20
48.899973838
 10
121.3923782552
 20
48.9294733651
 10
121.9469249137
 20
48.9568874184
 10
122.4584949253
 20
48.9822551851
 10
122.9255921161
 20
49.0053632006
 10
123.3468601691
 20
49.0261888023
 10
123.7212582569
 20
49.0447546528
 10
124.0479190957
 20
49.0609152753
 10
124.3259423875
 20
49.0746544788
  0
LINE
  5
368
100
AcDbEntity
  8
RACCORDO
100
AcDbLine
 62
253
  6
CONTINUOUS
 10
73.312437825
 20
48.0369912099
 11
72.46006868
 21
48.0369912099
  0
LWPOLYLINE
  5
369
100
AcDbEntity
  8
RACCORDO
100
AcDbPolyline
 62
7
  6
CONTINUOUS
 90
3
 70
0
 10
72.2926331572
 20
103.2316782736
 10
72.2925082385
 20
103.2347195867
 10
72.2926937822
 20
103.2446260038
  0
LINE
  5
36A
100
AcDbEntity
  8
RACCORDO
100
AcDbLine
 62
253
  6
CONTINUOUS
 10
72.4594494158
 20
107.5089133502
 11
72.4597482571
 21
107.4938293716
  0
LINE
  5
36B
100
AcDbEntity
  8
RACCORDO
100
AcDbLine
 62
253
  6
CONTINUOUS
 10
72.4597482571
 20
107.4938293716
 11
72.4599531471
 21
107.4774242229
  0
LINE
  5
36C
100
AcDbEntity
  8
RACCORDO
100
AcDbLine
 62
253
  6
CONTINUOUS
 10
72.2926338318
 20
52.2516926439
 11
72.2926844406
 21
52.2440904469
  0
LINE
  5
36D
100
AcDbEntity
  8
RACCORDO
100
AcDbLine
 62
253
  6
CONTINUOUS
 10
72.4599531471
 20
107.4774242229
 11
72.4600554199
 21
107.4604637859
  0
LINE
  5
36E
100
AcDbEntity
  8
ASSI
100
AcDbLine
 62
7
  6
CONTINUOUS
 10
72.1629373722
 20
107.5360478242
 11
72.1629373722
 21
103.4918817899
  0
LINE
  5
36F
100
AcDbEntity
  8
ASSI
100
AcDbLine
 62
7
  6
CONTINUOUS
 10
72.1629373722
 20
51.996833488
 11
72.1629373722
 21
47.9526692001
  0
LINE
  5
370
100
AcDbEntity
  8
RACCORDO
100
AcDbLine
 62
7
  6
CONTINUOUS
 10
72.2926331572
 20
52.2526715163
 11
72.2926331572
 21
103.2360413921
  0
LINE
  5
371
100
AcDbEntity
  8
RACCORDO
100
AcDbLine
 62
253
  6
CONTINUOUS
 10
72.2926844406
 20
52.2440904438
 11
72.2926844406
 21
103.2446247873
  0
LINE
  5
372
100
AcDbEntity
  8
RACCORDO
100
AcDbLine
 62
253
  6
CONTINUOUS
 10
72.4600554199
 20
107.4604637859
 11
72.46006868
 21
48.0369912099
  0
LINE
  5
373
100
AcDbEntity
  8
RACCORDO
100
AcDbLine
 62
253
  6
CONTINUOUS
 10
72.46006868
 20
48.0369912099
 11
72.4600168646
 21
48.0196810014
  0
LINE
  5
374
100
AcDbEntity
  8
RACCORDO
100
AcDbLine
 62
253
  6
CONTINUOUS
 10
72.2926331999
 20
103.2357224931
 11
72.2926844406
 21
103.2446246212
  0
LINE
  5
375
100
AcDbEntity
  8
RACCORDO
100
AcDbLine
 62
253
  6
CONTINUOUS
 10
73.312437825
 20
107.4517240678
 11
73.312437825
 21
48.0369912099
  0
LINE
  5
376
100
AcDbEntity
  8
RACCORDO
100
AcDbLine
 62
253
  6
CONTINUOUS
 10
72.4600168646
 20
48.0196810014
 11
72.4598632956
 21
48.0030001228
  0
LWPOLYLINE
  5
377
100
AcDbEntity
  8
RACCORDO
100
AcDbPolyline
 62
253
  6
CONTINUOUS
 90
14
 70
0
 10
72.4598632956
 20
48.0030001228
 10
72.4596105527
 20
47.9871522617
 10
72.4594496061
 20
47.9798094442
 10
72.4592659986
 20
47.9728446206
 10
72.4590638923
 20
47.9664191121
 10
72.4588428161
 20
47.9605457593
 10
72.4586032811
 20
47.9552117214
 10
72.458350914
 20
47.9505397982
 10
72.4580852538
 20
47.9465468772
 10
72.457806796
 20
47.9432160708
 10
72.4575225869
 20
47.9406195155
 10
72.4572349766
 20
47.9387812568
 10
72.4569416299
 20
47.9376772492
 10
72.4566425556
 20
47.9373074927
  0
LWPOLYLINE
  5
378
100
AcDbEntity
  8
RACCORDO
100
AcDbPolyline
 62
7
  6
CONTINUOUS
 90
4
 70
0
 10
72.2926331572
 20
52.2585474937
 10
72.2925050876
 20
52.2537475323
 10
72.2925313308
 20
52.2487360077
 10
72.2926937885
 20
52.244089236
  0
LWPOLYLINE
  5
379
100
AcDbEntity
  8
RACCORDO
100
AcDbPolyline
 62
253
  6
CONTINUOUS
 90
19
 70
0
 10
73.312437825
 20
48.0369912099
 10
73.3085178958
 20
47.9500824568
 10
73.3049551171
 20
47.8638366776
 10
73.3017791611
 20
47.7789078412
 10
73.2990173411
 20
47.6959398084
 10
73.2966910342
 20
47.6155618798
 10
73.2948155055
 20
47.5383839958
 10
73.2934041934
 20
47.4649915824
 10
73.2924688433
 20
47.3959410092
 10
73.2920160485
 20
47.3317558062
 10
73.2920443146
 20
47.2729230575
 10
73.2925551216
 20
47.2198886655
 10
73.2935531953
 20
47.1730539973
 10
73.2950282859
 20
47.132774411
 10
73.2969654548
 20
47.0993557099
 10
73.299356283
 20
47.0730509999
 10
73.3021816864
 20
47.0540599755
 10
73.3054120785
 20
47.0425273083
 10
73.3090177944
 20
47.0385409114
  0
LINE
  5
37A
100
AcDbEntity
  8
RACCORDO
100
AcDbLine
 62
7
  6
CONTINUOUS
 10
72.1814703441
 20
103.4386965985
 11
72.2926331572
 21
103.2003071766
  0
LINE
  5
37B
100
AcDbEntity
  8
RACCORDO
100
AcDbLine
 62
253
  6
CONTINUOUS
 10
72.1629373722
 20
103.5227889125
 11
72.2029764128
 21
103.4369371396
  0
LINE
  5
37C
100
AcDbEntity
  8
RACCORDO
100
AcDbLine
 62
253
  6
CONTINUOUS
 10
72.2029764128
 20
103.4369371396
 11
72.2926844406
 21
103.2446247873
  0
LWPOLYLINE
  5
37D
100
AcDbEntity
  8
RACCORDO
100
AcDbPolyline
 62
253
  6
CONTINUOUS
 90
19
 70
0
 10
73.3090177944
 20
108.4501743664
 10
73.305412186
 20
108.4461879843
 10
73.3021817904
 20
108.4346553425
 10
73.2993562727
 20
108.4156643508
 10
73.2969651813
 20
108.3893596774
 10
73.2950276386
 20
108.3559410144
 10
73.2935521779
 20
108.3156614621
 10
73.2925536447
 20
108.2688268073
 10
73.292042383
 20
108.21579241
 10
73.2920140624
 20
108.1569596599
 10
73.2924675815
 20
108.0927744753
 10
73.2934040568
 20
108.023723919
 10
73.2948161544
 20
107.9503314928
 10
73.2966917615
 20
107.8731535417
 10
73.2990178071
 20
107.7927755179
 10
73.3017793882
 20
107.7098074148
 10
73.3049552475
 20
107.6248785542
 10
73.3085179507
 20
107.5386327819
 10
73.312437825
 20
107.4517240678
  0
LWPOLYLINE
  5
37E
100
AcDbEntity
  8
RACCORDO
100
AcDbPolyline
 62
253
  6
CONTINUOUS
 90
16
 70
0
 10
136.58222411
 20
160.2443576389
 10
136.5757575488
 20
160.2390158582
 10
136.5693600736
 20
160.2230475854
 10
136.563100032
 20
160.1966234186
 10
136.5570443037
 20
160.1600256618
 10
136.5512575853
 20
160.1136453096
 10
136.5458016998
 20
160.0579778692
 10
136.5407349352
 20
159.9936180671
 10
136.5361114228
 20
159.9212534953
 10
136.5319805581
 20
159.8416572651
 10
136.5283864735
 20
159.7556797477
 10
136.5253675665
 20
159.6642394892
 10
136.5229560899
 20
159.5683133972
 10
136.5211778068
 20
159.4689263039
 10
136.5200517156
 20
159.3671400176
 10
136.519589847
 20
159.2640419781
  0
LWPOLYLINE
  5
37F
100
AcDbEntity
  8
RACCORDO
100
AcDbPolyline
 62
253
  6
CONTINUOUS
 90
12
 70
0
 10
72.4566425556
 20
107.5514077851
 10
72.4569417162
 20
107.5510371714
 10
72.4572351048
 20
107.5499327942
 10
72.4575227123
 20
107.5480946535
 10
72.4578068582
 20
107.5454986318
 10
72.4580852082
 20
107.5421688465
 10
72.458350763
 20
107.5381776506
 10
72.4586030219
 20
107.5335090937
 10
72.4588424512
 20
107.5281791261
 10
72.4590634867
 20
107.5223079507
 10
72.4592656681
 20
107.5158812543
 10
72.4594494158
 20
107.5089133502
  0
LINE
  5
380
100
AcDbEntity
  8
RACCORDO
100
AcDbLine
 62
7
  6
CONTINUOUS
 10
88.4629373722
 20
46.2443576389
 11
88.4629373722
 21
109.2443576389
  0
LINE
  5
381
100
AcDbEntity
  8
SUP_COSTRUZIONE
100
AcDbLine
 62
7
  6
CONTINUOUS
 10
93.7397579768
 20
116.6920216732
 11
93.2653451515
 21
125.7443576389
  0
LINE
  5
382
100
AcDbEntity
  8
DRAFT
100
AcDbLine
 62
7
  6
CONTINUOUS
 10
93.3452155772
 20
126.7443576389
 11
93.3959411465
 21
125.7443576389
  0
LINE
  5
383
100
AcDbEntity
  8
DRAFT
100
AcDbLine
 62
7
  6
CONTINUOUS
 10
93.2129373722
 20
126.7443576389
 11
93.6981181971
 21
136.0021592773
  0
LINE
  5
384
100
AcDbEntity
  8
0
100
AcDbLine
 62
7
  6
CONTINUOUS
 10
100.6635152424
 20
113.6723891138
 11
100.3986695586
 21
108.6188324209
  0
LINE
  5
385
100
AcDbEntity
  8
RACCORDO
100
AcDbLine
 62
7
  6
CONTINUOUS
 10
72.2926331572
 20
52.2884081012
 11
72.1816670691
 21
52.0504405574
  0
LINE
  5
386
100
AcDbEntity
  8
RACCORDO
100
AcDbLine
 62
253
  6
CONTINUOUS
 10
72.2414207439
 20
52.1341975636
 11
72.1629373722
 21
51.9659263671
  0
LINE
  5
387
100
AcDbEntity
  8
RACCORDO
100
AcDbLine
 62
253
  6
CONTINUOUS
 10
72.2926844406
 20
52.2440904438
 11
72.2414207439
 21
52.1341975636
  0
LWPOLYLINE
  5
388
100
AcDbEntity
  8
RACCORDO
100
AcDbPolyline
 62
253
  6
CONTINUOUS
 90
16
 70
0
 10
107.8992386147
 20
48.2616005592
 10
107.9043990702
 20
48.1573962225
 10
107.9089317745
 20
48.0543296056
 10
107.9127872393
 20
47.9535259981
 10
107.9159233706
 20
47.8560859797
 10
107.9183059279
 20
47.7630734097
 10
107.9199088984
 20
47.6755038116
 10
107.9207147809
 20
47.5943332746
 10
107.9207147773
 20
47.5204480216
 10
107.9199088878
 20
47.454654737
 10
107.9183059118
 20
47.3976717516
 10
107.9159233512
 20
47.3501212037
 10
107.9127872193
 20
47.3125222482
 10
107.9089317572
 20
47.2852853861
 10
107.9043990595
 20
47.268707983
 10
107.8992386147
 20
47.2629710245
  0
LINE
  5
389
100
AcDbEntity
  8
RACCORDO
100
AcDbLine
 62
253
  6
CONTINUOUS
 10
107.8992386147
 20
48.2616005592
 11
107.8992386147
 21
107.2271147185
  0
LWPOLYLINE
  5
38A
100
AcDbEntity
  8
RACCORDO
100
AcDbPolyline
 62
253
  6
CONTINUOUS
 90
16
 70
0
 10
107.8992386147
 20
107.2271147185
 10
107.9043990658
 20
107.3313189638
 10
107.9089317671
 20
107.4343855001
 10
107.9127872305
 20
107.5351890399
 10
107.9159233616
 20
107.6326290033
 10
107.91830592
 20
107.7256415343
 10
107.9199088928
 20
107.8132111157
 10
107.9207147785
 20
107.8943816569
 10
107.9207147785
 20
107.9682669323
 10
107.9199088928
 20
108.0340602576
 10
107.91830592
 20
108.0910432967
 10
107.9159233616
 20
108.138593905
 10
107.9127872305
 20
108.1761929217
 10
107.9089317672
 20
108.2034298382
 10
107.9043990658
 20
108.2200072799
 10
107.8992386147
 20
108.2257442533
  0
LWPOLYLINE
  5
38B
100
AcDbEntity
  8
RACCORDO
100
AcDbPolyline
 62
253
  6
CONTINUOUS
 90
7
 70
0
 10
133.9376148764
 20
142.1479599388
 10
134.0185853006
 20
142.277151072
 10
134.0889176738
 20
142.4111503405
 10
134.1486122622
 20
142.5499577444
 10
134.1976693556
 20
142.6935732838
 10
134.2360892683
 20
142.8419969585
 10
134.2638723396
 20
142.9952287687
  0
LWPOLYLINE
  5
38C
100
AcDbEntity
  8
RACCORDO
100
AcDbPolyline
 62
253
  6
CONTINUOUS
 90
16
 70
0
 10
133.9376175393
 20
142.1478749489
 10
133.8753985798
 20
142.0562539116
 10
133.8092303609
 20
141.9692954969
 10
133.7391129502
 20
141.8870010898
 10
133.6648149871
 20
141.8092334726
 10
133.5865694734
 20
141.7361330812
 10
133.5050739128
 20
141.6681177429
 10
133.4203401698
 20
141.6052101998
 10
133.3323617352
 20
141.5473911426
 10
133.241809392
 20
141.4950149653
 10
133.1486861389
 20
141.4480934539
 10
133.0529976758
 20
141.4066182864
 10
132.9554191679
 20
141.3709132099
 10
132.8561791579
 20
141.3410870696
 10
132.7550600246
 20
141.3170341779
 10
132.6520679864
 20
141.298756242
  0
LINE
  5
38D
100
AcDbEntity
  8
RACCORDO
100
AcDbLine
 62
253
  6
CONTINUOUS
 10
73.312437825
 20
107.4517240678
 11
72.46006868
 21
107.4517240678
  0
LWPOLYLINE
  5
38E
100
AcDbEntity
  8
RACCORDO
100
AcDbPolyline
 62
253
  6
CONTINUOUS
 90
4
 70
0
 10
117.356247829
 20
106.7590706915
 10
115.8695588067
 20
106.8325776296
 10
115.1025658386
 20
106.8706227885
 10
113.5571932887
 20
106.947017012
  0
LWPOLYLINE
  5
38F
100
AcDbEntity
  8
RACCORDO
100
AcDbPolyline
 62
253
  6
CONTINUOUS
 90
7
 70
0
 10
112.7840579665
 20
106.9853660765
 10
111.273755031
 20
107.0600363091
 10
110.5412787035
 20
107.0963574771
 10
109.8350569316
 20
107.1312970837
 10
109.1597570686
 20
107.1646178569
 10
108.5140795759
 20
107.1965570685
 10
107.8992386147
 20
107.2271147185
  0
LINE
  5
390
100
AcDbEntity
  8
RACCORDO
100
AcDbLine
 62
253
  6
CONTINUOUS
 10
113.5571932887
 20
106.947017012
 11
112.7840579665
 21
106.9853660765
  0
LWPOLYLINE
  5
391
100
AcDbEntity
  8
RACCORDO
100
AcDbPolyline
 62
253
  6
CONTINUOUS
 90
14
 70
0
 10
124.3648732484
 20
106.4121132558
 10
123.8219028757
 20
106.4390071878
 10
123.4874435
 20
106.4555436033
 10
123.111990383
 20
106.4741185224
 10
122.696455117
 20
106.4947188326
 10
122.2417365228
 20
106.5172024709
 10
121.748770205
 20
106.5415913296
 10
121.218847004
 20
106.5678635165
 10
120.6535836241
 20
106.5958112914
 10
120.0540389667
 20
106.6254728467
 10
119.4220379138
 20
106.6568099901
 10
118.7607597243
 20
106.6895004053
 10
118.0712882048
 20
106.7236089125
 10
117.356247829
 20
106.7590706915
  0
LWPOLYLINE
  5
392
100
AcDbEntity
  8
RACCORDO
100
AcDbPolyline
 62
253
  6
CONTINUOUS
 90
4
 70
0
 10
124.8556304836
 20
106.3878359585
 10
124.7358803903
 20
106.3938002742
 10
124.5721559006
 20
106.4018927067
 10
124.3648732484
 20
106.4121132558
  0
LINE
  5
393
100
AcDbEntity
  8
RACCORDO
100
AcDbLine
 62
253
  6
CONTINUOUS
 10
107.8992386147
 20
107.2271147185
 11
88.4629373722
 21
108.2457281041
  0
LINE
  5
394
100
AcDbEntity
  8
RACCORDO
100
AcDbLine
 62
7
  6
CONTINUOUS
 10
122.0421664445
 20
107.4845448132
 11
88.4629373722
 21
109.2443576389
  0
LWPOLYLINE
  5
395
100
AcDbEntity
  8
RACCORDO
100
AcDbPolyline
 62
7
  6
CONTINUOUS
 90
118
 70
0
 10
122.0422714826
 20
107.4845393072
 10
122.166608787
 20
107.4768537654
 10
122.2850132838
 20
107.4682790368
 10
122.3976655003
 20
107.4588151214
 10
122.5046257658
 20
107.4483314101
 10
122.6061955648
 20
107.4369585121
 10
122.7028933758
 20
107.425088254
 10
122.794864254
 20
107.4127704336
 10
122.8822663167
 20
107.3999552533
 10
122.9655928529
 20
107.3868851462
 10
123.0449638283
 20
107.3735942869
 10
123.1205097265
 20
107.3600485009
 10
123.1926964538
 20
107.3463876978
 10
123.2616426973
 20
107.3326309733
 10
123.3274295686
 20
107.3187592319
 10
123.3904289992
 20
107.304855096
 10
123.4507640647
 20
107.2909231493
 10
123.5084715183
 20
107.2769588082
 10
123.5637686287
 20
107.2630309448
 10
123.6167293823
 20
107.2491473629
 10
123.6674184127
 20
107.2353002587
 10
123.7160227677
 20
107.221535093
 10
123.7626013923
 20
107.2078588583
 10
123.8072144931
 20
107.1942645621
 10
123.850036471
 20
107.1807766874
 10
123.8911184155
 20
107.1674005659
 10
123.9305100225
 20
107.154130866
 10
123.9683700479
 20
107.1409760754
 10
124.0047868771
 20
107.127922745
 10
124.0397548936
 20
107.1149843241
 10
124.0732862859
 20
107.1022096482
 10
124.1054252789
 20
107.0895987913
 10
124.1362101297
 20
107.0771516794
 10
124.165645893
 20
107.0649169264
 10
124.1937490312
 20
107.0529062921
 10
124.2205843219
 20
107.0411080168
 10
124.2462275819
 20
107.0295354346
 10
124.2707091088
 20
107.0181929614
 10
124.2940695783
 20
107.0070761814
 10
124.3163945477
 20
106.996185181
 10
124.3377147005
 20
106.9855215451
 10
124.3580598043
 20
106.9750836887
 10
124.3775080005
 20
106.9648669441
 10
124.396085026
 20
106.9548727488
 10
124.4138163439
 20
106.9450996652
 10
124.430774204
 20
106.9355387126
 10
124.4469802297
 20
106.9261910915
 10
124.4624557156
 20
106.9170556013
 10
124.4772674445
 20
106.9081196595
 10
124.4914333947
 20
106.8993842976
 10
124.5049711892
 20
106.8908484842
 10
124.5179425947
 20
106.8824965423
 10
124.5303623878
 20
106.8743293983
 10
124.542245001
 20
106.8663461259
 10
124.5536476667
 20
106.8585282695
 10
124.5645823782
 20
106.8508767059
 10
124.5750608218
 20
106.8433905582
 10
124.5851361773
 20
106.8360487406
 10
124.5948180408
 20
106.8288521306
 10
124.6041157517
 20
106.8217998508
 10
124.6130788959
 20
106.8148681821
 10
124.6217150192
 20
106.8080580526
 10
124.6300314646
 20
106.8013685343
 10
124.6380746418
 20
106.7947731243
 10
124.6458503515
 20
106.7882728418
 10
124.6533642385
 20
106.7818666675
 10
124.6606598919
 20
106.7755250404
 10
124.667741399
 20
106.7692493812
 10
124.6746131848
 20
106.7630382693
 10
124.681316978
 20
106.7568578813
 10
124.6878568085
 20
106.7507087603
 10
124.6942345671
 20
106.7445903634
 10
124.7004866626
 20
106.7384672388
 10
124.7066219215
 20
106.7323339173
 10
124.7126352381
 20
106.7261958683
 10
124.7185408037
 20
106.7200340478
 10
124.7243471169
 20
106.7138417861
 10
124.730048628
 20
106.707625753
 10
124.7356383521
 20
106.7013869144
 10
124.7411182882
 20
106.6951252812
 10
124.7464899291
 20
106.6888408425
 10
124.7517460249
 20
106.6825345321
 10
124.7568880676
 20
106.6762073389
 10
124.7619184745
 20
106.669858274
 10
124.7668318349
 20
106.663485304
 10
124.7716299241
 20
106.6570895635
 10
124.7763151427
 20
106.6506699179
 10
124.780883379
 20
106.6442209304
 10
124.7853366261
 20
106.6377440414
 10
124.7896772282
 20
106.6312378104
 10
124.7939018978
 20
106.6246924786
 10
124.7980129979
 20
106.6181097259
 10
124.8020125815
 20
106.6114878725
 10
124.8058971712
 20
106.6048121198
 10
124.8096684107
 20
106.5980871074
 10
124.8133291381
 20
106.5913081958
 10
124.816877898
 20
106.5844466675
 10
124.8203147744
 20
106.5775155492
 10
124.8236441081
 20
106.5705018142
 10
124.8268708903
 20
106.5633376658
 10
124.8300027141
 20
106.5560279615
 10
124.8330359652
 20
106.5485678438
 10
124.8359591577
 20
106.5408749429
 10
124.8387860172
 20
106.5329437303
 10
124.8415070999
 20
106.5247797346
 10
124.8440774892
 20
106.5163171719
 10
124.8465017424
 20
106.5076396085
 10
124.8487808982
 20
106.4986634781
 10
124.850866646
 20
106.4890722982
 10
124.8528113829
 20
106.4787213742
 10
124.8545684364
 20
106.4677554008
 10
124.8559434878
 20
106.4562919787
 10
124.8568827258
 20
106.4439816539
 10
124.8574443656
 20
106.4311738805
 10
124.8576018931
 20
106.419034622
 10
124.8573449091
 20
106.4079525328
 10
124.8566790861
 20
106.3975389584
 10
124.8556000708
 20
106.3877938989
  0
LINE
  5
396
100
AcDbEntity
  8
RACCORDO
100
AcDbLine
 62
253
  6
CONTINUOUS
 10
122.4629373722
 20
126.7443576389
 11
122.1213657683
 21
139.7795065651
  0
LINE
  5
397
100
AcDbEntity
  8
ASSI
100
AcDbLine
 62
7
  6
CONTINUOUS
 10
124.9629373722
 20
49.1061935524
 11
124.9629373722
 21
107.3314736951
  0
LINE
  5
398
100
AcDbEntity
  8
RACCORDO
100
AcDbLine
 62
253
  6
CONTINUOUS
 10
122.4629373722
 20
126.7443576389
 11
122.1995270702
 21
116.6920216826
  0
LWPOLYLINE
  5
399
100
AcDbEntity
  8
RACCORDO
100
AcDbPolyline
 62
7
  6
CONTINUOUS
 90
5
 70
0
 10
124.9517319604
 20
107.2319133856
 10
124.956802339
 20
107.2773941077
 10
124.9602735511
 20
107.3091279143
 10
124.9622869443
 20
107.3271546343
 10
124.9629373722
 20
107.3314742678
  0
LINE
  5
39A
100
AcDbEntity
  8
RACCORDO
100
AcDbLine
 62
7
  6
CONTINUOUS
 10
124.9154553566
 20
106.9130022174
 11
124.9366623804
 21
107.0999501682
  0
LWPOLYLINE
  5
39B
100
AcDbEntity
  8
RACCORDO
100
AcDbPolyline
 62
7
  6
CONTINUOUS
 90
4
 70
0
 10
124.8556304836
 20
106.3878359585
 10
124.8726772691
 20
106.5378131958
 10
124.8883461235
 20
106.6752738189
 10
124.9154553566
 20
106.9130022174
  0
LINE
  5
39C
100
AcDbEntity
  8
RACCORDO
100
AcDbLine
 62
7
  6
CONTINUOUS
 10
124.9366623804
 20
107.0999501682
 11
124.9517319604
 21
107.2319133856
  0
LWPOLYLINE
  5
39D
100
AcDbEntity
  8
RACCORDO
100
AcDbPolyline
 62
253
  6
CONTINUOUS
 90
16
 70
0
 10
73.3090198311
 20
108.4501354971
 10
73.2184861884
 20
108.4407775395
 10
73.1293617724
 20
108.4223133206
 10
73.0425591229
 20
108.3949318945
 10
72.9589670075
 20
108.3589136183
 10
72.8794413214
 20
108.3146272811
 10
72.8047963234
 20
108.2625263282
 10
72.7357962997
 20
108.2031442185
 10
72.6731477377
 20
108.1370889623
 10
72.6174920925
 20
108.0650368955
 10
72.5693992191
 20
107.9877257554
 10
72.529361538
 20
107.9059471266
 10
72.4977889926
 20
107.820538336
 10
72.4750048525
 20
107.7323738794
 10
72.4612424033
 20
107.642356468
 10
72.456642558
 20
107.5514077851
  0
LINE
  5
39E
100
AcDbEntity
  8
RACCORDO
100
AcDbLine
 62
253
  6
CONTINUOUS
 10
73.312437825
 20
107.4517240678
 11
88.4629373722
 21
108.2457281041
  0
LINE
  5
39F
100
AcDbEntity
  8
RACCORDO
100
AcDbLine
 62
7
  6
CONTINUOUS
 10
73.0158350759
 20
108.4348093112
 11
88.4629373722
 21
109.2443576389
  0
LINE
  5
3A0
100
AcDbEntity
  8
RACCORDO
100
AcDbLine
 62
253
  6
CONTINUOUS
 10
72.1629373722
 20
107.5360427299
 11
72.4566425556
 21
107.5514077851
  0
LWPOLYLINE
  5
3A1
100
AcDbEntity
  8
RACCORDO
100
AcDbPolyline
 62
253
  6
CONTINUOUS
 90
7
 70
0
 10
126.0854447648
 20
140.3366215364
 10
126.2209115926
 20
138.0711618125
 10
126.3579670157
 20
135.8057350517
 10
126.4966110339
 20
133.5403412539
 10
126.6368436473
 20
131.2749804192
 10
126.778664856
 20
129.0096525475
 10
126.9220746598
 20
126.7443576389
  0
LINE
  5
3A2
100
AcDbEntity
  8
0
100
AcDbLine
 62
7
  6
CONTINUOUS
 10
124.6306240765
 20
113.6723891138
 11
124.9629373722
 21
107.3314736951
  0
LINE
  5
3A3
100
AcDbEntity
  8
RACCORDO
100
AcDbLine
 62
7
  6
CONTINUOUS
 10
124.9629373722
 20
107.3314736951
 11
124.6306240765
 21
113.6723891138
  0
LINE
  5
3A4
100
AcDbEntity
  8
RACCORDO
100
AcDbLine
 62
253
  6
CONTINUOUS
 10
126.9279503256
 20
126.7443576389
 11
126.6645400235
 21
116.6920216826
  0
LWPOLYLINE
  5
3A5
100
AcDbEntity
  8
RACCORDO
100
AcDbPolyline
 62
253
  6
CONTINUOUS
 90
3
 70
0
 10
135.7674942214
 20
153.8394136705
 10
136.1435594976
 20
156.5515164509
 10
136.5196277099
 20
159.2640418534
  0
LWPOLYLINE
  5
3A6
100
AcDbEntity
  8
RACCORDO
100
AcDbPolyline
 62
253
  6
CONTINUOUS
 90
4
 70
0
 10
134.2638723396
 20
142.9952287687
 10
134.6396209453
 20
145.7056410611
 10
135.0154944536
 20
148.4164759755
 10
135.7674942214
 20
153.8394136705
  0
LINE
  5
3A7
100
AcDbEntity
  8
RACCORDO
100
AcDbLine
 62
7
  6
CONTINUOUS
 10
133.3049165555
 20
143.1103992288
 11
135.5919560413
 21
159.3835307398
  0
LWPOLYLINE
  5
3A8
100
AcDbEntity
  8
RACCORDO
100
AcDbPolyline
 62
253
  6
CONTINUOUS
 90
16
 70
0
 10
126.1652252562
 20
115.7443576389
 10
126.2157534047
 20
115.7494769301
 10
126.2657642167
 20
115.7647823893
 10
126.3147456523
 20
115.7901173104
 10
126.362196211
 20
115.8252222996
 10
126.4076300663
 20
115.8697379317
 10
126.45058204
 20
115.9232084298
 10
126.4906123648
 20
115.9850863316
 10
126.5273111869
 20
116.0547380952
 10
126.5603027623
 20
116.1314505852
 10
126.5892493042
 20
116.2144383747
 10
126.613854441
 20
116.3028517861
 10
126.6338662509
 20
116.3957855916
 10
126.6490798414
 20
116.4922882806
 10
126.6593394469
 20
116.5913718026
 10
126.6645400235
 20
116.6920216826
  0
LWPOLYLINE
  5
3A9
100
AcDbEntity
  8
RACCORDO
100
AcDbPolyline
 62
253
  6
CONTINUOUS
 90
16
 70
0
 10
121.7002123028
 20
115.7443576389
 10
121.7507404241
 20
115.7494769245
 10
121.8007512142
 20
115.7647823691
 10
121.8497326336
 20
115.7901172695
 10
121.8971831823
 20
115.8252222352
 10
121.9426170336
 20
115.8697378439
 10
121.9855690082
 20
115.9232083208
 10
122.0255993383
 20
115.9850862063
 10
122.0622981693
 20
116.0547379605
 10
122.0952897557
 20
116.1314504481
 10
122.1242363097
 20
116.2144382433
 10
122.1488414588
 20
116.3028516691
 10
122.1688532796
 20
116.3957854956
 10
122.184066879
 20
116.4922882113
 10
122.1943264906
 20
116.5913717655
 10
122.1995270702
 20
116.6920216826
  0
LINE
  5
3AA
100
AcDbEntity
  8
0
100
AcDbLine
 62
253
  6
CONTINUOUS
 10
124.6306240765
 20
113.6723891138
 11
100.6635152424
 21
113.6723891138
  0
LINE
  5
3AB
100
AcDbEntity
  8
RACCORDO
100
AcDbLine
 62
7
  6
CONTINUOUS
 10
157.7129373722
 20
115.7443576389
 11
94.7386206669
 21
115.7443576389
  0
LINE
  5
3AC
100
AcDbEntity
  8
RACCORDO
100
AcDbLine
 62
253
  6
CONTINUOUS
 10
156.7652733284
 20
116.6920216826
 11
93.7397579768
 21
116.6920216735
  0
LWPOLYLINE
  5
3AD
100
AcDbEntity
  8
RACCORDO
100
AcDbPolyline
 62
253
  6
CONTINUOUS
 90
16
 70
0
 10
122.1213657683
 20
139.7795065651
 10
122.1047882392
 20
139.8839984929
 10
122.0828022158
 20
139.9867333458
 10
122.055654026
 20
140.0865601028
 10
122.0236478332
 20
140.1823603262
 10
121.9871422295
 20
140.2730606881
 10
121.9465462195
 20
140.3576449962
 10
121.9023146341
 20
140.4351655865
 10
121.8549430359
 20
140.5047539363
 10
121.8049621696
 20
140.5656303922
 10
121.7529320118
 20
140.6171129104
 10
121.6994354979
 20
140.658624696
 10
121.6450719935
 20
140.6897006632
 10
121.5904505763
 20
140.7099926487
 10
121.536183212
 20
140.7192733112
 10
121.4828778999
 20
140.7174386776
  0
LINE
  5
3AE
100
AcDbEntity
  8
RACCORDO
100
AcDbLine
 62
253
  6
CONTINUOUS
 10
134.4279503256
 20
115.7443576389
 11
134.4279503256
 21
126.7443576389
  0
LWPOLYLINE
  5
3AF
100
AcDbEntity
  8
RACCORDO
100
AcDbPolyline
 62
7
  6
CONTINUOUS
 90
22
 70
0
 10
157.7129373722
 20
160.2429871736
 10
157.708580877
 20
160.2322031151
 10
157.6961026938
 20
160.2153716544
 10
157.6764090369
 20
160.1924927915
 10
157.6504950914
 20
160.1628475277
 10
157.6192220942
 20
160.1271548616
 10
157.5831305762
 20
160.0875717902
 10
157.5429308655
 20
160.0443546743
 10
157.499309518
 20
159.9972471529
 10
157.4524593884
 20
159.9476371396
 10
157.4028457617
 20
159.8956632563
 10
157.3510101007
 20
159.841186881
 10
157.2970403156
 20
159.7851800622
 10
157.2412726074
 20
159.7276956867
 10
157.1841405726
 20
159.6686808677
 10
157.1257626141
 20
159.6089489925
 10
157.0663998011
 20
159.5485033644
 10
157.0064215939
 20
159.4873406801
 10
156.9460576256
 20
159.4262644176
 10
156.8855624108
 20
159.3655424029
 10
156.8252191161
 20
159.30490681
 10
156.7652733284
 20
159.2443576389
  0
LWPOLYLINE
  5
3B0
100
AcDbEntity
  8
RACCORDO
100
AcDbPolyline
 62
253
  6
CONTINUOUS
 90
16
 70
0
 10
126.0854447647
 20
140.3366215364
 10
126.0688672474
 20
140.4411133996
 10
126.0468812411
 20
140.5438481962
 10
126.0197330725
 20
140.6436749065
 10
125.9877269042
 20
140.7394750926
 10
125.9512213266
 20
140.830175429
 10
125.9106253407
 20
140.9147597275
 10
125.8663937757
 20
140.9922803232
 10
125.8190221928
 20
141.0618686913
 10
125.7690413336
 20
141.1227451778
 10
125.7170111734
 20
141.1742277353
 10
125.6635146474
 20
141.2157395636
 10
125.6091511196
 20
141.2468155728
 10
125.5545296679
 20
141.2671075937
 10
125.5002622598
 20
141.2763882786
 10
125.4469568962
 20
141.2745536486
  0
LWPOLYLINE
  5
3B1
100
AcDbEntity
  8
RACCORDO
100
AcDbPolyline
 62
253
  6
CONTINUOUS
 90
7
 70
0
 10
133.9376148764
 20
142.1479599388
 10
134.0161327667
 20
139.5804282368
 10
134.0966908179
 20
137.0130023956
 10
134.1792835838
 20
134.4456824152
 10
134.2639053669
 20
131.8784682956
 10
134.3505502182
 20
129.3113600369
 10
134.4392119368
 20
126.7443576389
  0
LINE
  5
3B2
100
AcDbEntity
  8
DRAFT
100
AcDbLine
 62
7
  6
CONTINUOUS
 10
93.2653614207
 20
125.7443576389
 11
93.3959411465
 21
125.7443576389
  0
LINE
  5
3B3
100
AcDbEntity
  8
DRAFT
100
AcDbLine
 62
7
  6
CONTINUOUS
 10
93.2129373722
 20
126.7443576389
 11
122.4629373722
 21
126.7443576389
  0
LINE
  5
3B4
100
AcDbEntity
  8
RACCORDO
100
AcDbLine
 62
7
  6
CONTINUOUS
 10
122.4629373722
 20
126.7443576389
 11
146.7129373722
 21
126.7443576389
  0
LINE
  5
3B5
100
AcDbEntity
  8
0
100
AcDbLine
 62
7
  6
CONTINUOUS
 10
122.4629373722
 20
126.7443576389
 11
146.7129373722
 21
126.7443576389
  0
LWPOLYLINE
  5
3B6
100
AcDbEntity
  8
RACCORDO
100
AcDbPolyline
 62
253
  6
CONTINUOUS
 90
16
 70
0
 10
132.6520696886
 20
141.2987570988
 10
132.6372702298
 20
141.4006766986
 10
132.6219986816
 20
141.5011926194
 10
132.6064178844
 20
141.5992330608
 10
132.5906939762
 20
141.6937526183
 10
132.5749946209
 20
141.7837434306
 10
132.5594872205
 20
141.8682459267
 10
132.5443371305
 20
141.9463590569
 10
132.5297058959
 20
142.0172499018
 10
132.5157495297
 20
142.0801625527
 10
132.5026168484
 20
142.1344261726
 10
132.4904478856
 20
142.1794621489
 10
132.4793723988
 20
142.2147902633
 10
132.4695084858
 20
142.2400338125
 10
132.4609613254
 20
142.2549236246
 10
132.4538220559
 20
142.2593009296
  0
LINE
  5
3B7
100
AcDbEntity
  8
RACCORDO
100
AcDbLine
 62
7
  6
CONTINUOUS
 10
146.7129373722
 20
126.7443576389
 11
146.7129373722
 21
160.2443576389
  0
LWPOLYLINE
  5
3B8
100
AcDbEntity
  8
RACCORDO
100
AcDbPolyline
 62
253
  6
CONTINUOUS
 90
16
 70
0
 10
133.3049165557
 20
143.1103992303
 10
133.3103832737
 20
143.1116364278
 10
133.3261732883
 20
143.1114017576
 10
133.3521210779
 20
143.1096976797
 10
133.3879546412
 20
143.1065420572
 10
133.4332983479
 20
143.1019679697
 10
133.4876768769
 20
143.0960233658
 10
133.5505201984
 20
143.0887705608
 10
133.6211695496
 20
143.0802855829
 10
133.6988843405
 20
143.070657377
 10
133.7828499164
 20
143.059986872
 10
133.8721860984
 20
143.0483859226
 10
133.9659564108
 20
143.0359761367
 10
134.0631778957
 20
143.0228876012
 10
134.1628314176
 20
143.0092575182
 10
134.263872347
 20
142.9952287667
  0
LWPOLYLINE
  5
3B9
100
AcDbEntity
  8
RACCORDO
100
AcDbPolyline
 62
253
  6
CONTINUOUS
 90
13
 70
0
 10
132.6520679864
 20
141.298756242
 10
132.0784413898
 20
141.2147982735
 10
131.5057779401
 20
141.1310967388
 10
130.934957588
 20
141.0477042135
 10
130.3662657424
 20
140.9645050486
 10
129.8012067375
 20
140.8817203694
 10
129.2424461
 20
140.7998987872
 10
128.6908097306
 20
140.7190817565
 10
128.1471242335
 20
140.6393084584
 10
127.6139067539
 20
140.5611037087
 10
127.0924121293
 20
140.484654377
 10
126.5827168499
 20
140.4098200967
 10
126.0854447644
 20
140.3366215367
  0
LINE
  5
3BA
100
AcDbEntity
  8
RACCORDO
100
AcDbLine
 62
253
  6
CONTINUOUS
 10
126.0854447648
 20
140.3366215364
 11
122.1213657683
 21
139.7795065651
  0
LINE
  5
3BB
100
AcDbEntity
  8
RACCORDO
100
AcDbLine
 62
7
  6
CONTINUOUS
 10
132.4538215877
 20
142.259304261
 11
94.5573941847
 21
136.9333087215
  0
LINE
  5
3BC
100
AcDbEntity
  8
RACCORDO
100
AcDbLine
 62
253
  6
CONTINUOUS
 10
111.321981468
 20
138.3423715493
 11
110.3825964614
 21
138.2171200366
  0
LWPOLYLINE
  5
3BD
100
AcDbEntity
  8
RACCORDO
100
AcDbPolyline
 62
253
  6
CONTINUOUS
 90
20
 70
0
 10
105.8545160605
 20
137.6144715866
 10
104.9915007817
 20
137.4993752697
 10
104.1466406962
 20
137.3869679259
 10
103.3215981524
 20
137.2772129212
 10
102.5188654689
 20
137.1701468895
 10
101.7411506469
 20
137.0666492789
 10
100.9904954153
 20
136.9667789509
 10
100.2685024132
 20
136.8704770439
 10
99.5770414738
 20
136.7784464208
 10
98.9178283688
 20
136.6907333453
 10
98.2922886561
 20
136.6072915538
 10
97.7017432348
 20
136.5286851183
 10
97.1475618827
 20
136.4549455765
 10
96.6310410411
 20
136.3860413908
 10
96.1533030627
 20
136.3224420205
 10
95.7154451405
 20
136.2641824056
 10
95.3185008067
 20
136.2112276063
 10
94.9633782894
 20
136.1639422616
 10
94.6509049314
 20
136.1223680297
 10
94.3817713169
 20
136.0864632525
  0
LWPOLYLINE
  5
3BE
100
AcDbEntity
  8
RACCORDO
100
AcDbPolyline
 62
253
  6
CONTINUOUS
 90
4
 70
0
 10
93.9757664984
 20
136.0324209809
 10
93.7489821387
 20
136.0021750096
 10
93.7034815011
 20
135.9961354934
 10
93.6977627322
 20
135.9953766034
  0
LWPOLYLINE
  5
3BF
100
AcDbEntity
  8
RACCORDO
100
AcDbPolyline
 62
253
  6
CONTINUOUS
 90
9
 70
0
 10
119.3961208779
 20
139.4167645011
 10
118.5985697
 20
139.3106132497
 10
117.7670142548
 20
139.2000808145
 10
116.9023563335
 20
139.0849871631
 10
116.0056120029
 20
138.9655123281
 10
115.0902572387
 20
138.8438374159
 10
114.1585688321
 20
138.7198993493
 10
113.2123356562
 20
138.5937612057
 10
111.321981468
 20
138.3423715493
  0
LINE
  5
3C0
100
AcDbEntity
  8
RACCORDO
100
AcDbLine
 62
253
  6
CONTINUOUS
 10
94.3817713169
 20
136.0864632525
 11
93.9757664984
 21
136.0324209809
  0
LWPOLYLINE
  5
3C1
100
AcDbEntity
  8
RACCORDO
100
AcDbPolyline
 62
253
  6
CONTINUOUS
 90
4
 70
0
 10
110.3825964614
 20
138.2171200366
 10
108.5331654421
 20
137.9711016504
 10
107.627512526
 20
137.8503347769
 10
105.8545160605
 20
137.6144715866
  0
LWPOLYLINE
  5
3C2
100
AcDbEntity
  8
RACCORDO
100
AcDbPolyline
 62
253
  6
CONTINUOUS
 90
4
 70
0
 10
122.1213657683
 20
139.7795065651
 10
121.5076655853
 20
139.6979910898
 10
120.8500899994
 20
139.6104534212
 10
119.3961208779
 20
139.4167645011
  0
LINE
  5
3C3
100
AcDbEntity
  8
RACCORDO
100
AcDbLine
 62
253
  6
CONTINUOUS
 10
156.7652733284
 20
159.2443576389
 11
156.7652733284
 21
116.6920216826
  0
LINE
  5
3C4
100
AcDbEntity
  8
RACCORDO
100
AcDbLine
 62
7
  6
CONTINUOUS
 10
157.7129373722
 20
115.7443576389
 11
157.7129373722
 21
160.2443576389
  0
LWPOLYLINE
  5
3C5
100
AcDbEntity
  8
RACCORDO
100
AcDbPolyline
 62
253
  6
CONTINUOUS
 90
11
 70
0
 10
133.537265062
 20
142.4191107199
 10
133.467461246
 20
142.4663102276
 10
133.4028712989
 20
142.5099349897
 10
133.3441669898
 20
142.5495270048
 10
133.2919583714
 20
142.5846703728
 10
133.2467876477
 20
142.6149954658
 10
133.2091235081
 20
142.6401827335
 10
133.1793562978
 20
142.6599660916
 10
133.1577939865
 20
142.6741357838
 10
133.1446589696
 20
142.6825405748
 10
133.1400857278
 20
142.6850892849
  0
LINE
  5
3C6
100
AcDbEntity
  8
RACCORDO
100
AcDbLine
 62
253
  6
CONTINUOUS
 10
133.6895652559
 20
142.3159984453
 11
133.537265062
 21
142.4191107199
  0
LWPOLYLINE
  5
3C7
100
AcDbEntity
  8
RACCORDO
100
AcDbPolyline
 62
253
  6
CONTINUOUS
 90
3
 70
0
 10
133.9376283167
 20
142.1478095717
 10
133.8534539676
 20
142.2049060364
 10
133.6895652559
 20
142.3159984453
  0
LWPOLYLINE
  5
3C8
100
AcDbEntity
  8
RACCORDO
100
AcDbPolyline
 62
7
  6
CONTINUOUS
 90
9
 70
0
 10
157.4071694069
 20
116.0501459556
 10
157.3435562144
 20
116.1135522082
 10
157.2750019613
 20
116.1822930498
 10
157.2016364402
 20
116.255756085
 10
157.1233298585
 20
116.3337548841
 10
157.0404986164
 20
116.4167963947
 10
156.9532815141
 20
116.5047548915
 10
156.8615397514
 20
116.5967296693
 10
156.7652733284
 20
116.6920216826
  0
LINE
  5
3C9
100
AcDbEntity
  8
RACCORDO
100
AcDbLine
 62
7
  6
CONTINUOUS
 10
146.7129373722
 20
126.7443576389
 11
156.7652733284
 21
116.6920216826
  0
LWPOLYLINE
  5
3CA
100
AcDbEntity
  8
RACCORDO
100
AcDbPolyline
 62
7
  6
CONTINUOUS
 90
10
 70
0
 10
157.7129373722
 20
115.7443576389
 10
157.7108593227
 20
115.7470660886
 10
157.7023065359
 20
115.7554805982
 10
157.6872790118
 20
115.7700159993
 10
157.6656326253
 20
115.7912452703
 10
157.6375115015
 20
115.8194148567
 10
157.6033480157
 20
115.8539469954
 10
157.563187785
 20
115.8941956769
 10
157.5169851922
 20
115.9402486684
 10
157.4071694069
 20
116.0501459556
  0
LINE
  5
3CB
100
AcDbEntity
  8
RACCORDO
100
AcDbLine
 62
253
  6
CONTINUOUS
 10
146.7129373722
 20
159.2443576389
 11
156.7652733284
 21
159.2443576389
  0
LINE
  5
3CC
100
AcDbEntity
  8
RACCORDO
100
AcDbLine
 62
7
  6
CONTINUOUS
 10
136.58222411
 20
160.2443576389
 11
157.7129373722
 21
160.2443576389
  0
LINE
  5
3CD
100
AcDbEntity
  8
RACCORDO
100
AcDbLine
 62
253
  6
CONTINUOUS
 10
136.5196277099
 20
159.2640418534
 11
146.7129373722
 21
159.2443576503
  0
LWPOLYLINE
  5
3CE
100
AcDbEntity
  8
RACCORDO
100
AcDbPolyline
 62
253
  6
CONTINUOUS
 90
16
 70
0
 10
135.5919560413
 20
159.3835307398
 10
135.5968893056
 20
159.3825762866
 10
135.6120308701
 20
159.3817976408
 10
135.6371953317
 20
159.3804151372
 10
135.6717754541
 20
159.3767844751
 10
135.7153516634
 20
159.3710510004
 10
135.767925874
 20
159.3649912481
 10
135.8287727973
 20
159.3575601494
 10
135.8969125894
 20
159.3481105015
 10
135.9721265076
 20
159.3386814792
 10
136.0539828363
 20
159.3283270437
 10
136.1409167711
 20
159.3160527922
 10
136.2314108181
 20
159.3038505007
 10
136.3247943268
 20
159.29203785
 10
136.4209133898
 20
159.279023514
 10
136.519589847
 20
159.2640419781
  0
ARC
  5
3CF
100
AcDbEntity
  8
0
100
AcDbCircle
 62
7
  6
CONTINUOUS
 10
191.5690104167
 20
113.0443576389
 40
12.0
100
AcDbArc
 50
166.992897443
 51
177.0
  0
ARC
  5
3D0
100
AcDbEntity
  8
0
100
AcDbCircle
 62
7
  6
CONTINUOUS
 10
191.5690104167
 20
113.0443576389
 40
12.0
100
AcDbArc
 50
3.0
 51
13.007102557
  0
ARC
  5
3D1
100
AcDbEntity
  8
RACCORDO
100
AcDbCircle
 62
7
  6
CONTINUOUS
 10
173.5944605555
 20
116.7443576389
 40
1.0
100
AcDbArc
 50
183.0000039567
 51
270.0000674351
  0
ARC
  5
3D2
100
AcDbEntity
  8
RACCORDO
100
AcDbCircle
 62
7
  6
CONTINUOUS
 10
209.5435602778
 20
116.7443576389
 40
1.0
100
AcDbArc
 50
269.9998459655
 51
356.9999909746
  0
ARC
  5
3D3
100
AcDbEntity
  8
RACCORDO
100
AcDbCircle
 62
7
  6
CONTINUOUS
 10
191.5690104167
 20
125.1823400758
 40
0.9620175631
100
AcDbArc
 50
35.7538143521
 51
144.2461856479
  0
ARC
  5
3D4
100
AcDbEntity
  8
0
100
AcDbCircle
 62
7
  6
CONTINUOUS
 10
112.6470696594
 20
113.0443576389
 40
12.0
100
AcDbArc
 50
3.0
 51
13.007102557
  0
ARC
  5
3D5
100
AcDbEntity
  8
0
100
AcDbCircle
 62
7
  6
CONTINUOUS
 10
112.6470696594
 20
113.0443576389
 40
12.0
100
AcDbArc
 50
166.992897443
 51
177.0
  0
ARC
  5
3D6
100
AcDbEntity
  8
DRAFT
100
AcDbCircle
 62
7
  6
CONTINUOUS
 10
112.6470696594
 20
113.0443576389
 40
12.0
100
AcDbArc
 50
3.0
 51
13.0072879086
  0
ARC
  5
3D7
100
AcDbEntity
  8
RACCORDO
100
AcDbCircle
 62
7
  6
CONTINUOUS
 10
94.6964151492
 20
135.9430192714
 40
1.0
100
AcDbArc
 50
98.0
 51
176.9999652583
  0
ARC
  5
3D8
100
AcDbEntity
  8
RACCORDO
100
AcDbCircle
 62
7
  6
CONTINUOUS
 10
136.58222411
 20
159.2443576389
 40
1.0
100
AcDbArc
 50
90.0
 51
172.0
  0
ARC
  5
3D9
100
AcDbEntity
  8
RACCORDO
100
AcDbCircle
 62
7
  6
CONTINUOUS
 10
132.3146484867
 20
143.2495723297
 40
1.0
100
AcDbArc
 50
278.0
 51
352.0
  0
ARC
  5
3DA
100
AcDbEntity
  8
RACCORDO
100
AcDbCircle
 62
7
  6
CONTINUOUS
 10
94.738387511
 20
116.7443576389
 40
1.0
100
AcDbArc
 50
183.0000005415
 51
270.0000092051
  0
ARC
  5
3DB
100
AcDbEntity
  8
RACCORDO
100
AcDbCircle
 62
7
  6
CONTINUOUS
 10
123.9629373696
 20
49.1062061493
 40
1.0
100
AcDbArc
 50
273.0
 51
359.9999999991
  0
ARC
  5
3DC
100
AcDbEntity
  8
RACCORDO
100
AcDbCircle
 62
7
  6
CONTINUOUS
 10
73.0629373722
 20
107.5360427265
 40
0.9
100
AcDbArc
 50
93.0
 51
180.0
  0
ARC
  5
3DD
100
AcDbEntity
  8
RACCORDO
100
AcDbCircle
 62
7
  6
CONTINUOUS
 10
73.0629373722
 20
47.9526725512
 40
0.9
100
AcDbArc
 50
180.0
 51
267.0
  0
ARC
  5
3DE
100
AcDbEntity
  8
RACCORDO
100
AcDbCircle
 62
7
  6
CONTINUOUS
 10
72.3629414641
 20
51.9659444354
 40
0.2
100
AcDbArc
 50
155.0
 51
176.989898379
  0
ARC
  5
3DF
100
AcDbEntity
  8
RACCORDO
100
AcDbCircle
 62
7
  6
CONTINUOUS
 10
72.3629414641
 20
103.5227708424
 40
0.2
100
AcDbArc
 50
180.0000100418
 51
205.0
  0
ELLIPSE
  5
3E0
100
AcDbEntity
  8
RACCORDO
100
AcDbEllipse
 62
7
  6
CONTINUOUS
 10
173.5703827627
 20
47.2457299849
 30
0.0
 11
0.7090462434
 21
0.7090462434
 31
0.0
 40
0.9972646886
 41
-3.9256212891
 42
-2.3575640181
  0
ELLIPSE
  5
3E1
100
AcDbEntity
  8
RACCORDO
100
AcDbEllipse
 62
7
  6
CONTINUOUS
 10
180.6192848859
 20
55.7446321081
 30
0.0
 11
0.1418092487
 21
0.1418092487
 31
0.0
 40
0.9972646886
 41
2.3575640181
 42
3.9256212891
  0
ELLIPSE
  5
3E2
100
AcDbEntity
  8
RACCORDO
100
AcDbEllipse
 62
7
  6
CONTINUOUS
 10
202.5187359475
 20
55.7446321081
 30
0.0
 11
-0.1418092487
 21
0.1418092487
 31
0.0
 40
0.9972646886
 41
2.3575640181
 42
3.9256212891
  0
ELLIPSE
  5
3E3
100
AcDbEntity
  8
RACCORDO
100
AcDbEllipse
 62
7
  6
CONTINUOUS
 10
202.5187359475
 20
99.7440831697
 30
0.0
 11
-0.1418092487
 21
-0.1418092487
 31
0.0
 40
0.9972646886
 41
2.3575640181
 42
3.9256212891
  0
ELLIPSE
  5
3E4
100
AcDbEntity
  8
RACCORDO
100
AcDbEllipse
 62
7
  6
CONTINUOUS
 10
180.6192848859
 20
99.7440831697
 30
0.0
 11
0.1418092487
 21
-0.1418092487
 31
0.0
 40
0.9972646886
 41
2.3575640181
 42
3.9256212891
  0
ELLIPSE
  5
3E5
100
AcDbEntity
  8
RACCORDO
100
AcDbEllipse
 62
7
  6
CONTINUOUS
 10
209.5676380707
 20
108.2429852929
 30
0.0
 11
0.7090462434
 21
0.7090462434
 31
0.0
 40
0.9972646886
 41
5.4991566717
 42
7.0672139427
  0
ELLIPSE
  5
3E6
100
AcDbEntity
  8
RACCORDO
100
AcDbEllipse
 62
7
  6
CONTINUOUS
 10
209.5676380707
 20
47.2457299849
 30
0.0
 11
-0.7090462434
 21
0.7090462434
 31
0.0
 40
0.9972646886
 41
8.6407493252
 42
10.2088065963
  0
ELLIPSE
  5
3E7
100
AcDbEntity
  8
RACCORDO
100
AcDbEllipse
 62
7
  6
CONTINUOUS
 10
173.5703827627
 20
47.2457299849
 30
0.0
 11
-0.7090462434
 21
-0.7090462434
 31
0.0
 40
0.9972646886
 41
5.4991566717
 42
7.0672139427
  0
ELLIPSE
  5
3E8
100
AcDbEntity
  8
RACCORDO
100
AcDbEllipse
 62
7
  6
CONTINUOUS
 10
173.5703827627
 20
108.2429852929
 30
0.0
 11
0.7090462434
 21
-0.7090462434
 31
0.0
 40
0.9972646886
 41
8.6407493252
 42
10.2088065963
  0
ENDSEC
  0
SECTION
  2
OBJECTS
  0
DICTIONARY
  5
C
100
AcDbDictionary
280
0
281
1
  3
ACAD_GROUP
350
D
  3
ACAD_MLINESTYLE
350
17
  3
ACAD_LAYOUT
350
1A
  3
ACAD_PLOTSETTINGS
350
19
  3
ACAD_PLOTSTYLENAME
350
E
  0
DICTIONARY
  5
D
102
{ACAD_REACTORS
330
C
102
}
100
AcDbDictionary
280
0
281
1
  0
ACDBDICTIONARYWDFLT
  5
E
102
{ACAD_REACTORS
330
C
102
}
100
AcDbDictionary
281
1
  3
Normal
350
F
100
AcDbDictionaryWithDefault
340
F
  0
DICTIONARY
  5
17
102
{ACAD_REACTORS
330
C
102
}
100
AcDbDictionary
280
0
281
1
  3
Standard
350
18
  0
DICTIONARY
  5
19
102
{ACAD_REACTORS
330
C
102
}
100
AcDbDictionary
281
1
  0
DICTIONARY
  5
1A
102
{ACAD_REACTORS
330
C
102
}
100
AcDbDictionary
281
1
  3
Model
350
3E9
  3
Layout1
350
3EA
  0
ACDBPLACEHOLDER
  5
F
102
{ACAD_REACTORS
330
E
102
}
  0
MLINESTYLE
  5
18
102
{ACAD_REACTORS
330
17
102
}
100
AcDbMlineStyle
  2
STANDARD
 70
0
  3

 62
256
 51
90.0
 52
90.0
 71
2
 49
0.5
 62
256
  6
BYLAYER
 49
-0.5
 62
256
  6
BYLAYER
  0
LAYOUT
  5
3E9
102
{ACAD_REACTORS
330
1A
102
}
100
AcDbPlotSettings
  1

  2
none_device
  4
ISO_A4_(297.00_x_210.00_MM)
  6

 40
0.0
 41
0.0
 42
0.0
 43
0.0
 44
297.0
 45
210.0
 46
0.0
 47
0.0
 48
0.0
 49
0.0
140
0.0
141
0.0
142
1.0
143
1.0
 70
1024
 72
1
 73
0
 74
0
  7

 75
0
147
1.0
148
0.0
149
0.0
100
AcDbLayout
  1
Model
 70
0
 71
0
 10
0.0
 20
0.0
 11
297.0
 21
210.0
 12
0.0
 22
0.0
 32
0.0
 14
0.0
 24
0.0
 34
0.0
 15
0.0
 25
0.0
 35
0.0
146
0.0
 13
0.0
 23
0.0
 33
0.0
 16
1.0
 26
0.0
 36
0.0
 17
0.0
 27
1.0
 37
0.0
 76
0
330
217
345
0
346
0
  0
LAYOUT
  5
3EA
102
{ACAD_REACTORS
330
1A
102
}
100
AcDbPlotSettings
  1

  2
none_device
  4
ISO_A4_(297.00_x_210.00_MM)
  6

 40
0.0
 41
0.0
 42
0.0
 43
0.0
 44
297.0
 45
210.0
 46
0.0
 47
0.0
 48
0.0
 49
0.0
140
0.0
141
0.0
142
1.0
143
1.0
 70
0
 72
1
 73
0
 74
0
  7

 75
0
147
1.0
148
0.0
149
0.0
100
AcDbLayout
  1
Layout1
 70
0
 71
1
 10
0.0
 20
0.0
 11
297.0
 21
210.0
 12
0.0
 22
0.0
 32
0.0
 14
0.0
 24
0.0
 34
0.0
 15
0.0
 25
0.0
 35
0.0
146
0.0
 13
0.0
 23
0.0
 33
0.0
 16
1.0
 26
0.0
 36
0.0
 17
0.0
 27
1.0
 37
0.0
 76
0
330
218
345
0
346
0
  0
ENDSEC
  0
EOF
