0
SECTION
2
HEADER
9
$ACADVER
1
AC1014
9
$HANDSEED
5
       402
9
$EXTMAX
10
297.0000000000
20
210.0000000000
9
$EXTMIN
10
0.0000000000
20
0.0000000000
9
$LIMMIN
10
0.0000000000
20
0.0000000000
9
$LIMMAX
10
297.0000000000
20
210.0000000000
9
$VIEWCTR
10
148.5000000000
20
105.0000000000
9
$VIEWSIZE
40
210.0000000000
9
$CLAYER
8
0
9
$LTSCALE
40
16.3350000000
9
$CELTYPE
6
BYLAYER
9
$DIMSCALE
40
1
9
$DIMASZ
40
3.0000000000
9
$DIMEXO
40
1.8562500000
9
$DIMDLI
40
11.2860000000
9
$DIMEXE
40
5.3460000000
9
$DIMCEN
40
2.6730000000
9
$DIMLFAC
40
1.0000000000
9
$DIMTXT
40
3.0000000000
9
$DIMTOL
70
1
9
$DIMLIM
70
0
9
$DIMTFAC
40
1.0000000000
9
$DIMTP
40
0.0100000000
9
$DIMTM
40
0.0100000000
9
$MEASUREMENT
70
1
0
ENDSEC
0
SECTION
2
CLASSES
0
ENDSEC
0
SECTION
2
TABLES
0
TABLE
2
VPORT
5
8
100
AcDbSymbolTable
70
2
0
VPORT
5
1F4
100
AcDbSymbolTableRecord
100
AcDbViewportTableRecord
2
*ACTIVE
70
0
10
0.0
20
0.0
11
1.0
21
1.0
12
148.5000000000
22
105.0000000000
13
0.0
23
0.0
14
1.0
24
1.0
15
0.0
25
0.0
16
0.0
26
0.0
36
1.0
17
0.0
27
0.0
37
0.0
40
210.0000000000
41
1.4142857143
42
50.0
43
0.0
44
0.0
50
0.0
51
0.0
71
0
72
100
73
1
74
1
75
0
76
0
77
0
78
0
0
ENDTAB
0
TABLE
2
LTYPE
5
5
100
AcDbSymbolTable
70
6
0
LTYPE
5
14
100
AcDbSymbolTableRecord
100
AcDbLinetypeTableRecord
2
BYBLOCK
70
0
3

72
65
73
0
40
0.0
0
LTYPE
5
15
100
AcDbSymbolTableRecord
100
AcDbLinetypeTableRecord
2
BYLAYER
70
0
3

72
65
73
0
40
0.0
0
LTYPE
5
16
100
AcDbSymbolTableRecord
100
AcDbLinetypeTableRecord
2
CONTINUOUS
70
64
3
Solid line
72
65
73
0
40
0
0
LTYPE
5
1F5
100
AcDbSymbolTableRecord
100
AcDbLinetypeTableRecord
2
CENTER
70
64
3
____ _ ____ _ ____ _ ____ _ ____ _ ____ _ ____
72
65
73
4
40
0.6
49
0.375
74
0
49
-0.075
74
0
49
0.075
74
0
49
-0.075
74
0
0
LTYPE
5
1F6
100
AcDbSymbolTableRecord
100
AcDbLinetypeTableRecord
2
HIDDEN
70
64
3
- - - - - - - - - - - - - - - - - - - -
72
65
73
2
40
0.2
49
0.1
74
0
49
-0.1
74
0
0
LTYPE
5
1F7
100
AcDbSymbolTableRecord
100
AcDbLinetypeTableRecord
2
PHANTOM
70
64
3
_____ _ _ _____ _ _ _____ _ _ _____
72
65
73
6
40
0.8
49
0.45
74
0
49
-0.05
74
0
49
0.1
74
0
49
-0.05
74
0
49
0.1
74
0
49
-0.05
74
0
0
LTYPE
5
1F8
100
AcDbSymbolTableRecord
100
AcDbLinetypeTableRecord
2
DOT
70
64
3
. . . . . . . . . . . . . . . . . . . .
72
65
73
2
40
0.2
49
0.1
74
0
49
-0.1
74
0
0
LTYPE
5
1F9
100
AcDbSymbolTableRecord
100
AcDbLinetypeTableRecord
2
DASHED
70
64
3
- - - - - - - - - - - - - - - - - - - -
72
65
73
2
40
0.2
49
0.1
74
0
49
-0.1
74
0
0
ENDTAB
0
TABLE
2
LAYER
5
2
100
AcDbSymbolTable
70
36
0
LAYER
5
10
100
AcDbSymbolTableRecord
100
AcDbLayerTableRecord
2
0
70
0
62
7
6
CONTINUOUS
0
LAYER
5
1FA
100
AcDbSymbolTableRecord
100
AcDbLayerTableRecord
2
DEFAULT_1
70
0
62
7
6
CENTER
0
LAYER
5
1FB
100
AcDbSymbolTableRecord
100
AcDbLayerTableRecord
2
DEFAULT_2
70
0
62
8
6
HIDDEN
0
LAYER
5
1FC
100
AcDbSymbolTableRecord
100
AcDbLayerTableRecord
2
DEFAULT_3
70
0
62
7
6
PHANTOM
0
LAYER
5
1FD
100
AcDbSymbolTableRecord
100
AcDbLayerTableRecord
2
ASSI
70
0
62
7
6
CONTINUOUS
0
LAYER
5
1FE
100
AcDbSymbolTableRecord
100
AcDbLayerTableRecord
2
COORDINATE
70
0
62
7
6
CONTINUOUS
0
LAYER
5
1FF
100
AcDbSymbolTableRecord
100
AcDbLayerTableRecord
2
COORD_ORIGINE
70
0
62
7
6
CONTINUOUS
0
LAYER
5
200
100
AcDbSymbolTableRecord
100
AcDbLayerTableRecord
2
DRAFT
70
0
62
7
6
CONTINUOUS
0
LAYER
5
201
100
AcDbSymbolTableRecord
100
AcDbLayerTableRecord
2
PIANI
70
0
62
7
6
CONTINUOUS
0
LAYER
5
202
100
AcDbSymbolTableRecord
100
AcDbLayerTableRecord
2
PIANI_ORIGINE
70
0
62
7
6
CONTINUOUS
0
LAYER
5
203
100
AcDbSymbolTableRecord
100
AcDbLayerTableRecord
2
PUNTI
70
0
62
7
6
CONTINUOUS
0
LAYER
5
204
100
AcDbSymbolTableRecord
100
AcDbLayerTableRecord
2
RACCORDO
70
0
62
7
6
CONTINUOUS
0
LAYER
5
205
100
AcDbSymbolTableRecord
100
AcDbLayerTableRecord
2
SMUSSO
70
0
62
7
6
CONTINUOUS
0
LAYER
5
206
100
AcDbSymbolTableRecord
100
AcDbLayerTableRecord
2
SNAPLINE
70
0
62
7
6
CONTINUOUS
0
LAYER
5
207
100
AcDbSymbolTableRecord
100
AcDbLayerTableRecord
2
TRASH
70
0
62
7
6
CONTINUOUS
0
ENDTAB
0
TABLE
2
STYLE
5
3
100
AcDbSymbolTable
70
1
0
STYLE
5
11
100
AcDbSymbolTableRecord
100
AcDbTextStyleTableRecord
2
STANDARD
70
0
40
0.0
41
0.8000000000
50
0.0
71
0
42
0.2
3
txt
4

0
ENDTAB
0
TABLE
2
VIEW
5
6
100
AcDbSymbolTable
70
0
0
ENDTAB
0
TABLE
2
UCS
5
7
100
AcDbSymbolTable
70
0
0
ENDTAB
0
TABLE
2
APPID
5
9
100
AcDbSymbolTable
70
1
0
APPID
5
208
100
AcDbSymbolTableRecord
100
AcDbRegAppTableRecord
2
ACAD
70
0
0
ENDTAB
0
TABLE
2
DIMSTYLE
5
A
100
AcDbSymbolTable
70
1
0
DIMSTYLE
105
209
100
AcDbSymbolTableRecord
100
AcDbDimStyleTableRecord
2
STANDARD
70
0
3

4

5

6

7

40
1.0
41
3.0000000000
42
0.0625
43
0.38
44
0.18
45
0.0
46
0.0
47
0.0100000000
48
0.0100000000
140
3.0000000000
141
0.09
142
0.0
143
25.4
144
1.0000000000
145
0.0
146
1.0000000000
147
0.09
71
1
72
0
73
0
74
0
75
0
76
0
77
1
78
8
170
0
171
2
172
0
173
0
174
0
175
0
176
0
177
0
178
0
270
2
271
2
272
2
273
2
274
2
340
11
275
0
280
0
281
0
282
0
283
1
284
8
285
0
286
0
287
3
288
0
0
DIMSTYLE
105
20A
100
AcDbSymbolTableRecord
100
AcDbDimStyleTableRecord
2
DIMSTYLE_1
70
0
3

4

5

6

7

40
1.0
41
3.0000000000
42
0.0625
43
0.38
44
0.18
45
0.0
46
0.0
47
0.0000000000
48
0.0000000000
140
3.0000000000
141
0.09
142
0.0
143
25.4
144
1.0000000000
145
0.0
146
1.0000000000
147
0.09
71
0
72
0
73
0
74
0
75
0
76
0
77
1
78
8
170
0
171
2
172
0
173
0
174
0
175
0
176
0
177
0
178
0
270
2
271
2
272
2
273
2
274
2
340
11
275
0
280
0
281
0
282
0
283
1
284
8
285
0
286
0
287
3
288
0
0
ENDTAB
0
TABLE
2
BLOCK_RECORD
5
1
100
AcDbSymbolTable
70
0
0
BLOCK_RECORD
5
1B
100
AcDbSymbolTableRecord
100
AcDbBlockTableRecord
2
*MODEL_SPACE
0
BLOCK_RECORD
5
1C
100
AcDbSymbolTableRecord
100
AcDbBlockTableRecord
2
*PAPER_SPACE
0
BLOCK_RECORD
5
20B
100
AcDbSymbolTableRecord
100
AcDbBlockTableRecord
2
*D0
0
BLOCK_RECORD
5
20C
100
AcDbSymbolTableRecord
100
AcDbBlockTableRecord
2
*D1
0
ENDTAB
0
ENDSEC
0
SECTION
2
BLOCKS
0
BLOCK
5
1E
100
AcDbEntity
8
0
100
AcDbBlockBegin
2
*MODEL_SPACE
70
0
10
0.0
20
0.0
30
0.0
3
*MODEL_SPACE
1

0
ENDBLK
5
1F
100
AcDbEntity
8
0
100
AcDbBlockEnd
0
BLOCK
5
20
100
AcDbEntity
8
0
100
AcDbBlockBegin
2
*PAPER_SPACE
70
0
10
0.0
20
0.0
30
0.0
3
*PAPER_SPACE
1

0
ENDBLK
5
21
100
AcDbEntity
8
0
100
AcDbBlockEnd
0
BLOCK
5
20D
100
AcDbEntity
8
0
100
AcDbBlockBegin
62
7
6
CONTINUOUS
2
*D0
70
65
10
0.0000000000
20
0.0000000000
3
*D0
1

0
TEXT
5
20E
100
AcDbEntity
8
0
100
AcDbText
62
7
6
CONTINUOUS
10
-206.3767818009
20
215.9138502075
7
STANDARD
40
3.0000000000
1
400
41
0.7857142857
72
0
100
AcDbText
0
LINE
5
20F
100
AcDbEntity
8
0
100
AcDbLine
62
7
6
CONTINUOUS
10
-402.8410675151
20
145.7333407189
11
-402.8410675151
21
216.6638502075
0
LINE
5
210
100
AcDbEntity
8
0
100
AcDbLine
62
7
6
CONTINUOUS
10
-2.8410675151
20
145.7333407189
11
-2.8410675151
21
216.6638502075
0
LINE
5
211
100
AcDbEntity
8
0
100
AcDbLine
62
7
6
CONTINUOUS
10
-402.8410675151
20
215.1638502075
11
-202.8410675151
21
215.1638502075
0
LINE
5
212
100
AcDbEntity
8
0
100
AcDbLine
62
7
6
CONTINUOUS
10
-2.8410675151
20
215.1638502075
11
-202.8410675151
21
215.1638502075
0
SOLID
5
213
100
AcDbEntity
8
0
100
AcDbTrace
62
7
6
CONTINUOUS
10
-399.8410675151
20
216.1138502075
11
-402.8410675151
21
215.1638502075
12
-399.8410675151
22
214.2138502075
13
-399.8410675151
23
214.2138502075
0
SOLID
5
214
100
AcDbEntity
8
0
100
AcDbTrace
62
7
6
CONTINUOUS
10
-5.8410675151
20
214.2138502075
11
-2.8410675151
21
215.1638502075
12
-5.8410675151
22
216.1138502075
13
-5.8410675151
23
216.1138502075
0
ENDBLK
5
215
100
AcDbEntity
8
0
100
AcDbBlockEnd
0
BLOCK
5
216
100
AcDbEntity
8
0
100
AcDbBlockBegin
62
7
6
CONTINUOUS
2
*D1
70
65
10
0.0000000000
20
0.0000000000
3
*D1
1

0
TEXT
5
217
100
AcDbEntity
8
0
100
AcDbText
62
7
6
CONTINUOUS
10
107.9062114553
20
-113.8023735668
7
STANDARD
40
3.0000000000
1
490
50
90.0000000000
41
0.7857142857
72
0
100
AcDbText
0
LINE
5
218
100
AcDbEntity
8
0
100
AcDbLine
62
7
6
CONTINUOUS
10
8.1589324849
20
134.7333407189
11
110.1562114553
21
134.7333407189
0
LINE
5
219
100
AcDbEntity
8
0
100
AcDbLine
62
7
6
CONTINUOUS
10
8.1589324849
20
-355.2666592811
11
110.1562114553
21
-355.2666592811
0
LINE
5
21A
100
AcDbEntity
8
0
100
AcDbLine
62
7
6
CONTINUOUS
10
108.6562114553
20
134.7333407189
11
108.6562114553
21
-110.2666592811
0
LINE
5
21B
100
AcDbEntity
8
0
100
AcDbLine
62
7
6
CONTINUOUS
10
108.6562114553
20
-355.2666592811
11
108.6562114553
21
-110.2666592811
0
SOLID
5
21C
100
AcDbEntity
8
0
100
AcDbTrace
62
7
6
CONTINUOUS
10
109.6062114553
20
131.7333407189
11
108.6562114553
21
134.7333407189
12
107.7062114553
22
131.7333407189
13
107.7062114553
23
131.7333407189
0
SOLID
5
21D
100
AcDbEntity
8
0
100
AcDbTrace
62
7
6
CONTINUOUS
10
107.7062114553
20
-352.2666592811
11
108.6562114553
21
-355.2666592811
12
109.6062114553
22
-352.2666592811
13
109.6062114553
23
-352.2666592811
0
ENDBLK
5
21E
100
AcDbEntity
8
0
100
AcDbBlockEnd
0
ENDSEC
0
SECTION
2
ENTITIES
0
DIMENSION
5
21F
100
AcDbEntity
8
0
100
AcDbDimension
62
7
6
CONTINUOUS
2
*D0
10
-2.8410675151
20
215.1638502075
11
-202.8410675151
21
217.4138502075
70
160
3
DIMSTYLE_1
100
AcDbAlignedDimension
13
-402.8410675151
23
145.7333407189
14
-2.8410675151
24
145.7333407189
100
AcDbRotatedDimension
0
DIMENSION
5
220
100
AcDbEntity
8
0
100
AcDbDimension
62
7
6
CONTINUOUS
2
*D1
10
108.6562114553
20
-355.2666592811
11
106.4062114553
21
-110.2666592811
70
160
3
DIMSTYLE_1
100
AcDbAlignedDimension
13
8.1589324849
23
134.7333407189
14
8.1589324849
24
-355.2666592811
50
270.000000
100
AcDbRotatedDimension
0
LINE
5
221
100
AcDbEntity
8
0
100
AcDbLine
62
7
6
CONTINUOUS
10
-531.6410675151
20
-111.2666592811
11
-531.6410675151
21
-109.2666592811
0
LINE
5
222
100
AcDbEntity
8
0
100
AcDbLine
62
7
6
CONTINUOUS
10
-529.9410675151
20
-111.2666592811
11
-529.9410675151
21
-109.2666592811
0
LINE
5
223
100
AcDbEntity
8
0
100
AcDbLine
62
7
6
CONTINUOUS
10
-525.3910675151
20
-111.2666592811
11
-525.3910675151
21
-109.2666592811
0
LINE
5
224
100
AcDbEntity
8
0
100
AcDbLine
62
7
6
CONTINUOUS
10
-517.8910675151
20
-111.2666592811
11
-517.8910675151
21
-109.2666592811
0
LINE
5
225
100
AcDbEntity
8
0
100
AcDbLine
62
7
6
CONTINUOUS
10
-512.8410675151
20
-111.2666592811
11
-512.8410675151
21
-109.2666592811
0
LINE
5
226
100
AcDbEntity
8
0
100
AcDbLine
62
7
6
CONTINUOUS
10
-511.2710675151
20
-111.2666592811
11
-511.2710675151
21
-109.2666592811
0
LINE
5
227
100
AcDbEntity
8
0
100
AcDbLine
62
9
6
CONTINUOUS
10
-90.3735507366
20
-425.0759210260
11
-100.3085842937
21
-425.0759210260
0
LINE
5
228
100
AcDbEntity
8
0
100
AcDbLine
62
9
6
CONTINUOUS
10
-305.3735507366
20
-425.0759210260
11
-315.3085842937
21
-425.0759210260
0
LINE
5
229
100
AcDbEntity
8
0
100
AcDbLine
62
7
6
CONTINUOUS
10
-82.8410675151
20
-424.7666592811
11
-322.8410675151
21
-424.7666592811
0
LINE
5
22A
100
AcDbEntity
8
0
100
AcDbLine
62
7
6
CONTINUOUS
10
-500.8410675151
20
-423.2666592811
11
95.1589324849
21
-423.2666592811
0
LINE
5
22B
100
AcDbEntity
8
0
100
AcDbLine
62
9
6
CONTINUOUS
10
-501.2495001428
20
-421.3582266534
11
-502.7495001428
21
-421.3582266534
0
LINE
5
22C
100
AcDbEntity
8
0
100
AcDbLine
62
9
6
CONTINUOUS
10
-500.8410675151
20
-421.2666592811
11
95.1589324849
21
-421.2666592811
0
LINE
5
22D
100
AcDbEntity
8
0
100
AcDbLine
62
9
6
CONTINUOUS
10
95.6589324849
20
-421.2666592811
11
97.1589324849
21
-421.2666592811
0
LINE
5
22E
100
AcDbEntity
8
0
100
AcDbLine
62
7
6
CONTINUOUS
10
-509.8410675151
20
-111.2666592811
11
-509.8410675151
21
-109.2666592811
0
LINE
5
22F
100
AcDbEntity
8
0
100
AcDbLine
62
7
6
CONTINUOUS
10
-506.9410675151
20
-100.7666592811
11
-506.9410675151
21
-119.7666592811
0
LINE
5
230
100
AcDbEntity
8
0
100
AcDbLine
62
7
6
CONTINUOUS
10
-505.3410675151
20
-99.2666592811
11
-505.3410675151
21
-121.2666592811
0
LINE
5
231
100
AcDbEntity
8
0
100
AcDbLine
62
7
6
CONTINUOUS
10
-502.8410675151
20
200.7333407189
11
-502.8410675151
21
164.7333407189
0
LINE
5
232
100
AcDbEntity
8
0
100
AcDbLine
62
7
6
CONTINUOUS
10
-502.8410675151
20
161.1979425555
11
-502.8410675151
21
-381.7312611177
0
LINE
5
233
100
AcDbEntity
8
0
100
AcDbLine
62
7
6
CONTINUOUS
10
-502.7495001428
20
-385.2143929613
11
-502.7495001428
21
-421.3582266534
0
LINE
5
234
100
AcDbEntity
8
0
100
AcDbLine
62
7
6
CONTINUOUS
10
-501.3410675151
20
200.7333407189
11
-501.3410675151
21
164.7333407189
0
LINE
5
235
100
AcDbEntity
8
0
100
AcDbLine
62
7
6
CONTINUOUS
10
-501.2495001428
20
-385.2143929613
11
-501.2495001428
21
-421.3582266534
0
LINE
5
236
100
AcDbEntity
8
0
100
AcDbLine
62
7
6
CONTINUOUS
10
-500.8410675151
20
-423.2666592811
11
-500.8410675151
21
-383.2666592811
0
LINE
5
237
100
AcDbEntity
8
0
100
AcDbLine
62
7
6
CONTINUOUS
10
-500.8410675151
20
162.7333407189
11
-500.8410675151
21
202.7333407189
0
LINE
5
238
100
AcDbEntity
8
0
100
AcDbLine
62
9
6
CONTINUOUS
10
-500.8410675151
20
162.7333407189
11
-500.8410675151
21
-383.2666592811
0
LINE
5
239
100
AcDbEntity
8
0
100
AcDbLine
62
7
6
CONTINUOUS
10
95.6589324849
20
-385.2666592811
11
97.1589324849
21
-385.2666592811
0
LINE
5
23A
100
AcDbEntity
8
0
100
AcDbLine
62
7
6
CONTINUOUS
10
-501.2495001428
20
-385.2143929613
11
-502.7495001428
21
-385.2143929613
0
LINE
5
23B
100
AcDbEntity
8
0
100
AcDbLine
62
9
6
CONTINUOUS
10
-500.8410675151
20
-383.2666592811
11
95.1589324849
21
-383.2666592811
0
LINE
5
23C
100
AcDbEntity
8
0
100
AcDbLine
62
7
6
CONTINUOUS
10
100.6582509421
20
-360.2666592811
11
97.1589324849
21
-360.2666592811
0
LINE
5
23D
100
AcDbEntity
8
0
100
AcDbLine
62
7
6
CONTINUOUS
10
-403.5835675151
20
-355.2666592811
11
-402.0985675151
21
-355.2666592811
0
LINE
5
23E
100
AcDbEntity
8
DEFAULT_1
100
AcDbLine
62
7
6
CENTER
10
-399.1285675151
20
-355.2666592811
11
-392.3410675151
21
-355.2666592811
0
LINE
5
23F
100
AcDbEntity
8
0
100
AcDbLine
62
7
6
CONTINUOUS
10
-3.5835675151
20
-355.2666592811
11
-2.0985675151
21
-355.2666592811
0
LINE
5
240
100
AcDbEntity
8
DEFAULT_1
100
AcDbLine
62
7
6
CENTER
10
0.8714324849
20
-355.2666592811
11
7.6589324849
21
-355.2666592811
0
LINE
5
241
100
AcDbEntity
8
DEFAULT_1
100
AcDbLine
62
7
6
CENTER
10
-6.5535675151
20
-355.2666592811
11
-13.3410675151
21
-355.2666592811
0
LINE
5
242
100
AcDbEntity
8
DEFAULT_1
100
AcDbLine
62
7
6
CENTER
10
-406.5535675151
20
-355.2666592811
11
-413.3410675151
21
-355.2666592811
0
LINE
5
243
100
AcDbEntity
8
0
100
AcDbLine
62
7
6
CONTINUOUS
10
-506.9410675151
20
-100.7666592811
11
-505.3410675151
21
-99.2666592811
0
LINE
5
244
100
AcDbEntity
8
0
100
AcDbLine
62
7
6
CONTINUOUS
10
100.6582509421
20
-330.2666592811
11
97.1589324849
21
-330.2666592811
0
LINE
5
245
100
AcDbEntity
8
0
100
AcDbLine
62
7
6
CONTINUOUS
10
-506.9410675151
20
-119.7666592811
11
-505.3410675151
21
-121.2666592811
0
LINE
5
246
100
AcDbEntity
8
0
100
AcDbLine
62
7
6
CONTINUOUS
10
-406.3410675151
20
148.7333407189
11
-406.3410675151
21
143.0249026948
0
LINE
5
247
100
AcDbEntity
8
0
100
AcDbLine
62
7
6
CONTINUOUS
10
-406.3410675151
20
126.4417787430
11
-406.3410675151
21
120.7333407189
0
LINE
5
248
100
AcDbEntity
8
0
100
AcDbLine
62
7
6
CONTINUOUS
10
-406.3410675151
20
-341.2666592811
11
-406.3410675151
21
-346.9750973052
0
LINE
5
249
100
AcDbEntity
8
0
100
AcDbLine
62
7
6
CONTINUOUS
10
-406.3410675151
20
-363.5582212570
11
-406.3410675151
21
-369.2666592811
0
LINE
5
24A
100
AcDbEntity
8
0
100
AcDbLine
62
7
6
CONTINUOUS
10
-402.8410675151
20
-356.0091592811
11
-402.8410675151
21
-354.5241592811
0
LINE
5
24B
100
AcDbEntity
8
DEFAULT_1
100
AcDbLine
62
7
6
CENTER
10
-402.8410675151
20
-351.5541592811
11
-402.8410675151
21
-344.7666592811
0
LINE
5
24C
100
AcDbEntity
8
0
100
AcDbLine
62
7
6
CONTINUOUS
10
-402.8410675151
20
135.4758407189
11
-402.8410675151
21
133.9908407189
0
LINE
5
24D
100
AcDbEntity
8
DEFAULT_1
100
AcDbLine
62
7
6
CENTER
10
-402.8410675151
20
131.0208407189
11
-402.8410675151
21
124.2333407189
0
LINE
5
24E
100
AcDbEntity
8
DEFAULT_1
100
AcDbLine
62
7
6
CENTER
10
-402.8410675151
20
138.4458407189
11
-402.8410675151
21
145.2333407189
0
LINE
5
24F
100
AcDbEntity
8
DEFAULT_1
100
AcDbLine
62
7
6
CENTER
10
-402.8410675151
20
-358.9791592811
11
-402.8410675151
21
-365.7666592811
0
LINE
5
250
100
AcDbEntity
8
0
100
AcDbLine
62
7
6
CONTINUOUS
10
-399.3410675151
20
-369.2666592811
11
-399.3410675151
21
-363.5582212570
0
LINE
5
251
100
AcDbEntity
8
0
100
AcDbLine
62
7
6
CONTINUOUS
10
-399.3410675151
20
-346.9750973052
11
-399.3410675151
21
-341.2666592811
0
LINE
5
252
100
AcDbEntity
8
0
100
AcDbLine
62
7
6
CONTINUOUS
10
-399.3410675151
20
120.7333407189
11
-399.3410675151
21
126.4417787430
0
LINE
5
253
100
AcDbEntity
8
0
100
AcDbLine
62
7
6
CONTINUOUS
10
-399.3410675151
20
143.0249026948
11
-399.3410675151
21
148.7333407189
0
LINE
5
254
100
AcDbEntity
8
0
100
AcDbLine
62
9
6
CONTINUOUS
10
-308.5101968194
20
206.9105552039
11
-308.5100320666
21
206.9110598442
0
LINE
5
255
100
AcDbEntity
8
0
100
AcDbLine
62
7
6
CONTINUOUS
10
100.6582509421
20
-300.2666592811
11
97.1589324849
21
-300.2666592811
0
LINE
5
256
100
AcDbEntity
8
0
100
AcDbLine
62
9
6
CONTINUOUS
10
-308.5101981207
20
-427.4438697808
11
-308.5100330757
21
-427.4443753203
0
LINE
5
257
100
AcDbEntity
8
0
100
AcDbLine
62
7
6
CONTINUOUS
10
100.6582509421
20
-270.2666592811
11
97.1589324849
21
-270.2666592811
0
LINE
5
258
100
AcDbEntity
8
0
100
AcDbLine
62
9
6
CONTINUOUS
10
-309.6290622384
20
207.1587321719
11
-309.6289981702
21
207.1592591305
0
LINE
5
259
100
AcDbEntity
8
0
100
AcDbLine
62
7
6
CONTINUOUS
10
100.6582509421
20
-240.2666592811
11
97.1589324849
21
-240.2666592811
0
LINE
5
25A
100
AcDbEntity
8
0
100
AcDbLine
62
9
6
CONTINUOUS
10
-309.6290622404
20
-427.6920507174
11
-309.6289981700
21
-427.6925776892
0
LINE
5
25B
100
AcDbEntity
8
0
100
AcDbLine
62
9
6
CONTINUOUS
10
-310.0359228055
20
-427.3602239122
11
-310.0355526602
21
-427.3669276141
0
LINE
5
25C
100
AcDbEntity
8
0
100
AcDbLine
62
7
6
CONTINUOUS
10
-322.8410675151
20
-424.7666592811
11
-322.8410675151
21
-423.2666592811
0
LINE
5
25D
100
AcDbEntity
8
0
100
AcDbLine
62
7
6
CONTINUOUS
10
-322.8410675151
20
204.2333407189
11
-322.8410675151
21
202.7333407189
0
LINE
5
25E
100
AcDbEntity
8
0
100
AcDbLine
62
9
6
CONTINUOUS
10
-319.8410675151
20
-424.7666592811
11
-319.8410675151
21
-423.2666592811
0
LINE
5
25F
100
AcDbEntity
8
0
100
AcDbLine
62
9
6
CONTINUOUS
10
-319.8410675151
20
204.2333407189
11
-319.8410675151
21
202.7333407189
0
LINE
5
260
100
AcDbEntity
8
0
100
AcDbLine
62
7
6
CONTINUOUS
10
-310.8410675151
20
-427.5933087273
11
-310.8410675151
21
-427.3854028800
0
LINE
5
261
100
AcDbEntity
8
0
100
AcDbLine
62
7
6
CONTINUOUS
10
-310.8410675151
20
206.8520748791
11
-310.8410675151
21
207.0599901652
0
LINE
5
262
100
AcDbEntity
8
0
100
AcDbLine
62
7
6
CONTINUOUS
10
-309.8410675151
20
207.0599901652
11
-309.8410675151
21
206.8520843178
0
LINE
5
263
100
AcDbEntity
8
0
100
AcDbLine
62
7
6
CONTINUOUS
10
-309.8410675151
20
-427.3853934413
11
-309.8410675151
21
-427.5933087273
0
LINE
5
264
100
AcDbEntity
8
0
100
AcDbLine
62
9
6
CONTINUOUS
10
-310.0359223979
20
206.8269127340
11
-310.0355522768
21
206.8336133957
0
LINE
5
265
100
AcDbEntity
8
0
100
AcDbLine
62
7
6
CONTINUOUS
10
100.6582509421
20
-210.2666592811
11
97.1589324849
21
-210.2666592811
0
LINE
5
266
100
AcDbEntity
8
0
100
AcDbLine
62
9
6
CONTINUOUS
10
-310.6462122248
20
206.8269053500
11
-310.6465823701
21
206.8336090520
0
LINE
5
267
100
AcDbEntity
8
0
100
AcDbLine
62
9
6
CONTINUOUS
10
-310.6462126324
20
-427.3602312962
11
-310.6465827535
21
-427.3669319579
0
LINE
5
268
100
AcDbEntity
8
0
100
AcDbLine
62
9
6
CONTINUOUS
10
-311.0530727919
20
-427.6920507341
11
-311.0531368601
21
-427.6925776927
0
LINE
5
269
100
AcDbEntity
8
0
100
AcDbLine
62
7
6
CONTINUOUS
10
97.1589324849
20
-180.2666592811
11
100.6582509421
21
-180.2666592811
0
LINE
5
26A
100
AcDbEntity
8
0
100
AcDbLine
62
9
6
CONTINUOUS
10
-311.0530727899
20
207.1587321552
11
-311.0531368603
21
207.1592591271
0
LINE
5
26B
100
AcDbEntity
8
0
100
AcDbLine
62
7
6
CONTINUOUS
10
-505.3410675151
20
-121.2666592811
11
-502.8410675151
21
-121.2666592811
0
LINE
5
26C
100
AcDbEntity
8
0
100
AcDbLine
62
7
6
CONTINUOUS
10
-531.6410675151
20
-111.2666592811
11
-506.9410675151
21
-111.2666592811
0
LINE
5
26D
100
AcDbEntity
8
0
100
AcDbLine
62
7
6
CONTINUOUS
10
-531.6410675151
20
-109.2666592811
11
-506.9410675151
21
-109.2666592811
0
LINE
5
26E
100
AcDbEntity
8
0
100
AcDbLine
62
9
6
CONTINUOUS
10
-312.1719382108
20
-427.4438737660
11
-312.1721029637
21
-427.4443784063
0
LINE
5
26F
100
AcDbEntity
8
0
100
AcDbLine
62
9
6
CONTINUOUS
10
-93.5101968194
20
206.9105552039
11
-93.5100320666
21
206.9110598442
0
LINE
5
270
100
AcDbEntity
8
0
100
AcDbLine
62
7
6
CONTINUOUS
10
-505.3410675151
20
-99.2666592811
11
-502.8410675151
21
-99.2666592811
0
LINE
5
271
100
AcDbEntity
8
0
100
AcDbLine
62
9
6
CONTINUOUS
10
-312.1719369096
20
206.9105512186
11
-312.1721019545
21
206.9110567582
0
LINE
5
272
100
AcDbEntity
8
0
100
AcDbLine
62
9
6
CONTINUOUS
10
-93.5101981207
20
-427.4438697808
11
-93.5100330757
21
-427.4443753203
0
LINE
5
273
100
AcDbEntity
8
0
100
AcDbLine
62
9
6
CONTINUOUS
10
-94.6290622384
20
207.1587321719
11
-94.6289981702
21
207.1592591305
0
LINE
5
274
100
AcDbEntity
8
0
100
AcDbLine
62
7
6
CONTINUOUS
10
100.6582509421
20
-40.2666592811
11
97.1589324849
21
-40.2666592811
0
LINE
5
275
100
AcDbEntity
8
0
100
AcDbLine
62
9
6
CONTINUOUS
10
-94.6290622404
20
-427.6920507174
11
-94.6289981700
21
-427.6925776892
0
LINE
5
276
100
AcDbEntity
8
0
100
AcDbLine
62
9
6
CONTINUOUS
10
-95.0359228055
20
-427.3602239122
11
-95.0355526602
21
-427.3669276141
0
LINE
5
277
100
AcDbEntity
8
0
100
AcDbLine
62
7
6
CONTINUOUS
10
-95.8410675151
20
-427.5933087273
11
-95.8410675151
21
-427.3854028800
0
LINE
5
278
100
AcDbEntity
8
0
100
AcDbLine
62
7
6
CONTINUOUS
10
-95.8410675151
20
206.8520748791
11
-95.8410675151
21
207.0599901652
0
LINE
5
279
100
AcDbEntity
8
0
100
AcDbLine
62
7
6
CONTINUOUS
10
-94.8410675151
20
207.0599901652
11
-94.8410675151
21
206.8520843178
0
LINE
5
27A
100
AcDbEntity
8
0
100
AcDbLine
62
7
6
CONTINUOUS
10
-94.8410675151
20
-427.3853934413
11
-94.8410675151
21
-427.5933087273
0
LINE
5
27B
100
AcDbEntity
8
0
100
AcDbLine
62
9
6
CONTINUOUS
10
-95.0359223979
20
206.8269127340
11
-95.0355522768
21
206.8336133957
0
LINE
5
27C
100
AcDbEntity
8
0
100
AcDbLine
62
7
6
CONTINUOUS
10
100.6582509421
20
-10.2666592811
11
97.1589324849
21
-10.2666592811
0
LINE
5
27D
100
AcDbEntity
8
0
100
AcDbLine
62
9
6
CONTINUOUS
10
-95.6462122248
20
206.8269053500
11
-95.6465823701
21
206.8336090520
0
LINE
5
27E
100
AcDbEntity
8
0
100
AcDbLine
62
9
6
CONTINUOUS
10
-85.8410675151
20
-424.7666592811
11
-85.8410675151
21
-423.2666592811
0
LINE
5
27F
100
AcDbEntity
8
0
100
AcDbLine
62
9
6
CONTINUOUS
10
-85.8410675151
20
204.2333407189
11
-85.8410675151
21
202.7333407189
0
LINE
5
280
100
AcDbEntity
8
0
100
AcDbLine
62
7
6
CONTINUOUS
10
-82.8410675151
20
-424.7666592811
11
-82.8410675151
21
-423.2666592811
0
LINE
5
281
100
AcDbEntity
8
0
100
AcDbLine
62
7
6
CONTINUOUS
10
-82.8410675151
20
204.2333407189
11
-82.8410675151
21
202.7333407189
0
LINE
5
282
100
AcDbEntity
8
0
100
AcDbLine
62
9
6
CONTINUOUS
10
-95.6462126324
20
-427.3602312962
11
-95.6465827535
21
-427.3669319579
0
LINE
5
283
100
AcDbEntity
8
0
100
AcDbLine
62
7
6
CONTINUOUS
10
100.6582509421
20
19.7333407189
11
97.1589324849
21
19.7333407189
0
LINE
5
284
100
AcDbEntity
8
0
100
AcDbLine
62
9
6
CONTINUOUS
10
-96.0530727919
20
-427.6920507341
11
-96.0531368601
21
-427.6925776927
0
LINE
5
285
100
AcDbEntity
8
0
100
AcDbLine
62
7
6
CONTINUOUS
10
100.6582509421
20
49.7333407189
11
97.1589324849
21
49.7333407189
0
LINE
5
286
100
AcDbEntity
8
0
100
AcDbLine
62
9
6
CONTINUOUS
10
-96.0530727899
20
207.1587321552
11
-96.0531368603
21
207.1592591271
0
LINE
5
287
100
AcDbEntity
8
0
100
AcDbLine
62
7
6
CONTINUOUS
10
-6.3410675151
20
148.7333407189
11
-6.3410675151
21
143.0249026948
0
LINE
5
288
100
AcDbEntity
8
0
100
AcDbLine
62
7
6
CONTINUOUS
10
-6.3410675151
20
126.4417787430
11
-6.3410675151
21
120.7333407189
0
LINE
5
289
100
AcDbEntity
8
0
100
AcDbLine
62
7
6
CONTINUOUS
10
-6.3410675151
20
-341.2666592811
11
-6.3410675151
21
-346.9750973052
0
LINE
5
28A
100
AcDbEntity
8
0
100
AcDbLine
62
7
6
CONTINUOUS
10
-6.3410675151
20
-363.5582212570
11
-6.3410675151
21
-369.2666592811
0
LINE
5
28B
100
AcDbEntity
8
0
100
AcDbLine
62
7
6
CONTINUOUS
10
-2.8410675151
20
-356.0091592811
11
-2.8410675151
21
-354.5241592811
0
LINE
5
28C
100
AcDbEntity
8
DEFAULT_1
100
AcDbLine
62
7
6
CENTER
10
-2.8410675151
20
-351.5541592811
11
-2.8410675151
21
-344.7666592811
0
LINE
5
28D
100
AcDbEntity
8
0
100
AcDbLine
62
7
6
CONTINUOUS
10
-2.8410675151
20
135.4758407189
11
-2.8410675151
21
133.9908407189
0
LINE
5
28E
100
AcDbEntity
8
DEFAULT_1
100
AcDbLine
62
7
6
CENTER
10
-2.8410675151
20
131.0208407189
11
-2.8410675151
21
124.2333407189
0
LINE
5
28F
100
AcDbEntity
8
DEFAULT_1
100
AcDbLine
62
7
6
CENTER
10
-2.8410675151
20
138.4458407189
11
-2.8410675151
21
145.2333407189
0
LINE
5
290
100
AcDbEntity
8
DEFAULT_1
100
AcDbLine
62
7
6
CENTER
10
-2.8410675151
20
-358.9791592811
11
-2.8410675151
21
-365.7666592811
0
LINE
5
291
100
AcDbEntity
8
0
100
AcDbLine
62
9
6
CONTINUOUS
10
-97.1719382108
20
-427.4438737660
11
-97.1721029637
21
-427.4443784063
0
LINE
5
292
100
AcDbEntity
8
0
100
AcDbLine
62
7
6
CONTINUOUS
10
100.6582509421
20
79.7333407189
11
97.1589324849
21
79.7333407189
0
LINE
5
293
100
AcDbEntity
8
0
100
AcDbLine
62
9
6
CONTINUOUS
10
-97.1719369096
20
206.9105512186
11
-97.1721019545
21
206.9110567582
0
LINE
5
294
100
AcDbEntity
8
0
100
AcDbLine
62
7
6
CONTINUOUS
10
0.6589324849
20
-369.2666592811
11
0.6589324849
21
-363.5582212570
0
LINE
5
295
100
AcDbEntity
8
0
100
AcDbLine
62
7
6
CONTINUOUS
10
0.6589324849
20
-346.9750973052
11
0.6589324849
21
-341.2666592811
0
LINE
5
296
100
AcDbEntity
8
0
100
AcDbLine
62
7
6
CONTINUOUS
10
0.6589324849
20
120.7333407189
11
0.6589324849
21
126.4417787430
0
LINE
5
297
100
AcDbEntity
8
0
100
AcDbLine
62
7
6
CONTINUOUS
10
0.6589324849
20
143.0249026948
11
0.6589324849
21
148.7333407189
0
LINE
5
298
100
AcDbEntity
8
0
100
AcDbLine
62
7
6
CONTINUOUS
10
100.6582509421
20
109.7333407189
11
97.1589324849
21
109.7333407189
0
LINE
5
299
100
AcDbEntity
8
0
100
AcDbLine
62
7
6
CONTINUOUS
10
-403.5835675151
20
134.7333407189
11
-402.0985675151
21
134.7333407189
0
LINE
5
29A
100
AcDbEntity
8
DEFAULT_1
100
AcDbLine
62
7
6
CENTER
10
-399.1285675151
20
134.7333407189
11
-392.3410675151
21
134.7333407189
0
LINE
5
29B
100
AcDbEntity
8
0
100
AcDbLine
62
7
6
CONTINUOUS
10
-3.5835675151
20
134.7333407189
11
-2.0985675151
21
134.7333407189
0
LINE
5
29C
100
AcDbEntity
8
DEFAULT_1
100
AcDbLine
62
7
6
CENTER
10
0.8714324849
20
134.7333407189
11
7.6589324849
21
134.7333407189
0
LINE
5
29D
100
AcDbEntity
8
DEFAULT_1
100
AcDbLine
62
7
6
CENTER
10
-6.5535675151
20
134.7333407189
11
-13.3410675151
21
134.7333407189
0
LINE
5
29E
100
AcDbEntity
8
DEFAULT_1
100
AcDbLine
62
7
6
CENTER
10
-406.5535675151
20
134.7333407189
11
-413.3410675151
21
134.7333407189
0
LINE
5
29F
100
AcDbEntity
8
0
100
AcDbLine
62
7
6
CONTINUOUS
10
97.1589324849
20
139.7333407189
11
100.6582509421
21
139.7333407189
0
LINE
5
2A0
100
AcDbEntity
8
0
100
AcDbLine
62
9
6
CONTINUOUS
10
-500.8410675151
20
162.7333407189
11
95.1589324849
21
162.7333407189
0
LINE
5
2A1
100
AcDbEntity
8
0
100
AcDbLine
62
7
6
CONTINUOUS
10
95.6589324849
20
164.7333407189
11
97.1589324849
21
164.7333407189
0
LINE
5
2A2
100
AcDbEntity
8
0
100
AcDbLine
62
7
6
CONTINUOUS
10
-501.3410675151
20
164.7333407189
11
-502.8410675151
21
164.7333407189
0
LINE
5
2A3
100
AcDbEntity
8
0
100
AcDbLine
62
7
6
CONTINUOUS
10
95.1589324849
20
-423.2666592811
11
95.1589324849
21
-383.2666592811
0
LINE
5
2A4
100
AcDbEntity
8
0
100
AcDbLine
62
7
6
CONTINUOUS
10
95.1589324849
20
162.7333407189
11
95.1589324849
21
202.7333407189
0
LINE
5
2A5
100
AcDbEntity
8
0
100
AcDbLine
62
9
6
CONTINUOUS
10
95.1589324849
20
162.7333407189
11
95.1589324849
21
-383.2666592811
0
LINE
5
2A6
100
AcDbEntity
8
0
100
AcDbLine
62
7
6
CONTINUOUS
10
95.6589324849
20
-421.2666592811
11
95.6589324849
21
-385.2666592811
0
LINE
5
2A7
100
AcDbEntity
8
0
100
AcDbLine
62
7
6
CONTINUOUS
10
95.6589324849
20
164.7333407189
11
95.6589324849
21
200.7333407189
0
LINE
5
2A8
100
AcDbEntity
8
0
100
AcDbLine
62
7
6
CONTINUOUS
10
97.1589324849
20
-421.2666592811
11
97.1589324849
21
-385.2666592811
0
LINE
5
2A9
100
AcDbEntity
8
0
100
AcDbLine
62
7
6
CONTINUOUS
10
97.1589324849
20
161.1979425555
11
97.1589324849
21
-381.7312611177
0
LINE
5
2AA
100
AcDbEntity
8
0
100
AcDbLine
62
7
6
CONTINUOUS
10
97.1589324849
20
164.7333407189
11
97.1589324849
21
200.7333407189
0
LINE
5
2AB
100
AcDbEntity
8
0
100
AcDbLine
62
7
6
CONTINUOUS
10
100.6589324849
20
-40.2666592811
11
100.6589324849
21
139.7333407189
0
LINE
5
2AC
100
AcDbEntity
8
0
100
AcDbLine
62
7
6
CONTINUOUS
10
100.6589324849
20
-180.2666592811
11
100.6589324849
21
-360.2666592811
0
LINE
5
2AD
100
AcDbEntity
8
0
100
AcDbLine
62
9
6
CONTINUOUS
10
-500.8410675151
20
200.7333407189
11
95.1589324849
21
200.7333407189
0
LINE
5
2AE
100
AcDbEntity
8
0
100
AcDbLine
62
9
6
CONTINUOUS
10
95.6589324849
20
200.7333407189
11
97.1589324849
21
200.7333407189
0
LINE
5
2AF
100
AcDbEntity
8
0
100
AcDbLine
62
9
6
CONTINUOUS
10
-501.3410675151
20
200.7333407189
11
-502.8410675151
21
200.7333407189
0
LINE
5
2B0
100
AcDbEntity
8
0
100
AcDbLine
62
7
6
CONTINUOUS
10
-500.8410675151
20
202.7333407189
11
95.1589324849
21
202.7333407189
0
LINE
5
2B1
100
AcDbEntity
8
0
100
AcDbLine
62
7
6
CONTINUOUS
10
-322.8410675151
20
204.2333407189
11
-82.8410675151
21
204.2333407189
0
LINE
5
2B2
100
AcDbEntity
8
0
100
AcDbLine
62
9
6
CONTINUOUS
10
-315.3085842937
20
204.5426024639
11
-305.3735507366
21
204.5426024639
0
LINE
5
2B3
100
AcDbEntity
8
0
100
AcDbLine
62
9
6
CONTINUOUS
10
-100.3085842937
20
204.5426024639
11
-90.3735507366
21
204.5426024639
0
ARC
5
2B4
100
AcDbEntity
8
0
100
AcDbCircle
62
7
6
CONTINUOUS
10
-312.4410675151
20
206.7420447900
40
0.1000000000
100
AcDbArc
50
74.7156395953
51
111.1099183903
0
ARC
5
2B5
100
AcDbEntity
8
0
100
AcDbCircle
62
7
6
CONTINUOUS
10
-308.2410675151
20
206.7420447900
40
0.1000000000
100
AcDbArc
50
68.8900816097
51
105.2844940467
0
ARC
5
2B6
100
AcDbEntity
8
0
100
AcDbCircle
62
7
6
CONTINUOUS
10
-310.3410675151
20
201.3025714882
40
5.9307692308
100
AcDbArc
50
33.1141427513
51
68.8900812184
0
ARC
5
2B7
100
AcDbEntity
8
0
100
AcDbCircle
62
7
6
CONTINUOUS
10
-310.3410675151
20
201.3025714882
40
5.9307692308
100
AcDbArc
50
111.1099187816
51
146.8858572487
0
ARC
5
2B8
100
AcDbEntity
8
0
100
AcDbCircle
62
7
6
CONTINUOUS
10
-305.5410675151
20
204.4333407189
40
0.2000000000
100
AcDbArc
50
270.0000000000
51
33.1141427513
0
ARC
5
2B9
100
AcDbEntity
8
0
100
AcDbCircle
62
7
6
CONTINUOUS
10
-315.1410675151
20
204.4333407189
40
0.2000000000
100
AcDbArc
50
146.8858572487
51
270.0000000000
0
ARC
5
2BA
100
AcDbEntity
8
0
100
AcDbCircle
62
7
6
CONTINUOUS
10
-308.2410675151
20
-427.2753633522
40
0.1000000000
100
AcDbArc
50
254.7156395953
51
291.1099183904
0
ARC
5
2BB
100
AcDbEntity
8
0
100
AcDbCircle
62
7
6
CONTINUOUS
10
-312.4410675151
20
-427.2753633522
40
0.1000000000
100
AcDbArc
50
248.8900816096
51
285.2844940467
0
ARC
5
2BC
100
AcDbEntity
8
0
100
AcDbCircle
62
7
6
CONTINUOUS
10
-310.3410675151
20
-421.8358900503
40
5.9307692308
100
AcDbArc
50
213.1141427513
51
248.8900812184
0
ARC
5
2BD
100
AcDbEntity
8
0
100
AcDbCircle
62
7
6
CONTINUOUS
10
-310.3410675151
20
-421.8358900503
40
5.9307692308
100
AcDbArc
50
291.1099187816
51
326.8858572487
0
ARC
5
2BE
100
AcDbEntity
8
0
100
AcDbCircle
62
7
6
CONTINUOUS
10
-315.1410675151
20
-424.9666592811
40
0.2000000000
100
AcDbArc
50
90.0000000000
51
213.1141427513
0
ARC
5
2BF
100
AcDbEntity
8
0
100
AcDbCircle
62
7
6
CONTINUOUS
10
-305.5410675151
20
-424.9666592811
40
0.2000000000
100
AcDbArc
50
326.8858572487
51
90.0000000000
0
ARC
5
2C0
100
AcDbEntity
8
0
100
AcDbCircle
62
7
6
CONTINUOUS
10
-97.4410675151
20
206.7420447900
40
0.1000000000
100
AcDbArc
50
74.7156395953
51
111.1099183904
0
ARC
5
2C1
100
AcDbEntity
8
0
100
AcDbCircle
62
7
6
CONTINUOUS
10
-93.2410675151
20
206.7420447900
40
0.1000000000
100
AcDbArc
50
68.8900816096
51
105.2844940467
0
ARC
5
2C2
100
AcDbEntity
8
0
100
AcDbCircle
62
7
6
CONTINUOUS
10
-95.3410675151
20
201.3025714882
40
5.9307692308
100
AcDbArc
50
33.1141427513
51
68.8900812184
0
ARC
5
2C3
100
AcDbEntity
8
0
100
AcDbCircle
62
7
6
CONTINUOUS
10
-95.3410675151
20
201.3025714882
40
5.9307692308
100
AcDbArc
50
111.1099187816
51
146.8858572487
0
ARC
5
2C4
100
AcDbEntity
8
0
100
AcDbCircle
62
7
6
CONTINUOUS
10
-90.5410675151
20
204.4333407189
40
0.2000000000
100
AcDbArc
50
270.0000000000
51
33.1141427513
0
ARC
5
2C5
100
AcDbEntity
8
0
100
AcDbCircle
62
7
6
CONTINUOUS
10
-100.1410675151
20
204.4333407189
40
0.2000000000
100
AcDbArc
50
146.8858572487
51
270.0000000000
0
ARC
5
2C6
100
AcDbEntity
8
0
100
AcDbCircle
62
7
6
CONTINUOUS
10
-93.2410675151
20
-427.2753633522
40
0.1000000000
100
AcDbArc
50
254.7156395953
51
291.1099183904
0
ARC
5
2C7
100
AcDbEntity
8
0
100
AcDbCircle
62
7
6
CONTINUOUS
10
-97.4410675151
20
-427.2753633522
40
0.1000000000
100
AcDbArc
50
248.8900816096
51
285.2844940467
0
ARC
5
2C8
100
AcDbEntity
8
0
100
AcDbCircle
62
7
6
CONTINUOUS
10
-95.3410675151
20
-421.8358900503
40
5.9307692308
100
AcDbArc
50
213.1141427513
51
248.8900812184
0
ARC
5
2C9
100
AcDbEntity
8
0
100
AcDbCircle
62
7
6
CONTINUOUS
10
-95.3410675151
20
-421.8358900503
40
5.9307692308
100
AcDbArc
50
291.1099187816
51
326.8858572487
0
ARC
5
2CA
100
AcDbEntity
8
0
100
AcDbCircle
62
7
6
CONTINUOUS
10
-100.1410675151
20
-424.9666592811
40
0.2000000000
100
AcDbArc
50
90.0000000000
51
213.1141427513
0
ARC
5
2CB
100
AcDbEntity
8
0
100
AcDbCircle
62
7
6
CONTINUOUS
10
-90.5410675151
20
-424.9666592811
40
0.2000000000
100
AcDbArc
50
326.8858572487
51
90.0000000000
0
ARC
5
2CC
100
AcDbEntity
8
0
100
AcDbCircle
62
7
6
CONTINUOUS
10
-500.8410675151
20
164.7333407189
40
0.5000000000
100
AcDbArc
50
179.9999999998
51
270.0000000000
0
ARC
5
2CD
100
AcDbEntity
8
0
100
AcDbCircle
62
7
6
CONTINUOUS
10
95.1589324849
20
164.7333407189
40
0.5000000000
100
AcDbArc
50
270.0000000000
51
360.0000000000
0
ARC
5
2CE
100
AcDbEntity
8
0
100
AcDbCircle
62
7
6
CONTINUOUS
10
-500.8410675151
20
-385.1750919087
40
0.4084326277
100
AcDbArc
50
90.0000000000
51
180.0000000002
0
ARC
5
2CF
100
AcDbEntity
8
0
100
AcDbCircle
62
7
6
CONTINUOUS
10
95.1589324849
20
-385.2666592811
40
0.5000000000
100
AcDbArc
50
0.0000000000
51
90.0000000000
0
ARC
5
2D0
100
AcDbEntity
8
0
100
AcDbCircle
62
7
6
CONTINUOUS
10
-500.8410675151
20
200.7333407189
40
0.5000000000
100
AcDbArc
50
90.0000000000
51
180.0000000000
0
ARC
5
2D1
100
AcDbEntity
8
0
100
AcDbCircle
62
7
6
CONTINUOUS
10
95.1589324849
20
200.7333407189
40
0.5000000000
100
AcDbArc
50
0.0000000000
51
90.0000000000
0
ARC
5
2D2
100
AcDbEntity
8
0
100
AcDbCircle
62
7
6
CONTINUOUS
10
-500.8410675151
20
-421.3582266534
40
0.4084326277
100
AcDbArc
50
180.0000000000
51
270.0000000000
0
ARC
5
2D3
100
AcDbEntity
8
0
100
AcDbCircle
62
7
6
CONTINUOUS
10
95.1589324849
20
-421.2666592811
40
0.5000000000
100
AcDbArc
50
270.0000000000
51
360.0000000000
0
ARC
5
2D4
100
AcDbEntity
8
0
100
AcDbCircle
62
7
6
CONTINUOUS
10
-2.8410675151
20
148.7333407189
40
3.5000000000
100
AcDbArc
50
0.0000000000
51
180.0000000000
0
ARC
5
2D5
100
AcDbEntity
8
0
100
AcDbCircle
62
7
6
CONTINUOUS
10
-2.8410675151
20
134.7333407189
40
9.0000000000
100
AcDbArc
50
292.8853804762
51
67.1146195238
0
ARC
5
2D6
100
AcDbEntity
8
0
100
AcDbCircle
62
7
6
CONTINUOUS
10
-2.8410675151
20
120.7333407189
40
3.5000000000
100
AcDbArc
50
180.0000000000
51
360.0000000000
0
ARC
5
2D7
100
AcDbEntity
8
0
100
AcDbCircle
62
7
6
CONTINUOUS
10
-2.8410675151
20
134.7333407189
40
9.0000000000
100
AcDbArc
50
112.8853804762
51
247.1146195238
0
ARC
5
2D8
100
AcDbEntity
8
0
100
AcDbCircle
62
7
6
CONTINUOUS
10
-402.8410675151
20
134.7333407189
40
9.0000000000
100
AcDbArc
50
292.8853804762
51
67.1146195238
0
ARC
5
2D9
100
AcDbEntity
8
0
100
AcDbCircle
62
7
6
CONTINUOUS
10
-402.8410675151
20
120.7333407189
40
3.5000000000
100
AcDbArc
50
180.0000000000
51
360.0000000000
0
ARC
5
2DA
100
AcDbEntity
8
0
100
AcDbCircle
62
7
6
CONTINUOUS
10
-402.8410675151
20
134.7333407189
40
9.0000000000
100
AcDbArc
50
112.8853804762
51
247.1146195238
0
ARC
5
2DB
100
AcDbEntity
8
0
100
AcDbCircle
62
7
6
CONTINUOUS
10
-402.8410675151
20
148.7333407189
40
3.5000000000
100
AcDbArc
50
0.0000000000
51
180.0000000000
0
ARC
5
2DC
100
AcDbEntity
8
0
100
AcDbCircle
62
7
6
CONTINUOUS
10
-2.8410675151
20
-355.2666592811
40
9.0000000000
100
AcDbArc
50
112.8853804762
51
247.1146195238
0
ARC
5
2DD
100
AcDbEntity
8
0
100
AcDbCircle
62
7
6
CONTINUOUS
10
-2.8410675151
20
-341.2666592811
40
3.5000000000
100
AcDbArc
50
0.0000000000
51
180.0000000000
0
ARC
5
2DE
100
AcDbEntity
8
0
100
AcDbCircle
62
7
6
CONTINUOUS
10
-2.8410675151
20
-355.2666592811
40
9.0000000000
100
AcDbArc
50
292.8853804762
51
67.1146195238
0
ARC
5
2DF
100
AcDbEntity
8
0
100
AcDbCircle
62
7
6
CONTINUOUS
10
-2.8410675151
20
-369.2666592811
40
3.5000000000
100
AcDbArc
50
180.0000000000
51
360.0000000000
0
ARC
5
2E0
100
AcDbEntity
8
0
100
AcDbCircle
62
7
6
CONTINUOUS
10
-402.8410675151
20
-369.2666592811
40
3.5000000000
100
AcDbArc
50
180.0000000000
51
360.0000000000
0
ARC
5
2E1
100
AcDbEntity
8
0
100
AcDbCircle
62
7
6
CONTINUOUS
10
-402.8410675151
20
-355.2666592811
40
9.0000000000
100
AcDbArc
50
112.8853804762
51
247.1146195238
0
ARC
5
2E2
100
AcDbEntity
8
0
100
AcDbCircle
62
7
6
CONTINUOUS
10
-500.8410675151
20
200.7333407189
40
2.0000000000
100
AcDbArc
50
90.0000000000
51
180.0000000000
0
ARC
5
2E3
100
AcDbEntity
8
0
100
AcDbCircle
62
7
6
CONTINUOUS
10
-402.8410675151
20
-341.2666592811
40
3.5000000000
100
AcDbArc
50
0.0000000000
51
180.0000000000
0
ARC
5
2E4
100
AcDbEntity
8
0
100
AcDbCircle
62
7
6
CONTINUOUS
10
-402.8410675151
20
-355.2666592811
40
9.0000000000
100
AcDbArc
50
292.8853804762
51
67.1146195238
0
ARC
5
2E5
100
AcDbEntity
8
0
100
AcDbCircle
62
7
6
CONTINUOUS
10
95.1589324849
20
200.7333407189
40
2.0000000000
100
AcDbArc
50
0.0000000000
51
90.0000000000
0
ARC
5
2E6
100
AcDbEntity
8
0
100
AcDbCircle
62
7
6
CONTINUOUS
10
-500.8410675151
20
-421.3582266534
40
1.9084326277
100
AcDbArc
50
180.0000000000
51
270.0000000000
0
ARC
5
2E7
100
AcDbEntity
8
0
100
AcDbCircle
62
7
6
CONTINUOUS
10
95.1589324849
20
-421.2666592811
40
2.0000000000
100
AcDbArc
50
270.0000000000
51
360.0000000000
0
ARC
5
2E8
100
AcDbEntity
8
0
100
AcDbCircle
62
7
6
CONTINUOUS
10
-500.8410675151
20
164.7333407189
40
2.0000000000
100
AcDbArc
50
180.0000000000
51
270.0000000000
0
ARC
5
2E9
100
AcDbEntity
8
0
100
AcDbCircle
62
7
6
CONTINUOUS
10
95.1589324849
20
164.7333407189
40
2.0000000000
100
AcDbArc
50
270.0000000000
51
360.0000000000
0
ARC
5
2EA
100
AcDbEntity
8
0
100
AcDbCircle
62
7
6
CONTINUOUS
10
-500.8410675151
20
-385.1750919087
40
1.9084326277
100
AcDbArc
50
90.0000000000
51
180.0000000000
0
ARC
5
2EB
100
AcDbEntity
8
0
100
AcDbCircle
62
7
6
CONTINUOUS
10
95.1589324849
20
-385.2666592811
40
2.0000000000
100
AcDbArc
50
0.0000000000
51
90.0000000000
0
ARC
5
2EC
100
AcDbEntity
8
0
100
AcDbCircle
62
7
6
CONTINUOUS
10
-500.8410675151
20
160.7333407189
40
2.0000000000
100
AcDbArc
50
90.0000000000
51
130.0062071991
0
ARC
5
2ED
100
AcDbEntity
8
0
100
AcDbCircle
62
7
6
CONTINUOUS
10
-500.8410675151
20
-381.2666592811
40
2.0000000000
100
AcDbArc
50
229.9937928009
51
270.0000000000
0
ARC
5
2EE
100
AcDbEntity
8
0
100
AcDbCircle
62
7
6
CONTINUOUS
10
95.1589324849
20
160.7333407189
40
2.0000000000
100
AcDbArc
50
49.9937928009
51
90.0000000000
0
ARC
5
2EF
100
AcDbEntity
8
0
100
AcDbCircle
62
7
6
CONTINUOUS
10
95.1589324849
20
-381.2666592811
40
2.0000000000
100
AcDbArc
50
270.0000000000
51
310.0062071991
0
SPLINE
5
2F0
100
AcDbEntity
8
0
100
AcDbSpline
62
7
6
CONTINUOUS
70
0
71
3
72
16
73
12
74
10
42
0.0000001000
43
0.0000001000
44
0.0000000001
12
-0.0289744044
22
0.2588793067
32
0.0000000000
13
-0.2571086795
23
-0.0312684163
33
0.0000000000
40
0.0000000000
40
0.0000000000
40
0.0000000000
40
0.0000000000
40
0.0950980898
40
0.2223386279
40
0.3380988178
40
0.4476222810
40
0.5468622451
40
0.6466093114
40
0.7654231273
40
0.9093720201
40
1.0000000000
40
1.0000000000
40
1.0000000000
40
1.0000000000
10
-310.8417060840
20
207.0711972582
30
0.0000000000
10
-310.8426245542
20
207.0794035674
30
0.0000000000
10
-310.8471023178
20
207.0984005040
30
0.0000000000
10
-310.8618221257
20
207.1241648755
30
0.0000000000
10
-310.8845440319
20
207.1450645189
30
0.0000000000
10
-310.9099127828
20
207.1577260088
30
0.0000000000
10
-310.9360577062
20
207.1636481411
30
0.0000000000
10
-310.9634962407
20
207.1653571308
30
0.0000000000
10
-310.9948018714
20
207.1646806895
30
0.0000000000
10
-311.0252342788
20
207.1623955323
30
0.0000000000
10
-311.0453699771
20
207.1602053491
30
0.0000000000
10
-311.0531370572
20
207.1592607513
30
0.0000000000
11
-310.8417060840
21
207.0711972582
31
0.0000000000
11
-310.8474066889
21
207.0952784585
31
0.0000000000
11
-310.8637156196
21
207.1239125442
31
0.0000000000
11
-310.8857619635
21
207.1442285538
31
0.0000000000
11
-310.9110943685
21
207.1569883990
31
0.0000000000
11
-310.9360935805
21
207.1629544886
31
0.0000000000
11
-310.9618509178
21
207.1649248529
31
0.0000000000
11
-310.9926182245
21
207.1644804395
31
0.0000000000
11
-311.0298015572
21
207.1617971865
31
0.0000000000
11
-311.0531370572
21
207.1592607513
31
0.0000000000
0
SPLINE
5
2F1
100
AcDbEntity
8
0
100
AcDbSpline
62
7
6
CONTINUOUS
70
0
71
3
72
17
73
13
74
11
42
0.0000001000
43
0.0000001000
44
0.0000000001
12
-0.2409615793
22
-0.0786737289
32
0.0000000000
13
-0.2508541122
23
-0.0616341786
33
0.0000000000
40
0.0000000000
40
0.0000000000
40
0.0000000000
40
0.0000000000
40
0.1257174119
40
0.2559316030
40
0.3801033766
40
0.4973284206
40
0.6067933816
40
0.7076507114
40
0.7992778858
40
0.8810031933
40
0.9522887015
40
1.0000000000
40
1.0000000000
40
1.0000000000
40
1.0000000000
10
-312.1721019580
20
206.9110567687
30
0.0000000000
10
-312.1821996467
20
206.9077598829
30
0.0000000000
10
-312.2027719332
20
206.9010963599
30
0.0000000000
10
-312.2333717368
20
206.8913442500
30
0.0000000000
10
-312.2633343781
20
206.8819564837
30
0.0000000000
10
-312.2916690988
20
206.8732403806
30
0.0000000000
10
-312.3181681219
20
206.8652499313
30
0.0000000000
10
-312.3426361110
20
206.8580448710
30
0.0000000000
10
-312.3649282335
20
206.8516588536
30
0.0000000000
10
-312.3847809973
20
206.8461292278
30
0.0000000000
10
-312.4013463138
20
206.8417370637
30
0.0000000000
10
-312.4107713158
20
206.8392898789
30
0.0000000000
10
-312.4147608409
20
206.8383096634
30
0.0000000000
11
-312.1721019580
21
206.9110567687
31
0.0000000000
11
-312.2024180028
21
206.9012368985
31
0.0000000000
11
-312.2338665165
21
206.8912154924
31
0.0000000000
11
-312.2639026911
21
206.8818078426
31
0.0000000000
11
-312.2923045039
21
206.8730747131
31
0.0000000000
11
-312.3188720133
21
206.8650703154
31
0.0000000000
11
-312.3433979324
21
206.8578549045
31
0.0000000000
11
-312.3657262276
21
206.8514614501
31
0.0000000000
11
-312.3856883110
21
206.8459247472
31
0.0000000000
11
-312.4031498793
21
206.8412774447
31
0.0000000000
11
-312.4147608409
21
206.8383096634
31
0.0000000000
0
SPLINE
5
2F2
100
AcDbEntity
8
0
100
AcDbSpline
62
7
6
CONTINUOUS
70
0
71
3
72
11
73
7
74
5
42
0.0000001000
43
0.0000001000
44
0.0000000001
12
-0.0254898087
22
-0.0062627772
32
0.0000000000
13
-0.0387715112
23
-0.0062176843
33
0.0000000000
40
0.0000000000
40
0.0000000000
40
0.0000000000
40
0.0000000000
40
0.1248469644
40
0.5993276583
40
0.9394943737
40
1.0000000000
40
1.0000000000
40
1.0000000000
40
1.0000000000
10
-312.4147608409
20
206.8383096634
30
0.0000000000
10
-312.4158216160
20
206.8380490338
30
0.0000000000
10
-312.4209853420
20
206.8367982123
30
0.0000000000
10
-312.4298039786
20
206.8348234920
30
0.0000000000
10
-312.4342971167
20
206.8335826355
30
0.0000000000
10
-312.4401427118
20
206.8326557927
30
0.0000000000
10
-312.4409246767
20
206.8325303911
30
0.0000000000
11
-312.4147608409
21
206.8383096634
31
0.0000000000
11
-312.4179929891
21
206.8375275259
31
0.0000000000
11
-312.4298895382
21
206.8347302111
31
0.0000000000
11
-312.4384636156
21
206.8329275375
31
0.0000000000
11
-312.4409246767
21
206.8325303911
31
0.0000000000
0
SPLINE
5
2F3
100
AcDbEntity
8
0
100
AcDbSpline
62
7
6
CONTINUOUS
70
0
71
3
72
10
73
6
74
4
42
0.0000001000
43
0.0000001000
44
0.0000000001
12
-1.1394054503
22
-0.1385357645
32
0.0000000000
13
-1.0911165306
23
-0.3562186596
33
0.0000000000
40
0.0000000000
40
0.0000000000
40
0.0000000000
40
0.0000000000
40
0.3242326341
40
0.6737101514
40
1.0000000000
40
1.0000000000
40
1.0000000000
40
1.0000000000
10
-311.0531368548
20
207.1592590816
30
0.0000000000
10
-311.1762809983
20
207.1442864763
30
0.0000000000
10
-311.4312499641
20
207.1050920933
30
0.0000000000
10
-311.8050286162
20
207.0222623265
30
0.0000000000
10
-312.0534295437
20
206.9498033479
30
0.0000000000
10
-312.1721029596
20
206.9110598371
30
0.0000000000
11
-311.0531368548
21
207.1592590816
31
0.0000000000
11
-311.4209662097
21
207.1027138939
31
0.0000000000
11
-311.8125759919
21
207.0159326823
31
0.0000000000
11
-312.1721029596
21
206.9110598371
31
0.0000000000
0
SPLINE
5
2F4
100
AcDbEntity
8
0
100
AcDbSpline
62
7
6
CONTINUOUS
70
0
71
3
72
8
73
4
74
2
42
0.0000001000
43
0.0000001000
44
0.0000000001
12
-0.0000045224
22
0.0112105483
32
0.0000000000
13
-0.0012537431
23
0.0111931650
33
0.0000000000
40
0.0000000000
40
0.0000000000
40
0.0000000000
40
0.0000000000
40
1.0000000000
40
1.0000000000
40
1.0000000000
40
1.0000000000
10
-310.8410775053
20
207.0599812506
30
0.0000000000
10
-310.8410790128
20
207.0637181000
30
0.0000000000
10
-310.8412908561
20
207.0674659018
30
0.0000000000
10
-310.8417087705
20
207.0711969568
30
0.0000000000
11
-310.8410775053
21
207.0599812506
31
0.0000000000
11
-310.8417087705
21
207.0711969568
31
0.0000000000
0
SPLINE
5
2F5
100
AcDbEntity
8
0
100
AcDbSpline
62
7
6
CONTINUOUS
70
0
71
3
72
13
73
9
74
7
42
0.0000001000
43
0.0000001000
44
0.0000000001
12
-0.0186732971
22
0.1667114088
32
0.0000000000
13
-0.1668252168
23
0.0043654261
33
0.0000000000
40
0.0000000000
40
0.0000000000
40
0.0000000000
40
0.0000000000
40
0.1475633507
40
0.3441968187
40
0.5230475999
40
0.6926499719
40
0.8460445029
40
1.0000000000
40
1.0000000000
40
1.0000000000
40
1.0000000000
10
-310.8417087706
20
207.0711969573
30
0.0000000000
10
-310.8426272687
20
207.0793971220
30
0.0000000000
10
-310.8470915110
20
207.0983356149
30
0.0000000000
10
-310.8617309232
20
207.1240148359
30
0.0000000000
10
-310.8843008004
20
207.1448828171
30
0.0000000000
10
-310.9095221412
20
207.1575800182
30
0.0000000000
10
-310.9355322695
20
207.1635734030
30
0.0000000000
10
-310.9526205071
20
207.1646835817
30
0.0000000000
10
-310.9611817268
20
207.1649076088
30
0.0000000000
11
-310.8417087706
21
207.0711969573
31
0.0000000000
11
-310.8474051961
21
207.0952607117
31
0.0000000000
11
-310.8636102620
21
207.1237745822
31
0.0000000000
11
-310.8854962453
21
207.1440450674
31
0.0000000000
11
-310.9107175970
21
207.1568559656
31
0.0000000000
11
-310.9355831812
21
207.1628808674
31
0.0000000000
11
-310.9611817268
21
207.1649076088
31
0.0000000000
0
SPLINE
5
2F6
100
AcDbEntity
8
0
100
AcDbSpline
62
7
6
CONTINUOUS
70
0
71
3
72
8
73
4
74
2
42
0.0000001000
43
0.0000001000
44
0.0000000001
12
-0.0304850193
22
0.0007977217
32
0.0000000000
13
-0.0304535634
23
-0.0013443544
33
0.0000000000
40
0.0000000000
40
0.0000000000
40
0.0000000000
40
0.0000000000
40
1.0000000000
40
1.0000000000
40
1.0000000000
40
1.0000000000
10
-310.9611817268
20
207.1649076088
30
0.0000000000
10
-310.9713433999
20
207.1651735160
30
0.0000000000
10
-310.9815071953
20
207.1649715849
30
0.0000000000
10
-310.9916583832
20
207.1645234668
30
0.0000000000
11
-310.9611817268
21
207.1649076088
31
0.0000000000
11
-310.9916583832
21
207.1645234668
31
0.0000000000
0
SPLINE
5
2F7
100
AcDbEntity
8
0
100
AcDbSpline
62
7
6
CONTINUOUS
70
0
71
3
72
9
73
5
74
3
42
0.0000001000
43
0.0000001000
44
0.0000000001
12
-0.0616600254
22
-0.0027219451
32
0.0000000000
13
-0.0612650701
23
-0.0074519145
33
0.0000000000
40
0.0000000000
40
0.0000000000
40
0.0000000000
40
0.0000000000
40
0.5991729697
40
1.0000000000
40
1.0000000000
40
1.0000000000
40
1.0000000000
10
-310.9916583832
20
207.1645234668
30
0.0000000000
10
-311.0039733900
20
207.1639798281
30
0.0000000000
10
-311.0244957636
20
207.1624678010
30
0.0000000000
10
-311.0449514613
20
207.1602561406
30
0.0000000000
10
-311.0531370267
20
207.1592604977
30
0.0000000000
11
-310.9916583832
21
207.1645234668
31
0.0000000000
11
-311.0285423559
21
207.1619167225
31
0.0000000000
11
-311.0531370267
21
207.1592604977
31
0.0000000000
0
SPLINE
5
2F8
100
AcDbEntity
8
0
100
AcDbSpline
62
7
6
CONTINUOUS
70
0
71
3
72
8
73
4
74
2
42
0.0000001000
43
0.0000001000
44
0.0000000001
12
-0.0121258853
22
-0.0006742997
32
0.0000000000
13
-0.0121403917
23
-0.0004857074
33
0.0000000000
40
0.0000000000
40
0.0000000000
40
0.0000000000
40
0.0000000000
40
1.0000000000
40
1.0000000000
40
1.0000000000
40
1.0000000000
10
-310.6465818258
20
206.8335966940
30
0.0000000000
10
-310.6506237875
20
206.8333719274
30
0.0000000000
10
-310.6546681340
20
206.8331782545
30
0.0000000000
10
-310.6587149313
20
206.8330163521
30
0.0000000000
11
-310.6465818258
21
206.8335966940
31
0.0000000000
11
-310.6587149313
21
206.8330163521
31
0.0000000000
0
SPLINE
5
2F9
100
AcDbEntity
8
0
100
AcDbSpline
62
7
6
CONTINUOUS
70
0
71
3
72
8
73
4
74
2
42
0.0000001000
43
0.0000001000
44
0.0000000001
12
-0.0226721203
22
-0.0009070561
32
0.0000000000
13
-0.0227246917
23
-0.0002290275
33
0.0000000000
40
0.0000000000
40
0.0000000000
40
0.0000000000
40
0.0000000000
40
1.0000000000
40
1.0000000000
40
1.0000000000
40
1.0000000000
10
-310.6587149313
20
206.8330163521
30
0.0000000000
10
-310.6662723047
20
206.8327140000
30
0.0000000000
10
-310.6738382251
20
206.8325224487
30
0.0000000000
10
-310.6814131223
20
206.8324461062
30
0.0000000000
11
-310.6587149313
21
206.8330163521
31
0.0000000000
11
-310.6814131223
21
206.8324461062
31
0.0000000000
0
SPLINE
5
2FA
100
AcDbEntity
8
0
100
AcDbSpline
62
7
6
CONTINUOUS
70
0
71
3
72
11
73
7
74
5
42
0.0000001000
43
0.0000001000
44
0.0000000001
12
-0.1625355335
22
-0.0016380908
32
0.0000000000
13
-0.1430045884
23
0.0452983136
33
0.0000000000
40
0.0000000000
40
0.0000000000
40
0.0000000000
40
0.0000000000
40
0.3921400466
40
0.7167710143
40
0.9507098624
40
1.0000000000
40
1.0000000000
40
1.0000000000
40
1.0000000000
10
-310.6814131223
20
206.8324461062
30
0.0000000000
10
-310.7026586862
20
206.8322319859
30
0.0000000000
10
-310.7416213487
20
206.8334971704
30
0.0000000000
10
-310.7919885705
20
206.8388335754
30
0.0000000000
10
-310.8256621468
20
206.8475146001
30
0.0000000000
10
-310.8388308056
20
206.8509743247
30
0.0000000000
10
-310.8411803775
20
206.8517185780
30
0.0000000000
11
-310.6814131223
21
206.8324461062
31
0.0000000000
11
-310.7449949756
21
206.8344418606
31
0.0000000000
11
-310.7972495840
21
206.8409780678
31
0.0000000000
11
-310.8341709787
21
206.8497524159
31
0.0000000000
11
-310.8411803775
21
206.8517185780
31
0.0000000000
0
SPLINE
5
2FB
100
AcDbEntity
8
0
100
AcDbSpline
62
7
6
CONTINUOUS
70
0
71
3
72
9
73
5
74
3
42
0.0000001000
43
0.0000001000
44
0.0000000001
12
-0.0148819146
22
0.0047140140
32
0.0000000000
13
-0.0133048910
23
0.0072041476
33
0.0000000000
40
0.0000000000
40
0.0000000000
40
0.0000000000
40
0.0000000000
40
0.8019985287
40
1.0000000000
40
1.0000000000
40
1.0000000000
40
1.0000000000
10
-310.8411803775
20
206.8517185780
30
0.0000000000
10
-310.8451588020
20
206.8529787888
30
0.0000000000
10
-310.8503262148
20
206.8550583430
30
0.0000000000
10
-310.8567643807
20
206.8589783406
30
0.0000000000
10
-310.8576425101
20
206.8594538179
30
0.0000000000
11
-310.8411803775
21
206.8517185780
31
0.0000000000
11
-310.8542646674
21
206.8574981638
31
0.0000000000
11
-310.8576425101
21
206.8594538179
31
0.0000000000
0
SPLINE
5
2FC
100
AcDbEntity
8
0
100
AcDbSpline
62
7
6
CONTINUOUS
70
0
71
3
72
10
73
6
74
4
42
0.0000001000
43
0.0000001000
44
0.0000000001
12
-0.6103837428
22
0.0337146206
32
0.0000000000
13
-0.6103824095
23
-0.0337146639
33
0.0000000000
40
0.0000000000
40
0.0000000000
40
0.0000000000
40
0.0000000000
40
0.3162379388
40
0.6798529955
40
1.0000000000
40
1.0000000000
40
1.0000000000
40
1.0000000000
10
-310.0355522769
20
206.8336133925
30
0.0000000000
10
-310.0998944425
20
206.8371673399
30
0.0000000000
10
-310.2383635135
20
206.8423945113
30
0.0000000000
10
-310.4421782741
20
206.8424384409
30
0.0000000000
10
-310.5814452443
20
206.8372112974
30
0.0000000000
10
-310.6465826110
20
206.8336134145
30
0.0000000000
11
-310.0355522769
21
206.8336133925
31
0.0000000000
11
-310.2287345344
21
206.8409057005
31
0.0000000000
11
-310.4510111698
21
206.8409536391
31
0.0000000000
11
-310.6465826110
21
206.8336134145
31
0.0000000000
0
SPLINE
5
2FD
100
AcDbEntity
8
0
100
AcDbSpline
62
7
6
CONTINUOUS
70
0
71
3
72
8
73
4
74
2
42
0.0000001000
43
0.0000001000
44
0.0000000001
12
-0.0008077267
22
-0.0004121821
32
0.0000000000
13
-0.0010839277
23
-0.0006210744
33
0.0000000000
40
0.0000000000
40
0.0000000000
40
0.0000000000
40
0.0000000000
40
1.0000000000
40
1.0000000000
40
1.0000000000
40
1.0000000000
10
-309.8241831526
20
206.8595908258
30
0.0000000000
10
-309.8244523949
20
206.8594534317
30
0.0000000000
10
-309.8247780354
20
206.8592725419
30
0.0000000000
10
-309.8251393447
20
206.8590655171
30
0.0000000000
11
-309.8241831526
21
206.8595908258
31
0.0000000000
11
-309.8251393447
21
206.8590655171
31
0.0000000000
0
SPLINE
5
2FE
100
AcDbEntity
8
0
100
AcDbSpline
62
7
6
CONTINUOUS
70
0
71
3
72
9
73
5
74
3
42
0.0000001000
43
0.0000001000
44
0.0000000001
12
-0.0121376826
22
-0.0061938472
32
0.0000000000
13
-0.0153882528
23
-0.0048368008
33
0.0000000000
40
0.0000000000
40
0.0000000000
40
0.0000000000
40
0.0000000000
40
0.1995516329
40
1.0000000000
40
1.0000000000
40
1.0000000000
40
1.0000000000
10
-309.8241831526
20
206.8595908258
30
0.0000000000
10
-309.8249905174
20
206.8591788283
30
0.0000000000
10
-309.8315777569
20
206.8551542626
30
0.0000000000
10
-309.8368637760
20
206.8530633695
30
0.0000000000
10
-309.8409696100
20
206.8517728331
30
0.0000000000
11
-309.8241831526
21
206.8595908258
31
0.0000000000
11
-309.8275676905
21
206.8576496115
31
0.0000000000
11
-309.8409696100
21
206.8517728331
31
0.0000000000
0
SPLINE
5
2FF
100
AcDbEntity
8
0
100
AcDbSpline
62
7
6
CONTINUOUS
70
0
71
3
72
11
73
7
74
5
42
0.0000001000
43
0.0000001000
44
0.0000000001
12
-0.1401325979
22
-0.0440425303
32
0.0000000000
13
-0.1595286702
23
0.0010276725
33
0.0000000000
40
0.0000000000
40
0.0000000000
40
0.0000000000
40
0.0000000000
40
0.0438216188
40
0.2774879323
40
0.6034667719
40
1.0000000000
40
1.0000000000
40
1.0000000000
40
1.0000000000
10
-309.8409715164
20
206.8517722339
30
0.0000000000
10
-309.8430184621
20
206.8511288956
30
0.0000000000
10
-309.8557830473
20
206.8476579111
30
0.0000000000
10
-309.8884826088
20
206.8391625043
30
0.0000000000
10
-309.9382227377
20
206.8336588430
30
0.0000000000
10
-309.9767591029
20
206.8322802475
30
0.0000000000
10
-309.9978452424
20
206.8324160830
30
0.0000000000
11
-309.8409715164
21
206.8517722339
31
0.0000000000
11
-309.8471067437
21
206.8500217430
31
0.0000000000
11
-309.8832691810
21
206.8412739367
31
0.0000000000
11
-309.9347462024
21
206.8346308602
31
0.0000000000
11
-309.9978452424
21
206.8324160830
31
0.0000000000
0
SPLINE
5
300
100
AcDbEntity
8
0
100
AcDbSpline
62
7
6
CONTINUOUS
70
0
71
3
72
8
73
4
74
2
42
0.0000001000
43
0.0000001000
44
0.0000000001
12
-0.0377751027
22
0.0002433446
32
0.0000000000
13
-0.0376420626
23
0.0020944388
33
0.0000000000
40
0.0000000000
40
0.0000000000
40
0.0000000000
40
0.0000000000
40
1.0000000000
40
1.0000000000
40
1.0000000000
40
1.0000000000
10
-309.9978452424
20
206.8324160830
30
0.0000000000
10
-310.0104369433
20
206.8324971978
30
0.0000000000
10
-310.0230059612
20
206.8328965533
30
0.0000000000
10
-310.0355533154
20
206.8335946996
30
0.0000000000
11
-309.9978452424
21
206.8324160830
31
0.0000000000
11
-310.0355533154
21
206.8335946996
31
0.0000000000
0
SPLINE
5
301
100
AcDbEntity
8
0
100
AcDbSpline
62
7
6
CONTINUOUS
70
0
71
3
72
9
73
5
74
3
42
0.0000001000
43
0.0000001000
44
0.0000000001
12
-0.0603938318
22
0.0073448720
32
0.0000000000
13
-0.0607785955
23
0.0027725077
33
0.0000000000
40
0.0000000000
40
0.0000000000
40
0.0000000000
40
0.0000000000
40
0.3869911088
40
1.0000000000
40
1.0000000000
40
1.0000000000
40
1.0000000000
10
-309.6289979718
20
207.1592607617
30
0.0000000000
10
-309.6367885971
20
207.1602082284
30
0.0000000000
10
-309.6569517989
20
207.1624006240
30
0.0000000000
10
-309.6771801444
20
207.1639176744
30
0.0000000000
10
-309.6895994176
20
207.1644841984
30
0.0000000000
11
-309.6289979718
21
207.1592607617
31
0.0000000000
11
-309.6524043128
21
207.1618039625
31
0.0000000000
11
-309.6895994176
21
207.1644841984
31
0.0000000000
0
SPLINE
5
302
100
AcDbEntity
8
0
100
AcDbSpline
62
7
6
CONTINUOUS
70
0
71
3
72
9
73
5
74
3
42
0.0000001000
43
0.0000001000
44
0.0000000001
12
-0.0564442669
22
0.0025747907
32
0.0000000000
13
-0.0559810452
23
-0.0080425123
33
0.0000000000
40
0.0000000000
40
0.0000000000
40
0.0000000000
40
0.0000000000
40
0.5438656546
40
1.0000000000
40
1.0000000000
40
1.0000000000
40
1.0000000000
10
-309.6895994176
20
207.1644841984
30
0.0000000000
10
-309.6998321170
20
207.1649509785
30
0.0000000000
10
-309.7186707358
20
207.1653555816
30
0.0000000000
10
-309.7375049121
20
207.1641808609
30
0.0000000000
10
-309.7460165379
20
207.1629580389
30
0.0000000000
11
-309.6895994176
21
207.1644841984
31
0.0000000000
11
-309.7203221584
21
207.1649239300
31
0.0000000000
11
-309.7460165379
21
207.1629580389
31
0.0000000000
0
SPLINE
5
303
100
AcDbEntity
8
0
100
AcDbSpline
62
7
6
CONTINUOUS
70
0
71
3
72
8
73
4
74
2
42
0.0000001000
43
0.0000001000
44
0.0000000001
12
-0.0253563285
22
-0.0036428149
32
0.0000000000
13
-0.0242042291
23
-0.0084543714
33
0.0000000000
40
0.0000000000
40
0.0000000000
40
0.0000000000
40
0.0000000000
40
1.0000000000
40
1.0000000000
40
1.0000000000
40
1.0000000000
10
-309.7460165379
20
207.1629580389
30
0.0000000000
10
-309.7544686474
20
207.1617437673
30
0.0000000000
10
-309.7628425729
20
207.1598520779
30
0.0000000000
10
-309.7709106493
20
207.1570339541
30
0.0000000000
11
-309.7460165379
21
207.1629580389
31
0.0000000000
11
-309.7709106493
21
207.1570339541
31
0.0000000000
0
SPLINE
5
304
100
AcDbEntity
8
0
100
AcDbSpline
62
7
6
CONTINUOUS
70
0
71
3
72
11
73
7
74
5
42
0.0000001000
43
0.0000001000
44
0.0000000001
12
-0.1097795045
22
-0.0383452287
32
0.0000000000
13
-0.0129853403
23
-0.1160160106
33
0.0000000000
40
0.0000000000
40
0.0000000000
40
0.0000000000
40
0.0000000000
40
0.2448027718
40
0.5034455926
40
0.7877064745
40
1.0000000000
40
1.0000000000
40
1.0000000000
40
1.0000000000
10
-309.7709106493
20
207.1570339541
30
0.0000000000
10
-309.7798687583
20
207.1539049480
30
0.0000000000
10
-309.7975160089
20
207.1451212493
30
0.0000000000
10
-309.8202841580
20
207.1242076339
30
0.0000000000
10
-309.8350272880
20
207.0984207017
30
0.0000000000
10
-309.8395099944
20
207.0794075167
30
0.0000000000
10
-309.8404288956
20
207.0711977007
30
0.0000000000
11
-309.7709106493
21
207.1570339541
31
0.0000000000
11
-309.7962989681
21
207.1442791482
31
0.0000000000
11
-309.8183876265
21
207.1239518280
31
0.0000000000
11
-309.8347244655
21
207.0952889095
31
0.0000000000
11
-309.8404288956
21
207.0711977007
31
0.0000000000
0
SPLINE
5
305
100
AcDbEntity
8
0
100
AcDbSpline
62
7
6
CONTINUOUS
70
0
71
3
72
8
73
4
74
2
42
0.0000001000
43
0.0000001000
44
0.0000000001
12
-0.0012512757
22
-0.0111793772
32
0.0000000000
13
-0.0000054201
23
-0.0111967750
33
0.0000000000
40
0.0000000000
40
0.0000000000
40
0.0000000000
40
0.0000000000
40
1.0000000000
40
1.0000000000
40
1.0000000000
40
1.0000000000
10
-309.8404288956
20
207.0711977007
30
0.0000000000
10
-309.8408459875
20
207.0674712417
30
0.0000000000
10
-309.8410575450
20
207.0637280847
30
0.0000000000
10
-309.8410593517
20
207.0599958263
30
0.0000000000
11
-309.8404288956
21
207.0711977007
31
0.0000000000
11
-309.8410593517
21
207.0599958263
31
0.0000000000
0
SPLINE
5
306
100
AcDbEntity
8
0
100
AcDbSpline
62
7
6
CONTINUOUS
70
0
71
3
72
10
73
6
74
4
42
0.0000001000
43
0.0000001000
44
0.0000000001
12
-1.0911208316
22
0.3562194201
32
0.0000000000
13
-1.1394011973
23
0.1385349433
33
0.0000000000
40
0.0000000000
40
0.0000000000
40
0.0000000000
40
0.0000000000
40
0.3242092501
40
0.6736871094
40
1.0000000000
40
1.0000000000
40
1.0000000000
40
1.0000000000
10
-308.5100320782
20
206.9110598088
30
0.0000000000
10
-308.6279492337
20
206.9495563525
30
0.0000000000
10
-308.8755690819
20
207.0218419975
30
0.0000000000
10
-309.2493141939
20
207.1048229902
30
0.0000000000
10
-309.5050644085
20
207.1441905153
30
0.0000000000
10
-309.6289981746
20
207.1592590946
30
0.0000000000
11
-308.5100320782
21
206.9110598088
31
0.0000000000
11
-308.8672465380
21
207.0153365810
31
0.0000000000
11
-309.2588215486
21
207.1022763683
31
0.0000000000
11
-309.6289981746
21
207.1592590946
31
0.0000000000
0
SPLINE
5
307
100
AcDbEntity
8
0
100
AcDbSpline
62
7
6
CONTINUOUS
70
0
71
3
72
8
73
4
74
2
42
0.0000001000
43
0.0000001000
44
0.0000000001
12
0.0000338558
22
0.0001072465
32
0.0000000000
13
-0.0041573908
23
0.0006697597
33
0.0000000000
40
0.0000000000
40
0.0000000000
40
0.0000000000
40
0.0000000000
40
1.0000000000
40
1.0000000000
40
1.0000000000
40
1.0000000000
10
-308.2389912602
20
206.8321237889
30
0.0000000000
10
-308.2389799749
20
206.8321595377
30
0.0000000000
10
-308.2401854635
20
206.8323532663
30
0.0000000000
10
-308.2415712604
20
206.8325765195
30
0.0000000000
11
-308.2389912602
21
206.8321237889
31
0.0000000000
11
-308.2415712604
21
206.8325765195
31
0.0000000000
0
SPLINE
5
308
100
AcDbEntity
8
0
100
AcDbSpline
62
7
6
CONTINUOUS
70
0
71
3
72
11
73
7
74
5
42
0.0000001000
43
0.0000001000
44
0.0000000001
12
-0.0393958245
22
0.0063467055
32
0.0000000000
13
-0.0252524804
23
0.0062307611
33
0.0000000000
40
0.0000000000
40
0.0000000000
40
0.0000000000
40
0.0000000000
40
0.0437461441
40
0.3811931805
40
0.8487327780
40
1.0000000000
40
1.0000000000
40
1.0000000000
40
1.0000000000
10
-308.2415712604
20
206.8325765195
30
0.0000000000
10
-308.2421457322
20
206.8326690675
30
0.0000000000
10
-308.2474215361
20
206.8335197185
30
0.0000000000
10
-308.2519240870
20
206.8347244374
30
0.0000000000
10
-308.2608210737
20
206.8367111392
30
0.0000000000
10
-308.2661085503
20
206.8379941654
30
0.0000000000
10
-308.2673818412
20
206.8383083354
30
0.0000000000
11
-308.2415712604
21
206.8325765195
31
0.0000000000
11
-308.2433137964
21
206.8328602336
31
0.0000000000
11
-308.2517996227
21
206.8346328802
31
0.0000000000
11
-308.2634954254
21
206.8373667390
31
0.0000000000
11
-308.2673818412
21
206.8383083354
31
0.0000000000
0
SPLINE
5
309
100
AcDbEntity
8
0
100
AcDbSpline
62
7
6
CONTINUOUS
70
0
71
3
72
18
73
14
74
12
42
0.0000001000
43
0.0000001000
44
0.0000000001
12
-0.2491589938
22
0.0614771357
32
0.0000000000
13
-0.2409641088
23
0.0786527443
33
0.0000000000
40
0.0000000000
40
0.0000000000
40
0.0000000000
40
0.0000000000
40
0.0441584266
40
0.1147243445
40
0.1955767258
40
0.2863024203
40
0.3862697342
40
0.4948207329
40
0.6111644276
40
0.7344498212
40
0.8637745550
40
0.9980510664
40
1.0000000000
40
1.0000000000
40
1.0000000000
40
1.0000000000
10
-308.2673818412
20
206.8383083354
30
0.0000000000
10
-308.2710493309
20
206.8392132466
30
0.0000000000
10
-308.2801630103
20
206.8415757403
30
0.0000000000
10
-308.2962963794
20
206.8458438848
30
0.0000000000
10
-308.3159542397
20
206.8513019861
30
0.0000000000
10
-308.3380295542
20
206.8576213646
30
0.0000000000
10
-308.3622820383
20
206.8647488512
30
0.0000000000
10
-308.3885675861
20
206.8726594274
30
0.0000000000
10
-308.4166876855
20
206.8813010752
30
0.0000000000
10
-308.4464388609
20
206.8906111004
30
0.0000000000
10
-308.4775873834
20
206.9005272086
30
0.0000000000
10
-308.4989345930
20
206.9074345447
30
0.0000000000
10
-308.5098765366
20
206.9110056503
30
0.0000000000
10
-308.5100330776
20
206.9110567467
30
0.0000000000
11
-308.2673818412
21
206.8383083354
31
0.0000000000
11
-308.2781170698
21
206.8410528528
31
0.0000000000
11
-308.2954047972
21
206.8456429902
31
0.0000000000
11
-308.3151569891
21
206.8511072923
31
0.0000000000
11
-308.3372674961
21
206.8574298798
31
0.0000000000
11
-308.3615799977
21
206.8645699116
31
0.0000000000
11
-308.3879292033
21
206.8724942389
31
0.0000000000
11
-308.4161199065
21
206.8811521771
31
0.0000000000
11
-308.4459442962
21
206.8904825902
31
0.0000000000
11
-308.4771809645
21
206.9004244585
31
0.0000000000
11
-308.5095634490
21
206.9109034747
31
0.0000000000
11
-308.5100330776
21
206.9110567467
31
0.0000000000
0
SPLINE
5
30A
100
AcDbEntity
8
0
100
AcDbSpline
62
7
6
CONTINUOUS
70
0
71
3
72
8
73
4
74
2
42
0.0000001000
43
0.0000001000
44
0.0000000001
12
0.0000338947
22
0.0001160309
32
0.0000000000
13
-0.0042056179
23
0.0006729367
33
0.0000000000
40
0.0000000000
40
0.0000000000
40
0.0000000000
40
0.0000000000
40
1.0000000000
40
1.0000000000
40
1.0000000000
40
1.0000000000
10
-308.2389967625
20
206.8321345915
30
0.0000000000
10
-308.2389854642
20
206.8321732685
30
0.0000000000
10
-308.2401675584
20
206.8323639120
30
0.0000000000
10
-308.2415694310
20
206.8325882242
30
0.0000000000
11
-308.2389967625
21
206.8321345915
31
0.0000000000
11
-308.2415694310
21
206.8325882242
31
0.0000000000
0
SPLINE
5
30B
100
AcDbEntity
8
0
100
AcDbSpline
62
7
6
CONTINUOUS
70
0
71
3
72
17
73
13
74
11
42
0.0000001000
43
0.0000001000
44
0.0000000001
12
-0.2509708435
22
0.0616478837
32
0.0000000000
13
-0.2409606472
23
0.0786734263
33
0.0000000000
40
0.0000000000
40
0.0000000000
40
0.0000000000
40
0.0000000000
40
0.0479700867
40
0.1192779108
40
0.2010034140
40
0.2926090716
40
0.3934274926
40
0.5028415426
40
0.6200107320
40
0.7441297324
40
0.8743023083
40
1.0000000000
40
1.0000000000
40
1.0000000000
40
1.0000000000
10
-308.2673740562
20
206.8383097825
30
0.0000000000
10
-308.2713870873
20
206.8392955339
30
0.0000000000
10
-308.2808336168
20
206.8417487165
30
0.0000000000
10
-308.2974217609
20
206.8461477307
30
0.0000000000
10
-308.3172744085
20
206.8516779894
30
0.0000000000
10
-308.3395613914
20
206.8580630546
30
0.0000000000
10
-308.3640201497
20
206.8652658408
30
0.0000000000
10
-308.3905071982
20
206.8732529853
30
0.0000000000
10
-308.4188288702
20
206.8819652725
30
0.0000000000
10
-308.4487792479
20
206.8913493144
30
0.0000000000
10
-308.4793697325
20
206.9010985044
30
0.0000000000
10
-308.4999370066
20
206.9077604127
30
0.0000000000
10
-308.5100330723
20
206.9110567687
30
0.0000000000
11
-308.2673740562
21
206.8383097825
31
0.0000000000
11
-308.2790495472
21
206.8412941638
31
0.0000000000
11
-308.2965163082
21
206.8459436777
31
0.0000000000
11
-308.3164781819
21
206.8514810225
31
0.0000000000
11
-308.3388010023
21
206.8578734578
31
0.0000000000
11
-308.3633172444
21
206.8650864670
31
0.0000000000
11
-308.3898722067
21
206.8730874037
31
0.0000000000
11
-308.4182603191
21
206.8818165269
31
0.0000000000
11
-308.4482835778
21
206.8912202520
31
0.0000000000
11
-308.4797219038
21
206.9012384654
31
0.0000000000
11
-308.5100330723
21
206.9110567687
31
0.0000000000
0
SPLINE
5
30C
100
AcDbEntity
8
0
100
AcDbSpline
62
7
6
CONTINUOUS
70
0
71
3
72
16
73
12
74
10
42
0.0000001000
43
0.0000001000
44
0.0000000001
12
-0.2571082013
22
0.0312732353
32
0.0000000000
13
-0.0289956003
23
-0.2588563033
33
0.0000000000
40
0.0000000000
40
0.0000000000
40
0.0000000000
40
0.0000000000
40
0.0957177787
40
0.2385228785
40
0.3560819468
40
0.4550440047
40
0.5535147798
40
0.6628920152
40
0.7781856162
40
0.9049357695
40
1.0000000000
40
1.0000000000
40
1.0000000000
40
1.0000000000
10
-309.6289980028
20
207.1592605046
30
0.0000000000
10
-309.6372012781
20
207.1602583061
30
0.0000000000
10
-309.6576774585
20
207.1624715892
30
0.0000000000
10
-309.6883452842
20
207.1647289392
30
0.0000000000
10
-309.7193776140
20
207.1653424054
30
0.0000000000
10
-309.7465703710
20
207.1635740914
30
0.0000000000
10
-309.7725509458
20
207.1575998781
30
0.0000000000
10
-309.7977784234
20
207.1449254175
30
0.0000000000
10
-309.8203830060
20
207.1240463033
30
0.0000000000
10
-309.8350395084
20
207.0983505613
30
0.0000000000
10
-309.8395073950
20
207.0794000578
30
0.0000000000
10
-309.8404262098
20
207.0711973994
30
0.0000000000
11
-309.6289980028
21
207.1592605046
31
0.0000000000
11
-309.6536459655
21
207.1619217430
31
0.0000000000
11
-309.6905381652
21
207.1645261667
31
0.0000000000
11
-309.7209815215
21
207.1649068630
31
0.0000000000
11
-309.7465309971
21
207.1628839099
31
0.0000000000
11
-309.7713190100
21
207.1568908472
31
0.0000000000
11
-309.7965845801
21
207.1440823448
31
0.0000000000
11
-309.8185012457
21
207.1238037636
31
0.0000000000
11
-309.8347270328
21
207.0952682688
31
0.0000000000
11
-309.8404262098
21
207.0711973994
31
0.0000000000
0
SPLINE
5
30D
100
AcDbEntity
8
0
100
AcDbSpline
62
7
6
CONTINUOUS
70
0
71
3
72
12
73
8
74
6
42
0.0000001000
43
0.0000001000
44
0.0000000001
12
-0.1619099871
22
-0.0512868116
32
0.0000000000
13
-0.1836198709
23
0.0070518447
33
0.0000000000
40
0.0000000000
40
0.0000000000
40
0.0000000000
40
0.0000000000
40
0.0435347811
40
0.2501577898
40
0.5368832645
40
0.8832351292
40
1.0000000000
40
1.0000000000
40
1.0000000000
40
1.0000000000
10
-309.8409546528
20
206.8517185780
30
0.0000000000
10
-309.8433042247
20
206.8509743247
30
0.0000000000
10
-309.8564728835
20
206.8475146001
30
0.0000000000
10
-309.8901464597
20
206.8388335754
30
0.0000000000
10
-309.9405136816
20
206.8334971704
30
0.0000000000
10
-309.9866626228
20
206.8319986351
30
0.0000000000
10
-310.0150388259
20
206.8326934830
30
0.0000000000
10
-310.0221856094
20
206.8329679523
30
0.0000000000
11
-309.8409546528
21
206.8517185780
31
0.0000000000
11
-309.8479640516
21
206.8497524159
31
0.0000000000
11
-309.8848854463
21
206.8409780678
31
0.0000000000
11
-309.9371400547
21
206.8344418606
31
0.0000000000
11
-310.0007219079
21
206.8324461062
31
0.0000000000
11
-310.0221856094
21
206.8329679523
31
0.0000000000
0
SPLINE
5
30E
100
AcDbEntity
8
0
100
AcDbSpline
62
7
6
CONTINUOUS
70
0
71
3
72
10
73
6
74
4
42
0.0000001000
43
0.0000001000
44
0.0000000001
12
-0.6103822664
22
0.0337146560
32
0.0000000000
13
-0.6103836007
23
-0.0337145969
33
0.0000000000
40
0.0000000000
40
0.0000000000
40
0.0000000000
40
0.0000000000
40
0.3201470795
40
0.6837622215
40
1.0000000000
40
1.0000000000
40
1.0000000000
40
1.0000000000
10
-310.0355524193
20
206.8336134145
30
0.0000000000
10
-310.1006897860
20
206.8372112974
30
0.0000000000
10
-310.2399567562
20
206.8424384409
30
0.0000000000
10
-310.4437714689
20
206.8423945113
30
0.0000000000
10
-310.5822404922
20
206.8371673435
30
0.0000000000
10
-310.6465826102
20
206.8336134004
30
0.0000000000
11
-310.0355524193
21
206.8336134145
31
0.0000000000
11
-310.2311238605
21
206.8409536391
31
0.0000000000
11
-310.4534004959
21
206.8409057005
31
0.0000000000
11
-310.6465826102
21
206.8336134004
31
0.0000000000
0
SPLINE
5
30F
100
AcDbEntity
8
0
100
AcDbSpline
62
7
6
CONTINUOUS
70
0
71
3
72
8
73
4
74
2
42
0.0000001000
43
0.0000001000
44
0.0000000001
12
-0.0133593634
22
-0.0007433272
32
0.0000000000
13
-0.0133758724
23
-0.0005149088
33
0.0000000000
40
0.0000000000
40
0.0000000000
40
0.0000000000
40
0.0000000000
40
1.0000000000
40
1.0000000000
40
1.0000000000
40
1.0000000000
10
-310.6465817148
20
206.8335946996
30
0.0000000000
10
-310.6510348360
20
206.8333469239
30
0.0000000000
10
-310.6554906858
20
206.8331367831
30
0.0000000000
10
-310.6599493100
20
206.8329651468
30
0.0000000000
11
-310.6465817148
21
206.8335946996
31
0.0000000000
11
-310.6599493100
21
206.8329651468
31
0.0000000000
0
SPLINE
5
310
100
AcDbEntity
8
0
100
AcDbSpline
62
9
6
CONTINUOUS
70
0
71
3
72
10
73
6
74
4
42
0.0000001000
43
0.0000001000
44
0.0000000001
12
-0.0000000037
22
0.0084211513
32
0.0000000000
13
0.0000000024
23
0.0084211513
33
0.0000000000
40
0.0000000000
40
0.0000000000
40
0.0000000000
40
0.0000000000
40
0.5552522622
40
0.8890061159
40
1.0000000000
40
1.0000000000
40
1.0000000000
40
1.0000000000
10
-312.4770833463
20
206.8269127606
30
0.0000000000
10
-312.4770833470
20
206.8284713817
30
0.0000000000
10
-312.4770833449
20
206.8309668667
30
0.0000000000
10
-312.4770833464
20
206.8337739171
30
0.0000000000
10
-312.4770833464
20
206.8350223465
30
0.0000000000
10
-312.4770833463
20
206.8353339119
30
0.0000000000
11
-312.4770833463
21
206.8269127606
31
0.0000000000
11
-312.4770833457
21
206.8315886239
31
0.0000000000
11
-312.4770833463
21
206.8343992156
31
0.0000000000
11
-312.4770833463
21
206.8353339119
31
0.0000000000
0
SPLINE
5
311
100
AcDbEntity
8
0
100
AcDbSpline
62
9
6
CONTINUOUS
70
0
71
3
72
11
73
7
74
5
42
0.0000001000
43
0.0000001000
44
0.0000000001
12
-0.2347482178
22
-0.0766424207
32
0.0000000000
13
-0.2489078788
23
-0.0675589159
33
0.0000000000
40
0.0000000000
40
0.0000000000
40
0.0000000000
40
0.0000000000
40
0.3504046771
40
0.6666687971
40
0.9304468631
40
1.0000000000
40
1.0000000000
40
1.0000000000
40
1.0000000000
10
-312.1719382275
20
206.9105552550
30
0.0000000000
10
-312.1993571854
20
206.9016033008
30
0.0000000000
10
-312.2514585826
20
206.8849505512
30
0.0000000000
10
-312.3253412212
20
206.8622375693
30
0.0000000000
10
-312.3752256678
20
206.8481075669
30
0.0000000000
10
-312.4032868477
20
206.8402402566
30
0.0000000000
10
-312.4090576222
20
206.8386739451
30
0.0000000000
11
-312.1719382275
21
206.9105552550
31
0.0000000000
11
-312.2543576293
21
206.8842024031
31
0.0000000000
11
-312.3290584149
21
206.8614148311
31
0.0000000000
11
-312.3916835795
21
206.8434966041
31
0.0000000000
11
-312.4090576222
21
206.8386739451
31
0.0000000000
0
SPLINE
5
312
100
AcDbEntity
8
0
100
AcDbSpline
62
9
6
CONTINUOUS
70
0
71
3
72
10
73
6
74
4
42
0.0000001000
43
0.0000001000
44
0.0000000001
12
-0.0708811429
22
-0.0192386565
32
0.0000000000
13
0.0003549073
23
0.0703206776
33
0.0000000000
40
0.0000000000
40
0.0000000000
40
0.0000000000
40
0.0000000000
40
0.4410278012
40
0.8596420268
40
1.0000000000
40
1.0000000000
40
1.0000000000
40
1.0000000000
10
-312.4090576222
20
206.8386739451
30
0.0000000000
10
-312.4194778071
20
206.8358456843
30
0.0000000000
10
-312.4392516399
20
206.8308113699
30
0.0000000000
10
-312.4560469501
20
206.8286976106
30
0.0000000000
10
-312.4770999510
20
206.8236227380
30
0.0000000000
10
-312.4770833463
20
206.8269127606
30
0.0000000000
11
-312.4090576222
21
206.8386739451
31
0.0000000000
11
-312.4383627680
21
206.8315269075
31
0.0000000000
11
-312.4672626158
21
206.8259258600
31
0.0000000000
11
-312.4770833463
21
206.8269127606
31
0.0000000000
0
SPLINE
5
313
100
AcDbEntity
8
0
100
AcDbSpline
62
9
6
CONTINUOUS
70
0
71
3
72
12
73
8
74
6
42
0.0000001000
43
0.0000001000
44
0.0000000001
12
-1.1394044272
22
-0.1385317330
32
0.0000000000
13
-1.0911181987
23
-0.3562226359
33
0.0000000000
40
0.0000000000
40
0.0000000000
40
0.0000000000
40
0.0000000000
40
0.1736997740
40
0.3668447149
40
0.5660151312
40
0.7736035241
40
1.0000000000
40
1.0000000000
40
1.0000000000
40
1.0000000000
10
-311.0530727922
20
207.1587321741
30
0.0000000000
10
-311.1190442227
20
207.1507111972
30
0.0000000000
10
-311.2580969064
20
207.1314153076
30
0.0000000000
10
-311.4714478784
20
207.0940060757
30
0.0000000000
10
-311.6959013981
20
207.0457559608
30
0.0000000000
10
-311.9305950864
20
206.9854996985
30
0.0000000000
10
-312.0895964559
20
206.9374377715
30
0.0000000000
10
-312.1719382275
20
206.9105552550
30
0.0000000000
11
-311.0530727922
21
207.1587321741
31
0.0000000000
11
-311.2505522196
21
207.1313283940
31
0.0000000000
11
-311.4689117576
21
207.0930409733
31
0.0000000000
11
-311.6924128214
21
207.0449956590
31
0.0000000000
11
-311.9231966789
21
206.9857428568
31
0.0000000000
11
-312.1719382275
21
206.9105552550
31
0.0000000000
0
SPLINE
5
314
100
AcDbEntity
8
0
100
AcDbSpline
62
9
6
CONTINUOUS
70
0
71
3
72
14
73
10
74
8
42
0.0000001000
43
0.0000001000
44
0.0000000001
12
-0.0001275271
22
0.1030417226
32
0.0000000000
13
-0.1022885817
23
-0.0124361939
33
0.0000000000
40
0.0000000000
40
0.0000000000
40
0.0000000000
40
0.0000000000
40
0.0475695937
40
0.1569696759
40
0.3115077117
40
0.4870765621
40
0.6663493256
40
0.8385288923
40
1.0000000000
40
1.0000000000
40
1.0000000000
40
1.0000000000
10
-310.9513577526
20
207.1587321741
30
0.0000000000
10
-310.9513597747
20
207.1603660584
30
0.0000000000
10
-310.9581583131
20
207.1628150018
30
0.0000000000
10
-310.9675368640
20
207.1635298146
30
0.0000000000
10
-310.9832245303
20
207.1640488460
30
0.0000000000
10
-311.0005203807
20
207.1634252429
30
0.0000000000
10
-311.0186417145
20
207.1622691938
30
0.0000000000
10
-311.0361743141
20
207.1606733642
30
0.0000000000
10
-311.0475672420
20
207.1594015361
30
0.0000000000
10
-311.0530727922
20
207.1587321741
30
0.0000000000
11
-310.9513577526
21
207.1587321741
31
0.0000000000
11
-310.9552900121
21
207.1616585324
31
0.0000000000
11
-310.9664312339
21
207.1633757338
31
0.0000000000
11
-310.9823480473
21
207.1638500040
31
0.0000000000
11
-311.0004319441
21
207.1633455750
31
0.0000000000
11
-311.0188670704
21
207.1621697159
31
0.0000000000
11
-311.0365371992
21
207.1605777963
31
0.0000000000
11
-311.0530727922
21
207.1587321741
31
0.0000000000
0
SPLINE
5
315
100
AcDbEntity
8
0
100
AcDbSpline
62
9
6
CONTINUOUS
70
0
71
3
72
12
73
8
74
6
42
0.0000001000
43
0.0000001000
44
0.0000000001
12
-0.0000000955
22
0.2481769191
32
0.0000000000
13
0.0000000361
23
0.2481769191
33
0.0000000000
40
0.0000000000
40
0.0000000000
40
0.0000000000
40
0.0000000000
40
0.3245288541
40
0.5733868835
40
0.7612770168
40
0.8998605882
40
1.0000000000
40
1.0000000000
40
1.0000000000
40
1.0000000000
10
-310.9513577526
20
206.9105552550
30
0.0000000000
10
-310.9513577629
20
206.9374021121
30
0.0000000000
10
-310.9513577436
20
206.9848359088
30
0.0000000000
10
-310.9513577543
20
207.0478130370
30
0.0000000000
10
-310.9513577536
20
207.0954077228
30
0.0000000000
10
-310.9513577513
20
207.1306995658
30
0.0000000000
10
-310.9513577538
20
207.1504480772
30
0.0000000000
10
-310.9513577526
20
207.1587321741
30
0.0000000000
11
-310.9513577526
21
206.9105552550
31
0.0000000000
11
-310.9513577498
21
206.9910958262
31
0.0000000000
11
-310.9513577530
21
207.0528566452
31
0.0000000000
11
-310.9513577531
21
207.0994866397
31
0.0000000000
11
-310.9513577524
21
207.1338798835
31
0.0000000000
11
-310.9513577526
21
207.1587321741
31
0.0000000000
0
SPLINE
5
316
100
AcDbEntity
8
0
100
AcDbSpline
62
9
6
CONTINUOUS
70
0
71
3
72
8
73
4
74
2
42
0.0000001000
43
0.0000001000
44
0.0000000001
12
-0.0259648526
22
-0.0014341561
32
0.0000000000
13
-0.0260031346
23
-0.0007031723
33
0.0000000000
40
0.0000000000
40
0.0000000000
40
0.0000000000
40
0.0000000000
40
1.0000000000
40
1.0000000000
40
1.0000000000
40
1.0000000000
10
-310.6462126339
20
206.8269127606
30
0.0000000000
10
-310.6548675847
20
206.8264347085
30
0.0000000000
10
-310.6635311407
20
206.8260760782
30
0.0000000000
10
-310.6721988523
20
206.8258416874
30
0.0000000000
11
-310.6462126339
21
206.8269127606
31
0.0000000000
11
-310.6721988523
21
206.8258416874
31
0.0000000000
0
SPLINE
5
317
100
AcDbEntity
8
0
100
AcDbSpline
62
9
6
CONTINUOUS
70
0
71
3
72
10
73
6
74
4
42
0.0000001000
43
0.0000001000
44
0.0000000001
12
-0.1456857917
22
-0.0039396099
32
0.0000000000
13
-0.1438195669
23
0.0241745223
33
0.0000000000
40
0.0000000000
40
0.0000000000
40
0.0000000000
40
0.0000000000
40
0.3486430920
40
0.8460685313
40
1.0000000000
40
1.0000000000
40
1.0000000000
40
1.0000000000
10
-310.6721988523
20
206.8258416874
30
0.0000000000
10
-310.6891296339
20
206.8253838481
30
0.0000000000
10
-310.7302548319
20
206.8254231374
30
0.0000000000
10
-310.7787417773
20
206.8290190124
30
0.0000000000
10
-310.8100850874
20
206.8336079039
30
0.0000000000
10
-310.8174645397
20
206.8348483104
30
0.0000000000
11
-310.6721988523
21
206.8258416874
31
0.0000000000
11
-310.7230056013
21
206.8259261649
31
0.0000000000
11
-310.7952573677
21
206.8315644467
31
0.0000000000
11
-310.8174645397
21
206.8348483104
31
0.0000000000
0
SPLINE
5
318
100
AcDbEntity
8
0
100
AcDbSpline
62
9
6
CONTINUOUS
70
0
71
3
72
8
73
4
74
2
42
0.0000001000
43
0.0000001000
44
0.0000000001
12
-0.0237336029
22
0.0039893634
32
0.0000000000
13
-0.0234891810
23
0.0051773087
33
0.0000000000
40
0.0000000000
40
0.0000000000
40
0.0000000000
40
0.0000000000
40
1.0000000000
40
1.0000000000
40
1.0000000000
40
1.0000000000
10
-310.8174645397
20
206.8348483104
30
0.0000000000
10
-310.8253757407
20
206.8361780982
30
0.0000000000
10
-310.8332550672
20
206.8376871092
30
0.0000000000
10
-310.8410847942
20
206.8394128787
30
0.0000000000
11
-310.8174645397
21
206.8348483104
31
0.0000000000
11
-310.8410847942
21
206.8394128787
31
0.0000000000
0
SPLINE
5
319
100
AcDbEntity
8
0
100
AcDbSpline
62
9
6
CONTINUOUS
70
0
71
3
72
8
73
4
74
2
42
0.0000001000
43
0.0000001000
44
0.0000000001
12
-0.0172327122
22
0.0037983049
32
0.0000000000
13
-0.0170515376
23
0.0045427719
33
0.0000000000
40
0.0000000000
40
0.0000000000
40
0.0000000000
40
0.0000000000
40
1.0000000000
40
1.0000000000
40
1.0000000000
40
1.0000000000
10
-310.8410847942
20
206.8394128787
30
0.0000000000
10
-310.8468290316
20
206.8406789804
30
0.0000000000
10
-310.8525465728
20
206.8420617490
30
0.0000000000
10
-310.8582304187
20
206.8435760063
30
0.0000000000
11
-310.8410847942
21
206.8394128787
31
0.0000000000
11
-310.8582304187
21
206.8435760063
31
0.0000000000
0
SPLINE
5
31A
100
AcDbEntity
8
0
100
AcDbSpline
62
9
6
CONTINUOUS
70
0
71
3
72
10
73
6
74
4
42
0.0000001000
43
0.0000001000
44
0.0000000001
12
-0.1168063314
22
0.0311188667
32
0.0000000000
13
0.0000729979
23
0.1208295183
33
0.0000000000
40
0.0000000000
40
0.0000000000
40
0.0000000000
40
0.0000000000
40
0.4363905819
40
0.7617294484
40
1.0000000000
40
1.0000000000
40
1.0000000000
40
1.0000000000
10
-310.8582304187
20
206.8435760063
30
0.0000000000
10
-310.8752214797
20
206.8481026664
30
0.0000000000
10
-310.9043541582
20
206.8580550739
30
0.0000000000
10
-310.9395598306
20
206.8788518970
30
0.0000000000
10
-310.9513635504
20
206.9009585497
30
0.0000000000
10
-310.9513577526
20
206.9105552550
30
0.0000000000
11
-310.8582304187
21
206.8435760063
31
0.0000000000
11
-310.9078414204
21
206.8614388896
31
0.0000000000
11
-310.9399466271
21
206.8841231288
31
0.0000000000
11
-310.9513577526
21
206.9105552550
31
0.0000000000
0
SPLINE
5
31B
100
AcDbEntity
8
0
100
AcDbSpline
62
9
6
CONTINUOUS
70
0
71
3
72
10
73
6
74
4
42
0.0000001000
43
0.0000001000
44
0.0000000001
12
-0.6096363370
22
0.0336737673
32
0.0000000000
13
-0.6096363343
23
-0.0336738160
33
0.0000000000
40
0.0000000000
40
0.0000000000
40
0.0000000000
40
0.0000000000
40
0.3328661760
40
0.6669943864
40
1.0000000000
40
1.0000000000
40
1.0000000000
40
1.0000000000
10
-310.0359223964
20
206.8269127606
30
0.0000000000
10
-310.1035648352
20
206.8306490466
30
0.0000000000
10
-310.2392573828
20
206.8356466349
30
0.0000000000
10
-310.4428208738
20
206.8356481960
30
0.0000000000
10
-310.5785418600
20
206.8306506172
30
0.0000000000
10
-310.6462126339
20
206.8269127606
30
0.0000000000
11
-310.0359223964
21
206.8269127606
31
0.0000000000
11
-310.2390213470
21
206.8343927647
31
0.0000000000
11
-310.4430285475
21
206.8343943335
31
0.0000000000
11
-310.6462126339
21
206.8269127606
31
0.0000000000
0
SPLINE
5
31C
100
AcDbEntity
8
0
100
AcDbSpline
62
9
6
CONTINUOUS
70
0
71
3
72
11
73
7
74
5
42
0.0000001000
43
0.0000001000
44
0.0000000001
12
-0.0000256699
22
-0.1384612527
32
0.0000000000
13
-0.1352723955
23
-0.0298191917
33
0.0000000000
40
0.0000000000
40
0.0000000000
40
0.0000000000
40
0.0000000000
40
0.2091032557
40
0.4931166190
40
0.8736295673
40
1.0000000000
40
1.0000000000
40
1.0000000000
40
1.0000000000
10
-309.7307772777
20
206.9105552550
30
0.0000000000
10
-309.7307790669
20
206.9009043554
30
0.0000000000
10
-309.7426682317
20
206.8787555339
30
0.0000000000
10
-309.7779331404
20
206.8579953462
30
0.0000000000
10
-309.8126010173
20
206.8461677881
30
0.0000000000
10
-309.8353515084
20
206.8406687548
30
0.0000000000
10
-309.8410496522
20
206.8394126668
30
0.0000000000
11
-309.7307772777
21
206.9105552550
31
0.0000000000
11
-309.7423035096
21
206.8839957978
31
0.0000000000
11
-309.7744587626
21
206.8613577043
31
0.0000000000
11
-309.8240407814
21
206.8435400259
31
0.0000000000
11
-309.8410496522
21
206.8394126668
31
0.0000000000
0
SPLINE
5
31D
100
AcDbEntity
8
0
100
AcDbSpline
62
9
6
CONTINUOUS
70
0
71
3
72
8
73
4
74
2
42
0.0000001000
43
0.0000001000
44
0.0000000001
12
-0.0042859530
22
-0.0009447874
32
0.0000000000
13
-0.0042955310
23
-0.0009021475
33
0.0000000000
40
0.0000000000
40
0.0000000000
40
0.0000000000
40
0.0000000000
40
1.0000000000
40
1.0000000000
40
1.0000000000
40
1.0000000000
10
-309.8410496522
20
206.8394126668
30
0.0000000000
10
-309.8424783032
20
206.8390977377
30
0.0000000000
10
-309.8439086042
20
206.8387900294
30
0.0000000000
10
-309.8453404479
20
206.8384893135
30
0.0000000000
11
-309.8410496522
21
206.8394126668
31
0.0000000000
11
-309.8453404479
21
206.8384893135
31
0.0000000000
0
SPLINE
5
31E
100
AcDbEntity
8
0
100
AcDbSpline
62
9
6
CONTINUOUS
70
0
71
3
72
8
73
4
74
2
42
0.0000001000
43
0.0000001000
44
0.0000000001
12
-0.0193422573
22
-0.0040622611
32
0.0000000000
13
-0.0195005064
23
-0.0032741333
33
0.0000000000
40
0.0000000000
40
0.0000000000
40
0.0000000000
40
0.0000000000
40
1.0000000000
40
1.0000000000
40
1.0000000000
40
1.0000000000
10
-309.8453404479
20
206.8384893135
30
0.0000000000
10
-309.8517878670
20
206.8371352265
30
0.0000000000
10
-309.8582665640
20
206.8359229185
30
0.0000000000
10
-309.8647667328
20
206.8348315407
30
0.0000000000
11
-309.8453404479
21
206.8384893135
31
0.0000000000
11
-309.8647667328
21
206.8348315407
31
0.0000000000
0
SPLINE
5
31F
100
AcDbEntity
8
0
100
AcDbSpline
62
9
6
CONTINUOUS
70
0
71
3
72
10
73
6
74
4
42
0.0000001000
43
0.0000001000
44
0.0000000001
12
-0.1436554342
22
-0.0241197344
32
0.0000000000
13
-0.1455167566
23
0.0039235326
33
0.0000000000
40
0.0000000000
40
0.0000000000
40
0.0000000000
40
0.0000000000
40
0.1538736103
40
0.6506453984
40
1.0000000000
40
1.0000000000
40
1.0000000000
40
1.0000000000
10
-309.8647667328
20
206.8348315407
30
0.0000000000
10
-309.8721349929
20
206.8335944105
30
0.0000000000
10
-309.9034079035
20
206.8290203253
30
0.0000000000
10
-309.9518380129
20
206.8254258092
30
0.0000000000
10
-309.9929181904
20
206.8253832687
30
0.0000000000
10
-310.0098638399
20
206.8258401701
30
0.0000000000
11
-309.8647667328
21
206.8348315407
31
0.0000000000
11
-309.8869399991
21
206.8315559453
31
0.0000000000
11
-309.9590126663
21
206.8259296327
31
0.0000000000
11
-310.0098638399
21
206.8258401701
31
0.0000000000
0
SPLINE
5
320
100
AcDbEntity
8
0
100
AcDbSpline
62
9
6
CONTINUOUS
70
0
71
3
72
8
73
4
74
2
42
0.0000001000
43
0.0000001000
44
0.0000000001
12
-0.0260755307
22
0.0007030681
32
0.0000000000
13
-0.0260370964
23
0.0014371509
33
0.0000000000
40
0.0000000000
40
0.0000000000
40
0.0000000000
40
0.0000000000
40
1.0000000000
40
1.0000000000
40
1.0000000000
40
1.0000000000
10
-310.0098638399
20
206.8258401701
30
0.0000000000
10
-310.0185556835
20
206.8260745262
30
0.0000000000
10
-310.0272433643
20
206.8264337103
30
0.0000000000
10
-310.0359223964
20
206.8269127606
30
0.0000000000
11
-310.0098638399
21
206.8258401701
31
0.0000000000
11
-310.0359223964
21
206.8269127606
31
0.0000000000
0
SPLINE
5
321
100
AcDbEntity
8
0
100
AcDbSpline
62
9
6
CONTINUOUS
70
0
71
3
72
12
73
8
74
6
42
0.0000001000
43
0.0000001000
44
0.0000000001
12
0.0000000402
22
-0.2481769191
32
0.0000000000
13
-0.0000000830
23
-0.2481769191
33
0.0000000000
40
0.0000000000
40
0.0000000000
40
0.0000000000
40
0.0000000000
40
0.1005484461
40
0.2392339420
40
0.4272491127
40
0.6764381929
40
1.0000000000
40
1.0000000000
40
1.0000000000
40
1.0000000000
10
-309.7307772777
20
207.1587321741
30
0.0000000000
10
-309.7307772763
20
207.1504142396
30
0.0000000000
10
-309.7307772794
20
207.1306234587
30
0.0000000000
10
-309.7307772745
20
207.0952790026
30
0.0000000000
10
-309.7307772786
20
207.0476381548
30
0.0000000000
10
-309.7307772829
20
206.9847032960
30
0.0000000000
10
-309.7307772687
20
206.9373221125
30
0.0000000000
10
-309.7307772777
20
206.9105552550
30
0.0000000000
11
-309.7307772777
21
207.1587321741
31
0.0000000000
11
-309.7307772779
21
207.1337783706
31
0.0000000000
11
-309.7307772762
21
207.0993598315
31
0.0000000000
11
-309.7307772781
21
207.0526988057
31
0.0000000000
11
-309.7307772792
21
206.9908558274
31
0.0000000000
11
-309.7307772777
21
206.9105552550
31
0.0000000000
0
SPLINE
5
322
100
AcDbEntity
8
0
100
AcDbSpline
62
9
6
CONTINUOUS
70
0
71
3
72
14
73
10
74
8
42
0.0000001000
43
0.0000001000
44
0.0000000001
12
-0.1022860762
22
0.0124369244
32
0.0000000000
13
0.0002474778
23
-0.1030391053
33
0.0000000000
40
0.0000000000
40
0.0000000000
40
0.0000000000
40
0.0000000000
40
0.1614060718
40
0.3347621391
40
0.5142394507
40
0.6893348921
40
0.8429827303
40
0.9520038950
40
1.0000000000
40
1.0000000000
40
1.0000000000
40
1.0000000000
10
-309.6290622381
20
207.1587321741
30
0.0000000000
10
-309.6345654360
20
207.1594013059
30
0.0000000000
10
-309.6459960991
20
207.1606773569
30
0.0000000000
10
-309.6635730893
20
207.1622759858
30
0.0000000000
10
-309.6817263879
20
207.1634310748
30
0.0000000000
10
-309.6989796827
20
207.1640466711
30
0.0000000000
10
-309.7146126803
20
207.1635327689
30
0.0000000000
10
-309.7239457241
20
207.1628075196
30
0.0000000000
10
-309.7307812370
20
207.1603806661
30
0.0000000000
10
-309.7307772777
20
207.1587321741
30
0.0000000000
11
-309.6290622381
21
207.1587321741
31
0.0000000000
11
-309.6455907773
21
207.1605770898
31
0.0000000000
11
-309.6633813504
21
207.1621785314
31
0.0000000000
11
-309.6818373214
21
207.1633519325
31
0.0000000000
11
-309.6998721691
21
207.1638502075
31
0.0000000000
11
-309.7156968492
21
207.1633760721
31
0.0000000000
11
-309.7268002933
21
207.1616718113
31
0.0000000000
11
-309.7307772777
21
207.1587321741
31
0.0000000000
0
SPLINE
5
323
100
AcDbEntity
8
0
100
AcDbSpline
62
9
6
CONTINUOUS
70
0
71
3
72
10
73
6
74
4
42
0.0000001000
43
0.0000001000
44
0.0000000001
12
-0.0000000011
22
-0.0084211513
32
0.0000000000
13
-0.0000000040
23
-0.0084211513
33
0.0000000000
40
0.0000000000
40
0.0000000000
40
0.0000000000
40
0.0000000000
40
0.1109954972
40
0.4447521893
40
1.0000000000
40
1.0000000000
40
1.0000000000
40
1.0000000000
10
-308.2050516840
20
206.8353339119
30
0.0000000000
10
-308.2050516840
20
206.8350223420
30
0.0000000000
10
-308.2050516843
20
206.8337739001
30
0.0000000000
10
-308.2050516848
20
206.8309668497
30
0.0000000000
10
-308.2050516833
20
206.8284713692
30
0.0000000000
10
-308.2050516840
20
206.8269127606
30
0.0000000000
11
-308.2050516840
21
206.8353339119
31
0.0000000000
11
-308.2050516842
21
206.8343992020
31
0.0000000000
11
-308.2050516844
21
206.8315885864
31
0.0000000000
11
-308.2050516840
21
206.8269127606
31
0.0000000000
0
SPLINE
5
324
100
AcDbEntity
8
0
100
AcDbSpline
62
9
6
CONTINUOUS
70
0
71
3
72
12
73
8
74
6
42
0.0000001000
43
0.0000001000
44
0.0000000001
12
-1.0911187217
22
0.3562227291
32
0.0000000000
13
-1.1394049461
23
0.1385318241
33
0.0000000000
40
0.0000000000
40
0.0000000000
40
0.0000000000
40
0.0000000000
40
0.2220767843
40
0.4263822369
40
0.6251590283
40
0.8222368415
40
1.0000000000
40
1.0000000000
40
1.0000000000
40
1.0000000000
10
-308.5101968027
20
206.9105552550
30
0.0000000000
10
-308.5909675151
20
206.9369248544
30
0.0000000000
10
-308.7471613607
20
206.9842097994
30
0.0000000000
10
-308.9788201090
20
207.0439734211
30
0.0000000000
10
-309.2032957803
20
207.0925848820
30
0.0000000000
10
-309.4194701027
20
207.1307506940
30
0.0000000000
10
-309.5615474974
20
207.1505235559
30
0.0000000000
10
-309.6290622381
20
207.1587321741
30
0.0000000000
11
-308.5101968027
21
206.9105552550
31
0.0000000000
11
-308.7541614015
21
206.9844108456
31
0.0000000000
11
-308.9812277913
21
207.0429900634
31
0.0000000000
11
-309.2042142117
21
207.0912789485
31
0.0000000000
11
-309.4269741563
21
207.1306074203
31
0.0000000000
11
-309.6290622381
21
207.1587321741
31
0.0000000000
0
SPLINE
5
325
100
AcDbEntity
8
0
100
AcDbSpline
62
9
6
CONTINUOUS
70
0
71
3
72
10
73
6
74
4
42
0.0000001000
43
0.0000001000
44
0.0000000001
12
0.0000305523
22
-0.0705416368
32
0.0000000000
13
-0.0710873922
23
0.0193144344
33
0.0000000000
40
0.0000000000
40
0.0000000000
40
0.0000000000
40
0.0000000000
40
0.1406318942
40
0.5591741542
40
1.0000000000
40
1.0000000000
40
1.0000000000
40
1.0000000000
10
-308.2050516840
20
206.8269127606
30
0.0000000000
10
-308.2050502518
20
206.8236059593
30
0.0000000000
10
-308.2261451466
20
206.8287255923
30
0.0000000000
10
-308.2430195526
20
206.8308375447
30
0.0000000000
10
-308.2628477965
20
206.8358898371
30
0.0000000000
10
-308.2732935164
20
206.8387279377
30
0.0000000000
11
-308.2050516840
21
206.8269127606
31
0.0000000000
11
-308.2149234892
21
206.8259319981
31
0.0000000000
11
-308.2439070911
21
206.8315583914
31
0.0000000000
11
-308.2732935164
21
206.8387279377
31
0.0000000000
0
SPLINE
5
326
100
AcDbEntity
8
0
100
AcDbSpline
62
9
6
CONTINUOUS
70
0
71
3
72
11
73
7
74
5
42
0.0000001000
43
0.0000001000
44
0.0000000001
12
-0.2486304027
22
0.0675528451
32
0.0000000000
13
-0.2345404016
23
0.0765660645
33
0.0000000000
40
0.0000000000
40
0.0000000000
40
0.0000000000
40
0.0000000000
40
0.0697732047
40
0.3340318270
40
0.6507837916
40
1.0000000000
40
1.0000000000
40
1.0000000000
40
1.0000000000
10
-308.2732935164
20
206.8387279377
30
0.0000000000
10
-308.2790760964
20
206.8402990639
30
0.0000000000
10
-308.3071623436
20
206.8481822372
30
0.0000000000
10
-308.3570999132
20
206.8623271403
30
0.0000000000
10
-308.4308945476
20
206.8850197561
30
0.0000000000
10
-308.4828950328
20
206.9016425514
30
0.0000000000
10
-308.5101968027
20
206.9105552550
30
0.0000000000
11
-308.2732935164
21
206.8387279377
31
0.0000000000
11
-308.2907024210
21
206.8435651889
31
0.0000000000
11
-308.3533837868
21
206.8615058417
31
0.0000000000
11
-308.4281312727
21
206.8843130158
31
0.0000000000
11
-308.5101968027
21
206.9105552550
31
0.0000000000
0
SPLINE
5
327
100
AcDbEntity
8
0
100
AcDbSpline
62
9
6
CONTINUOUS
70
0
71
3
72
9
73
5
74
3
42
0.0000001000
43
0.0000001000
44
0.0000000001
12
-0.0385583277
22
0.0148674323
32
0.0000000000
13
-0.0415816152
23
-0.0019562143
33
0.0000000000
40
0.0000000000
40
0.0000000000
40
0.0000000000
40
0.0000000000
40
0.9326375344
40
1.0000000000
40
1.0000000000
40
1.0000000000
40
1.0000000000
10
-308.2050547551
20
206.8269048199
30
0.0000000000
10
-308.2170417364
20
206.8315267951
30
0.0000000000
10
-308.2310093864
20
206.8339980101
30
0.0000000000
10
-308.2448814561
20
206.8335419129
30
0.0000000000
10
-308.2458151361
20
206.8334979878
30
0.0000000000
11
-308.2050547551
21
206.8269048199
31
0.0000000000
11
-308.2430121088
21
206.8335900773
31
0.0000000000
11
-308.2458151361
21
206.8334979878
31
0.0000000000
0
SPLINE
5
328
100
AcDbEntity
8
0
100
AcDbSpline
62
9
6
CONTINUOUS
70
0
71
3
72
11
73
7
74
5
42
0.0000001000
43
0.0000001000
44
0.0000000001
12
-0.1364282044
22
0.0140105337
32
0.0000000000
13
-0.0395342535
23
-0.1327328489
33
0.0000000000
40
0.0000000000
40
0.0000000000
40
0.0000000000
40
0.0000000000
40
0.3028818956
40
0.6052345461
40
0.9066924769
40
1.0000000000
40
1.0000000000
40
1.0000000000
40
1.0000000000
10
-309.7307772791
20
207.1587321604
30
0.0000000000
10
-309.7445511568
20
207.1601466727
30
0.0000000000
10
-309.7730110764
20
207.1571740735
30
0.0000000000
10
-309.8099627197
20
207.1359202163
30
0.0000000000
10
-309.8293582747
20
207.1094851859
30
0.0000000000
10
-309.8356929212
20
207.0923503307
30
0.0000000000
10
-309.8369225356
20
207.0882220062
30
0.0000000000
11
-309.7307772791
21
207.1587321604
31
0.0000000000
11
-309.7720858056
21
207.1543628795
31
0.0000000000
11
-309.8080412973
21
207.1337070630
31
0.0000000000
11
-309.8324386735
21
207.1003294238
31
0.0000000000
11
-309.8369225356
21
207.0882220062
31
0.0000000000
0
SPLINE
5
329
100
AcDbEntity
8
0
100
AcDbSpline
62
9
6
CONTINUOUS
70
0
71
3
72
8
73
4
74
2
42
0.0000001000
43
0.0000001000
44
0.0000000001
12
-0.0033860998
22
-0.0113685382
32
0.0000000000
13
-0.0020145149
23
-0.0116653788
33
0.0000000000
40
0.0000000000
40
0.0000000000
40
0.0000000000
40
0.0000000000
40
1.0000000000
40
1.0000000000
40
1.0000000000
40
1.0000000000
10
-309.8369225356
20
207.0882220062
30
0.0000000000
10
-309.8380512356
20
207.0844324935
30
0.0000000000
10
-309.8389544108
20
207.0805770080
30
0.0000000000
10
-309.8396259157
20
207.0766885484
30
0.0000000000
11
-309.8369225356
21
207.0882220062
31
0.0000000000
11
-309.8396259157
21
207.0766885484
31
0.0000000000
0
SPLINE
5
32A
100
AcDbEntity
8
0
100
AcDbSpline
62
9
6
CONTINUOUS
70
0
71
3
72
8
73
4
74
2
42
0.0000001000
43
0.0000001000
44
0.0000000001
12
-0.0006855855
22
-0.0039699952
32
0.0000000000
13
-0.0005238670
23
-0.0039890075
33
0.0000000000
40
0.0000000000
40
0.0000000000
40
0.0000000000
40
0.0000000000
40
1.0000000000
40
1.0000000000
40
1.0000000000
40
1.0000000000
10
-309.8396259157
20
207.0766885484
30
0.0000000000
10
-309.8398544442
20
207.0753652167
30
0.0000000000
10
-309.8400561407
20
207.0740380659
30
0.0000000000
10
-309.8402307631
20
207.0727083968
30
0.0000000000
11
-309.8396259157
21
207.0766885484
31
0.0000000000
11
-309.8402307631
21
207.0727083968
31
0.0000000000
0
SPLINE
5
32B
100
AcDbEntity
8
0
100
AcDbSpline
62
9
6
CONTINUOUS
70
0
71
3
72
8
73
4
74
2
42
0.0000001000
43
0.0000001000
44
0.0000000001
12
-0.0016657154
22
-0.0126836605
32
0.0000000000
13
-0.0000000018
23
-0.0127109900
33
0.0000000000
40
0.0000000000
40
0.0000000000
40
0.0000000000
40
0.0000000000
40
1.0000000000
40
1.0000000000
40
1.0000000000
40
1.0000000000
10
-309.8402307631
20
207.0727083968
30
0.0000000000
10
-309.8407860015
20
207.0684805099
30
0.0000000000
10
-309.8410675145
20
207.0642271618
30
0.0000000000
10
-309.8410675151
20
207.0599901652
30
0.0000000000
11
-309.8402307631
21
207.0727083968
31
0.0000000000
11
-309.8410675151
21
207.0599901652
31
0.0000000000
0
SPLINE
5
32C
100
AcDbEntity
8
0
100
AcDbSpline
62
9
6
CONTINUOUS
70
0
71
3
72
10
73
6
74
4
42
0.0000001000
43
0.0000001000
44
0.0000000001
12
-0.1210365973
22
0.0119148569
32
0.0000000000
13
-0.0533106822
23
-0.1105467502
33
0.0000000000
40
0.0000000000
40
0.0000000000
40
0.0000000000
40
0.0000000000
40
0.3413955304
40
0.6788235121
40
1.0000000000
40
1.0000000000
40
1.0000000000
40
1.0000000000
10
-309.7307777563
20
206.9105508616
30
0.0000000000
10
-309.7445515407
20
206.9119067546
30
0.0000000000
10
-309.7727926653
20
206.9091055026
30
0.0000000000
10
-309.8093291576
20
206.8891426374
30
0.0000000000
10
-309.8262402767
20
206.8675114033
30
0.0000000000
10
-309.8319476559
20
206.8556763976
30
0.0000000000
11
-309.7307777563
21
206.9105508616
31
0.0000000000
11
-309.7720878235
21
206.9063701201
31
0.0000000000
11
-309.8080456071
21
206.8865913500
31
0.0000000000
11
-309.8319476559
21
206.8556763976
31
0.0000000000
0
SPLINE
5
32D
100
AcDbEntity
8
0
100
AcDbSpline
62
9
6
CONTINUOUS
70
0
71
3
72
10
73
6
74
4
42
0.0000001000
43
0.0000001000
44
0.0000000001
12
0.1210105791
22
0.0119005592
32
0.0000000000
13
0.0533247757
23
-0.1105085263
33
0.0000000000
40
0.0000000000
40
0.0000000000
40
0.0000000000
40
0.0000000000
40
0.3414622253
40
0.6789559621
40
1.0000000000
40
1.0000000000
40
1.0000000000
40
1.0000000000
10
-310.9513577454
20
206.9105551885
30
0.0000000000
10
-310.9375842315
20
206.9119097190
30
0.0000000000
10
-310.9093442675
20
206.9091061787
30
0.0000000000
10
-310.8728173355
20
206.8891455487
30
0.0000000000
10
-310.8559105248
20
206.8675232767
30
0.0000000000
10
-310.8502039910
20
206.8556972422
30
0.0000000000
11
-310.9513577454
21
206.9105551885
31
0.0000000000
11
-310.9100492338
21
206.9063710747
31
0.0000000000
11
-310.8740937517
21
206.8865906396
31
0.0000000000
11
-310.8502039910
21
206.8556972422
31
0.0000000000
0
SPLINE
5
32E
100
AcDbEntity
8
0
100
AcDbSpline
62
9
6
CONTINUOUS
70
0
71
3
72
11
73
7
74
5
42
0.0000001000
43
0.0000001000
44
0.0000000001
12
0.1647257712
22
0.0169074676
32
0.0000000000
13
0.0000024998
23
-0.1655911898
33
0.0000000000
40
0.0000000000
40
0.0000000000
40
0.0000000000
40
0.0000000000
40
0.2508328946
40
0.5012304873
40
0.7508912799
40
1.0000000000
40
1.0000000000
40
1.0000000000
40
1.0000000000
10
-310.9513577425
20
207.1587320767
30
0.0000000000
10
-310.9375848618
20
207.1601457264
30
0.0000000000
10
-310.9091271576
20
207.1571717430
30
0.0000000000
10
-310.8721790788
20
207.1359173162
30
0.0000000000
10
-310.8470135011
20
207.1016155147
30
0.0000000000
10
-310.8410772626
20
207.0737402346
30
0.0000000000
10
-310.8410770550
20
207.0599901649
30
0.0000000000
11
-310.9513577425
21
207.1587320767
31
0.0000000000
11
-310.9100526769
21
207.1543608774
31
0.0000000000
11
-310.8741005863
21
207.1337046377
31
0.0000000000
11
-310.8497054795
21
207.1003278651
31
0.0000000000
11
-310.8410770550
21
207.0599901649
31
0.0000000000
0
SPLINE
5
32F
100
AcDbEntity
8
0
100
AcDbSpline
62
9
6
CONTINUOUS
70
0
71
3
72
9
73
5
74
3
42
0.0000001000
43
0.0000001000
44
0.0000000001
12
0.0385822683
22
0.0148726601
32
0.0000000000
13
0.0416051680
23
-0.0019714101
33
0.0000000000
40
0.0000000000
40
0.0000000000
40
0.0000000000
40
0.0000000000
40
0.9320597385
40
1.0000000000
40
1.0000000000
40
1.0000000000
40
1.0000000000
10
-312.4770833443
20
206.8269127556
30
0.0000000000
10
-312.4650963514
20
206.8315334915
30
0.0000000000
10
-312.4511203352
20
206.8340049977
30
0.0000000000
10
-312.4372402394
20
206.8335457375
30
0.0000000000
10
-312.4362980174
20
206.8335010915
30
0.0000000000
11
-312.4770833443
21
206.8269127556
31
0.0000000000
11
-312.4391267168
21
206.8335946140
31
0.0000000000
11
-312.4362980174
21
206.8335010915
31
0.0000000000
0
SPLINE
5
330
100
AcDbEntity
8
0
100
AcDbSpline
62
7
6
CONTINUOUS
70
0
71
3
72
16
73
12
74
10
42
0.0000001000
43
0.0000001000
44
0.0000000001
12
0.0289744044
22
-0.2588793067
32
0.0000000000
13
0.2571086795
23
0.0312684163
33
0.0000000000
40
0.0000000000
40
0.0000000000
40
0.0000000000
40
0.0000000000
40
0.0950980898
40
0.2223386279
40
0.3380988178
40
0.4476222810
40
0.5468622451
40
0.6466093114
40
0.7654231273
40
0.9093720201
40
1.0000000000
40
1.0000000000
40
1.0000000000
40
1.0000000000
10
-309.8404289463
20
-427.6045158204
30
0.0000000000
10
-309.8395104761
20
-427.6127221296
30
0.0000000000
10
-309.8350327124
20
-427.6317190662
30
0.0000000000
10
-309.8203129046
20
-427.6574834376
30
0.0000000000
10
-309.7975909983
20
-427.6783830811
30
0.0000000000
10
-309.7722222475
20
-427.6910445709
30
0.0000000000
10
-309.7460773241
20
-427.6969667033
30
0.0000000000
10
-309.7186387895
20
-427.6986756929
30
0.0000000000
10
-309.6873331589
20
-427.6979992517
30
0.0000000000
10
-309.6569007514
20
-427.6957140945
30
0.0000000000
10
-309.6367650532
20
-427.6935239113
30
0.0000000000
10
-309.6289979731
20
-427.6925793135
30
0.0000000000
11
-309.8404289463
21
-427.6045158204
31
0.0000000000
11
-309.8347283414
21
-427.6285970206
31
0.0000000000
11
-309.8184194106
21
-427.6572311064
31
0.0000000000
11
-309.7963730667
21
-427.6775471159
31
0.0000000000
11
-309.7710406618
21
-427.6903069611
31
0.0000000000
11
-309.7460414498
21
-427.6962730507
31
0.0000000000
11
-309.7202841125
21
-427.6982434150
31
0.0000000000
11
-309.6895168058
21
-427.6977990016
31
0.0000000000
11
-309.6523334730
21
-427.6951157486
31
0.0000000000
11
-309.6289979731
21
-427.6925793135
31
0.0000000000
0
SPLINE
5
331
100
AcDbEntity
8
0
100
AcDbSpline
62
7
6
CONTINUOUS
70
0
71
3
72
17
73
13
74
11
42
0.0000001000
43
0.0000001000
44
0.0000000001
12
0.2409615793
22
0.0786737289
32
0.0000000000
13
0.2508541122
23
0.0616341786
33
0.0000000000
40
0.0000000000
40
0.0000000000
40
0.0000000000
40
0.0000000000
40
0.1257174119
40
0.2559316030
40
0.3801033766
40
0.4973284206
40
0.6067933816
40
0.7076507114
40
0.7992778858
40
0.8810031933
40
0.9522887015
40
1.0000000000
40
1.0000000000
40
1.0000000000
40
1.0000000000
10
-308.5100330723
20
-427.4443753309
30
0.0000000000
10
-308.4999353836
20
-427.4410784450
30
0.0000000000
10
-308.4793630971
20
-427.4344149220
30
0.0000000000
10
-308.4487632935
20
-427.4246628122
30
0.0000000000
10
-308.4188006521
20
-427.4152750459
30
0.0000000000
10
-308.3904659314
20
-427.4065589427
30
0.0000000000
10
-308.3639669084
20
-427.3985684935
30
0.0000000000
10
-308.3394989193
20
-427.3913634332
30
0.0000000000
10
-308.3172067968
20
-427.3849774157
30
0.0000000000
10
-308.2973540330
20
-427.3794477900
30
0.0000000000
10
-308.2807887165
20
-427.3750556258
30
0.0000000000
10
-308.2713637145
20
-427.3726084411
30
0.0000000000
10
-308.2673741893
20
-427.3716282255
30
0.0000000000
11
-308.5100330723
21
-427.4443753309
31
0.0000000000
11
-308.4797170275
21
-427.4345554606
31
0.0000000000
11
-308.4482685138
21
-427.4245340546
31
0.0000000000
11
-308.4182323392
21
-427.4151264047
31
0.0000000000
11
-308.3898305263
21
-427.4063932752
31
0.0000000000
11
-308.3632630169
21
-427.3983888775
31
0.0000000000
11
-308.3387370979
21
-427.3911734667
31
0.0000000000
11
-308.3164088027
21
-427.3847800122
31
0.0000000000
11
-308.2964467192
21
-427.3792433093
31
0.0000000000
11
-308.2789851509
21
-427.3745960069
31
0.0000000000
11
-308.2673741893
21
-427.3716282255
31
0.0000000000
0
SPLINE
5
332
100
AcDbEntity
8
0
100
AcDbSpline
62
7
6
CONTINUOUS
70
0
71
3
72
11
73
7
74
5
42
0.0000001000
43
0.0000001000
44
0.0000000001
12
0.0254898087
22
0.0062627772
32
0.0000000000
13
0.0387715112
23
0.0062176843
33
0.0000000000
40
0.0000000000
40
0.0000000000
40
0.0000000000
40
0.0000000000
40
0.1248469644
40
0.5993276583
40
0.9394943737
40
1.0000000000
40
1.0000000000
40
1.0000000000
40
1.0000000000
10
-308.2673741893
20
-427.3716282255
30
0.0000000000
10
-308.2663134143
20
-427.3713675959
30
0.0000000000
10
-308.2611496883
20
-427.3701167744
30
0.0000000000
10
-308.2523310517
20
-427.3681420542
30
0.0000000000
10
-308.2478379136
20
-427.3669011977
30
0.0000000000
10
-308.2419923184
20
-427.3659743549
30
0.0000000000
10
-308.2412103536
20
-427.3658489533
30
0.0000000000
11
-308.2673741893
21
-427.3716282255
31
0.0000000000
11
-308.2641420412
21
-427.3708460881
31
0.0000000000
11
-308.2522454920
21
-427.3680487733
31
0.0000000000
11
-308.2436714147
21
-427.3662460996
31
0.0000000000
11
-308.2412103536
21
-427.3658489533
31
0.0000000000
0
SPLINE
5
333
100
AcDbEntity
8
0
100
AcDbSpline
62
7
6
CONTINUOUS
70
0
71
3
72
10
73
6
74
4
42
0.0000001000
43
0.0000001000
44
0.0000000001
12
1.1394054503
22
0.1385357645
32
0.0000000000
13
1.0911165306
23
0.3562186596
33
0.0000000000
40
0.0000000000
40
0.0000000000
40
0.0000000000
40
0.0000000000
40
0.3242326341
40
0.6737101514
40
1.0000000000
40
1.0000000000
40
1.0000000000
40
1.0000000000
10
-309.6289981755
20
-427.6925776437
30
0.0000000000
10
-309.5058540320
20
-427.6776050385
30
0.0000000000
10
-309.2508850662
20
-427.6384106554
30
0.0000000000
10
-308.8771064141
20
-427.5555808886
30
0.0000000000
10
-308.6287054866
20
-427.4831219101
30
0.0000000000
10
-308.5100320707
20
-427.4443783993
30
0.0000000000
11
-309.6289981755
21
-427.6925776437
31
0.0000000000
11
-309.2611688206
21
-427.6360324560
31
0.0000000000
11
-308.8695590384
21
-427.5492512445
31
0.0000000000
11
-308.5100320707
21
-427.4443783993
31
0.0000000000
0
SPLINE
5
334
100
AcDbEntity
8
0
100
AcDbSpline
62
7
6
CONTINUOUS
70
0
71
3
72
8
73
4
74
2
42
0.0000001000
43
0.0000001000
44
0.0000000001
12
0.0000045224
22
-0.0112105483
32
0.0000000000
13
0.0012537431
23
-0.0111931650
33
0.0000000000
40
0.0000000000
40
0.0000000000
40
0.0000000000
40
0.0000000000
40
1.0000000000
40
1.0000000000
40
1.0000000000
40
1.0000000000
10
-309.8410575250
20
-427.5932998128
30
0.0000000000
10
-309.8410560175
20
-427.5970366622
30
0.0000000000
10
-309.8408441741
20
-427.6007844639
30
0.0000000000
10
-309.8404262598
20
-427.6045155189
30
0.0000000000
11
-309.8410575250
21
-427.5932998128
31
0.0000000000
11
-309.8404262598
21
-427.6045155189
31
0.0000000000
0
SPLINE
5
335
100
AcDbEntity
8
0
100
AcDbSpline
62
7
6
CONTINUOUS
70
0
71
3
72
13
73
9
74
7
42
0.0000001000
43
0.0000001000
44
0.0000000001
12
0.0186732971
22
-0.1667114088
32
0.0000000000
13
0.1668252168
23
-0.0043654261
33
0.0000000000
40
0.0000000000
40
0.0000000000
40
0.0000000000
40
0.0000000000
40
0.1475633507
40
0.3441968187
40
0.5230475999
40
0.6926499719
40
0.8460445029
40
1.0000000000
40
1.0000000000
40
1.0000000000
40
1.0000000000
10
-309.8404262597
20
-427.6045155195
30
0.0000000000
10
-309.8395077616
20
-427.6127156841
30
0.0000000000
10
-309.8350435193
20
-427.6316541770
30
0.0000000000
10
-309.8204041071
20
-427.6573333981
30
0.0000000000
10
-309.7978342299
20
-427.6782013793
30
0.0000000000
10
-309.7726128891
20
-427.6908985803
30
0.0000000000
10
-309.7466027608
20
-427.6968919651
30
0.0000000000
10
-309.7295145232
20
-427.6980021438
30
0.0000000000
10
-309.7209533034
20
-427.6982261709
30
0.0000000000
11
-309.8404262597
21
-427.6045155195
31
0.0000000000
11
-309.8347298342
21
-427.6285792738
31
0.0000000000
11
-309.8185247683
21
-427.6570931444
31
0.0000000000
11
-309.7966387850
21
-427.6773636296
31
0.0000000000
11
-309.7714174333
21
-427.6901745278
31
0.0000000000
11
-309.7465518490
21
-427.6961994296
31
0.0000000000
11
-309.7209533034
21
-427.6982261709
31
0.0000000000
0
SPLINE
5
336
100
AcDbEntity
8
0
100
AcDbSpline
62
7
6
CONTINUOUS
70
0
71
3
72
8
73
4
74
2
42
0.0000001000
43
0.0000001000
44
0.0000000001
12
0.0304850193
22
-0.0007977217
32
0.0000000000
13
0.0304535634
23
0.0013443544
33
0.0000000000
40
0.0000000000
40
0.0000000000
40
0.0000000000
40
0.0000000000
40
1.0000000000
40
1.0000000000
40
1.0000000000
40
1.0000000000
10
-309.7209533034
20
-427.6982261709
30
0.0000000000
10
-309.7107916303
20
-427.6984920782
30
0.0000000000
10
-309.7006278349
20
-427.6982901471
30
0.0000000000
10
-309.6904766471
20
-427.6978420289
30
0.0000000000
11
-309.7209533034
21
-427.6982261709
31
0.0000000000
11
-309.6904766471
21
-427.6978420289
31
0.0000000000
0
SPLINE
5
337
100
AcDbEntity
8
0
100
AcDbSpline
62
7
6
CONTINUOUS
70
0
71
3
72
9
73
5
74
3
42
0.0000001000
43
0.0000001000
44
0.0000000001
12
0.0616600254
22
0.0027219451
32
0.0000000000
13
0.0612650701
23
0.0074519145
33
0.0000000000
40
0.0000000000
40
0.0000000000
40
0.0000000000
40
0.0000000000
40
0.5991729697
40
1.0000000000
40
1.0000000000
40
1.0000000000
40
1.0000000000
10
-309.6904766471
20
-427.6978420289
30
0.0000000000
10
-309.6781616403
20
-427.6972983903
30
0.0000000000
10
-309.6576392667
20
-427.6957863632
30
0.0000000000
10
-309.6371835690
20
-427.6935747027
30
0.0000000000
10
-309.6289980036
20
-427.6925790598
30
0.0000000000
11
-309.6904766471
21
-427.6978420289
31
0.0000000000
11
-309.6535926744
21
-427.6952352846
31
0.0000000000
11
-309.6289980036
21
-427.6925790598
31
0.0000000000
0
SPLINE
5
338
100
AcDbEntity
8
0
100
AcDbSpline
62
7
6
CONTINUOUS
70
0
71
3
72
8
73
4
74
2
42
0.0000001000
43
0.0000001000
44
0.0000000001
12
0.0121258853
22
0.0006742997
32
0.0000000000
13
0.0121403917
23
0.0004857074
33
0.0000000000
40
0.0000000000
40
0.0000000000
40
0.0000000000
40
0.0000000000
40
1.0000000000
40
1.0000000000
40
1.0000000000
40
1.0000000000
10
-310.0355532045
20
-427.3669152561
30
0.0000000000
10
-310.0315112427
20
-427.3666904896
30
0.0000000000
10
-310.0274668962
20
-427.3664968167
30
0.0000000000
10
-310.0234200990
20
-427.3663349142
30
0.0000000000
11
-310.0355532045
21
-427.3669152561
31
0.0000000000
11
-310.0234200990
21
-427.3663349142
31
0.0000000000
0
SPLINE
5
339
100
AcDbEntity
8
0
100
AcDbSpline
62
7
6
CONTINUOUS
70
0
71
3
72
8
73
4
74
2
42
0.0000001000
43
0.0000001000
44
0.0000000001
12
0.0226721203
22
0.0009070561
32
0.0000000000
13
0.0227246917
23
0.0002290275
33
0.0000000000
40
0.0000000000
40
0.0000000000
40
0.0000000000
40
0.0000000000
40
1.0000000000
40
1.0000000000
40
1.0000000000
40
1.0000000000
10
-310.0234200990
20
-427.3663349142
30
0.0000000000
10
-310.0158627256
20
-427.3660325622
30
0.0000000000
10
-310.0082968052
20
-427.3658410109
30
0.0000000000
10
-310.0007219079
20
-427.3657646684
30
0.0000000000
11
-310.0234200990
21
-427.3663349142
31
0.0000000000
11
-310.0007219079
21
-427.3657646684
31
0.0000000000
0
SPLINE
5
33A
100
AcDbEntity
8
0
100
AcDbSpline
62
7
6
CONTINUOUS
70
0
71
3
72
11
73
7
74
5
42
0.0000001000
43
0.0000001000
44
0.0000000001
12
0.1625355335
22
0.0016380908
32
0.0000000000
13
0.1430045884
23
-0.0452983136
33
0.0000000000
40
0.0000000000
40
0.0000000000
40
0.0000000000
40
0.0000000000
40
0.3921400466
40
0.7167710143
40
0.9507098624
40
1.0000000000
40
1.0000000000
40
1.0000000000
40
1.0000000000
10
-310.0007219079
20
-427.3657646684
30
0.0000000000
10
-309.9794763440
20
-427.3655505480
30
0.0000000000
10
-309.9405136816
20
-427.3668157326
30
0.0000000000
10
-309.8901464597
20
-427.3721521375
30
0.0000000000
10
-309.8564728835
20
-427.3808331622
30
0.0000000000
10
-309.8433042247
20
-427.3842928868
30
0.0000000000
10
-309.8409546528
20
-427.3850371402
30
0.0000000000
11
-310.0007219079
21
-427.3657646684
31
0.0000000000
11
-309.9371400547
21
-427.3677604227
31
0.0000000000
11
-309.8848854463
21
-427.3742966300
31
0.0000000000
11
-309.8479640516
21
-427.3830709780
31
0.0000000000
11
-309.8409546528
21
-427.3850371402
31
0.0000000000
0
SPLINE
5
33B
100
AcDbEntity
8
0
100
AcDbSpline
62
7
6
CONTINUOUS
70
0
71
3
72
9
73
5
74
3
42
0.0000001000
43
0.0000001000
44
0.0000000001
12
0.0148819146
22
-0.0047140140
32
0.0000000000
13
0.0133048910
23
-0.0072041476
33
0.0000000000
40
0.0000000000
40
0.0000000000
40
0.0000000000
40
0.0000000000
40
0.8019985287
40
1.0000000000
40
1.0000000000
40
1.0000000000
40
1.0000000000
10
-309.8409546528
20
-427.3850371402
30
0.0000000000
10
-309.8369762282
20
-427.3862973509
30
0.0000000000
10
-309.8318088155
20
-427.3883769052
30
0.0000000000
10
-309.8253706495
20
-427.3922969027
30
0.0000000000
10
-309.8244925202
20
-427.3927723800
30
0.0000000000
11
-309.8409546528
21
-427.3850371402
31
0.0000000000
11
-309.8278703628
21
-427.3908167260
31
0.0000000000
11
-309.8244925202
21
-427.3927723800
31
0.0000000000
0
SPLINE
5
33C
100
AcDbEntity
8
0
100
AcDbSpline
62
7
6
CONTINUOUS
70
0
71
3
72
10
73
6
74
4
42
0.0000001000
43
0.0000001000
44
0.0000000001
12
0.6103837428
22
-0.0337146206
32
0.0000000000
13
0.6103824095
23
0.0337146639
33
0.0000000000
40
0.0000000000
40
0.0000000000
40
0.0000000000
40
0.0000000000
40
0.3162379388
40
0.6798529955
40
1.0000000000
40
1.0000000000
40
1.0000000000
40
1.0000000000
10
-310.6465827533
20
-427.3669319547
30
0.0000000000
10
-310.5822405878
20
-427.3704859020
30
0.0000000000
10
-310.4437715167
20
-427.3757130734
30
0.0000000000
10
-310.2399567562
20
-427.3757570030
30
0.0000000000
10
-310.1006897860
20
-427.3705298596
30
0.0000000000
10
-310.0355524193
20
-427.3669319767
30
0.0000000000
11
-310.6465827533
21
-427.3669319547
31
0.0000000000
11
-310.4534004959
21
-427.3742242627
31
0.0000000000
11
-310.2311238605
21
-427.3742722013
31
0.0000000000
11
-310.0355524193
21
-427.3669319767
31
0.0000000000
0
SPLINE
5
33D
100
AcDbEntity
8
0
100
AcDbSpline
62
7
6
CONTINUOUS
70
0
71
3
72
8
73
4
74
2
42
0.0000001000
43
0.0000001000
44
0.0000000001
12
0.0008077267
22
0.0004121821
32
0.0000000000
13
0.0010839278
23
0.0006210744
33
0.0000000000
40
0.0000000000
40
0.0000000000
40
0.0000000000
40
0.0000000000
40
1.0000000000
40
1.0000000000
40
1.0000000000
40
1.0000000000
10
-310.8579518776
20
-427.3929093879
30
0.0000000000
10
-310.8576826354
20
-427.3927719939
30
0.0000000000
10
-310.8573569949
20
-427.3925911040
30
0.0000000000
10
-310.8569956856
20
-427.3923840792
30
0.0000000000
11
-310.8579518776
21
-427.3929093879
31
0.0000000000
11
-310.8569956856
21
-427.3923840792
31
0.0000000000
0
SPLINE
5
33E
100
AcDbEntity
8
0
100
AcDbSpline
62
7
6
CONTINUOUS
70
0
71
3
72
9
73
5
74
3
42
0.0000001000
43
0.0000001000
44
0.0000000001
12
0.0121376826
22
0.0061938472
32
0.0000000000
13
0.0153882528
23
0.0048368008
33
0.0000000000
40
0.0000000000
40
0.0000000000
40
0.0000000000
40
0.0000000000
40
0.1995516332
40
1.0000000000
40
1.0000000000
40
1.0000000000
40
1.0000000000
10
-310.8579518776
20
-427.3929093879
30
0.0000000000
10
-310.8571445128
20
-427.3924973905
30
0.0000000000
10
-310.8505572733
20
-427.3884728248
30
0.0000000000
10
-310.8452712543
20
-427.3863819317
30
0.0000000000
10
-310.8411654203
20
-427.3850913952
30
0.0000000000
11
-310.8579518776
21
-427.3929093879
31
0.0000000000
11
-310.8545673398
21
-427.3909681736
31
0.0000000000
11
-310.8411654203
21
-427.3850913952
31
0.0000000000
0
SPLINE
5
33F
100
AcDbEntity
8
0
100
AcDbSpline
62
7
6
CONTINUOUS
70
0
71
3
72
11
73
7
74
5
42
0.0000001000
43
0.0000001000
44
0.0000000001
12
0.1401325979
22
0.0440425303
32
0.0000000000
13
0.1595286702
23
-0.0010276725
33
0.0000000000
40
0.0000000000
40
0.0000000000
40
0.0000000000
40
0.0000000000
40
0.0438216188
40
0.2774879323
40
0.6034667719
40
1.0000000000
40
1.0000000000
40
1.0000000000
40
1.0000000000
10
-310.8411635139
20
-427.3850907961
30
0.0000000000
10
-310.8391165682
20
-427.3844474577
30
0.0000000000
10
-310.8263519830
20
-427.3809764732
30
0.0000000000
10
-310.7936524215
20
-427.3724810665
30
0.0000000000
10
-310.7439122925
20
-427.3669774051
30
0.0000000000
10
-310.7053759274
20
-427.3655988097
30
0.0000000000
10
-310.6842897878
20
-427.3657346451
30
0.0000000000
11
-310.8411635139
21
-427.3850907961
31
0.0000000000
11
-310.8350282866
21
-427.3833403052
31
0.0000000000
11
-310.7988658492
21
-427.3745924988
31
0.0000000000
11
-310.7473888279
21
-427.3679494224
31
0.0000000000
11
-310.6842897878
21
-427.3657346451
31
0.0000000000
0
SPLINE
5
340
100
AcDbEntity
8
0
100
AcDbSpline
62
7
6
CONTINUOUS
70
0
71
3
72
8
73
4
74
2
42
0.0000001000
43
0.0000001000
44
0.0000000001
12
0.0377751027
22
-0.0002433446
32
0.0000000000
13
0.0376420626
23
-0.0020944388
33
0.0000000000
40
0.0000000000
40
0.0000000000
40
0.0000000000
40
0.0000000000
40
1.0000000000
40
1.0000000000
40
1.0000000000
40
1.0000000000
10
-310.6842897878
20
-427.3657346451
30
0.0000000000
10
-310.6716980869
20
-427.3658157600
30
0.0000000000
10
-310.6591290690
20
-427.3662151155
30
0.0000000000
10
-310.6465817148
20
-427.3669132617
30
0.0000000000
11
-310.6842897878
21
-427.3657346451
31
0.0000000000
11
-310.6465817148
21
-427.3669132617
31
0.0000000000
0
SPLINE
5
341
100
AcDbEntity
8
0
100
AcDbSpline
62
7
6
CONTINUOUS
70
0
71
3
72
9
73
5
74
3
42
0.0000001000
43
0.0000001000
44
0.0000000001
12
0.0603938318
22
-0.0073448720
32
0.0000000000
13
0.0607785955
23
-0.0027725077
33
0.0000000000
40
0.0000000000
40
0.0000000000
40
0.0000000000
40
0.0000000000
40
0.3869911088
40
1.0000000000
40
1.0000000000
40
1.0000000000
40
1.0000000000
10
-311.0531370585
20
-427.6925793239
30
0.0000000000
10
-311.0453464332
20
-427.6935267906
30
0.0000000000
10
-311.0251832313
20
-427.6957191862
30
0.0000000000
10
-311.0049548858
20
-427.6972362366
30
0.0000000000
10
-310.9925356127
20
-427.6978027605
30
0.0000000000
11
-311.0531370585
21
-427.6925793239
31
0.0000000000
11
-311.0297307175
21
-427.6951225247
31
0.0000000000
11
-310.9925356127
21
-427.6978027605
31
0.0000000000
0
SPLINE
5
342
100
AcDbEntity
8
0
100
AcDbSpline
62
7
6
CONTINUOUS
70
0
71
3
72
9
73
5
74
3
42
0.0000001000
43
0.0000001000
44
0.0000000001
12
0.0564442669
22
-0.0025747907
32
0.0000000000
13
0.0559810452
23
0.0080425123
33
0.0000000000
40
0.0000000000
40
0.0000000000
40
0.0000000000
40
0.0000000000
40
0.5438656546
40
1.0000000000
40
1.0000000000
40
1.0000000000
40
1.0000000000
10
-310.9925356127
20
-427.6978027605
30
0.0000000000
10
-310.9823029133
20
-427.6982695406
30
0.0000000000
10
-310.9634642945
20
-427.6986741438
30
0.0000000000
10
-310.9446301182
20
-427.6974994231
30
0.0000000000
10
-310.9361184924
20
-427.6962766011
30
0.0000000000
11
-310.9925356127
21
-427.6978027605
31
0.0000000000
11
-310.9618128718
21
-427.6982424922
31
0.0000000000
11
-310.9361184924
21
-427.6962766011
31
0.0000000000
0
SPLINE
5
343
100
AcDbEntity
8
0
100
AcDbSpline
62
7
6
CONTINUOUS
70
0
71
3
72
8
73
4
74
2
42
0.0000001000
43
0.0000001000
44
0.0000000001
12
0.0253563285
22
0.0036428149
32
0.0000000000
13
0.0242042291
23
0.0084543714
33
0.0000000000
40
0.0000000000
40
0.0000000000
40
0.0000000000
40
0.0000000000
40
1.0000000000
40
1.0000000000
40
1.0000000000
40
1.0000000000
10
-310.9361184924
20
-427.6962766011
30
0.0000000000
10
-310.9276663829
20
-427.6950623294
30
0.0000000000
10
-310.9192924573
20
-427.6931706400
30
0.0000000000
10
-310.9112243810
20
-427.6903525162
30
0.0000000000
11
-310.9361184924
21
-427.6962766011
31
0.0000000000
11
-310.9112243810
21
-427.6903525162
31
0.0000000000
0
SPLINE
5
344
100
AcDbEntity
8
0
100
AcDbSpline
62
7
6
CONTINUOUS
70
0
71
3
72
11
73
7
74
5
42
0.0000001000
43
0.0000001000
44
0.0000000001
12
0.1097795045
22
0.0383452287
32
0.0000000000
13
0.0129853403
23
0.1160160106
33
0.0000000000
40
0.0000000000
40
0.0000000000
40
0.0000000000
40
0.0000000000
40
0.2448027718
40
0.5034455926
40
0.7877064745
40
1.0000000000
40
1.0000000000
40
1.0000000000
40
1.0000000000
10
-310.9112243810
20
-427.6903525162
30
0.0000000000
10
-310.9022662720
20
-427.6872235101
30
0.0000000000
10
-310.8846190214
20
-427.6784398114
30
0.0000000000
10
-310.8618508723
20
-427.6575261960
30
0.0000000000
10
-310.8471077423
20
-427.6317392638
30
0.0000000000
10
-310.8426250359
20
-427.6127260788
30
0.0000000000
10
-310.8417061347
20
-427.6045162629
30
0.0000000000
11
-310.9112243810
21
-427.6903525162
31
0.0000000000
11
-310.8858360622
21
-427.6775977103
31
0.0000000000
11
-310.8637474038
21
-427.6572703901
31
0.0000000000
11
-310.8474105647
21
-427.6286074716
31
0.0000000000
11
-310.8417061347
21
-427.6045162629
31
0.0000000000
0
SPLINE
5
345
100
AcDbEntity
8
0
100
AcDbSpline
62
7
6
CONTINUOUS
70
0
71
3
72
8
73
4
74
2
42
0.0000001000
43
0.0000001000
44
0.0000000001
12
0.0012512757
22
0.0111793772
32
0.0000000000
13
0.0000054201
23
0.0111967750
33
0.0000000000
40
0.0000000000
40
0.0000000000
40
0.0000000000
40
0.0000000000
40
1.0000000000
40
1.0000000000
40
1.0000000000
40
1.0000000000
10
-310.8417061347
20
-427.6045162629
30
0.0000000000
10
-310.8412890428
20
-427.6007898038
30
0.0000000000
10
-310.8410774852
20
-427.5970466468
30
0.0000000000
10
-310.8410756785
20
-427.5933143885
30
0.0000000000
11
-310.8417061347
21
-427.6045162629
31
0.0000000000
11
-310.8410756785
21
-427.5933143885
31
0.0000000000
0
SPLINE
5
346
100
AcDbEntity
8
0
100
AcDbSpline
62
7
6
CONTINUOUS
70
0
71
3
72
10
73
6
74
4
42
0.0000001000
43
0.0000001000
44
0.0000000001
12
1.0911208316
22
-0.3562194201
32
0.0000000000
13
1.1394011973
23
-0.1385349433
33
0.0000000000
40
0.0000000000
40
0.0000000000
40
0.0000000000
40
0.0000000000
40
0.3242092501
40
0.6736871094
40
1.0000000000
40
1.0000000000
40
1.0000000000
40
1.0000000000
10
-312.1721029521
20
-427.4443783710
30
0.0000000000
10
-312.0541857966
20
-427.4828749147
30
0.0000000000
10
-311.8065659484
20
-427.5551605597
30
0.0000000000
10
-311.4328208364
20
-427.6381415523
30
0.0000000000
10
-311.1770706218
20
-427.6775090775
30
0.0000000000
10
-311.0531368557
20
-427.6925776568
30
0.0000000000
11
-312.1721029521
21
-427.4443783710
31
0.0000000000
11
-311.8148884923
21
-427.5486551432
31
0.0000000000
11
-311.4233134817
21
-427.6355949304
31
0.0000000000
11
-311.0531368557
21
-427.6925776568
31
0.0000000000
0
SPLINE
5
347
100
AcDbEntity
8
0
100
AcDbSpline
62
7
6
CONTINUOUS
70
0
71
3
72
8
73
4
74
2
42
0.0000001000
43
0.0000001000
44
0.0000000001
12
-0.0000338558
22
-0.0001072465
32
0.0000000000
13
0.0041573908
23
-0.0006697597
33
0.0000000000
40
0.0000000000
40
0.0000000000
40
0.0000000000
40
0.0000000000
40
1.0000000000
40
1.0000000000
40
1.0000000000
40
1.0000000000
10
-312.4431437701
20
-427.3654423510
30
0.0000000000
10
-312.4431550553
20
-427.3654780998
30
0.0000000000
10
-312.4419495668
20
-427.3656718284
30
0.0000000000
10
-312.4405637699
20
-427.3658950816
30
0.0000000000
11
-312.4431437701
21
-427.3654423510
31
0.0000000000
11
-312.4405637699
21
-427.3658950816
31
0.0000000000
0
SPLINE
5
348
100
AcDbEntity
8
0
100
AcDbSpline
62
7
6
CONTINUOUS
70
0
71
3
72
11
73
7
74
5
42
0.0000001000
43
0.0000001000
44
0.0000000001
12
0.0393958244
22
-0.0063467055
32
0.0000000000
13
0.0252524804
23
-0.0062307611
33
0.0000000000
40
0.0000000000
40
0.0000000000
40
0.0000000000
40
0.0000000000
40
0.0437461442
40
0.3811931806
40
0.8487327780
40
1.0000000000
40
1.0000000000
40
1.0000000000
40
1.0000000000
10
-312.4405637699
20
-427.3658950816
30
0.0000000000
10
-312.4399892981
20
-427.3659876296
30
0.0000000000
10
-312.4347134941
20
-427.3668382807
30
0.0000000000
10
-312.4302109433
20
-427.3680429996
30
0.0000000000
10
-312.4213139566
20
-427.3700297013
30
0.0000000000
10
-312.4160264800
20
-427.3713127276
30
0.0000000000
10
-312.4147531891
20
-427.3716268975
30
0.0000000000
11
-312.4405637699
21
-427.3658950816
31
0.0000000000
11
-312.4388212339
21
-427.3661787958
31
0.0000000000
11
-312.4303354076
21
-427.3679514423
31
0.0000000000
11
-312.4186396048
21
-427.3706853011
31
0.0000000000
11
-312.4147531891
21
-427.3716268975
31
0.0000000000
0
SPLINE
5
349
100
AcDbEntity
8
0
100
AcDbSpline
62
7
6
CONTINUOUS
70
0
71
3
72
18
73
14
74
12
42
0.0000001000
43
0.0000001000
44
0.0000000001
12
0.2491589938
22
-0.0614771357
32
0.0000000000
13
0.2409641088
23
-0.0786527442
33
0.0000000000
40
0.0000000000
40
0.0000000000
40
0.0000000000
40
0.0000000000
40
0.0441584266
40
0.1147243445
40
0.1955767258
40
0.2863024203
40
0.3862697342
40
0.4948207329
40
0.6111644276
40
0.7344498212
40
0.8637745550
40
0.9980510664
40
1.0000000000
40
1.0000000000
40
1.0000000000
40
1.0000000000
10
-312.4147531891
20
-427.3716268975
30
0.0000000000
10
-312.4110856994
20
-427.3725318087
30
0.0000000000
10
-312.4019720200
20
-427.3748943024
30
0.0000000000
10
-312.3858386508
20
-427.3791624469
30
0.0000000000
10
-312.3661807906
20
-427.3846205483
30
0.0000000000
10
-312.3441054760
20
-427.3909399268
30
0.0000000000
10
-312.3198529920
20
-427.3980674134
30
0.0000000000
10
-312.2935674442
20
-427.4059779895
30
0.0000000000
10
-312.2654473448
20
-427.4146196374
30
0.0000000000
10
-312.2356961694
20
-427.4239296626
30
0.0000000000
10
-312.2045476468
20
-427.4338457708
30
0.0000000000
10
-312.1832004373
20
-427.4407531069
30
0.0000000000
10
-312.1722584937
20
-427.4443242125
30
0.0000000000
10
-312.1721019527
20
-427.4443753088
30
0.0000000000
11
-312.4147531891
21
-427.3716268975
31
0.0000000000
11
-312.4040179605
21
-427.3743714150
31
0.0000000000
11
-312.3867302330
21
-427.3789615523
31
0.0000000000
11
-312.3669780412
21
-427.3844258545
31
0.0000000000
11
-312.3448675342
21
-427.3907484420
31
0.0000000000
11
-312.3205550326
21
-427.3978884738
31
0.0000000000
11
-312.2942058270
21
-427.4058128011
31
0.0000000000
11
-312.2660151238
21
-427.4144707392
31
0.0000000000
11
-312.2361907341
21
-427.4238011523
31
0.0000000000
11
-312.2049540658
21
-427.4337430206
31
0.0000000000
11
-312.1725715813
21
-427.4442220368
31
0.0000000000
11
-312.1721019527
21
-427.4443753088
31
0.0000000000
0
SPLINE
5
34A
100
AcDbEntity
8
0
100
AcDbSpline
62
7
6
CONTINUOUS
70
0
71
3
72
8
73
4
74
2
42
0.0000001000
43
0.0000001000
44
0.0000000001
12
-0.0000338947
22
-0.0001160309
32
0.0000000000
13
0.0042056179
23
-0.0006729367
33
0.0000000000
40
0.0000000000
40
0.0000000000
40
0.0000000000
40
0.0000000000
40
1.0000000000
40
1.0000000000
40
1.0000000000
40
1.0000000000
10
-312.4431382678
20
-427.3654531537
30
0.0000000000
10
-312.4431495661
20
-427.3654918307
30
0.0000000000
10
-312.4419674719
20
-427.3656824741
30
0.0000000000
10
-312.4405655993
20
-427.3659067863
30
0.0000000000
11
-312.4431382678
21
-427.3654531537
31
0.0000000000
11
-312.4405655993
21
-427.3659067863
31
0.0000000000
0
SPLINE
5
34B
100
AcDbEntity
8
0
100
AcDbSpline
62
7
6
CONTINUOUS
70
0
71
3
72
17
73
13
74
11
42
0.0000001000
43
0.0000001000
44
0.0000000001
12
0.2509708434
22
-0.0616478837
32
0.0000000000
13
0.2409606472
23
-0.0786734263
33
0.0000000000
40
0.0000000000
40
0.0000000000
40
0.0000000000
40
0.0000000000
40
0.0479700867
40
0.1192779108
40
0.2010034140
40
0.2926090716
40
0.3934274926
40
0.5028415426
40
0.6200107320
40
0.7441297324
40
0.8743023083
40
1.0000000000
40
1.0000000000
40
1.0000000000
40
1.0000000000
10
-312.4147609740
20
-427.3716283446
30
0.0000000000
10
-312.4107479430
20
-427.3726140961
30
0.0000000000
10
-312.4013014135
20
-427.3750672787
30
0.0000000000
10
-312.3847132694
20
-427.3794662928
30
0.0000000000
10
-312.3648606217
20
-427.3849965515
30
0.0000000000
10
-312.3425736389
20
-427.3913816168
30
0.0000000000
10
-312.3181148806
20
-427.3985844030
30
0.0000000000
10
-312.2916278321
20
-427.4065715475
30
0.0000000000
10
-312.2633061601
20
-427.4152838347
30
0.0000000000
10
-312.2333557824
20
-427.4246678766
30
0.0000000000
10
-312.2027652978
20
-427.4344170666
30
0.0000000000
10
-312.1821980237
20
-427.4410789748
30
0.0000000000
10
-312.1721019580
20
-427.4443753309
30
0.0000000000
11
-312.4147609740
21
-427.3716283446
31
0.0000000000
11
-312.4030854830
21
-427.3746127259
31
0.0000000000
11
-312.3856187221
21
-427.3792622398
31
0.0000000000
11
-312.3656568484
21
-427.3847995847
31
0.0000000000
11
-312.3433340280
21
-427.3911920199
31
0.0000000000
11
-312.3188177858
21
-427.3984050291
31
0.0000000000
11
-312.2922628236
21
-427.4064059658
31
0.0000000000
11
-312.2638747111
21
-427.4151350890
31
0.0000000000
11
-312.2338514525
21
-427.4245388142
31
0.0000000000
11
-312.2024131265
21
-427.4345570275
31
0.0000000000
11
-312.1721019580
21
-427.4443753309
31
0.0000000000
0
SPLINE
5
34C
100
AcDbEntity
8
0
100
AcDbSpline
62
7
6
CONTINUOUS
70
0
71
3
72
16
73
12
74
10
42
0.0000001000
43
0.0000001000
44
0.0000000001
12
0.2571082013
22
-0.0312732353
32
0.0000000000
13
0.0289956003
23
0.2588563033
33
0.0000000000
40
0.0000000000
40
0.0000000000
40
0.0000000000
40
0.0000000000
40
0.0957177787
40
0.2385228785
40
0.3560819468
40
0.4550440047
40
0.5535147798
40
0.6628920152
40
0.7781856162
40
0.9049357695
40
1.0000000000
40
1.0000000000
40
1.0000000000
40
1.0000000000
10
-311.0531370275
20
-427.6925790667
30
0.0000000000
10
-311.0449337522
20
-427.6935768683
30
0.0000000000
10
-311.0244575718
20
-427.6957901514
30
0.0000000000
10
-310.9937897460
20
-427.6980475014
30
0.0000000000
10
-310.9627574162
20
-427.6986609675
30
0.0000000000
10
-310.9355646593
20
-427.6968926536
30
0.0000000000
10
-310.9095840845
20
-427.6909184402
30
0.0000000000
10
-310.8843566069
20
-427.6782439796
30
0.0000000000
10
-310.8617520243
20
-427.6573648654
30
0.0000000000
10
-310.8470955219
20
-427.6316691234
30
0.0000000000
10
-310.8426276353
20
-427.6127186199
30
0.0000000000
10
-310.8417088204
20
-427.6045159615
30
0.0000000000
11
-311.0531370275
21
-427.6925790667
31
0.0000000000
11
-311.0284890648
21
-427.6952403052
31
0.0000000000
11
-310.9915968650
21
-427.6978447288
31
0.0000000000
11
-310.9611535088
21
-427.6982254251
31
0.0000000000
11
-310.9356040331
21
-427.6962024720
31
0.0000000000
11
-310.9108160203
21
-427.6902094094
31
0.0000000000
11
-310.8855504502
21
-427.6774009070
31
0.0000000000
11
-310.8636337846
21
-427.6571223257
31
0.0000000000
11
-310.8474079975
21
-427.6285868309
31
0.0000000000
11
-310.8417088204
21
-427.6045159615
31
0.0000000000
0
SPLINE
5
34D
100
AcDbEntity
8
0
100
AcDbSpline
62
7
6
CONTINUOUS
70
0
71
3
72
12
73
8
74
6
42
0.0000001000
43
0.0000001000
44
0.0000000001
12
0.1619099871
22
0.0512868116
32
0.0000000000
13
0.1836198709
23
-0.0070518447
33
0.0000000000
40
0.0000000000
40
0.0000000000
40
0.0000000000
40
0.0000000000
40
0.0435347811
40
0.2501577898
40
0.5368832645
40
0.8832351292
40
1.0000000000
40
1.0000000000
40
1.0000000000
40
1.0000000000
10
-310.8411803775
20
-427.3850371402
30
0.0000000000
10
-310.8388308056
20
-427.3842928868
30
0.0000000000
10
-310.8256621468
20
-427.3808331622
30
0.0000000000
10
-310.7919885705
20
-427.3721521375
30
0.0000000000
10
-310.7416213487
20
-427.3668157326
30
0.0000000000
10
-310.6954724075
20
-427.3653171972
30
0.0000000000
10
-310.6670962043
20
-427.3660120452
30
0.0000000000
10
-310.6599494208
20
-427.3662865144
30
0.0000000000
11
-310.8411803775
21
-427.3850371402
31
0.0000000000
11
-310.8341709787
21
-427.3830709780
31
0.0000000000
11
-310.7972495840
21
-427.3742966300
31
0.0000000000
11
-310.7449949756
21
-427.3677604227
31
0.0000000000
11
-310.6814131223
21
-427.3657646684
31
0.0000000000
11
-310.6599494208
21
-427.3662865144
31
0.0000000000
0
SPLINE
5
34E
100
AcDbEntity
8
0
100
AcDbSpline
62
7
6
CONTINUOUS
70
0
71
3
72
10
73
6
74
4
42
0.0000001000
43
0.0000001000
44
0.0000000001
12
0.6103822664
22
-0.0337146560
32
0.0000000000
13
0.6103836007
23
0.0337145969
33
0.0000000000
40
0.0000000000
40
0.0000000000
40
0.0000000000
40
0.0000000000
40
0.3201470795
40
0.6837622215
40
1.0000000000
40
1.0000000000
40
1.0000000000
40
1.0000000000
10
-310.6465826110
20
-427.3669319767
30
0.0000000000
10
-310.5814452443
20
-427.3705298596
30
0.0000000000
10
-310.4421782741
20
-427.3757570030
30
0.0000000000
10
-310.2383635613
20
-427.3757130734
30
0.0000000000
10
-310.0998945380
20
-427.3704859056
30
0.0000000000
10
-310.0355524201
20
-427.3669319626
30
0.0000000000
11
-310.6465826110
21
-427.3669319767
31
0.0000000000
11
-310.4510111698
21
-427.3742722013
31
0.0000000000
11
-310.2287345344
21
-427.3742242627
31
0.0000000000
11
-310.0355524201
21
-427.3669319626
31
0.0000000000
0
SPLINE
5
34F
100
AcDbEntity
8
0
100
AcDbSpline
62
7
6
CONTINUOUS
70
0
71
3
72
8
73
4
74
2
42
0.0000001000
43
0.0000001000
44
0.0000000001
12
0.0133593634
22
0.0007433272
32
0.0000000000
13
0.0133758724
23
0.0005149088
33
0.0000000000
40
0.0000000000
40
0.0000000000
40
0.0000000000
40
0.0000000000
40
1.0000000000
40
1.0000000000
40
1.0000000000
40
1.0000000000
10
-310.0355533154
20
-427.3669132617
30
0.0000000000
10
-310.0311001943
20
-427.3666654860
30
0.0000000000
10
-310.0266443444
20
-427.3664553453
30
0.0000000000
10
-310.0221857203
20
-427.3662837090
30
0.0000000000
11
-310.0355533154
21
-427.3669132617
31
0.0000000000
11
-310.0221857203
21
-427.3662837090
31
0.0000000000
0
SPLINE
5
350
100
AcDbEntity
8
0
100
AcDbSpline
62
9
6
CONTINUOUS
70
0
71
3
72
10
73
6
74
4
42
0.0000001000
43
0.0000001000
44
0.0000000001
12
0.0000000037
22
-0.0084211513
32
0.0000000000
13
-0.0000000024
23
-0.0084211513
33
0.0000000000
40
0.0000000000
40
0.0000000000
40
0.0000000000
40
0.0000000000
40
0.5552522622
40
0.8890061159
40
1.0000000000
40
1.0000000000
40
1.0000000000
40
1.0000000000
10
-308.2050516840
20
-427.3602313227
30
0.0000000000
10
-308.2050516833
20
-427.3617899438
30
0.0000000000
10
-308.2050516854
20
-427.3642854289
30
0.0000000000
10
-308.2050516839
20
-427.3670924793
30
0.0000000000
10
-308.2050516839
20
-427.3683409086
30
0.0000000000
10
-308.2050516840
20
-427.3686524741
30
0.0000000000
11
-308.2050516840
21
-427.3602313227
31
0.0000000000
11
-308.2050516846
21
-427.3649071861
31
0.0000000000
11
-308.2050516839
21
-427.3677177778
31
0.0000000000
11
-308.2050516840
21
-427.3686524741
31
0.0000000000
0
SPLINE
5
351
100
AcDbEntity
8
0
100
AcDbSpline
62
9
6
CONTINUOUS
70
0
71
3
72
11
73
7
74
5
42
0.0000001000
43
0.0000001000
44
0.0000000001
12
0.2347482178
22
0.0766424207
32
0.0000000000
13
0.2489078788
23
0.0675589159
33
0.0000000000
40
0.0000000000
40
0.0000000000
40
0.0000000000
40
0.0000000000
40
0.3504046771
40
0.6666687971
40
0.9304468631
40
1.0000000000
40
1.0000000000
40
1.0000000000
40
1.0000000000
10
-308.5101968027
20
-427.4438738171
30
0.0000000000
10
-308.4827778449
20
-427.4349218629
30
0.0000000000
10
-308.4306764477
20
-427.4182691134
30
0.0000000000
10
-308.3567938091
20
-427.3955561315
30
0.0000000000
10
-308.3069093625
20
-427.3814261290
30
0.0000000000
10
-308.2788481826
20
-427.3735588187
30
0.0000000000
10
-308.2730774080
20
-427.3719925072
30
0.0000000000
11
-308.5101968027
21
-427.4438738171
31
0.0000000000
11
-308.4277774010
21
-427.4175209652
31
0.0000000000
11
-308.3530766154
21
-427.3947333933
31
0.0000000000
11
-308.2904514508
21
-427.3768151662
31
0.0000000000
11
-308.2730774080
21
-427.3719925072
31
0.0000000000
0
SPLINE
5
352
100
AcDbEntity
8
0
100
AcDbSpline
62
9
6
CONTINUOUS
70
0
71
3
72
10
73
6
74
4
42
0.0000001000
43
0.0000001000
44
0.0000000001
12
0.0708811429
22
0.0192386565
32
0.0000000000
13
-0.0003549073
23
-0.0703206776
33
0.0000000000
40
0.0000000000
40
0.0000000000
40
0.0000000000
40
0.0000000000
40
0.4410278012
40
0.8596420268
40
1.0000000000
40
1.0000000000
40
1.0000000000
40
1.0000000000
10
-308.2730774080
20
-427.3719925072
30
0.0000000000
10
-308.2626572232
20
-427.3691642464
30
0.0000000000
10
-308.2428833904
20
-427.3641299321
30
0.0000000000
10
-308.2260880802
20
-427.3620161727
30
0.0000000000
10
-308.2050350793
20
-427.3569413001
30
0.0000000000
10
-308.2050516840
20
-427.3602313227
30
0.0000000000
11
-308.2730774080
21
-427.3719925072
31
0.0000000000
11
-308.2437722623
21
-427.3648454697
31
0.0000000000
11
-308.2148724145
21
-427.3592444222
31
0.0000000000
11
-308.2050516840
21
-427.3602313227
31
0.0000000000
0
SPLINE
5
353
100
AcDbEntity
8
0
100
AcDbSpline
62
9
6
CONTINUOUS
70
0
71
3
72
12
73
8
74
6
42
0.0000001000
43
0.0000001000
44
0.0000000001
12
1.1394044272
22
0.1385317330
32
0.0000000000
13
1.0911181987
23
0.3562226359
33
0.0000000000
40
0.0000000000
40
0.0000000000
40
0.0000000000
40
0.0000000000
40
0.1736997740
40
0.3668447149
40
0.5660151312
40
0.7736035241
40
1.0000000000
40
1.0000000000
40
1.0000000000
40
1.0000000000
10
-309.6290622381
20
-427.6920507363
30
0.0000000000
10
-309.5630908076
20
-427.6840297594
30
0.0000000000
10
-309.4240381239
20
-427.6647338698
30
0.0000000000
10
-309.2106871518
20
-427.6273246379
30
0.0000000000
10
-308.9862336322
20
-427.5790745229
30
0.0000000000
10
-308.7515399439
20
-427.5188182606
30
0.0000000000
10
-308.5925385744
20
-427.4707563336
30
0.0000000000
10
-308.5101968027
20
-427.4438738171
30
0.0000000000
11
-309.6290622381
21
-427.6920507363
31
0.0000000000
11
-309.4315828107
21
-427.6646469561
31
0.0000000000
11
-309.2132232727
21
-427.6263595354
31
0.0000000000
11
-308.9897222089
21
-427.5783142212
31
0.0000000000
11
-308.7589383514
21
-427.5190614190
31
0.0000000000
11
-308.5101968027
21
-427.4438738171
31
0.0000000000
0
SPLINE
5
354
100
AcDbEntity
8
0
100
AcDbSpline
62
9
6
CONTINUOUS
70
0
71
3
72
14
73
10
74
8
42
0.0000001000
43
0.0000001000
44
0.0000000001
12
0.0001275271
22
-0.1030417226
32
0.0000000000
13
0.1022885817
23
0.0124361939
33
0.0000000000
40
0.0000000000
40
0.0000000000
40
0.0000000000
40
0.0000000000
40
0.0475695937
40
0.1569696759
40
0.3115077117
40
0.4870765621
40
0.6663493256
40
0.8385288923
40
1.0000000000
40
1.0000000000
40
1.0000000000
40
1.0000000000
10
-309.7307772777
20
-427.6920507363
30
0.0000000000
10
-309.7307752555
20
-427.6936846206
30
0.0000000000
10
-309.7239767171
20
-427.6961335640
30
0.0000000000
10
-309.7145981663
20
-427.6968483768
30
0.0000000000
10
-309.6989105000
20
-427.6973674082
30
0.0000000000
10
-309.6816146495
20
-427.6967438050
30
0.0000000000
10
-309.6634933158
20
-427.6955877560
30
0.0000000000
10
-309.6459607162
20
-427.6939919264
30
0.0000000000
10
-309.6345677883
20
-427.6927200983
30
0.0000000000
10
-309.6290622381
20
-427.6920507363
30
0.0000000000
11
-309.7307772777
21
-427.6920507363
31
0.0000000000
11
-309.7268450181
21
-427.6949770946
31
0.0000000000
11
-309.7157037963
21
-427.6966942960
31
0.0000000000
11
-309.6997869830
21
-427.6971685662
31
0.0000000000
11
-309.6817030862
21
-427.6966641371
31
0.0000000000
11
-309.6632679599
21
-427.6954882781
31
0.0000000000
11
-309.6455978311
21
-427.6938963584
31
0.0000000000
11
-309.6290622381
21
-427.6920507363
31
0.0000000000
0
SPLINE
5
355
100
AcDbEntity
8
0
100
AcDbSpline
62
9
6
CONTINUOUS
70
0
71
3
72
12
73
8
74
6
42
0.0000001000
43
0.0000001000
44
0.0000000001
12
0.0000000955
22
-0.2481769191
32
0.0000000000
13
-0.0000000361
23
-0.2481769192
33
0.0000000000
40
0.0000000000
40
0.0000000000
40
0.0000000000
40
0.0000000000
40
0.3245288541
40
0.5733868835
40
0.7612770168
40
0.8998605882
40
1.0000000000
40
1.0000000000
40
1.0000000000
40
1.0000000000
10
-309.7307772777
20
-427.4438738171
30
0.0000000000
10
-309.7307772673
20
-427.4707206742
30
0.0000000000
10
-309.7307772867
20
-427.5181544709
30
0.0000000000
10
-309.7307772760
20
-427.5811315992
30
0.0000000000
10
-309.7307772767
20
-427.6287262849
30
0.0000000000
10
-309.7307772789
20
-427.6640181279
30
0.0000000000
10
-309.7307772765
20
-427.6837666394
30
0.0000000000
10
-309.7307772777
20
-427.6920507363
30
0.0000000000
11
-309.7307772777
21
-427.4438738171
31
0.0000000000
11
-309.7307772805
21
-427.5244143883
31
0.0000000000
11
-309.7307772773
21
-427.5861752074
31
0.0000000000
11
-309.7307772772
21
-427.6328052018
31
0.0000000000
11
-309.7307772779
21
-427.6671984456
31
0.0000000000
11
-309.7307772777
21
-427.6920507363
31
0.0000000000
0
SPLINE
5
356
100
AcDbEntity
8
0
100
AcDbSpline
62
9
6
CONTINUOUS
70
0
71
3
72
8
73
4
74
2
42
0.0000001000
43
0.0000001000
44
0.0000000001
12
0.0259648526
22
0.0014341561
32
0.0000000000
13
0.0260031346
23
0.0007031723
33
0.0000000000
40
0.0000000000
40
0.0000000000
40
0.0000000000
40
0.0000000000
40
1.0000000000
40
1.0000000000
40
1.0000000000
40
1.0000000000
10
-310.0359223964
20
-427.3602313227
30
0.0000000000
10
-310.0272674455
20
-427.3597532707
30
0.0000000000
10
-310.0186038896
20
-427.3593946403
30
0.0000000000
10
-310.0099361780
20
-427.3591602496
30
0.0000000000
11
-310.0359223964
21
-427.3602313227
31
0.0000000000
11
-310.0099361780
21
-427.3591602496
31
0.0000000000
0
SPLINE
5
357
100
AcDbEntity
8
0
100
AcDbSpline
62
9
6
CONTINUOUS
70
0
71
3
72
10
73
6
74
4
42
0.0000001000
43
0.0000001000
44
0.0000000001
12
0.1456857917
22
0.0039396100
32
0.0000000000
13
0.1438195669
23
-0.0241745223
33
0.0000000000
40
0.0000000000
40
0.0000000000
40
0.0000000000
40
0.0000000000
40
0.3486430920
40
0.8460685313
40
1.0000000000
40
1.0000000000
40
1.0000000000
40
1.0000000000
10
-310.0099361780
20
-427.3591602496
30
0.0000000000
10
-309.9930053964
20
-427.3587024103
30
0.0000000000
10
-309.9518801984
20
-427.3587416996
30
0.0000000000
10
-309.9033932529
20
-427.3623375746
30
0.0000000000
10
-309.8720499429
20
-427.3669264660
30
0.0000000000
10
-309.8646704905
20
-427.3681668726
30
0.0000000000
11
-310.0099361780
21
-427.3591602496
31
0.0000000000
11
-309.9591294290
21
-427.3592447270
31
0.0000000000
11
-309.8868776626
21
-427.3648830088
31
0.0000000000
11
-309.8646704905
21
-427.3681668726
31
0.0000000000
0
SPLINE
5
358
100
AcDbEntity
8
0
100
AcDbSpline
62
9
6
CONTINUOUS
70
0
71
3
72
8
73
4
74
2
42
0.0000001000
43
0.0000001000
44
0.0000000001
12
0.0237336029
22
-0.0039893634
32
0.0000000000
13
0.0234891810
23
-0.0051773087
33
0.0000000000
40
0.0000000000
40
0.0000000000
40
0.0000000000
40
0.0000000000
40
1.0000000000
40
1.0000000000
40
1.0000000000
40
1.0000000000
10
-309.8646704905
20
-427.3681668726
30
0.0000000000
10
-309.8567592896
20
-427.3694966604
30
0.0000000000
10
-309.8488799630
20
-427.3710056713
30
0.0000000000
10
-309.8410502360
20
-427.3727314409
30
0.0000000000
11
-309.8646704905
21
-427.3681668726
31
0.0000000000
11
-309.8410502360
21
-427.3727314409
31
0.0000000000
0
SPLINE
5
359
100
AcDbEntity
8
0
100
AcDbSpline
62
9
6
CONTINUOUS
70
0
71
3
72
8
73
4
74
2
42
0.0000001000
43
0.0000001000
44
0.0000000001
12
0.0172327122
22
-0.0037983049
32
0.0000000000
13
0.0170515376
23
-0.0045427719
33
0.0000000000
40
0.0000000000
40
0.0000000000
40
0.0000000000
40
0.0000000000
40
1.0000000000
40
1.0000000000
40
1.0000000000
40
1.0000000000
10
-309.8410502360
20
-427.3727314409
30
0.0000000000
10
-309.8353059986
20
-427.3739975425
30
0.0000000000
10
-309.8295884574
20
-427.3753803111
30
0.0000000000
10
-309.8239046116
20
-427.3768945684
30
0.0000000000
11
-309.8410502360
21
-427.3727314409
31
0.0000000000
11
-309.8239046116
21
-427.3768945684
31
0.0000000000
0
SPLINE
5
35A
100
AcDbEntity
8
0
100
AcDbSpline
62
9
6
CONTINUOUS
70
0
71
3
72
10
73
6
74
4
42
0.0000001000
43
0.0000001000
44
0.0000000001
12
0.1168063314
22
-0.0311188667
32
0.0000000000
13
-0.0000729979
23
-0.1208295183
33
0.0000000000
40
0.0000000000
40
0.0000000000
40
0.0000000000
40
0.0000000000
40
0.4363905819
40
0.7617294484
40
1.0000000000
40
1.0000000000
40
1.0000000000
40
1.0000000000
10
-309.8239046116
20
-427.3768945684
30
0.0000000000
10
-309.8069135506
20
-427.3814212285
30
0.0000000000
10
-309.7777808721
20
-427.3913736361
30
0.0000000000
10
-309.7425751997
20
-427.4121704592
30
0.0000000000
10
-309.7307714799
20
-427.4342771118
30
0.0000000000
10
-309.7307772777
20
-427.4438738171
30
0.0000000000
11
-309.8239046116
21
-427.3768945684
31
0.0000000000
11
-309.7742936098
21
-427.3947574517
31
0.0000000000
11
-309.7421884032
21
-427.4174416909
31
0.0000000000
11
-309.7307772777
21
-427.4438738171
31
0.0000000000
0
SPLINE
5
35B
100
AcDbEntity
8
0
100
AcDbSpline
62
9
6
CONTINUOUS
70
0
71
3
72
10
73
6
74
4
42
0.0000001000
43
0.0000001000
44
0.0000000001
12
0.6096363370
22
-0.0336737673
32
0.0000000000
13
0.6096363343
23
0.0336738160
33
0.0000000000
40
0.0000000000
40
0.0000000000
40
0.0000000000
40
0.0000000000
40
0.3328661760
40
0.6669943864
40
1.0000000000
40
1.0000000000
40
1.0000000000
40
1.0000000000
10
-310.6462126339
20
-427.3602313227
30
0.0000000000
10
-310.5785701951
20
-427.3639676088
30
0.0000000000
10
-310.4428776474
20
-427.3689651971
30
0.0000000000
10
-310.2393141565
20
-427.3689667581
30
0.0000000000
10
-310.1035931703
20
-427.3639691793
30
0.0000000000
10
-310.0359223964
20
-427.3602313227
30
0.0000000000
11
-310.6462126339
21
-427.3602313227
31
0.0000000000
11
-310.4431136833
21
-427.3677113268
31
0.0000000000
11
-310.2391064827
21
-427.3677128957
31
0.0000000000
11
-310.0359223964
21
-427.3602313227
31
0.0000000000
0
SPLINE
5
35C
100
AcDbEntity
8
0
100
AcDbSpline
62
9
6
CONTINUOUS
70
0
71
3
72
11
73
7
74
5
42
0.0000001000
43
0.0000001000
44
0.0000000001
12
0.0000256699
22
0.1384612527
32
0.0000000000
13
0.1352723955
23
0.0298191917
33
0.0000000000
40
0.0000000000
40
0.0000000000
40
0.0000000000
40
0.0000000000
40
0.2091032557
40
0.4931166190
40
0.8736295673
40
1.0000000000
40
1.0000000000
40
1.0000000000
40
1.0000000000
10
-310.9513577526
20
-427.4438738171
30
0.0000000000
10
-310.9513559634
20
-427.4342229176
30
0.0000000000
10
-310.9394667985
20
-427.4120740961
30
0.0000000000
10
-310.9042018899
20
-427.3913139084
30
0.0000000000
10
-310.8695340130
20
-427.3794863503
30
0.0000000000
10
-310.8467835218
20
-427.3739873170
30
0.0000000000
10
-310.8410853781
20
-427.3727312289
30
0.0000000000
11
-310.9513577526
21
-427.4438738171
31
0.0000000000
11
-310.9398315206
21
-427.4173143599
31
0.0000000000
11
-310.9076762677
21
-427.3946762664
31
0.0000000000
11
-310.8580942489
21
-427.3768585881
31
0.0000000000
11
-310.8410853781
21
-427.3727312289
31
0.0000000000
0
SPLINE
5
35D
100
AcDbEntity
8
0
100
AcDbSpline
62
9
6
CONTINUOUS
70
0
71
3
72
8
73
4
74
2
42
0.0000001000
43
0.0000001000
44
0.0000000001
12
0.0042859530
22
0.0009447874
32
0.0000000000
13
0.0042955310
23
0.0009021475
33
0.0000000000
40
0.0000000000
40
0.0000000000
40
0.0000000000
40
0.0000000000
40
1.0000000000
40
1.0000000000
40
1.0000000000
40
1.0000000000
10
-310.8410853781
20
-427.3727312289
30
0.0000000000
10
-310.8396567271
20
-427.3724162998
30
0.0000000000
10
-310.8382264261
20
-427.3721085915
30
0.0000000000
10
-310.8367945824
20
-427.3718078757
30
0.0000000000
11
-310.8410853781
21
-427.3727312289
31
0.0000000000
11
-310.8367945824
21
-427.3718078757
31
0.0000000000
0
SPLINE
5
35E
100
AcDbEntity
8
0
100
AcDbSpline
62
9
6
CONTINUOUS
70
0
71
3
72
8
73
4
74
2
42
0.0000001000
43
0.0000001000
44
0.0000000001
12
0.0193422573
22
0.0040622611
32
0.0000000000
13
0.0195005064
23
0.0032741333
33
0.0000000000
40
0.0000000000
40
0.0000000000
40
0.0000000000
40
0.0000000000
40
1.0000000000
40
1.0000000000
40
1.0000000000
40
1.0000000000
10
-310.8367945824
20
-427.3718078757
30
0.0000000000
10
-310.8303471633
20
-427.3704537887
30
0.0000000000
10
-310.8238684662
20
-427.3692414806
30
0.0000000000
10
-310.8173682974
20
-427.3681501029
30
0.0000000000
11
-310.8367945824
21
-427.3718078757
31
0.0000000000
11
-310.8173682974
21
-427.3681501029
31
0.0000000000
0
SPLINE
5
35F
100
AcDbEntity
8
0
100
AcDbSpline
62
9
6
CONTINUOUS
70
0
71
3
72
10
73
6
74
4
42
0.0000001000
43
0.0000001000
44
0.0000000001
12
0.1436554342
22
0.0241197344
32
0.0000000000
13
0.1455167566
23
-0.0039235326
33
0.0000000000
40
0.0000000000
40
0.0000000000
40
0.0000000000
40
0.0000000000
40
0.1538736103
40
0.6506453984
40
1.0000000000
40
1.0000000000
40
1.0000000000
40
1.0000000000
10
-310.8173682974
20
-427.3681501029
30
0.0000000000
10
-310.8100000373
20
-427.3669129727
30
0.0000000000
10
-310.7787271267
20
-427.3623388875
30
0.0000000000
10
-310.7302970174
20
-427.3587443714
30
0.0000000000
10
-310.6892168399
20
-427.3587018309
30
0.0000000000
10
-310.6722711904
20
-427.3591587323
30
0.0000000000
11
-310.8173682974
21
-427.3681501029
31
0.0000000000
11
-310.7951950311
21
-427.3648745075
31
0.0000000000
11
-310.7231223640
21
-427.3592481949
31
0.0000000000
11
-310.6722711904
21
-427.3591587323
31
0.0000000000
0
SPLINE
5
360
100
AcDbEntity
8
0
100
AcDbSpline
62
9
6
CONTINUOUS
70
0
71
3
72
8
73
4
74
2
42
0.0000001000
43
0.0000001000
44
0.0000000001
12
0.0260755307
22
-0.0007030681
32
0.0000000000
13
0.0260370964
23
-0.0014371509
33
0.0000000000
40
0.0000000000
40
0.0000000000
40
0.0000000000
40
0.0000000000
40
1.0000000000
40
1.0000000000
40
1.0000000000
40
1.0000000000
10
-310.6722711904
20
-427.3591587323
30
0.0000000000
10
-310.6635793468
20
-427.3593930883
30
0.0000000000
10
-310.6548916660
20
-427.3597522724
30
0.0000000000
10
-310.6462126339
20
-427.3602313227
30
0.0000000000
11
-310.6722711904
21
-427.3591587323
31
0.0000000000
11
-310.6462126339
21
-427.3602313227
31
0.0000000000
0
SPLINE
5
361
100
AcDbEntity
8
0
100
AcDbSpline
62
9
6
CONTINUOUS
70
0
71
3
72
12
73
8
74
6
42
0.0000001000
43
0.0000001000
44
0.0000000001
12
-0.0000000402
22
0.2481769191
32
0.0000000000
13
0.0000000830
23
0.2481769191
33
0.0000000000
40
0.0000000000
40
0.0000000000
40
0.0000000000
40
0.0000000000
40
0.1005484461
40
0.2392339420
40
0.4272491127
40
0.6764381929
40
1.0000000000
40
1.0000000000
40
1.0000000000
40
1.0000000000
10
-310.9513577526
20
-427.6920507363
30
0.0000000000
10
-310.9513577540
20
-427.6837328018
30
0.0000000000
10
-310.9513577509
20
-427.6639420209
30
0.0000000000
10
-310.9513577557
20
-427.6285975647
30
0.0000000000
10
-310.9513577517
20
-427.5809567170
30
0.0000000000
10
-310.9513577474
20
-427.5180218582
30
0.0000000000
10
-310.9513577616
20
-427.4706406746
30
0.0000000000
10
-310.9513577526
20
-427.4438738171
30
0.0000000000
11
-310.9513577526
21
-427.6920507363
31
0.0000000000
11
-310.9513577524
21
-427.6670969327
31
0.0000000000
11
-310.9513577541
21
-427.6326783936
31
0.0000000000
11
-310.9513577522
21
-427.5860173678
31
0.0000000000
11
-310.9513577511
21
-427.5241743896
31
0.0000000000
11
-310.9513577526
21
-427.4438738171
31
0.0000000000
0
SPLINE
5
362
100
AcDbEntity
8
0
100
AcDbSpline
62
9
6
CONTINUOUS
70
0
71
3
72
14
73
10
74
8
42
0.0000001000
43
0.0000001000
44
0.0000000001
12
0.1022860762
22
-0.0124369244
32
0.0000000000
13
-0.0002474778
23
0.1030391053
33
0.0000000000
40
0.0000000000
40
0.0000000000
40
0.0000000000
40
0.0000000000
40
0.1614060718
40
0.3347621391
40
0.5142394507
40
0.6893348921
40
0.8429827303
40
0.9520038950
40
1.0000000000
40
1.0000000000
40
1.0000000000
40
1.0000000000
10
-311.0530727922
20
-427.6920507363
30
0.0000000000
10
-311.0475695943
20
-427.6927198680
30
0.0000000000
10
-311.0361389311
20
-427.6939959190
30
0.0000000000
10
-311.0185619410
20
-427.6955945480
30
0.0000000000
10
-311.0004086424
20
-427.6967496370
30
0.0000000000
10
-310.9831553476
20
-427.6973652332
30
0.0000000000
10
-310.9675223500
20
-427.6968513310
30
0.0000000000
10
-310.9581893062
20
-427.6961260818
30
0.0000000000
10
-310.9513537933
20
-427.6936992282
30
0.0000000000
10
-310.9513577526
20
-427.6920507363
30
0.0000000000
11
-311.0530727922
21
-427.6920507363
31
0.0000000000
11
-311.0365442530
21
-427.6938956519
31
0.0000000000
11
-311.0187536799
21
-427.6954970935
31
0.0000000000
11
-311.0002977088
21
-427.6966704947
31
0.0000000000
11
-310.9822628611
21
-427.6971687696
31
0.0000000000
11
-310.9664381811
21
-427.6966946342
31
0.0000000000
11
-310.9553347370
21
-427.6949903734
31
0.0000000000
11
-310.9513577526
21
-427.6920507363
31
0.0000000000
0
SPLINE
5
363
100
AcDbEntity
8
0
100
AcDbSpline
62
9
6
CONTINUOUS
70
0
71
3
72
10
73
6
74
4
42
0.0000001000
43
0.0000001000
44
0.0000000001
12
0.0000000011
22
0.0084211513
32
0.0000000000
13
0.0000000040
23
0.0084211513
33
0.0000000000
40
0.0000000000
40
0.0000000000
40
0.0000000000
40
0.0000000000
40
0.1109954972
40
0.4447521893
40
1.0000000000
40
1.0000000000
40
1.0000000000
40
1.0000000000
10
-312.4770833463
20
-427.3686524741
30
0.0000000000
10
-312.4770833462
20
-427.3683409041
30
0.0000000000
10
-312.4770833460
20
-427.3670924623
30
0.0000000000
10
-312.4770833455
20
-427.3642854118
30
0.0000000000
10
-312.4770833470
20
-427.3617899313
30
0.0000000000
10
-312.4770833463
20
-427.3602313227
30
0.0000000000
11
-312.4770833463
21
-427.3686524741
31
0.0000000000
11
-312.4770833461
21
-427.3677177642
31
0.0000000000
11
-312.4770833459
21
-427.3649071486
31
0.0000000000
11
-312.4770833463
21
-427.3602313227
31
0.0000000000
0
SPLINE
5
364
100
AcDbEntity
8
0
100
AcDbSpline
62
9
6
CONTINUOUS
70
0
71
3
72
12
73
8
74
6
42
0.0000001000
43
0.0000001000
44
0.0000000001
12
1.0911187217
22
-0.3562227291
32
0.0000000000
13
1.1394049461
23
-0.1385318241
33
0.0000000000
40
0.0000000000
40
0.0000000000
40
0.0000000000
40
0.0000000000
40
0.2220767843
40
0.4263822369
40
0.6251590283
40
0.8222368415
40
1.0000000000
40
1.0000000000
40
1.0000000000
40
1.0000000000
10
-312.1719382275
20
-427.4438738171
30
0.0000000000
10
-312.0911675152
20
-427.4702434165
30
0.0000000000
10
-311.9349736696
20
-427.5175283615
30
0.0000000000
10
-311.7033149212
20
-427.5772919832
30
0.0000000000
10
-311.4788392500
20
-427.6259034442
30
0.0000000000
10
-311.2626649276
20
-427.6640692561
30
0.0000000000
10
-311.1205875329
20
-427.6838421181
30
0.0000000000
10
-311.0530727922
20
-427.6920507363
30
0.0000000000
11
-312.1719382275
21
-427.4438738171
31
0.0000000000
11
-311.9279736288
21
-427.5177294078
31
0.0000000000
11
-311.7009072390
21
-427.5763086256
31
0.0000000000
11
-311.4779208186
21
-427.6245975106
31
0.0000000000
11
-311.2551608740
21
-427.6639259824
31
0.0000000000
11
-311.0530727922
21
-427.6920507363
31
0.0000000000
0
SPLINE
5
365
100
AcDbEntity
8
0
100
AcDbSpline
62
9
6
CONTINUOUS
70
0
71
3
72
10
73
6
74
4
42
0.0000001000
43
0.0000001000
44
0.0000000001
12
-0.0000305523
22
0.0705416368
32
0.0000000000
13
0.0710873922
23
-0.0193144344
33
0.0000000000
40
0.0000000000
40
0.0000000000
40
0.0000000000
40
0.0000000000
40
0.1406318942
40
0.5591741542
40
1.0000000000
40
1.0000000000
40
1.0000000000
40
1.0000000000
10
-312.4770833463
20
-427.3602313227
30
0.0000000000
10
-312.4770847785
20
-427.3569245214
30
0.0000000000
10
-312.4559898836
20
-427.3620441544
30
0.0000000000
10
-312.4391154777
20
-427.3641561068
30
0.0000000000
10
-312.4192872338
20
-427.3692083992
30
0.0000000000
10
-312.4088415138
20
-427.3720464999
30
0.0000000000
11
-312.4770833463
21
-427.3602313227
31
0.0000000000
11
-312.4672115410
21
-427.3592505602
31
0.0000000000
11
-312.4382279392
21
-427.3648769536
31
0.0000000000
11
-312.4088415138
21
-427.3720464999
31
0.0000000000
0
SPLINE
5
366
100
AcDbEntity
8
0
100
AcDbSpline
62
9
6
CONTINUOUS
70
0
71
3
72
11
73
7
74
5
42
0.0000001000
43
0.0000001000
44
0.0000000001
12
0.2486304027
22
-0.0675528451
32
0.0000000000
13
0.2345404016
23
-0.0765660645
33
0.0000000000
40
0.0000000000
40
0.0000000000
40
0.0000000000
40
0.0000000000
40
0.0697732047
40
0.3340318270
40
0.6507837916
40
1.0000000000
40
1.0000000000
40
1.0000000000
40
1.0000000000
10
-312.4088415138
20
-427.3720464999
30
0.0000000000
10
-312.4030589339
20
-427.3736176260
30
0.0000000000
10
-312.3749726867
20
-427.3815007993
30
0.0000000000
10
-312.3250351171
20
-427.3956457025
30
0.0000000000
10
-312.2512404826
20
-427.4183383182
30
0.0000000000
10
-312.1992399975
20
-427.4349611136
30
0.0000000000
10
-312.1719382275
20
-427.4438738171
30
0.0000000000
11
-312.4088415138
21
-427.3720464999
31
0.0000000000
11
-312.3914326093
21
-427.3768837510
31
0.0000000000
11
-312.3287512434
21
-427.3948244038
31
0.0000000000
11
-312.2540037575
21
-427.4176315779
31
0.0000000000
11
-312.1719382275
21
-427.4438738171
31
0.0000000000
0
SPLINE
5
367
100
AcDbEntity
8
0
100
AcDbSpline
62
9
6
CONTINUOUS
70
0
71
3
72
9
73
5
74
3
42
0.0000001000
43
0.0000001000
44
0.0000000001
12
0.0385583277
22
-0.0148674323
32
0.0000000000
13
0.0415816152
23
0.0019562143
33
0.0000000000
40
0.0000000000
40
0.0000000000
40
0.0000000000
40
0.0000000000
40
0.9326375344
40
1.0000000000
40
1.0000000000
40
1.0000000000
40
1.0000000000
10
-312.4770802752
20
-427.3602233821
30
0.0000000000
10
-312.4650932939
20
-427.3648453572
30
0.0000000000
10
-312.4511256439
20
-427.3673165723
30
0.0000000000
10
-312.4372535742
20
-427.3668604751
30
0.0000000000
10
-312.4363198941
20
-427.3668165499
30
0.0000000000
11
-312.4770802752
21
-427.3602233821
31
0.0000000000
11
-312.4391229215
21
-427.3669086395
31
0.0000000000
11
-312.4363198941
21
-427.3668165499
31
0.0000000000
0
SPLINE
5
368
100
AcDbEntity
8
0
100
AcDbSpline
62
9
6
CONTINUOUS
70
0
71
3
72
11
73
7
74
5
42
0.0000001000
43
0.0000001000
44
0.0000000001
12
0.1364282044
22
-0.0140105337
32
0.0000000000
13
0.0395342535
23
0.1327328489
33
0.0000000000
40
0.0000000000
40
0.0000000000
40
0.0000000000
40
0.0000000000
40
0.3028818956
40
0.6052345461
40
0.9066924769
40
1.0000000000
40
1.0000000000
40
1.0000000000
40
1.0000000000
10
-310.9513577512
20
-427.6920507225
30
0.0000000000
10
-310.9375838735
20
-427.6934652348
30
0.0000000000
10
-310.9091239539
20
-427.6904926356
30
0.0000000000
10
-310.8721723106
20
-427.6692387784
30
0.0000000000
10
-310.8527767556
20
-427.6428037481
30
0.0000000000
10
-310.8464421091
20
-427.6256688928
30
0.0000000000
10
-310.8452124946
20
-427.6215405684
30
0.0000000000
11
-310.9513577512
21
-427.6920507225
31
0.0000000000
11
-310.9100492247
21
-427.6876814417
31
0.0000000000
11
-310.8740937330
21
-427.6670256252
31
0.0000000000
11
-310.8496963567
21
-427.6336479860
31
0.0000000000
11
-310.8452124946
21
-427.6215405684
31
0.0000000000
0
SPLINE
5
369
100
AcDbEntity
8
0
100
AcDbSpline
62
9
6
CONTINUOUS
70
0
71
3
72
8
73
4
74
2
42
0.0000001000
43
0.0000001000
44
0.0000000001
12
0.0033860998
22
0.0113685382
32
0.0000000000
13
0.0020145149
23
0.0116653788
33
0.0000000000
40
0.0000000000
40
0.0000000000
40
0.0000000000
40
0.0000000000
40
1.0000000000
40
1.0000000000
40
1.0000000000
40
1.0000000000
10
-310.8452124946
20
-427.6215405684
30
0.0000000000
10
-310.8440837947
20
-427.6177510557
30
0.0000000000
10
-310.8431806195
20
-427.6138955702
30
0.0000000000
10
-310.8425091146
20
-427.6100071106
30
0.0000000000
11
-310.8452124946
21
-427.6215405684
31
0.0000000000
11
-310.8425091146
21
-427.6100071106
31
0.0000000000
0
SPLINE
5
36A
100
AcDbEntity
8
0
100
AcDbSpline
62
9
6
CONTINUOUS
70
0
71
3
72
8
73
4
74
2
42
0.0000001000
43
0.0000001000
44
0.0000000001
12
0.0006855855
22
0.0039699952
32
0.0000000000
13
0.0005238670
23
0.0039890075
33
0.0000000000
40
0.0000000000
40
0.0000000000
40
0.0000000000
40
0.0000000000
40
1.0000000000
40
1.0000000000
40
1.0000000000
40
1.0000000000
10
-310.8425091146
20
-427.6100071106
30
0.0000000000
10
-310.8422805861
20
-427.6086837789
30
0.0000000000
10
-310.8420788895
20
-427.6073566281
30
0.0000000000
10
-310.8419042672
20
-427.6060269589
30
0.0000000000
11
-310.8425091146
21
-427.6100071106
31
0.0000000000
11
-310.8419042672
21
-427.6060269589
31
0.0000000000
0
SPLINE
5
36B
100
AcDbEntity
8
0
100
AcDbSpline
62
9
6
CONTINUOUS
70
0
71
3
72
8
73
4
74
2
42
0.0000001000
43
0.0000001000
44
0.0000000001
12
0.0016657154
22
0.0126836605
32
0.0000000000
13
0.0000000018
23
0.0127109900
33
0.0000000000
40
0.0000000000
40
0.0000000000
40
0.0000000000
40
0.0000000000
40
1.0000000000
40
1.0000000000
40
1.0000000000
40
1.0000000000
10
-310.8419042672
20
-427.6060269589
30
0.0000000000
10
-310.8413490288
20
-427.6017990721
30
0.0000000000
10
-310.8410675157
20
-427.5975457240
30
0.0000000000
10
-310.8410675151
20
-427.5933087273
30
0.0000000000
11
-310.8419042672
21
-427.6060269589
31
0.0000000000
11
-310.8410675151
21
-427.5933087273
31
0.0000000000
0
SPLINE
5
36C
100
AcDbEntity
8
0
100
AcDbSpline
62
9
6
CONTINUOUS
70
0
71
3
72
10
73
6
74
4
42
0.0000001000
43
0.0000001000
44
0.0000000001
12
0.1210365973
22
-0.0119148569
32
0.0000000000
13
0.0533106822
23
0.1105467502
33
0.0000000000
40
0.0000000000
40
0.0000000000
40
0.0000000000
40
0.0000000000
40
0.3413955304
40
0.6788235121
40
1.0000000000
40
1.0000000000
40
1.0000000000
40
1.0000000000
10
-310.9513572740
20
-427.4438694237
30
0.0000000000
10
-310.9375834896
20
-427.4452253167
30
0.0000000000
10
-310.9093423650
20
-427.4424240647
30
0.0000000000
10
-310.8728058727
20
-427.4224611996
30
0.0000000000
10
-310.8558947536
20
-427.4008299654
30
0.0000000000
10
-310.8501873744
20
-427.3889949597
30
0.0000000000
11
-310.9513572740
21
-427.4438694237
31
0.0000000000
11
-310.9100472068
21
-427.4396886822
31
0.0000000000
11
-310.8740894232
21
-427.4199099121
31
0.0000000000
11
-310.8501873744
21
-427.3889949597
31
0.0000000000
0
SPLINE
5
36D
100
AcDbEntity
8
0
100
AcDbSpline
62
9
6
CONTINUOUS
70
0
71
3
72
10
73
6
74
4
42
0.0000001000
43
0.0000001000
44
0.0000000001
12
-0.1210105791
22
-0.0119005592
32
0.0000000000
13
-0.0533247757
23
0.1105085263
33
0.0000000000
40
0.0000000000
40
0.0000000000
40
0.0000000000
40
0.0000000000
40
0.3414622253
40
0.6789559621
40
1.0000000000
40
1.0000000000
40
1.0000000000
40
1.0000000000
10
-309.7307772849
20
-427.4438737507
30
0.0000000000
10
-309.7445507988
20
-427.4452282812
30
0.0000000000
10
-309.7727907628
20
-427.4424247409
30
0.0000000000
10
-309.8093176948
20
-427.4224641109
30
0.0000000000
10
-309.8262245055
20
-427.4008418389
30
0.0000000000
10
-309.8319310393
20
-427.3890158044
30
0.0000000000
11
-309.7307772849
21
-427.4438737507
31
0.0000000000
11
-309.7720857965
21
-427.4396896369
31
0.0000000000
11
-309.8080412786
21
-427.4199092018
31
0.0000000000
11
-309.8319310393
21
-427.3890158044
31
0.0000000000
0
SPLINE
5
36E
100
AcDbEntity
8
0
100
AcDbSpline
62
9
6
CONTINUOUS
70
0
71
3
72
11
73
7
74
5
42
0.0000001000
43
0.0000001000
44
0.0000000001
12
-0.1647257712
22
-0.0169074676
32
0.0000000000
13
-0.0000024998
23
0.1655911898
33
0.0000000000
40
0.0000000000
40
0.0000000000
40
0.0000000000
40
0.0000000000
40
0.2508328946
40
0.5012304873
40
0.7508912799
40
1.0000000000
40
1.0000000000
40
1.0000000000
40
1.0000000000
10
-309.7307772878
20
-427.6920506388
30
0.0000000000
10
-309.7445501685
20
-427.6934642885
30
0.0000000000
10
-309.7730078727
20
-427.6904903051
30
0.0000000000
10
-309.8099559515
20
-427.6692358783
30
0.0000000000
10
-309.8351215292
20
-427.6349340769
30
0.0000000000
10
-309.8410577677
20
-427.6070587968
30
0.0000000000
10
-309.8410579753
20
-427.5933087270
30
0.0000000000
11
-309.7307772878
21
-427.6920506388
31
0.0000000000
11
-309.7720823534
21
-427.6876794395
31
0.0000000000
11
-309.8080344439
21
-427.6670231998
31
0.0000000000
11
-309.8324295507
21
-427.6336464273
31
0.0000000000
11
-309.8410579753
21
-427.5933087270
31
0.0000000000
0
SPLINE
5
36F
100
AcDbEntity
8
0
100
AcDbSpline
62
9
6
CONTINUOUS
70
0
71
3
72
9
73
5
74
3
42
0.0000001000
43
0.0000001000
44
0.0000000001
12
-0.0385822683
22
-0.0148726601
32
0.0000000000
13
-0.0416051680
23
0.0019714101
33
0.0000000000
40
0.0000000000
40
0.0000000000
40
0.0000000000
40
0.0000000000
40
0.9320597385
40
1.0000000000
40
1.0000000000
40
1.0000000000
40
1.0000000000
10
-308.2050516859
20
-427.3602313178
30
0.0000000000
10
-308.2170386789
20
-427.3648520536
30
0.0000000000
10
-308.2310146951
20
-427.3673235599
30
0.0000000000
10
-308.2448947909
20
-427.3668642997
30
0.0000000000
10
-308.2458370129
20
-427.3668196536
30
0.0000000000
11
-308.2050516859
21
-427.3602313178
31
0.0000000000
11
-308.2430083134
21
-427.3669131761
31
0.0000000000
11
-308.2458370129
21
-427.3668196536
31
0.0000000000
0
SPLINE
5
370
100
AcDbEntity
8
0
100
AcDbSpline
62
7
6
CONTINUOUS
70
0
71
3
72
16
73
12
74
10
42
0.0000001000
43
0.0000001000
44
0.0000000001
12
-0.0289744044
22
0.2588793067
32
0.0000000000
13
-0.2571086795
23
-0.0312684163
33
0.0000000000
40
0.0000000000
40
0.0000000000
40
0.0000000000
40
0.0000000000
40
0.0950980898
40
0.2223386279
40
0.3380988178
40
0.4476222810
40
0.5468622451
40
0.6466093114
40
0.7654231273
40
0.9093720201
40
1.0000000000
40
1.0000000000
40
1.0000000000
40
1.0000000000
10
-95.8417060840
20
207.0711972582
30
0.0000000000
10
-95.8426245542
20
207.0794035674
30
0.0000000000
10
-95.8471023178
20
207.0984005040
30
0.0000000000
10
-95.8618221257
20
207.1241648755
30
0.0000000000
10
-95.8845440319
20
207.1450645189
30
0.0000000000
10
-95.9099127828
20
207.1577260088
30
0.0000000000
10
-95.9360577062
20
207.1636481411
30
0.0000000000
10
-95.9634962407
20
207.1653571308
30
0.0000000000
10
-95.9948018714
20
207.1646806895
30
0.0000000000
10
-96.0252342788
20
207.1623955323
30
0.0000000000
10
-96.0453699771
20
207.1602053491
30
0.0000000000
10
-96.0531370572
20
207.1592607513
30
0.0000000000
11
-95.8417060840
21
207.0711972582
31
0.0000000000
11
-95.8474066889
21
207.0952784585
31
0.0000000000
11
-95.8637156196
21
207.1239125442
31
0.0000000000
11
-95.8857619635
21
207.1442285538
31
0.0000000000
11
-95.9110943685
21
207.1569883990
31
0.0000000000
11
-95.9360935805
21
207.1629544886
31
0.0000000000
11
-95.9618509178
21
207.1649248529
31
0.0000000000
11
-95.9926182245
21
207.1644804395
31
0.0000000000
11
-96.0298015572
21
207.1617971865
31
0.0000000000
11
-96.0531370572
21
207.1592607513
31
0.0000000000
0
SPLINE
5
371
100
AcDbEntity
8
0
100
AcDbSpline
62
7
6
CONTINUOUS
70
0
71
3
72
17
73
13
74
11
42
0.0000001000
43
0.0000001000
44
0.0000000001
12
-0.2409615793
22
-0.0786737289
32
0.0000000000
13
-0.2508541122
23
-0.0616341786
33
0.0000000000
40
0.0000000000
40
0.0000000000
40
0.0000000000
40
0.0000000000
40
0.1257174119
40
0.2559316030
40
0.3801033766
40
0.4973284206
40
0.6067933816
40
0.7076507114
40
0.7992778858
40
0.8810031933
40
0.9522887015
40
1.0000000000
40
1.0000000000
40
1.0000000000
40
1.0000000000
10
-97.1721019580
20
206.9110567687
30
0.0000000000
10
-97.1821996467
20
206.9077598829
30
0.0000000000
10
-97.2027719332
20
206.9010963599
30
0.0000000000
10
-97.2333717368
20
206.8913442500
30
0.0000000000
10
-97.2633343781
20
206.8819564837
30
0.0000000000
10
-97.2916690988
20
206.8732403806
30
0.0000000000
10
-97.3181681219
20
206.8652499313
30
0.0000000000
10
-97.3426361110
20
206.8580448710
30
0.0000000000
10
-97.3649282335
20
206.8516588536
30
0.0000000000
10
-97.3847809973
20
206.8461292278
30
0.0000000000
10
-97.4013463138
20
206.8417370637
30
0.0000000000
10
-97.4107713158
20
206.8392898789
30
0.0000000000
10
-97.4147608409
20
206.8383096634
30
0.0000000000
11
-97.1721019580
21
206.9110567687
31
0.0000000000
11
-97.2024180028
21
206.9012368985
31
0.0000000000
11
-97.2338665165
21
206.8912154924
31
0.0000000000
11
-97.2639026911
21
206.8818078426
31
0.0000000000
11
-97.2923045039
21
206.8730747131
31
0.0000000000
11
-97.3188720133
21
206.8650703154
31
0.0000000000
11
-97.3433979324
21
206.8578549045
31
0.0000000000
11
-97.3657262276
21
206.8514614501
31
0.0000000000
11
-97.3856883110
21
206.8459247472
31
0.0000000000
11
-97.4031498793
21
206.8412774447
31
0.0000000000
11
-97.4147608409
21
206.8383096634
31
0.0000000000
0
SPLINE
5
372
100
AcDbEntity
8
0
100
AcDbSpline
62
7
6
CONTINUOUS
70
0
71
3
72
11
73
7
74
5
42
0.0000001000
43
0.0000001000
44
0.0000000001
12
-0.0254898087
22
-0.0062627772
32
0.0000000000
13
-0.0387715112
23
-0.0062176843
33
0.0000000000
40
0.0000000000
40
0.0000000000
40
0.0000000000
40
0.0000000000
40
0.1248469644
40
0.5993276583
40
0.9394943737
40
1.0000000000
40
1.0000000000
40
1.0000000000
40
1.0000000000
10
-97.4147608409
20
206.8383096634
30
0.0000000000
10
-97.4158216160
20
206.8380490338
30
0.0000000000
10
-97.4209853420
20
206.8367982123
30
0.0000000000
10
-97.4298039786
20
206.8348234920
30
0.0000000000
10
-97.4342971167
20
206.8335826355
30
0.0000000000
10
-97.4401427118
20
206.8326557927
30
0.0000000000
10
-97.4409246767
20
206.8325303911
30
0.0000000000
11
-97.4147608409
21
206.8383096634
31
0.0000000000
11
-97.4179929891
21
206.8375275259
31
0.0000000000
11
-97.4298895382
21
206.8347302111
31
0.0000000000
11
-97.4384636156
21
206.8329275375
31
0.0000000000
11
-97.4409246767
21
206.8325303911
31
0.0000000000
0
SPLINE
5
373
100
AcDbEntity
8
0
100
AcDbSpline
62
7
6
CONTINUOUS
70
0
71
3
72
10
73
6
74
4
42
0.0000001000
43
0.0000001000
44
0.0000000001
12
-1.1394054503
22
-0.1385357645
32
0.0000000000
13
-1.0911165306
23
-0.3562186596
33
0.0000000000
40
0.0000000000
40
0.0000000000
40
0.0000000000
40
0.0000000000
40
0.3242326341
40
0.6737101514
40
1.0000000000
40
1.0000000000
40
1.0000000000
40
1.0000000000
10
-96.0531368548
20
207.1592590816
30
0.0000000000
10
-96.1762809983
20
207.1442864763
30
0.0000000000
10
-96.4312499641
20
207.1050920933
30
0.0000000000
10
-96.8050286162
20
207.0222623265
30
0.0000000000
10
-97.0534295437
20
206.9498033479
30
0.0000000000
10
-97.1721029596
20
206.9110598371
30
0.0000000000
11
-96.0531368548
21
207.1592590816
31
0.0000000000
11
-96.4209662097
21
207.1027138939
31
0.0000000000
11
-96.8125759919
21
207.0159326823
31
0.0000000000
11
-97.1721029596
21
206.9110598371
31
0.0000000000
0
SPLINE
5
374
100
AcDbEntity
8
0
100
AcDbSpline
62
7
6
CONTINUOUS
70
0
71
3
72
8
73
4
74
2
42
0.0000001000
43
0.0000001000
44
0.0000000001
12
-0.0000045224
22
0.0112105483
32
0.0000000000
13
-0.0012537431
23
0.0111931650
33
0.0000000000
40
0.0000000000
40
0.0000000000
40
0.0000000000
40
0.0000000000
40
1.0000000000
40
1.0000000000
40
1.0000000000
40
1.0000000000
10
-95.8410775053
20
207.0599812506
30
0.0000000000
10
-95.8410790128
20
207.0637181000
30
0.0000000000
10
-95.8412908561
20
207.0674659018
30
0.0000000000
10
-95.8417087705
20
207.0711969568
30
0.0000000000
11
-95.8410775053
21
207.0599812506
31
0.0000000000
11
-95.8417087705
21
207.0711969568
31
0.0000000000
0
SPLINE
5
375
100
AcDbEntity
8
0
100
AcDbSpline
62
7
6
CONTINUOUS
70
0
71
3
72
13
73
9
74
7
42
0.0000001000
43
0.0000001000
44
0.0000000001
12
-0.0186732971
22
0.1667114088
32
0.0000000000
13
-0.1668252168
23
0.0043654261
33
0.0000000000
40
0.0000000000
40
0.0000000000
40
0.0000000000
40
0.0000000000
40
0.1475633507
40
0.3441968187
40
0.5230475999
40
0.6926499719
40
0.8460445029
40
1.0000000000
40
1.0000000000
40
1.0000000000
40
1.0000000000
10
-95.8417087706
20
207.0711969573
30
0.0000000000
10
-95.8426272687
20
207.0793971220
30
0.0000000000
10
-95.8470915110
20
207.0983356149
30
0.0000000000
10
-95.8617309232
20
207.1240148359
30
0.0000000000
10
-95.8843008004
20
207.1448828171
30
0.0000000000
10
-95.9095221412
20
207.1575800182
30
0.0000000000
10
-95.9355322695
20
207.1635734030
30
0.0000000000
10
-95.9526205071
20
207.1646835817
30
0.0000000000
10
-95.9611817268
20
207.1649076088
30
0.0000000000
11
-95.8417087706
21
207.0711969573
31
0.0000000000
11
-95.8474051961
21
207.0952607117
31
0.0000000000
11
-95.8636102620
21
207.1237745822
31
0.0000000000
11
-95.8854962453
21
207.1440450674
31
0.0000000000
11
-95.9107175970
21
207.1568559656
31
0.0000000000
11
-95.9355831812
21
207.1628808674
31
0.0000000000
11
-95.9611817268
21
207.1649076088
31
0.0000000000
0
SPLINE
5
376
100
AcDbEntity
8
0
100
AcDbSpline
62
7
6
CONTINUOUS
70
0
71
3
72
8
73
4
74
2
42
0.0000001000
43
0.0000001000
44
0.0000000001
12
-0.0304850193
22
0.0007977217
32
0.0000000000
13
-0.0304535634
23
-0.0013443544
33
0.0000000000
40
0.0000000000
40
0.0000000000
40
0.0000000000
40
0.0000000000
40
1.0000000000
40
1.0000000000
40
1.0000000000
40
1.0000000000
10
-95.9611817268
20
207.1649076088
30
0.0000000000
10
-95.9713433999
20
207.1651735160
30
0.0000000000
10
-95.9815071953
20
207.1649715849
30
0.0000000000
10
-95.9916583832
20
207.1645234668
30
0.0000000000
11
-95.9611817268
21
207.1649076088
31
0.0000000000
11
-95.9916583832
21
207.1645234668
31
0.0000000000
0
SPLINE
5
377
100
AcDbEntity
8
0
100
AcDbSpline
62
7
6
CONTINUOUS
70
0
71
3
72
9
73
5
74
3
42
0.0000001000
43
0.0000001000
44
0.0000000001
12
-0.0616600254
22
-0.0027219451
32
0.0000000000
13
-0.0612650701
23
-0.0074519145
33
0.0000000000
40
0.0000000000
40
0.0000000000
40
0.0000000000
40
0.0000000000
40
0.5991729697
40
1.0000000000
40
1.0000000000
40
1.0000000000
40
1.0000000000
10
-95.9916583832
20
207.1645234668
30
0.0000000000
10
-96.0039733900
20
207.1639798281
30
0.0000000000
10
-96.0244957636
20
207.1624678010
30
0.0000000000
10
-96.0449514613
20
207.1602561406
30
0.0000000000
10
-96.0531370267
20
207.1592604977
30
0.0000000000
11
-95.9916583832
21
207.1645234668
31
0.0000000000
11
-96.0285423559
21
207.1619167225
31
0.0000000000
11
-96.0531370267
21
207.1592604977
31
0.0000000000
0
SPLINE
5
378
100
AcDbEntity
8
0
100
AcDbSpline
62
7
6
CONTINUOUS
70
0
71
3
72
8
73
4
74
2
42
0.0000001000
43
0.0000001000
44
0.0000000001
12
-0.0121258853
22
-0.0006742997
32
0.0000000000
13
-0.0121403917
23
-0.0004857074
33
0.0000000000
40
0.0000000000
40
0.0000000000
40
0.0000000000
40
0.0000000000
40
1.0000000000
40
1.0000000000
40
1.0000000000
40
1.0000000000
10
-95.6465818258
20
206.8335966940
30
0.0000000000
10
-95.6506237875
20
206.8333719274
30
0.0000000000
10
-95.6546681340
20
206.8331782545
30
0.0000000000
10
-95.6587149313
20
206.8330163521
30
0.0000000000
11
-95.6465818258
21
206.8335966940
31
0.0000000000
11
-95.6587149313
21
206.8330163521
31
0.0000000000
0
SPLINE
5
379
100
AcDbEntity
8
0
100
AcDbSpline
62
7
6
CONTINUOUS
70
0
71
3
72
8
73
4
74
2
42
0.0000001000
43
0.0000001000
44
0.0000000001
12
-0.0226721203
22
-0.0009070561
32
0.0000000000
13
-0.0227246917
23
-0.0002290275
33
0.0000000000
40
0.0000000000
40
0.0000000000
40
0.0000000000
40
0.0000000000
40
1.0000000000
40
1.0000000000
40
1.0000000000
40
1.0000000000
10
-95.6587149313
20
206.8330163521
30
0.0000000000
10
-95.6662723047
20
206.8327140000
30
0.0000000000
10
-95.6738382251
20
206.8325224487
30
0.0000000000
10
-95.6814131223
20
206.8324461062
30
0.0000000000
11
-95.6587149313
21
206.8330163521
31
0.0000000000
11
-95.6814131223
21
206.8324461062
31
0.0000000000
0
SPLINE
5
37A
100
AcDbEntity
8
0
100
AcDbSpline
62
7
6
CONTINUOUS
70
0
71
3
72
11
73
7
74
5
42
0.0000001000
43
0.0000001000
44
0.0000000001
12
-0.1625355335
22
-0.0016380908
32
0.0000000000
13
-0.1430045884
23
0.0452983136
33
0.0000000000
40
0.0000000000
40
0.0000000000
40
0.0000000000
40
0.0000000000
40
0.3921400466
40
0.7167710143
40
0.9507098624
40
1.0000000000
40
1.0000000000
40
1.0000000000
40
1.0000000000
10
-95.6814131223
20
206.8324461062
30
0.0000000000
10
-95.7026586862
20
206.8322319859
30
0.0000000000
10
-95.7416213487
20
206.8334971704
30
0.0000000000
10
-95.7919885705
20
206.8388335754
30
0.0000000000
10
-95.8256621468
20
206.8475146001
30
0.0000000000
10
-95.8388308056
20
206.8509743247
30
0.0000000000
10
-95.8411803775
20
206.8517185780
30
0.0000000000
11
-95.6814131223
21
206.8324461062
31
0.0000000000
11
-95.7449949756
21
206.8344418606
31
0.0000000000
11
-95.7972495840
21
206.8409780678
31
0.0000000000
11
-95.8341709787
21
206.8497524159
31
0.0000000000
11
-95.8411803775
21
206.8517185780
31
0.0000000000
0
SPLINE
5
37B
100
AcDbEntity
8
0
100
AcDbSpline
62
7
6
CONTINUOUS
70
0
71
3
72
9
73
5
74
3
42
0.0000001000
43
0.0000001000
44
0.0000000001
12
-0.0148819146
22
0.0047140140
32
0.0000000000
13
-0.0133048910
23
0.0072041476
33
0.0000000000
40
0.0000000000
40
0.0000000000
40
0.0000000000
40
0.0000000000
40
0.8019985287
40
1.0000000000
40
1.0000000000
40
1.0000000000
40
1.0000000000
10
-95.8411803775
20
206.8517185780
30
0.0000000000
10
-95.8451588020
20
206.8529787888
30
0.0000000000
10
-95.8503262148
20
206.8550583430
30
0.0000000000
10
-95.8567643807
20
206.8589783406
30
0.0000000000
10
-95.8576425101
20
206.8594538179
30
0.0000000000
11
-95.8411803775
21
206.8517185780
31
0.0000000000
11
-95.8542646674
21
206.8574981638
31
0.0000000000
11
-95.8576425101
21
206.8594538179
31
0.0000000000
0
SPLINE
5
37C
100
AcDbEntity
8
0
100
AcDbSpline
62
7
6
CONTINUOUS
70
0
71
3
72
10
73
6
74
4
42
0.0000001000
43
0.0000001000
44
0.0000000001
12
-0.6103836007
22
0.0337145969
32
0.0000000000
13
-0.6103822664
23
-0.0337146560
33
0.0000000000
40
0.0000000000
40
0.0000000000
40
0.0000000000
40
0.0000000000
40
0.3162377785
40
0.6798529205
40
1.0000000000
40
1.0000000000
40
1.0000000000
40
1.0000000000
10
-95.0355524201
20
206.8336134004
30
0.0000000000
10
-95.0998945380
20
206.8371673435
30
0.0000000000
10
-95.2383635613
20
206.8423945113
30
0.0000000000
10
-95.4421782741
20
206.8424384409
30
0.0000000000
10
-95.5814452443
20
206.8372112974
30
0.0000000000
10
-95.6465826110
20
206.8336134145
30
0.0000000000
11
-95.0355524201
21
206.8336134004
31
0.0000000000
11
-95.2287345344
21
206.8409057005
31
0.0000000000
11
-95.4510111698
21
206.8409536391
31
0.0000000000
11
-95.6465826110
21
206.8336134145
31
0.0000000000
0
SPLINE
5
37D
100
AcDbEntity
8
0
100
AcDbSpline
62
7
6
CONTINUOUS
70
0
71
3
72
8
73
4
74
2
42
0.0000001000
43
0.0000001000
44
0.0000000001
12
-0.0008077267
22
-0.0004121821
32
0.0000000000
13
-0.0010839278
23
-0.0006210744
33
0.0000000000
40
0.0000000000
40
0.0000000000
40
0.0000000000
40
0.0000000000
40
1.0000000000
40
1.0000000000
40
1.0000000000
40
1.0000000000
10
-94.8241831526
20
206.8595908258
30
0.0000000000
10
-94.8244523949
20
206.8594534317
30
0.0000000000
10
-94.8247780354
20
206.8592725419
30
0.0000000000
10
-94.8251393447
20
206.8590655171
30
0.0000000000
11
-94.8241831526
21
206.8595908258
31
0.0000000000
11
-94.8251393447
21
206.8590655171
31
0.0000000000
0
SPLINE
5
37E
100
AcDbEntity
8
0
100
AcDbSpline
62
7
6
CONTINUOUS
70
0
71
3
72
9
73
5
74
3
42
0.0000001000
43
0.0000001000
44
0.0000000001
12
-0.0121376826
22
-0.0061938472
32
0.0000000000
13
-0.0153882528
23
-0.0048368008
33
0.0000000000
40
0.0000000000
40
0.0000000000
40
0.0000000000
40
0.0000000000
40
0.1995516330
40
1.0000000000
40
1.0000000000
40
1.0000000000
40
1.0000000000
10
-94.8241831526
20
206.8595908258
30
0.0000000000
10
-94.8249905174
20
206.8591788283
30
0.0000000000
10
-94.8315777569
20
206.8551542626
30
0.0000000000
10
-94.8368637760
20
206.8530633695
30
0.0000000000
10
-94.8409696100
20
206.8517728331
30
0.0000000000
11
-94.8241831526
21
206.8595908258
31
0.0000000000
11
-94.8275676905
21
206.8576496115
31
0.0000000000
11
-94.8409696100
21
206.8517728331
31
0.0000000000
0
SPLINE
5
37F
100
AcDbEntity
8
0
100
AcDbSpline
62
7
6
CONTINUOUS
70
0
71
3
72
11
73
7
74
5
42
0.0000001000
43
0.0000001000
44
0.0000000001
12
-0.1401325979
22
-0.0440425303
32
0.0000000000
13
-0.1595286702
23
0.0010276725
33
0.0000000000
40
0.0000000000
40
0.0000000000
40
0.0000000000
40
0.0000000000
40
0.0438216188
40
0.2774879323
40
0.6034667719
40
1.0000000000
40
1.0000000000
40
1.0000000000
40
1.0000000000
10
-94.8409715164
20
206.8517722339
30
0.0000000000
10
-94.8430184621
20
206.8511288956
30
0.0000000000
10
-94.8557830473
20
206.8476579111
30
0.0000000000
10
-94.8884826088
20
206.8391625043
30
0.0000000000
10
-94.9382227377
20
206.8336588430
30
0.0000000000
10
-94.9767591029
20
206.8322802475
30
0.0000000000
10
-94.9978452424
20
206.8324160830
30
0.0000000000
11
-94.8409715164
21
206.8517722339
31
0.0000000000
11
-94.8471067437
21
206.8500217430
31
0.0000000000
11
-94.8832691810
21
206.8412739367
31
0.0000000000
11
-94.9347462024
21
206.8346308602
31
0.0000000000
11
-94.9978452424
21
206.8324160830
31
0.0000000000
0
SPLINE
5
380
100
AcDbEntity
8
0
100
AcDbSpline
62
7
6
CONTINUOUS
70
0
71
3
72
8
73
4
74
2
42
0.0000001000
43
0.0000001000
44
0.0000000001
12
-0.0377751027
22
0.0002433446
32
0.0000000000
13
-0.0376420626
23
0.0020944388
33
0.0000000000
40
0.0000000000
40
0.0000000000
40
0.0000000000
40
0.0000000000
40
1.0000000000
40
1.0000000000
40
1.0000000000
40
1.0000000000
10
-94.9978452424
20
206.8324160830
30
0.0000000000
10
-95.0104369433
20
206.8324971978
30
0.0000000000
10
-95.0230059612
20
206.8328965533
30
0.0000000000
10
-95.0355533154
20
206.8335946996
30
0.0000000000
11
-94.9978452424
21
206.8324160830
31
0.0000000000
11
-95.0355533154
21
206.8335946996
31
0.0000000000
0
SPLINE
5
381
100
AcDbEntity
8
0
100
AcDbSpline
62
7
6
CONTINUOUS
70
0
71
3
72
9
73
5
74
3
42
0.0000001000
43
0.0000001000
44
0.0000000001
12
-0.0603938318
22
0.0073448720
32
0.0000000000
13
-0.0607785955
23
0.0027725077
33
0.0000000000
40
0.0000000000
40
0.0000000000
40
0.0000000000
40
0.0000000000
40
0.3869911088
40
1.0000000000
40
1.0000000000
40
1.0000000000
40
1.0000000000
10
-94.6289979718
20
207.1592607617
30
0.0000000000
10
-94.6367885971
20
207.1602082284
30
0.0000000000
10
-94.6569517989
20
207.1624006240
30
0.0000000000
10
-94.6771801444
20
207.1639176744
30
0.0000000000
10
-94.6895994176
20
207.1644841984
30
0.0000000000
11
-94.6289979718
21
207.1592607617
31
0.0000000000
11
-94.6524043128
21
207.1618039625
31
0.0000000000
11
-94.6895994176
21
207.1644841984
31
0.0000000000
0
SPLINE
5
382
100
AcDbEntity
8
0
100
AcDbSpline
62
7
6
CONTINUOUS
70
0
71
3
72
9
73
5
74
3
42
0.0000001000
43
0.0000001000
44
0.0000000001
12
-0.0564442669
22
0.0025747907
32
0.0000000000
13
-0.0559810452
23
-0.0080425123
33
0.0000000000
40
0.0000000000
40
0.0000000000
40
0.0000000000
40
0.0000000000
40
0.5438656546
40
1.0000000000
40
1.0000000000
40
1.0000000000
40
1.0000000000
10
-94.6895994176
20
207.1644841984
30
0.0000000000
10
-94.6998321170
20
207.1649509785
30
0.0000000000
10
-94.7186707358
20
207.1653555816
30
0.0000000000
10
-94.7375049121
20
207.1641808609
30
0.0000000000
10
-94.7460165379
20
207.1629580389
30
0.0000000000
11
-94.6895994176
21
207.1644841984
31
0.0000000000
11
-94.7203221584
21
207.1649239300
31
0.0000000000
11
-94.7460165379
21
207.1629580389
31
0.0000000000
0
SPLINE
5
383
100
AcDbEntity
8
0
100
AcDbSpline
62
7
6
CONTINUOUS
70
0
71
3
72
8
73
4
74
2
42
0.0000001000
43
0.0000001000
44
0.0000000001
12
-0.0253563285
22
-0.0036428149
32
0.0000000000
13
-0.0242042291
23
-0.0084543714
33
0.0000000000
40
0.0000000000
40
0.0000000000
40
0.0000000000
40
0.0000000000
40
1.0000000000
40
1.0000000000
40
1.0000000000
40
1.0000000000
10
-94.7460165379
20
207.1629580389
30
0.0000000000
10
-94.7544686474
20
207.1617437673
30
0.0000000000
10
-94.7628425729
20
207.1598520779
30
0.0000000000
10
-94.7709106493
20
207.1570339541
30
0.0000000000
11
-94.7460165379
21
207.1629580389
31
0.0000000000
11
-94.7709106493
21
207.1570339541
31
0.0000000000
0
SPLINE
5
384
100
AcDbEntity
8
0
100
AcDbSpline
62
7
6
CONTINUOUS
70
0
71
3
72
11
73
7
74
5
42
0.0000001000
43
0.0000001000
44
0.0000000001
12
-0.1097795045
22
-0.0383452287
32
0.0000000000
13
-0.0129853403
23
-0.1160160106
33
0.0000000000
40
0.0000000000
40
0.0000000000
40
0.0000000000
40
0.0000000000
40
0.2448027718
40
0.5034455926
40
0.7877064745
40
1.0000000000
40
1.0000000000
40
1.0000000000
40
1.0000000000
10
-94.7709106493
20
207.1570339541
30
0.0000000000
10
-94.7798687583
20
207.1539049480
30
0.0000000000
10
-94.7975160089
20
207.1451212493
30
0.0000000000
10
-94.8202841580
20
207.1242076339
30
0.0000000000
10
-94.8350272880
20
207.0984207017
30
0.0000000000
10
-94.8395099944
20
207.0794075167
30
0.0000000000
10
-94.8404288956
20
207.0711977007
30
0.0000000000
11
-94.7709106493
21
207.1570339541
31
0.0000000000
11
-94.7962989681
21
207.1442791482
31
0.0000000000
11
-94.8183876265
21
207.1239518280
31
0.0000000000
11
-94.8347244655
21
207.0952889095
31
0.0000000000
11
-94.8404288956
21
207.0711977007
31
0.0000000000
0
SPLINE
5
385
100
AcDbEntity
8
0
100
AcDbSpline
62
7
6
CONTINUOUS
70
0
71
3
72
8
73
4
74
2
42
0.0000001000
43
0.0000001000
44
0.0000000001
12
-0.0012512757
22
-0.0111793772
32
0.0000000000
13
-0.0000054201
23
-0.0111967750
33
0.0000000000
40
0.0000000000
40
0.0000000000
40
0.0000000000
40
0.0000000000
40
1.0000000000
40
1.0000000000
40
1.0000000000
40
1.0000000000
10
-94.8404288956
20
207.0711977007
30
0.0000000000
10
-94.8408459875
20
207.0674712417
30
0.0000000000
10
-94.8410575450
20
207.0637280847
30
0.0000000000
10
-94.8410593517
20
207.0599958263
30
0.0000000000
11
-94.8404288956
21
207.0711977007
31
0.0000000000
11
-94.8410593517
21
207.0599958263
31
0.0000000000
0
SPLINE
5
386
100
AcDbEntity
8
0
100
AcDbSpline
62
7
6
CONTINUOUS
70
0
71
3
72
10
73
6
74
4
42
0.0000001000
43
0.0000001000
44
0.0000000001
12
-1.0911208316
22
0.3562194201
32
0.0000000000
13
-1.1394011973
23
0.1385349433
33
0.0000000000
40
0.0000000000
40
0.0000000000
40
0.0000000000
40
0.0000000000
40
0.3242092501
40
0.6736871094
40
1.0000000000
40
1.0000000000
40
1.0000000000
40
1.0000000000
10
-93.5100320782
20
206.9110598088
30
0.0000000000
10
-93.6279492337
20
206.9495563525
30
0.0000000000
10
-93.8755690819
20
207.0218419975
30
0.0000000000
10
-94.2493141939
20
207.1048229902
30
0.0000000000
10
-94.5050644085
20
207.1441905153
30
0.0000000000
10
-94.6289981746
20
207.1592590946
30
0.0000000000
11
-93.5100320782
21
206.9110598088
31
0.0000000000
11
-93.8672465380
21
207.0153365810
31
0.0000000000
11
-94.2588215486
21
207.1022763683
31
0.0000000000
11
-94.6289981746
21
207.1592590946
31
0.0000000000
0
SPLINE
5
387
100
AcDbEntity
8
0
100
AcDbSpline
62
7
6
CONTINUOUS
70
0
71
3
72
8
73
4
74
2
42
0.0000001000
43
0.0000001000
44
0.0000000001
12
0.0000338558
22
0.0001072465
32
0.0000000000
13
-0.0041573908
23
0.0006697597
33
0.0000000000
40
0.0000000000
40
0.0000000000
40
0.0000000000
40
0.0000000000
40
1.0000000000
40
1.0000000000
40
1.0000000000
40
1.0000000000
10
-93.2389912602
20
206.8321237889
30
0.0000000000
10
-93.2389799749
20
206.8321595377
30
0.0000000000
10
-93.2401854635
20
206.8323532663
30
0.0000000000
10
-93.2415712604
20
206.8325765195
30
0.0000000000
11
-93.2389912602
21
206.8321237889
31
0.0000000000
11
-93.2415712604
21
206.8325765195
31
0.0000000000
0
SPLINE
5
388
100
AcDbEntity
8
0
100
AcDbSpline
62
7
6
CONTINUOUS
70
0
71
3
72
11
73
7
74
5
42
0.0000001000
43
0.0000001000
44
0.0000000001
12
-0.0393958245
22
0.0063467055
32
0.0000000000
13
-0.0252524804
23
0.0062307611
33
0.0000000000
40
0.0000000000
40
0.0000000000
40
0.0000000000
40
0.0000000000
40
0.0437461441
40
0.3811931805
40
0.8487327780
40
1.0000000000
40
1.0000000000
40
1.0000000000
40
1.0000000000
10
-93.2415712604
20
206.8325765195
30
0.0000000000
10
-93.2421457322
20
206.8326690675
30
0.0000000000
10
-93.2474215361
20
206.8335197185
30
0.0000000000
10
-93.2519240870
20
206.8347244374
30
0.0000000000
10
-93.2608210737
20
206.8367111392
30
0.0000000000
10
-93.2661085503
20
206.8379941654
30
0.0000000000
10
-93.2673818412
20
206.8383083354
30
0.0000000000
11
-93.2415712604
21
206.8325765195
31
0.0000000000
11
-93.2433137964
21
206.8328602336
31
0.0000000000
11
-93.2517996227
21
206.8346328802
31
0.0000000000
11
-93.2634954254
21
206.8373667390
31
0.0000000000
11
-93.2673818412
21
206.8383083354
31
0.0000000000
0
SPLINE
5
389
100
AcDbEntity
8
0
100
AcDbSpline
62
7
6
CONTINUOUS
70
0
71
3
72
18
73
14
74
12
42
0.0000001000
43
0.0000001000
44
0.0000000001
12
-0.2491589938
22
0.0614771357
32
0.0000000000
13
-0.2409641088
23
0.0786527442
33
0.0000000000
40
0.0000000000
40
0.0000000000
40
0.0000000000
40
0.0000000000
40
0.0441584266
40
0.1147243445
40
0.1955767258
40
0.2863024203
40
0.3862697342
40
0.4948207329
40
0.6111644276
40
0.7344498212
40
0.8637745550
40
0.9980510664
40
1.0000000000
40
1.0000000000
40
1.0000000000
40
1.0000000000
10
-93.2673818412
20
206.8383083354
30
0.0000000000
10
-93.2710493309
20
206.8392132466
30
0.0000000000
10
-93.2801630103
20
206.8415757403
30
0.0000000000
10
-93.2962963794
20
206.8458438848
30
0.0000000000
10
-93.3159542397
20
206.8513019861
30
0.0000000000
10
-93.3380295542
20
206.8576213646
30
0.0000000000
10
-93.3622820383
20
206.8647488512
30
0.0000000000
10
-93.3885675861
20
206.8726594274
30
0.0000000000
10
-93.4166876855
20
206.8813010752
30
0.0000000000
10
-93.4464388609
20
206.8906111004
30
0.0000000000
10
-93.4775873834
20
206.9005272086
30
0.0000000000
10
-93.4989345930
20
206.9074345447
30
0.0000000000
10
-93.5098765366
20
206.9110056503
30
0.0000000000
10
-93.5100330776
20
206.9110567467
30
0.0000000000
11
-93.2673818412
21
206.8383083354
31
0.0000000000
11
-93.2781170698
21
206.8410528528
31
0.0000000000
11
-93.2954047972
21
206.8456429902
31
0.0000000000
11
-93.3151569891
21
206.8511072923
31
0.0000000000
11
-93.3372674961
21
206.8574298798
31
0.0000000000
11
-93.3615799977
21
206.8645699116
31
0.0000000000
11
-93.3879292033
21
206.8724942389
31
0.0000000000
11
-93.4161199065
21
206.8811521771
31
0.0000000000
11
-93.4459442962
21
206.8904825902
31
0.0000000000
11
-93.4771809645
21
206.9004244585
31
0.0000000000
11
-93.5095634490
21
206.9109034747
31
0.0000000000
11
-93.5100330776
21
206.9110567467
31
0.0000000000
0
SPLINE
5
38A
100
AcDbEntity
8
0
100
AcDbSpline
62
7
6
CONTINUOUS
70
0
71
3
72
8
73
4
74
2
42
0.0000001000
43
0.0000001000
44
0.0000000001
12
0.0000338947
22
0.0001160309
32
0.0000000000
13
-0.0042056179
23
0.0006729367
33
0.0000000000
40
0.0000000000
40
0.0000000000
40
0.0000000000
40
0.0000000000
40
1.0000000000
40
1.0000000000
40
1.0000000000
40
1.0000000000
10
-93.2389967625
20
206.8321345915
30
0.0000000000
10
-93.2389854642
20
206.8321732685
30
0.0000000000
10
-93.2401675584
20
206.8323639120
30
0.0000000000
10
-93.2415694310
20
206.8325882242
30
0.0000000000
11
-93.2389967625
21
206.8321345915
31
0.0000000000
11
-93.2415694310
21
206.8325882242
31
0.0000000000
0
SPLINE
5
38B
100
AcDbEntity
8
0
100
AcDbSpline
62
7
6
CONTINUOUS
70
0
71
3
72
17
73
13
74
11
42
0.0000001000
43
0.0000001000
44
0.0000000001
12
-0.2509708435
22
0.0616478837
32
0.0000000000
13
-0.2409606472
23
0.0786734263
33
0.0000000000
40
0.0000000000
40
0.0000000000
40
0.0000000000
40
0.0000000000
40
0.0479700867
40
0.1192779108
40
0.2010034140
40
0.2926090716
40
0.3934274926
40
0.5028415426
40
0.6200107320
40
0.7441297324
40
0.8743023083
40
1.0000000000
40
1.0000000000
40
1.0000000000
40
1.0000000000
10
-93.2673740562
20
206.8383097825
30
0.0000000000
10
-93.2713870873
20
206.8392955339
30
0.0000000000
10
-93.2808336168
20
206.8417487165
30
0.0000000000
10
-93.2974217609
20
206.8461477307
30
0.0000000000
10
-93.3172744085
20
206.8516779894
30
0.0000000000
10
-93.3395613914
20
206.8580630546
30
0.0000000000
10
-93.3640201497
20
206.8652658408
30
0.0000000000
10
-93.3905071982
20
206.8732529853
30
0.0000000000
10
-93.4188288702
20
206.8819652725
30
0.0000000000
10
-93.4487792479
20
206.8913493144
30
0.0000000000
10
-93.4793697325
20
206.9010985044
30
0.0000000000
10
-93.4999370066
20
206.9077604127
30
0.0000000000
10
-93.5100330723
20
206.9110567687
30
0.0000000000
11
-93.2673740562
21
206.8383097825
31
0.0000000000
11
-93.2790495472
21
206.8412941638
31
0.0000000000
11
-93.2965163082
21
206.8459436777
31
0.0000000000
11
-93.3164781819
21
206.8514810225
31
0.0000000000
11
-93.3388010023
21
206.8578734578
31
0.0000000000
11
-93.3633172444
21
206.8650864670
31
0.0000000000
11
-93.3898722067
21
206.8730874037
31
0.0000000000
11
-93.4182603191
21
206.8818165269
31
0.0000000000
11
-93.4482835778
21
206.8912202520
31
0.0000000000
11
-93.4797219038
21
206.9012384654
31
0.0000000000
11
-93.5100330723
21
206.9110567687
31
0.0000000000
0
SPLINE
5
38C
100
AcDbEntity
8
0
100
AcDbSpline
62
7
6
CONTINUOUS
70
0
71
3
72
16
73
12
74
10
42
0.0000001000
43
0.0000001000
44
0.0000000001
12
-0.2571082013
22
0.0312732353
32
0.0000000000
13
-0.0289956003
23
-0.2588563033
33
0.0000000000
40
0.0000000000
40
0.0000000000
40
0.0000000000
40
0.0000000000
40
0.0957177787
40
0.2385228785
40
0.3560819468
40
0.4550440047
40
0.5535147798
40
0.6628920152
40
0.7781856162
40
0.9049357695
40
1.0000000000
40
1.0000000000
40
1.0000000000
40
1.0000000000
10
-94.6289980028
20
207.1592605046
30
0.0000000000
10
-94.6372012781
20
207.1602583061
30
0.0000000000
10
-94.6576774585
20
207.1624715892
30
0.0000000000
10
-94.6883452842
20
207.1647289392
30
0.0000000000
10
-94.7193776140
20
207.1653424054
30
0.0000000000
10
-94.7465703710
20
207.1635740914
30
0.0000000000
10
-94.7725509458
20
207.1575998781
30
0.0000000000
10
-94.7977784234
20
207.1449254175
30
0.0000000000
10
-94.8203830060
20
207.1240463033
30
0.0000000000
10
-94.8350395084
20
207.0983505613
30
0.0000000000
10
-94.8395073950
20
207.0794000578
30
0.0000000000
10
-94.8404262098
20
207.0711973994
30
0.0000000000
11
-94.6289980028
21
207.1592605046
31
0.0000000000
11
-94.6536459655
21
207.1619217430
31
0.0000000000
11
-94.6905381652
21
207.1645261667
31
0.0000000000
11
-94.7209815215
21
207.1649068630
31
0.0000000000
11
-94.7465309971
21
207.1628839099
31
0.0000000000
11
-94.7713190100
21
207.1568908472
31
0.0000000000
11
-94.7965845801
21
207.1440823448
31
0.0000000000
11
-94.8185012457
21
207.1238037636
31
0.0000000000
11
-94.8347270328
21
207.0952682688
31
0.0000000000
11
-94.8404262098
21
207.0711973994
31
0.0000000000
0
SPLINE
5
38D
100
AcDbEntity
8
0
100
AcDbSpline
62
7
6
CONTINUOUS
70
0
71
3
72
12
73
8
74
6
42
0.0000001000
43
0.0000001000
44
0.0000000001
12
-0.1619099871
22
-0.0512868116
32
0.0000000000
13
-0.1836198709
23
0.0070518447
33
0.0000000000
40
0.0000000000
40
0.0000000000
40
0.0000000000
40
0.0000000000
40
0.0435347811
40
0.2501577898
40
0.5368832645
40
0.8832351292
40
1.0000000000
40
1.0000000000
40
1.0000000000
40
1.0000000000
10
-94.8409546528
20
206.8517185780
30
0.0000000000
10
-94.8433042247
20
206.8509743247
30
0.0000000000
10
-94.8564728835
20
206.8475146001
30
0.0000000000
10
-94.8901464597
20
206.8388335754
30
0.0000000000
10
-94.9405136816
20
206.8334971704
30
0.0000000000
10
-94.9866626228
20
206.8319986351
30
0.0000000000
10
-95.0150388259
20
206.8326934830
30
0.0000000000
10
-95.0221856094
20
206.8329679523
30
0.0000000000
11
-94.8409546528
21
206.8517185780
31
0.0000000000
11
-94.8479640516
21
206.8497524159
31
0.0000000000
11
-94.8848854463
21
206.8409780678
31
0.0000000000
11
-94.9371400547
21
206.8344418606
31
0.0000000000
11
-95.0007219079
21
206.8324461062
31
0.0000000000
11
-95.0221856094
21
206.8329679523
31
0.0000000000
0
SPLINE
5
38E
100
AcDbEntity
8
0
100
AcDbSpline
62
7
6
CONTINUOUS
70
0
71
3
72
10
73
6
74
4
42
0.0000001000
43
0.0000001000
44
0.0000000001
12
-0.6103824095
22
0.0337146639
32
0.0000000000
13
-0.6103837428
23
-0.0337146206
33
0.0000000000
40
0.0000000000
40
0.0000000000
40
0.0000000000
40
0.0000000000
40
0.3201470045
40
0.6837620612
40
1.0000000000
40
1.0000000000
40
1.0000000000
40
1.0000000000
10
-95.0355524193
20
206.8336134145
30
0.0000000000
10
-95.1006897860
20
206.8372112974
30
0.0000000000
10
-95.2399567562
20
206.8424384409
30
0.0000000000
10
-95.4437715167
20
206.8423945113
30
0.0000000000
10
-95.5822405878
20
206.8371673399
30
0.0000000000
10
-95.6465827533
20
206.8336133925
30
0.0000000000
11
-95.0355524193
21
206.8336134145
31
0.0000000000
11
-95.2311238605
21
206.8409536391
31
0.0000000000
11
-95.4534004959
21
206.8409057005
31
0.0000000000
11
-95.6465827533
21
206.8336133925
31
0.0000000000
0
SPLINE
5
38F
100
AcDbEntity
8
0
100
AcDbSpline
62
7
6
CONTINUOUS
70
0
71
3
72
8
73
4
74
2
42
0.0000001000
43
0.0000001000
44
0.0000000001
12
-0.0133593634
22
-0.0007433272
32
0.0000000000
13
-0.0133758724
23
-0.0005149088
33
0.0000000000
40
0.0000000000
40
0.0000000000
40
0.0000000000
40
0.0000000000
40
1.0000000000
40
1.0000000000
40
1.0000000000
40
1.0000000000
10
-95.6465817148
20
206.8335946996
30
0.0000000000
10
-95.6510348360
20
206.8333469239
30
0.0000000000
10
-95.6554906858
20
206.8331367831
30
0.0000000000
10
-95.6599493100
20
206.8329651468
30
0.0000000000
11
-95.6465817148
21
206.8335946996
31
0.0000000000
11
-95.6599493100
21
206.8329651468
31
0.0000000000
0
SPLINE
5
390
100
AcDbEntity
8
0
100
AcDbSpline
62
9
6
CONTINUOUS
70
0
71
3
72
10
73
6
74
4
42
0.0000001000
43
0.0000001000
44
0.0000000001
12
-0.0000000037
22
0.0084211513
32
0.0000000000
13
0.0000000024
23
0.0084211513
33
0.0000000000
40
0.0000000000
40
0.0000000000
40
0.0000000000
40
0.0000000000
40
0.5552522622
40
0.8890061159
40
1.0000000000
40
1.0000000000
40
1.0000000000
40
1.0000000000
10
-97.4770833463
20
206.8269127606
30
0.0000000000
10
-97.4770833470
20
206.8284713817
30
0.0000000000
10
-97.4770833449
20
206.8309668667
30
0.0000000000
10
-97.4770833464
20
206.8337739171
30
0.0000000000
10
-97.4770833464
20
206.8350223465
30
0.0000000000
10
-97.4770833463
20
206.8353339119
30
0.0000000000
11
-97.4770833463
21
206.8269127606
31
0.0000000000
11
-97.4770833457
21
206.8315886239
31
0.0000000000
11
-97.4770833463
21
206.8343992156
31
0.0000000000
11
-97.4770833463
21
206.8353339119
31
0.0000000000
0
SPLINE
5
391
100
AcDbEntity
8
0
100
AcDbSpline
62
9
6
CONTINUOUS
70
0
71
3
72
11
73
7
74
5
42
0.0000001000
43
0.0000001000
44
0.0000000001
12
-0.2347482178
22
-0.0766424207
32
0.0000000000
13
-0.2489078788
23
-0.0675589159
33
0.0000000000
40
0.0000000000
40
0.0000000000
40
0.0000000000
40
0.0000000000
40
0.3504046771
40
0.6666687971
40
0.9304468631
40
1.0000000000
40
1.0000000000
40
1.0000000000
40
1.0000000000
10
-97.1719382275
20
206.9105552550
30
0.0000000000
10
-97.1993571854
20
206.9016033008
30
0.0000000000
10
-97.2514585826
20
206.8849505512
30
0.0000000000
10
-97.3253412212
20
206.8622375693
30
0.0000000000
10
-97.3752256678
20
206.8481075669
30
0.0000000000
10
-97.4032868477
20
206.8402402566
30
0.0000000000
10
-97.4090576222
20
206.8386739451
30
0.0000000000
11
-97.1719382275
21
206.9105552550
31
0.0000000000
11
-97.2543576293
21
206.8842024031
31
0.0000000000
11
-97.3290584149
21
206.8614148311
31
0.0000000000
11
-97.3916835795
21
206.8434966041
31
0.0000000000
11
-97.4090576222
21
206.8386739451
31
0.0000000000
0
SPLINE
5
392
100
AcDbEntity
8
0
100
AcDbSpline
62
9
6
CONTINUOUS
70
0
71
3
72
10
73
6
74
4
42
0.0000001000
43
0.0000001000
44
0.0000000001
12
-0.0708811429
22
-0.0192386565
32
0.0000000000
13
0.0003549073
23
0.0703206776
33
0.0000000000
40
0.0000000000
40
0.0000000000
40
0.0000000000
40
0.0000000000
40
0.4410278012
40
0.8596420268
40
1.0000000000
40
1.0000000000
40
1.0000000000
40
1.0000000000
10
-97.4090576222
20
206.8386739451
30
0.0000000000
10
-97.4194778071
20
206.8358456843
30
0.0000000000
10
-97.4392516399
20
206.8308113699
30
0.0000000000
10
-97.4560469501
20
206.8286976106
30
0.0000000000
10
-97.4770999510
20
206.8236227380
30
0.0000000000
10
-97.4770833463
20
206.8269127606
30
0.0000000000
11
-97.4090576222
21
206.8386739451
31
0.0000000000
11
-97.4383627680
21
206.8315269075
31
0.0000000000
11
-97.4672626158
21
206.8259258600
31
0.0000000000
11
-97.4770833463
21
206.8269127606
31
0.0000000000
0
SPLINE
5
393
100
AcDbEntity
8
0
100
AcDbSpline
62
9
6
CONTINUOUS
70
0
71
3
72
12
73
8
74
6
42
0.0000001000
43
0.0000001000
44
0.0000000001
12
-1.1394044272
22
-0.1385317330
32
0.0000000000
13
-1.0911181987
23
-0.3562226359
33
0.0000000000
40
0.0000000000
40
0.0000000000
40
0.0000000000
40
0.0000000000
40
0.1736997740
40
0.3668447149
40
0.5660151312
40
0.7736035241
40
1.0000000000
40
1.0000000000
40
1.0000000000
40
1.0000000000
10
-96.0530727922
20
207.1587321741
30
0.0000000000
10
-96.1190442227
20
207.1507111972
30
0.0000000000
10
-96.2580969064
20
207.1314153076
30
0.0000000000
10
-96.4714478784
20
207.0940060757
30
0.0000000000
10
-96.6959013981
20
207.0457559608
30
0.0000000000
10
-96.9305950864
20
206.9854996985
30
0.0000000000
10
-97.0895964559
20
206.9374377715
30
0.0000000000
10
-97.1719382275
20
206.9105552550
30
0.0000000000
11
-96.0530727922
21
207.1587321741
31
0.0000000000
11
-96.2505522196
21
207.1313283940
31
0.0000000000
11
-96.4689117576
21
207.0930409733
31
0.0000000000
11
-96.6924128214
21
207.0449956590
31
0.0000000000
11
-96.9231966789
21
206.9857428568
31
0.0000000000
11
-97.1719382275
21
206.9105552550
31
0.0000000000
0
SPLINE
5
394
100
AcDbEntity
8
0
100
AcDbSpline
62
9
6
CONTINUOUS
70
0
71
3
72
14
73
10
74
8
42
0.0000001000
43
0.0000001000
44
0.0000000001
12
-0.0001275271
22
0.1030417226
32
0.0000000000
13
-0.1022885817
23
-0.0124361939
33
0.0000000000
40
0.0000000000
40
0.0000000000
40
0.0000000000
40
0.0000000000
40
0.0475695937
40
0.1569696759
40
0.3115077117
40
0.4870765621
40
0.6663493256
40
0.8385288923
40
1.0000000000
40
1.0000000000
40
1.0000000000
40
1.0000000000
10
-95.9513577526
20
207.1587321741
30
0.0000000000
10
-95.9513597747
20
207.1603660584
30
0.0000000000
10
-95.9581583131
20
207.1628150018
30
0.0000000000
10
-95.9675368640
20
207.1635298146
30
0.0000000000
10
-95.9832245303
20
207.1640488460
30
0.0000000000
10
-96.0005203807
20
207.1634252429
30
0.0000000000
10
-96.0186417145
20
207.1622691938
30
0.0000000000
10
-96.0361743141
20
207.1606733642
30
0.0000000000
10
-96.0475672420
20
207.1594015361
30
0.0000000000
10
-96.0530727922
20
207.1587321741
30
0.0000000000
11
-95.9513577526
21
207.1587321741
31
0.0000000000
11
-95.9552900121
21
207.1616585324
31
0.0000000000
11
-95.9664312339
21
207.1633757338
31
0.0000000000
11
-95.9823480473
21
207.1638500040
31
0.0000000000
11
-96.0004319441
21
207.1633455750
31
0.0000000000
11
-96.0188670704
21
207.1621697159
31
0.0000000000
11
-96.0365371992
21
207.1605777963
31
0.0000000000
11
-96.0530727922
21
207.1587321741
31
0.0000000000
0
SPLINE
5
395
100
AcDbEntity
8
0
100
AcDbSpline
62
9
6
CONTINUOUS
70
0
71
3
72
12
73
8
74
6
42
0.0000001000
43
0.0000001000
44
0.0000000001
12
-0.0000000955
22
0.2481769191
32
0.0000000000
13
0.0000000361
23
0.2481769191
33
0.0000000000
40
0.0000000000
40
0.0000000000
40
0.0000000000
40
0.0000000000
40
0.3245288541
40
0.5733868835
40
0.7612770168
40
0.8998605882
40
1.0000000000
40
1.0000000000
40
1.0000000000
40
1.0000000000
10
-95.9513577526
20
206.9105552550
30
0.0000000000
10
-95.9513577629
20
206.9374021121
30
0.0000000000
10
-95.9513577436
20
206.9848359088
30
0.0000000000
10
-95.9513577543
20
207.0478130370
30
0.0000000000
10
-95.9513577536
20
207.0954077228
30
0.0000000000
10
-95.9513577513
20
207.1306995658
30
0.0000000000
10
-95.9513577538
20
207.1504480772
30
0.0000000000
10
-95.9513577526
20
207.1587321741
30
0.0000000000
11
-95.9513577526
21
206.9105552550
31
0.0000000000
11
-95.9513577498
21
206.9910958262
31
0.0000000000
11
-95.9513577530
21
207.0528566452
31
0.0000000000
11
-95.9513577531
21
207.0994866397
31
0.0000000000
11
-95.9513577524
21
207.1338798835
31
0.0000000000
11
-95.9513577526
21
207.1587321741
31
0.0000000000
0
SPLINE
5
396
100
AcDbEntity
8
0
100
AcDbSpline
62
9
6
CONTINUOUS
70
0
71
3
72
8
73
4
74
2
42
0.0000001000
43
0.0000001000
44
0.0000000001
12
-0.0259648526
22
-0.0014341561
32
0.0000000000
13
-0.0260031346
23
-0.0007031723
33
0.0000000000
40
0.0000000000
40
0.0000000000
40
0.0000000000
40
0.0000000000
40
1.0000000000
40
1.0000000000
40
1.0000000000
40
1.0000000000
10
-95.6462126339
20
206.8269127606
30
0.0000000000
10
-95.6548675847
20
206.8264347085
30
0.0000000000
10
-95.6635311407
20
206.8260760782
30
0.0000000000
10
-95.6721988523
20
206.8258416874
30
0.0000000000
11
-95.6462126339
21
206.8269127606
31
0.0000000000
11
-95.6721988523
21
206.8258416874
31
0.0000000000
0
SPLINE
5
397
100
AcDbEntity
8
0
100
AcDbSpline
62
9
6
CONTINUOUS
70
0
71
3
72
10
73
6
74
4
42
0.0000001000
43
0.0000001000
44
0.0000000001
12
-0.1456857917
22
-0.0039396099
32
0.0000000000
13
-0.1438195669
23
0.0241745223
33
0.0000000000
40
0.0000000000
40
0.0000000000
40
0.0000000000
40
0.0000000000
40
0.3486430920
40
0.8460685313
40
1.0000000000
40
1.0000000000
40
1.0000000000
40
1.0000000000
10
-95.6721988523
20
206.8258416874
30
0.0000000000
10
-95.6891296339
20
206.8253838481
30
0.0000000000
10
-95.7302548319
20
206.8254231374
30
0.0000000000
10
-95.7787417773
20
206.8290190124
30
0.0000000000
10
-95.8100850874
20
206.8336079039
30
0.0000000000
10
-95.8174645397
20
206.8348483104
30
0.0000000000
11
-95.6721988523
21
206.8258416874
31
0.0000000000
11
-95.7230056013
21
206.8259261649
31
0.0000000000
11
-95.7952573677
21
206.8315644467
31
0.0000000000
11
-95.8174645397
21
206.8348483104
31
0.0000000000
0
SPLINE
5
398
100
AcDbEntity
8
0
100
AcDbSpline
62
9
6
CONTINUOUS
70
0
71
3
72
8
73
4
74
2
42
0.0000001000
43
0.0000001000
44
0.0000000001
12
-0.0237336029
22
0.0039893634
32
0.0000000000
13
-0.0234891810
23
0.0051773087
33
0.0000000000
40
0.0000000000
40
0.0000000000
40
0.0000000000
40
0.0000000000
40
1.0000000000
40
1.0000000000
40
1.0000000000
40
1.0000000000
10
-95.8174645397
20
206.8348483104
30
0.0000000000
10
-95.8253757407
20
206.8361780982
30
0.0000000000
10
-95.8332550672
20
206.8376871092
30
0.0000000000
10
-95.8410847942
20
206.8394128787
30
0.0000000000
11
-95.8174645397
21
206.8348483104
31
0.0000000000
11
-95.8410847942
21
206.8394128787
31
0.0000000000
0
SPLINE
5
399
100
AcDbEntity
8
0
100
AcDbSpline
62
9
6
CONTINUOUS
70
0
71
3
72
8
73
4
74
2
42
0.0000001000
43
0.0000001000
44
0.0000000001
12
-0.0172327122
22
0.0037983049
32
0.0000000000
13
-0.0170515376
23
0.0045427719
33
0.0000000000
40
0.0000000000
40
0.0000000000
40
0.0000000000
40
0.0000000000
40
1.0000000000
40
1.0000000000
40
1.0000000000
40
1.0000000000
10
-95.8410847942
20
206.8394128787
30
0.0000000000
10
-95.8468290316
20
206.8406789804
30
0.0000000000
10
-95.8525465728
20
206.8420617490
30
0.0000000000
10
-95.8582304187
20
206.8435760063
30
0.0000000000
11
-95.8410847942
21
206.8394128787
31
0.0000000000
11
-95.8582304187
21
206.8435760063
31
0.0000000000
0
SPLINE
5
39A
100
AcDbEntity
8
0
100
AcDbSpline
62
9
6
CONTINUOUS
70
0
71
3
72
10
73
6
74
4
42
0.0000001000
43
0.0000001000
44
0.0000000001
12
-0.1168063314
22
0.0311188667
32
0.0000000000
13
0.0000729979
23
0.1208295183
33
0.0000000000
40
0.0000000000
40
0.0000000000
40
0.0000000000
40
0.0000000000
40
0.4363905819
40
0.7617294484
40
1.0000000000
40
1.0000000000
40
1.0000000000
40
1.0000000000
10
-95.8582304187
20
206.8435760063
30
0.0000000000
10
-95.8752214797
20
206.8481026664
30
0.0000000000
10
-95.9043541582
20
206.8580550739
30
0.0000000000
10
-95.9395598306
20
206.8788518970
30
0.0000000000
10
-95.9513635504
20
206.9009585497
30
0.0000000000
10
-95.9513577526
20
206.9105552550
30
0.0000000000
11
-95.8582304187
21
206.8435760063
31
0.0000000000
11
-95.9078414204
21
206.8614388896
31
0.0000000000
11
-95.9399466271
21
206.8841231288
31
0.0000000000
11
-95.9513577526
21
206.9105552550
31
0.0000000000
0
SPLINE
5
39B
100
AcDbEntity
8
0
100
AcDbSpline
62
9
6
CONTINUOUS
70
0
71
3
72
10
73
6
74
4
42
0.0000001000
43
0.0000001000
44
0.0000000001
12
-0.6096363370
22
0.0336737673
32
0.0000000000
13
-0.6096363343
23
-0.0336738160
33
0.0000000000
40
0.0000000000
40
0.0000000000
40
0.0000000000
40
0.0000000000
40
0.3328661760
40
0.6669943864
40
1.0000000000
40
1.0000000000
40
1.0000000000
40
1.0000000000
10
-95.0359223964
20
206.8269127606
30
0.0000000000
10
-95.1035648352
20
206.8306490466
30
0.0000000000
10
-95.2392573828
20
206.8356466349
30
0.0000000000
10
-95.4428208738
20
206.8356481960
30
0.0000000000
10
-95.5785418600
20
206.8306506172
30
0.0000000000
10
-95.6462126339
20
206.8269127606
30
0.0000000000
11
-95.0359223964
21
206.8269127606
31
0.0000000000
11
-95.2390213470
21
206.8343927647
31
0.0000000000
11
-95.4430285475
21
206.8343943335
31
0.0000000000
11
-95.6462126339
21
206.8269127606
31
0.0000000000
0
SPLINE
5
39C
100
AcDbEntity
8
0
100
AcDbSpline
62
9
6
CONTINUOUS
70
0
71
3
72
11
73
7
74
5
42
0.0000001000
43
0.0000001000
44
0.0000000001
12
-0.0000256699
22
-0.1384612527
32
0.0000000000
13
-0.1352723955
23
-0.0298191917
33
0.0000000000
40
0.0000000000
40
0.0000000000
40
0.0000000000
40
0.0000000000
40
0.2091032557
40
0.4931166190
40
0.8736295673
40
1.0000000000
40
1.0000000000
40
1.0000000000
40
1.0000000000
10
-94.7307772777
20
206.9105552550
30
0.0000000000
10
-94.7307790669
20
206.9009043554
30
0.0000000000
10
-94.7426682317
20
206.8787555339
30
0.0000000000
10
-94.7779331404
20
206.8579953462
30
0.0000000000
10
-94.8126010173
20
206.8461677881
30
0.0000000000
10
-94.8353515084
20
206.8406687548
30
0.0000000000
10
-94.8410496522
20
206.8394126668
30
0.0000000000
11
-94.7307772777
21
206.9105552550
31
0.0000000000
11
-94.7423035096
21
206.8839957978
31
0.0000000000
11
-94.7744587626
21
206.8613577043
31
0.0000000000
11
-94.8240407814
21
206.8435400259
31
0.0000000000
11
-94.8410496522
21
206.8394126668
31
0.0000000000
0
SPLINE
5
39D
100
AcDbEntity
8
0
100
AcDbSpline
62
9
6
CONTINUOUS
70
0
71
3
72
8
73
4
74
2
42
0.0000001000
43
0.0000001000
44
0.0000000001
12
-0.0042859530
22
-0.0009447874
32
0.0000000000
13
-0.0042955310
23
-0.0009021475
33
0.0000000000
40
0.0000000000
40
0.0000000000
40
0.0000000000
40
0.0000000000
40
1.0000000000
40
1.0000000000
40
1.0000000000
40
1.0000000000
10
-94.8410496522
20
206.8394126668
30
0.0000000000
10
-94.8424783032
20
206.8390977377
30
0.0000000000
10
-94.8439086042
20
206.8387900294
30
0.0000000000
10
-94.8453404479
20
206.8384893135
30
0.0000000000
11
-94.8410496522
21
206.8394126668
31
0.0000000000
11
-94.8453404479
21
206.8384893135
31
0.0000000000
0
SPLINE
5
39E
100
AcDbEntity
8
0
100
AcDbSpline
62
9
6
CONTINUOUS
70
0
71
3
72
8
73
4
74
2
42
0.0000001000
43
0.0000001000
44
0.0000000001
12
-0.0193422573
22
-0.0040622611
32
0.0000000000
13
-0.0195005064
23
-0.0032741333
33
0.0000000000
40
0.0000000000
40
0.0000000000
40
0.0000000000
40
0.0000000000
40
1.0000000000
40
1.0000000000
40
1.0000000000
40
1.0000000000
10
-94.8453404479
20
206.8384893135
30
0.0000000000
10
-94.8517878670
20
206.8371352265
30
0.0000000000
10
-94.8582665640
20
206.8359229185
30
0.0000000000
10
-94.8647667328
20
206.8348315407
30
0.0000000000
11
-94.8453404479
21
206.8384893135
31
0.0000000000
11
-94.8647667328
21
206.8348315407
31
0.0000000000
0
SPLINE
5
39F
100
AcDbEntity
8
0
100
AcDbSpline
62
9
6
CONTINUOUS
70
0
71
3
72
10
73
6
74
4
42
0.0000001000
43
0.0000001000
44
0.0000000001
12
-0.1436554342
22
-0.0241197344
32
0.0000000000
13
-0.1455167566
23
0.0039235326
33
0.0000000000
40
0.0000000000
40
0.0000000000
40
0.0000000000
40
0.0000000000
40
0.1538736103
40
0.6506453984
40
1.0000000000
40
1.0000000000
40
1.0000000000
40
1.0000000000
10
-94.8647667328
20
206.8348315407
30
0.0000000000
10
-94.8721349929
20
206.8335944105
30
0.0000000000
10
-94.9034079035
20
206.8290203253
30
0.0000000000
10
-94.9518380129
20
206.8254258092
30
0.0000000000
10
-94.9929181904
20
206.8253832687
30
0.0000000000
10
-95.0098638399
20
206.8258401701
30
0.0000000000
11
-94.8647667328
21
206.8348315407
31
0.0000000000
11
-94.8869399991
21
206.8315559453
31
0.0000000000
11
-94.9590126663
21
206.8259296327
31
0.0000000000
11
-95.0098638399
21
206.8258401701
31
0.0000000000
0
SPLINE
5
3A0
100
AcDbEntity
8
0
100
AcDbSpline
62
9
6
CONTINUOUS
70
0
71
3
72
8
73
4
74
2
42
0.0000001000
43
0.0000001000
44
0.0000000001
12
-0.0260755307
22
0.0007030681
32
0.0000000000
13
-0.0260370964
23
0.0014371509
33
0.0000000000
40
0.0000000000
40
0.0000000000
40
0.0000000000
40
0.0000000000
40
1.0000000000
40
1.0000000000
40
1.0000000000
40
1.0000000000
10
-95.0098638399
20
206.8258401701
30
0.0000000000
10
-95.0185556835
20
206.8260745262
30
0.0000000000
10
-95.0272433643
20
206.8264337103
30
0.0000000000
10
-95.0359223964
20
206.8269127606
30
0.0000000000
11
-95.0098638399
21
206.8258401701
31
0.0000000000
11
-95.0359223964
21
206.8269127606
31
0.0000000000
0
SPLINE
5
3A1
100
AcDbEntity
8
0
100
AcDbSpline
62
9
6
CONTINUOUS
70
0
71
3
72
12
73
8
74
6
42
0.0000001000
43
0.0000001000
44
0.0000000001
12
0.0000000402
22
-0.2481769191
32
0.0000000000
13
-0.0000000830
23
-0.2481769191
33
0.0000000000
40
0.0000000000
40
0.0000000000
40
0.0000000000
40
0.0000000000
40
0.1005484461
40
0.2392339420
40
0.4272491127
40
0.6764381929
40
1.0000000000
40
1.0000000000
40
1.0000000000
40
1.0000000000
10
-94.7307772777
20
207.1587321741
30
0.0000000000
10
-94.7307772763
20
207.1504142396
30
0.0000000000
10
-94.7307772794
20
207.1306234587
30
0.0000000000
10
-94.7307772745
20
207.0952790026
30
0.0000000000
10
-94.7307772786
20
207.0476381548
30
0.0000000000
10
-94.7307772829
20
206.9847032960
30
0.0000000000
10
-94.7307772687
20
206.9373221125
30
0.0000000000
10
-94.7307772777
20
206.9105552550
30
0.0000000000
11
-94.7307772777
21
207.1587321741
31
0.0000000000
11
-94.7307772779
21
207.1337783706
31
0.0000000000
11
-94.7307772762
21
207.0993598315
31
0.0000000000
11
-94.7307772781
21
207.0526988057
31
0.0000000000
11
-94.7307772792
21
206.9908558274
31
0.0000000000
11
-94.7307772777
21
206.9105552550
31
0.0000000000
0
SPLINE
5
3A2
100
AcDbEntity
8
0
100
AcDbSpline
62
9
6
CONTINUOUS
70
0
71
3
72
14
73
10
74
8
42
0.0000001000
43
0.0000001000
44
0.0000000001
12
-0.1022860762
22
0.0124369244
32
0.0000000000
13
0.0002474778
23
-0.1030391053
33
0.0000000000
40
0.0000000000
40
0.0000000000
40
0.0000000000
40
0.0000000000
40
0.1614060718
40
0.3347621391
40
0.5142394507
40
0.6893348921
40
0.8429827303
40
0.9520038950
40
1.0000000000
40
1.0000000000
40
1.0000000000
40
1.0000000000
10
-94.6290622381
20
207.1587321741
30
0.0000000000
10
-94.6345654360
20
207.1594013059
30
0.0000000000
10
-94.6459960991
20
207.1606773569
30
0.0000000000
10
-94.6635730893
20
207.1622759858
30
0.0000000000
10
-94.6817263879
20
207.1634310748
30
0.0000000000
10
-94.6989796827
20
207.1640466711
30
0.0000000000
10
-94.7146126803
20
207.1635327689
30
0.0000000000
10
-94.7239457241
20
207.1628075196
30
0.0000000000
10
-94.7307812370
20
207.1603806661
30
0.0000000000
10
-94.7307772777
20
207.1587321741
30
0.0000000000
11
-94.6290622381
21
207.1587321741
31
0.0000000000
11
-94.6455907773
21
207.1605770898
31
0.0000000000
11
-94.6633813504
21
207.1621785314
31
0.0000000000
11
-94.6818373214
21
207.1633519325
31
0.0000000000
11
-94.6998721691
21
207.1638502075
31
0.0000000000
11
-94.7156968492
21
207.1633760721
31
0.0000000000
11
-94.7268002933
21
207.1616718113
31
0.0000000000
11
-94.7307772777
21
207.1587321741
31
0.0000000000
0
SPLINE
5
3A3
100
AcDbEntity
8
0
100
AcDbSpline
62
9
6
CONTINUOUS
70
0
71
3
72
10
73
6
74
4
42
0.0000001000
43
0.0000001000
44
0.0000000001
12
-0.0000000011
22
-0.0084211513
32
0.0000000000
13
-0.0000000040
23
-0.0084211513
33
0.0000000000
40
0.0000000000
40
0.0000000000
40
0.0000000000
40
0.0000000000
40
0.1109954972
40
0.4447521893
40
1.0000000000
40
1.0000000000
40
1.0000000000
40
1.0000000000
10
-93.2050516840
20
206.8353339119
30
0.0000000000
10
-93.2050516840
20
206.8350223420
30
0.0000000000
10
-93.2050516843
20
206.8337739001
30
0.0000000000
10
-93.2050516848
20
206.8309668497
30
0.0000000000
10
-93.2050516833
20
206.8284713692
30
0.0000000000
10
-93.2050516840
20
206.8269127606
30
0.0000000000
11
-93.2050516840
21
206.8353339119
31
0.0000000000
11
-93.2050516842
21
206.8343992020
31
0.0000000000
11
-93.2050516844
21
206.8315885864
31
0.0000000000
11
-93.2050516840
21
206.8269127606
31
0.0000000000
0
SPLINE
5
3A4
100
AcDbEntity
8
0
100
AcDbSpline
62
9
6
CONTINUOUS
70
0
71
3
72
12
73
8
74
6
42
0.0000001000
43
0.0000001000
44
0.0000000001
12
-1.0911187217
22
0.3562227291
32
0.0000000000
13
-1.1394049461
23
0.1385318241
33
0.0000000000
40
0.0000000000
40
0.0000000000
40
0.0000000000
40
0.0000000000
40
0.2220767843
40
0.4263822369
40
0.6251590283
40
0.8222368415
40
1.0000000000
40
1.0000000000
40
1.0000000000
40
1.0000000000
10
-93.5101968027
20
206.9105552550
30
0.0000000000
10
-93.5909675151
20
206.9369248544
30
0.0000000000
10
-93.7471613607
20
206.9842097994
30
0.0000000000
10
-93.9788201090
20
207.0439734211
30
0.0000000000
10
-94.2032957803
20
207.0925848820
30
0.0000000000
10
-94.4194701027
20
207.1307506940
30
0.0000000000
10
-94.5615474974
20
207.1505235559
30
0.0000000000
10
-94.6290622381
20
207.1587321741
30
0.0000000000
11
-93.5101968027
21
206.9105552550
31
0.0000000000
11
-93.7541614015
21
206.9844108456
31
0.0000000000
11
-93.9812277913
21
207.0429900634
31
0.0000000000
11
-94.2042142117
21
207.0912789485
31
0.0000000000
11
-94.4269741563
21
207.1306074203
31
0.0000000000
11
-94.6290622381
21
207.1587321741
31
0.0000000000
0
SPLINE
5
3A5
100
AcDbEntity
8
0
100
AcDbSpline
62
9
6
CONTINUOUS
70
0
71
3
72
10
73
6
74
4
42
0.0000001000
43
0.0000001000
44
0.0000000001
12
0.0000305523
22
-0.0705416368
32
0.0000000000
13
-0.0710873922
23
0.0193144344
33
0.0000000000
40
0.0000000000
40
0.0000000000
40
0.0000000000
40
0.0000000000
40
0.1406318942
40
0.5591741542
40
1.0000000000
40
1.0000000000
40
1.0000000000
40
1.0000000000
10
-93.2050516840
20
206.8269127606
30
0.0000000000
10
-93.2050502518
20
206.8236059593
30
0.0000000000
10
-93.2261451466
20
206.8287255923
30
0.0000000000
10
-93.2430195526
20
206.8308375447
30
0.0000000000
10
-93.2628477965
20
206.8358898371
30
0.0000000000
10
-93.2732935164
20
206.8387279377
30
0.0000000000
11
-93.2050516840
21
206.8269127606
31
0.0000000000
11
-93.2149234892
21
206.8259319981
31
0.0000000000
11
-93.2439070911
21
206.8315583914
31
0.0000000000
11
-93.2732935164
21
206.8387279377
31
0.0000000000
0
SPLINE
5
3A6
100
AcDbEntity
8
0
100
AcDbSpline
62
9
6
CONTINUOUS
70
0
71
3
72
11
73
7
74
5
42
0.0000001000
43
0.0000001000
44
0.0000000001
12
-0.2486304027
22
0.0675528451
32
0.0000000000
13
-0.2345404016
23
0.0765660645
33
0.0000000000
40
0.0000000000
40
0.0000000000
40
0.0000000000
40
0.0000000000
40
0.0697732047
40
0.3340318270
40
0.6507837916
40
1.0000000000
40
1.0000000000
40
1.0000000000
40
1.0000000000
10
-93.2732935164
20
206.8387279377
30
0.0000000000
10
-93.2790760964
20
206.8402990639
30
0.0000000000
10
-93.3071623436
20
206.8481822372
30
0.0000000000
10
-93.3570999132
20
206.8623271403
30
0.0000000000
10
-93.4308945476
20
206.8850197561
30
0.0000000000
10
-93.4828950328
20
206.9016425514
30
0.0000000000
10
-93.5101968027
20
206.9105552550
30
0.0000000000
11
-93.2732935164
21
206.8387279377
31
0.0000000000
11
-93.2907024210
21
206.8435651889
31
0.0000000000
11
-93.3533837868
21
206.8615058417
31
0.0000000000
11
-93.4281312727
21
206.8843130158
31
0.0000000000
11
-93.5101968027
21
206.9105552550
31
0.0000000000
0
SPLINE
5
3A7
100
AcDbEntity
8
0
100
AcDbSpline
62
9
6
CONTINUOUS
70
0
71
3
72
9
73
5
74
3
42
0.0000001000
43
0.0000001000
44
0.0000000001
12
-0.0385583277
22
0.0148674323
32
0.0000000000
13
-0.0415816152
23
-0.0019562143
33
0.0000000000
40
0.0000000000
40
0.0000000000
40
0.0000000000
40
0.0000000000
40
0.9326375344
40
1.0000000000
40
1.0000000000
40
1.0000000000
40
1.0000000000
10
-93.2050547551
20
206.8269048199
30
0.0000000000
10
-93.2170417364
20
206.8315267951
30
0.0000000000
10
-93.2310093864
20
206.8339980101
30
0.0000000000
10
-93.2448814561
20
206.8335419129
30
0.0000000000
10
-93.2458151361
20
206.8334979878
30
0.0000000000
11
-93.2050547551
21
206.8269048199
31
0.0000000000
11
-93.2430121088
21
206.8335900773
31
0.0000000000
11
-93.2458151361
21
206.8334979878
31
0.0000000000
0
SPLINE
5
3A8
100
AcDbEntity
8
0
100
AcDbSpline
62
9
6
CONTINUOUS
70
0
71
3
72
11
73
7
74
5
42
0.0000001000
43
0.0000001000
44
0.0000000001
12
-0.1364282044
22
0.0140105337
32
0.0000000000
13
-0.0395342535
23
-0.1327328489
33
0.0000000000
40
0.0000000000
40
0.0000000000
40
0.0000000000
40
0.0000000000
40
0.3028818956
40
0.6052345461
40
0.9066924769
40
1.0000000000
40
1.0000000000
40
1.0000000000
40
1.0000000000
10
-94.7307772791
20
207.1587321604
30
0.0000000000
10
-94.7445511568
20
207.1601466727
30
0.0000000000
10
-94.7730110764
20
207.1571740735
30
0.0000000000
10
-94.8099627197
20
207.1359202163
30
0.0000000000
10
-94.8293582747
20
207.1094851859
30
0.0000000000
10
-94.8356929212
20
207.0923503307
30
0.0000000000
10
-94.8369225356
20
207.0882220062
30
0.0000000000
11
-94.7307772791
21
207.1587321604
31
0.0000000000
11
-94.7720858056
21
207.1543628795
31
0.0000000000
11
-94.8080412973
21
207.1337070630
31
0.0000000000
11
-94.8324386735
21
207.1003294238
31
0.0000000000
11
-94.8369225356
21
207.0882220062
31
0.0000000000
0
SPLINE
5
3A9
100
AcDbEntity
8
0
100
AcDbSpline
62
9
6
CONTINUOUS
70
0
71
3
72
8
73
4
74
2
42
0.0000001000
43
0.0000001000
44
0.0000000001
12
-0.0033860998
22
-0.0113685382
32
0.0000000000
13
-0.0020145149
23
-0.0116653788
33
0.0000000000
40
0.0000000000
40
0.0000000000
40
0.0000000000
40
0.0000000000
40
1.0000000000
40
1.0000000000
40
1.0000000000
40
1.0000000000
10
-94.8369225356
20
207.0882220062
30
0.0000000000
10
-94.8380512356
20
207.0844324935
30
0.0000000000
10
-94.8389544108
20
207.0805770080
30
0.0000000000
10
-94.8396259157
20
207.0766885484
30
0.0000000000
11
-94.8369225356
21
207.0882220062
31
0.0000000000
11
-94.8396259157
21
207.0766885484
31
0.0000000000
0
SPLINE
5
3AA
100
AcDbEntity
8
0
100
AcDbSpline
62
9
6
CONTINUOUS
70
0
71
3
72
8
73
4
74
2
42
0.0000001000
43
0.0000001000
44
0.0000000001
12
-0.0006855855
22
-0.0039699952
32
0.0000000000
13
-0.0005238670
23
-0.0039890075
33
0.0000000000
40
0.0000000000
40
0.0000000000
40
0.0000000000
40
0.0000000000
40
1.0000000000
40
1.0000000000
40
1.0000000000
40
1.0000000000
10
-94.8396259157
20
207.0766885484
30
0.0000000000
10
-94.8398544442
20
207.0753652167
30
0.0000000000
10
-94.8400561407
20
207.0740380659
30
0.0000000000
10
-94.8402307631
20
207.0727083968
30
0.0000000000
11
-94.8396259157
21
207.0766885484
31
0.0000000000
11
-94.8402307631
21
207.0727083968
31
0.0000000000
0
SPLINE
5
3AB
100
AcDbEntity
8
0
100
AcDbSpline
62
9
6
CONTINUOUS
70
0
71
3
72
8
73
4
74
2
42
0.0000001000
43
0.0000001000
44
0.0000000001
12
-0.0016657154
22
-0.0126836605
32
0.0000000000
13
-0.0000000018
23
-0.0127109900
33
0.0000000000
40
0.0000000000
40
0.0000000000
40
0.0000000000
40
0.0000000000
40
1.0000000000
40
1.0000000000
40
1.0000000000
40
1.0000000000
10
-94.8402307631
20
207.0727083968
30
0.0000000000
10
-94.8407860015
20
207.0684805099
30
0.0000000000
10
-94.8410675145
20
207.0642271618
30
0.0000000000
10
-94.8410675151
20
207.0599901652
30
0.0000000000
11
-94.8402307631
21
207.0727083968
31
0.0000000000
11
-94.8410675151
21
207.0599901652
31
0.0000000000
0
SPLINE
5
3AC
100
AcDbEntity
8
0
100
AcDbSpline
62
9
6
CONTINUOUS
70
0
71
3
72
10
73
6
74
4
42
0.0000001000
43
0.0000001000
44
0.0000000001
12
-0.1210365973
22
0.0119148569
32
0.0000000000
13
-0.0533106822
23
-0.1105467502
33
0.0000000000
40
0.0000000000
40
0.0000000000
40
0.0000000000
40
0.0000000000
40
0.3413955304
40
0.6788235121
40
1.0000000000
40
1.0000000000
40
1.0000000000
40
1.0000000000
10
-94.7307777563
20
206.9105508616
30
0.0000000000
10
-94.7445515407
20
206.9119067546
30
0.0000000000
10
-94.7727926653
20
206.9091055026
30
0.0000000000
10
-94.8093291576
20
206.8891426374
30
0.0000000000
10
-94.8262402767
20
206.8675114033
30
0.0000000000
10
-94.8319476559
20
206.8556763976
30
0.0000000000
11
-94.7307777563
21
206.9105508616
31
0.0000000000
11
-94.7720878235
21
206.9063701201
31
0.0000000000
11
-94.8080456071
21
206.8865913500
31
0.0000000000
11
-94.8319476559
21
206.8556763976
31
0.0000000000
0
SPLINE
5
3AD
100
AcDbEntity
8
0
100
AcDbSpline
62
9
6
CONTINUOUS
70
0
71
3
72
10
73
6
74
4
42
0.0000001000
43
0.0000001000
44
0.0000000001
12
0.1210105791
22
0.0119005592
32
0.0000000000
13
0.0533247757
23
-0.1105085263
33
0.0000000000
40
0.0000000000
40
0.0000000000
40
0.0000000000
40
0.0000000000
40
0.3414622253
40
0.6789559621
40
1.0000000000
40
1.0000000000
40
1.0000000000
40
1.0000000000
10
-95.9513577454
20
206.9105551885
30
0.0000000000
10
-95.9375842315
20
206.9119097190
30
0.0000000000
10
-95.9093442675
20
206.9091061787
30
0.0000000000
10
-95.8728173355
20
206.8891455487
30
0.0000000000
10
-95.8559105248
20
206.8675232767
30
0.0000000000
10
-95.8502039910
20
206.8556972422
30
0.0000000000
11
-95.9513577454
21
206.9105551885
31
0.0000000000
11
-95.9100492338
21
206.9063710747
31
0.0000000000
11
-95.8740937517
21
206.8865906396
31
0.0000000000
11
-95.8502039910
21
206.8556972422
31
0.0000000000
0
SPLINE
5
3AE
100
AcDbEntity
8
0
100
AcDbSpline
62
9
6
CONTINUOUS
70
0
71
3
72
11
73
7
74
5
42
0.0000001000
43
0.0000001000
44
0.0000000001
12
0.1647257712
22
0.0169074676
32
0.0000000000
13
0.0000024998
23
-0.1655911898
33
0.0000000000
40
0.0000000000
40
0.0000000000
40
0.0000000000
40
0.0000000000
40
0.2508328946
40
0.5012304873
40
0.7508912799
40
1.0000000000
40
1.0000000000
40
1.0000000000
40
1.0000000000
10
-95.9513577425
20
207.1587320767
30
0.0000000000
10
-95.9375848618
20
207.1601457264
30
0.0000000000
10
-95.9091271576
20
207.1571717430
30
0.0000000000
10
-95.8721790788
20
207.1359173162
30
0.0000000000
10
-95.8470135011
20
207.1016155147
30
0.0000000000
10
-95.8410772626
20
207.0737402346
30
0.0000000000
10
-95.8410770550
20
207.0599901649
30
0.0000000000
11
-95.9513577425
21
207.1587320767
31
0.0000000000
11
-95.9100526769
21
207.1543608774
31
0.0000000000
11
-95.8741005863
21
207.1337046377
31
0.0000000000
11
-95.8497054795
21
207.1003278651
31
0.0000000000
11
-95.8410770550
21
207.0599901649
31
0.0000000000
0
SPLINE
5
3AF
100
AcDbEntity
8
0
100
AcDbSpline
62
9
6
CONTINUOUS
70
0
71
3
72
9
73
5
74
3
42
0.0000001000
43
0.0000001000
44
0.0000000001
12
0.0385822683
22
0.0148726601
32
0.0000000000
13
0.0416051680
23
-0.0019714101
33
0.0000000000
40
0.0000000000
40
0.0000000000
40
0.0000000000
40
0.0000000000
40
0.9320597385
40
1.0000000000
40
1.0000000000
40
1.0000000000
40
1.0000000000
10
-97.4770833443
20
206.8269127556
30
0.0000000000
10
-97.4650963514
20
206.8315334915
30
0.0000000000
10
-97.4511203352
20
206.8340049977
30
0.0000000000
10
-97.4372402394
20
206.8335457375
30
0.0000000000
10
-97.4362980174
20
206.8335010915
30
0.0000000000
11
-97.4770833443
21
206.8269127556
31
0.0000000000
11
-97.4391267168
21
206.8335946140
31
0.0000000000
11
-97.4362980174
21
206.8335010915
31
0.0000000000
0
SPLINE
5
3B0
100
AcDbEntity
8
0
100
AcDbSpline
62
7
6
CONTINUOUS
70
0
71
3
72
16
73
12
74
10
42
0.0000001000
43
0.0000001000
44
0.0000000001
12
0.0289744044
22
-0.2588793067
32
0.0000000000
13
0.2571086795
23
0.0312684163
33
0.0000000000
40
0.0000000000
40
0.0000000000
40
0.0000000000
40
0.0000000000
40
0.0950980898
40
0.2223386279
40
0.3380988178
40
0.4476222810
40
0.5468622451
40
0.6466093114
40
0.7654231273
40
0.9093720201
40
1.0000000000
40
1.0000000000
40
1.0000000000
40
1.0000000000
10
-94.8404289463
20
-427.6045158204
30
0.0000000000
10
-94.8395104761
20
-427.6127221296
30
0.0000000000
10
-94.8350327124
20
-427.6317190662
30
0.0000000000
10
-94.8203129046
20
-427.6574834376
30
0.0000000000
10
-94.7975909983
20
-427.6783830811
30
0.0000000000
10
-94.7722222475
20
-427.6910445709
30
0.0000000000
10
-94.7460773241
20
-427.6969667033
30
0.0000000000
10
-94.7186387895
20
-427.6986756929
30
0.0000000000
10
-94.6873331589
20
-427.6979992517
30
0.0000000000
10
-94.6569007514
20
-427.6957140945
30
0.0000000000
10
-94.6367650532
20
-427.6935239113
30
0.0000000000
10
-94.6289979731
20
-427.6925793135
30
0.0000000000
11
-94.8404289463
21
-427.6045158204
31
0.0000000000
11
-94.8347283414
21
-427.6285970206
31
0.0000000000
11
-94.8184194106
21
-427.6572311064
31
0.0000000000
11
-94.7963730667
21
-427.6775471159
31
0.0000000000
11
-94.7710406618
21
-427.6903069611
31
0.0000000000
11
-94.7460414498
21
-427.6962730507
31
0.0000000000
11
-94.7202841125
21
-427.6982434150
31
0.0000000000
11
-94.6895168058
21
-427.6977990016
31
0.0000000000
11
-94.6523334730
21
-427.6951157486
31
0.0000000000
11
-94.6289979731
21
-427.6925793135
31
0.0000000000
0
SPLINE
5
3B1
100
AcDbEntity
8
0
100
AcDbSpline
62
7
6
CONTINUOUS
70
0
71
3
72
17
73
13
74
11
42
0.0000001000
43
0.0000001000
44
0.0000000001
12
0.2409615793
22
0.0786737289
32
0.0000000000
13
0.2508541122
23
0.0616341786
33
0.0000000000
40
0.0000000000
40
0.0000000000
40
0.0000000000
40
0.0000000000
40
0.1257174119
40
0.2559316030
40
0.3801033766
40
0.4973284206
40
0.6067933816
40
0.7076507114
40
0.7992778858
40
0.8810031933
40
0.9522887015
40
1.0000000000
40
1.0000000000
40
1.0000000000
40
1.0000000000
10
-93.5100330723
20
-427.4443753309
30
0.0000000000
10
-93.4999353836
20
-427.4410784450
30
0.0000000000
10
-93.4793630971
20
-427.4344149220
30
0.0000000000
10
-93.4487632935
20
-427.4246628122
30
0.0000000000
10
-93.4188006521
20
-427.4152750459
30
0.0000000000
10
-93.3904659314
20
-427.4065589427
30
0.0000000000
10
-93.3639669084
20
-427.3985684935
30
0.0000000000
10
-93.3394989193
20
-427.3913634332
30
0.0000000000
10
-93.3172067968
20
-427.3849774157
30
0.0000000000
10
-93.2973540330
20
-427.3794477900
30
0.0000000000
10
-93.2807887165
20
-427.3750556258
30
0.0000000000
10
-93.2713637145
20
-427.3726084411
30
0.0000000000
10
-93.2673741893
20
-427.3716282255
30
0.0000000000
11
-93.5100330723
21
-427.4443753309
31
0.0000000000
11
-93.4797170275
21
-427.4345554606
31
0.0000000000
11
-93.4482685138
21
-427.4245340546
31
0.0000000000
11
-93.4182323392
21
-427.4151264047
31
0.0000000000
11
-93.3898305263
21
-427.4063932752
31
0.0000000000
11
-93.3632630169
21
-427.3983888775
31
0.0000000000
11
-93.3387370979
21
-427.3911734667
31
0.0000000000
11
-93.3164088027
21
-427.3847800122
31
0.0000000000
11
-93.2964467192
21
-427.3792433093
31
0.0000000000
11
-93.2789851509
21
-427.3745960069
31
0.0000000000
11
-93.2673741893
21
-427.3716282255
31
0.0000000000
0
SPLINE
5
3B2
100
AcDbEntity
8
0
100
AcDbSpline
62
7
6
CONTINUOUS
70
0
71
3
72
11
73
7
74
5
42
0.0000001000
43
0.0000001000
44
0.0000000001
12
0.0254898087
22
0.0062627772
32
0.0000000000
13
0.0387715112
23
0.0062176843
33
0.0000000000
40
0.0000000000
40
0.0000000000
40
0.0000000000
40
0.0000000000
40
0.1248469644
40
0.5993276583
40
0.9394943737
40
1.0000000000
40
1.0000000000
40
1.0000000000
40
1.0000000000
10
-93.2673741893
20
-427.3716282255
30
0.0000000000
10
-93.2663134143
20
-427.3713675959
30
0.0000000000
10
-93.2611496883
20
-427.3701167744
30
0.0000000000
10
-93.2523310517
20
-427.3681420542
30
0.0000000000
10
-93.2478379136
20
-427.3669011977
30
0.0000000000
10
-93.2419923184
20
-427.3659743549
30
0.0000000000
10
-93.2412103536
20
-427.3658489533
30
0.0000000000
11
-93.2673741893
21
-427.3716282255
31
0.0000000000
11
-93.2641420412
21
-427.3708460881
31
0.0000000000
11
-93.2522454920
21
-427.3680487733
31
0.0000000000
11
-93.2436714147
21
-427.3662460996
31
0.0000000000
11
-93.2412103536
21
-427.3658489533
31
0.0000000000
0
SPLINE
5
3B3
100
AcDbEntity
8
0
100
AcDbSpline
62
7
6
CONTINUOUS
70
0
71
3
72
10
73
6
74
4
42
0.0000001000
43
0.0000001000
44
0.0000000001
12
1.1394054503
22
0.1385357645
32
0.0000000000
13
1.0911165306
23
0.3562186596
33
0.0000000000
40
0.0000000000
40
0.0000000000
40
0.0000000000
40
0.0000000000
40
0.3242326341
40
0.6737101514
40
1.0000000000
40
1.0000000000
40
1.0000000000
40
1.0000000000
10
-94.6289981755
20
-427.6925776437
30
0.0000000000
10
-94.5058540320
20
-427.6776050385
30
0.0000000000
10
-94.2508850662
20
-427.6384106554
30
0.0000000000
10
-93.8771064141
20
-427.5555808886
30
0.0000000000
10
-93.6287054866
20
-427.4831219101
30
0.0000000000
10
-93.5100320707
20
-427.4443783993
30
0.0000000000
11
-94.6289981755
21
-427.6925776437
31
0.0000000000
11
-94.2611688206
21
-427.6360324560
31
0.0000000000
11
-93.8695590384
21
-427.5492512445
31
0.0000000000
11
-93.5100320707
21
-427.4443783993
31
0.0000000000
0
SPLINE
5
3B4
100
AcDbEntity
8
0
100
AcDbSpline
62
7
6
CONTINUOUS
70
0
71
3
72
8
73
4
74
2
42
0.0000001000
43
0.0000001000
44
0.0000000001
12
0.0000045224
22
-0.0112105483
32
0.0000000000
13
0.0012537431
23
-0.0111931650
33
0.0000000000
40
0.0000000000
40
0.0000000000
40
0.0000000000
40
0.0000000000
40
1.0000000000
40
1.0000000000
40
1.0000000000
40
1.0000000000
10
-94.8410575250
20
-427.5932998128
30
0.0000000000
10
-94.8410560175
20
-427.5970366622
30
0.0000000000
10
-94.8408441741
20
-427.6007844639
30
0.0000000000
10
-94.8404262598
20
-427.6045155189
30
0.0000000000
11
-94.8410575250
21
-427.5932998128
31
0.0000000000
11
-94.8404262598
21
-427.6045155189
31
0.0000000000
0
SPLINE
5
3B5
100
AcDbEntity
8
0
100
AcDbSpline
62
7
6
CONTINUOUS
70
0
71
3
72
13
73
9
74
7
42
0.0000001000
43
0.0000001000
44
0.0000000001
12
0.0186732971
22
-0.1667114088
32
0.0000000000
13
0.1668252168
23
-0.0043654261
33
0.0000000000
40
0.0000000000
40
0.0000000000
40
0.0000000000
40
0.0000000000
40
0.1475633507
40
0.3441968187
40
0.5230475999
40
0.6926499719
40
0.8460445029
40
1.0000000000
40
1.0000000000
40
1.0000000000
40
1.0000000000
10
-94.8404262597
20
-427.6045155195
30
0.0000000000
10
-94.8395077616
20
-427.6127156841
30
0.0000000000
10
-94.8350435193
20
-427.6316541770
30
0.0000000000
10
-94.8204041071
20
-427.6573333981
30
0.0000000000
10
-94.7978342299
20
-427.6782013793
30
0.0000000000
10
-94.7726128891
20
-427.6908985803
30
0.0000000000
10
-94.7466027608
20
-427.6968919651
30
0.0000000000
10
-94.7295145232
20
-427.6980021438
30
0.0000000000
10
-94.7209533034
20
-427.6982261709
30
0.0000000000
11
-94.8404262597
21
-427.6045155195
31
0.0000000000
11
-94.8347298342
21
-427.6285792738
31
0.0000000000
11
-94.8185247683
21
-427.6570931444
31
0.0000000000
11
-94.7966387850
21
-427.6773636296
31
0.0000000000
11
-94.7714174333
21
-427.6901745278
31
0.0000000000
11
-94.7465518490
21
-427.6961994296
31
0.0000000000
11
-94.7209533034
21
-427.6982261709
31
0.0000000000
0
SPLINE
5
3B6
100
AcDbEntity
8
0
100
AcDbSpline
62
7
6
CONTINUOUS
70
0
71
3
72
8
73
4
74
2
42
0.0000001000
43
0.0000001000
44
0.0000000001
12
0.0304850193
22
-0.0007977217
32
0.0000000000
13
0.0304535634
23
0.0013443544
33
0.0000000000
40
0.0000000000
40
0.0000000000
40
0.0000000000
40
0.0000000000
40
1.0000000000
40
1.0000000000
40
1.0000000000
40
1.0000000000
10
-94.7209533034
20
-427.6982261709
30
0.0000000000
10
-94.7107916303
20
-427.6984920782
30
0.0000000000
10
-94.7006278349
20
-427.6982901471
30
0.0000000000
10
-94.6904766471
20
-427.6978420289
30
0.0000000000
11
-94.7209533034
21
-427.6982261709
31
0.0000000000
11
-94.6904766471
21
-427.6978420289
31
0.0000000000
0
SPLINE
5
3B7
100
AcDbEntity
8
0
100
AcDbSpline
62
7
6
CONTINUOUS
70
0
71
3
72
9
73
5
74
3
42
0.0000001000
43
0.0000001000
44
0.0000000001
12
0.0616600254
22
0.0027219451
32
0.0000000000
13
0.0612650701
23
0.0074519145
33
0.0000000000
40
0.0000000000
40
0.0000000000
40
0.0000000000
40
0.0000000000
40
0.5991729697
40
1.0000000000
40
1.0000000000
40
1.0000000000
40
1.0000000000
10
-94.6904766471
20
-427.6978420289
30
0.0000000000
10
-94.6781616403
20
-427.6972983903
30
0.0000000000
10
-94.6576392667
20
-427.6957863632
30
0.0000000000
10
-94.6371835690
20
-427.6935747027
30
0.0000000000
10
-94.6289980036
20
-427.6925790598
30
0.0000000000
11
-94.6904766471
21
-427.6978420289
31
0.0000000000
11
-94.6535926744
21
-427.6952352846
31
0.0000000000
11
-94.6289980036
21
-427.6925790598
31
0.0000000000
0
SPLINE
5
3B8
100
AcDbEntity
8
0
100
AcDbSpline
62
7
6
CONTINUOUS
70
0
71
3
72
8
73
4
74
2
42
0.0000001000
43
0.0000001000
44
0.0000000001
12
0.0121258853
22
0.0006742997
32
0.0000000000
13
0.0121403917
23
0.0004857074
33
0.0000000000
40
0.0000000000
40
0.0000000000
40
0.0000000000
40
0.0000000000
40
1.0000000000
40
1.0000000000
40
1.0000000000
40
1.0000000000
10
-95.0355532045
20
-427.3669152561
30
0.0000000000
10
-95.0315112427
20
-427.3666904896
30
0.0000000000
10
-95.0274668962
20
-427.3664968167
30
0.0000000000
10
-95.0234200990
20
-427.3663349142
30
0.0000000000
11
-95.0355532045
21
-427.3669152561
31
0.0000000000
11
-95.0234200990
21
-427.3663349142
31
0.0000000000
0
SPLINE
5
3B9
100
AcDbEntity
8
0
100
AcDbSpline
62
7
6
CONTINUOUS
70
0
71
3
72
8
73
4
74
2
42
0.0000001000
43
0.0000001000
44
0.0000000001
12
0.0226721203
22
0.0009070561
32
0.0000000000
13
0.0227246917
23
0.0002290275
33
0.0000000000
40
0.0000000000
40
0.0000000000
40
0.0000000000
40
0.0000000000
40
1.0000000000
40
1.0000000000
40
1.0000000000
40
1.0000000000
10
-95.0234200990
20
-427.3663349142
30
0.0000000000
10
-95.0158627256
20
-427.3660325622
30
0.0000000000
10
-95.0082968052
20
-427.3658410109
30
0.0000000000
10
-95.0007219079
20
-427.3657646684
30
0.0000000000
11
-95.0234200990
21
-427.3663349142
31
0.0000000000
11
-95.0007219079
21
-427.3657646684
31
0.0000000000
0
SPLINE
5
3BA
100
AcDbEntity
8
0
100
AcDbSpline
62
7
6
CONTINUOUS
70
0
71
3
72
11
73
7
74
5
42
0.0000001000
43
0.0000001000
44
0.0000000001
12
0.1625355335
22
0.0016380908
32
0.0000000000
13
0.1430045884
23
-0.0452983136
33
0.0000000000
40
0.0000000000
40
0.0000000000
40
0.0000000000
40
0.0000000000
40
0.3921400466
40
0.7167710143
40
0.9507098624
40
1.0000000000
40
1.0000000000
40
1.0000000000
40
1.0000000000
10
-95.0007219079
20
-427.3657646684
30
0.0000000000
10
-94.9794763440
20
-427.3655505480
30
0.0000000000
10
-94.9405136816
20
-427.3668157326
30
0.0000000000
10
-94.8901464597
20
-427.3721521375
30
0.0000000000
10
-94.8564728835
20
-427.3808331622
30
0.0000000000
10
-94.8433042247
20
-427.3842928868
30
0.0000000000
10
-94.8409546528
20
-427.3850371402
30
0.0000000000
11
-95.0007219079
21
-427.3657646684
31
0.0000000000
11
-94.9371400547
21
-427.3677604227
31
0.0000000000
11
-94.8848854463
21
-427.3742966300
31
0.0000000000
11
-94.8479640516
21
-427.3830709780
31
0.0000000000
11
-94.8409546528
21
-427.3850371402
31
0.0000000000
0
SPLINE
5
3BB
100
AcDbEntity
8
0
100
AcDbSpline
62
7
6
CONTINUOUS
70
0
71
3
72
9
73
5
74
3
42
0.0000001000
43
0.0000001000
44
0.0000000001
12
0.0148819146
22
-0.0047140140
32
0.0000000000
13
0.0133048910
23
-0.0072041476
33
0.0000000000
40
0.0000000000
40
0.0000000000
40
0.0000000000
40
0.0000000000
40
0.8019985287
40
1.0000000000
40
1.0000000000
40
1.0000000000
40
1.0000000000
10
-94.8409546528
20
-427.3850371402
30
0.0000000000
10
-94.8369762282
20
-427.3862973509
30
0.0000000000
10
-94.8318088155
20
-427.3883769052
30
0.0000000000
10
-94.8253706495
20
-427.3922969027
30
0.0000000000
10
-94.8244925202
20
-427.3927723800
30
0.0000000000
11
-94.8409546528
21
-427.3850371402
31
0.0000000000
11
-94.8278703628
21
-427.3908167260
31
0.0000000000
11
-94.8244925202
21
-427.3927723800
31
0.0000000000
0
SPLINE
5
3BC
100
AcDbEntity
8
0
100
AcDbSpline
62
7
6
CONTINUOUS
70
0
71
3
72
10
73
6
74
4
42
0.0000001000
43
0.0000001000
44
0.0000000001
12
0.6103837428
22
-0.0337146206
32
0.0000000000
13
0.6103824095
23
0.0337146639
33
0.0000000000
40
0.0000000000
40
0.0000000000
40
0.0000000000
40
0.0000000000
40
0.3162379388
40
0.6798529955
40
1.0000000000
40
1.0000000000
40
1.0000000000
40
1.0000000000
10
-95.6465827533
20
-427.3669319547
30
0.0000000000
10
-95.5822405878
20
-427.3704859020
30
0.0000000000
10
-95.4437715167
20
-427.3757130734
30
0.0000000000
10
-95.2399567562
20
-427.3757570030
30
0.0000000000
10
-95.1006897860
20
-427.3705298596
30
0.0000000000
10
-95.0355524193
20
-427.3669319767
30
0.0000000000
11
-95.6465827533
21
-427.3669319547
31
0.0000000000
11
-95.4534004959
21
-427.3742242627
31
0.0000000000
11
-95.2311238605
21
-427.3742722013
31
0.0000000000
11
-95.0355524193
21
-427.3669319767
31
0.0000000000
0
SPLINE
5
3BD
100
AcDbEntity
8
0
100
AcDbSpline
62
7
6
CONTINUOUS
70
0
71
3
72
8
73
4
74
2
42
0.0000001000
43
0.0000001000
44
0.0000000001
12
0.0008077267
22
0.0004121821
32
0.0000000000
13
0.0010839278
23
0.0006210744
33
0.0000000000
40
0.0000000000
40
0.0000000000
40
0.0000000000
40
0.0000000000
40
1.0000000000
40
1.0000000000
40
1.0000000000
40
1.0000000000
10
-95.8579518776
20
-427.3929093879
30
0.0000000000
10
-95.8576826354
20
-427.3927719939
30
0.0000000000
10
-95.8573569949
20
-427.3925911040
30
0.0000000000
10
-95.8569956856
20
-427.3923840792
30
0.0000000000
11
-95.8579518776
21
-427.3929093879
31
0.0000000000
11
-95.8569956856
21
-427.3923840792
31
0.0000000000
0
SPLINE
5
3BE
100
AcDbEntity
8
0
100
AcDbSpline
62
7
6
CONTINUOUS
70
0
71
3
72
9
73
5
74
3
42
0.0000001000
43
0.0000001000
44
0.0000000001
12
0.0121376826
22
0.0061938472
32
0.0000000000
13
0.0153882528
23
0.0048368008
33
0.0000000000
40
0.0000000000
40
0.0000000000
40
0.0000000000
40
0.0000000000
40
0.1995516333
40
1.0000000000
40
1.0000000000
40
1.0000000000
40
1.0000000000
10
-95.8579518776
20
-427.3929093879
30
0.0000000000
10
-95.8571445128
20
-427.3924973905
30
0.0000000000
10
-95.8505572733
20
-427.3884728248
30
0.0000000000
10
-95.8452712543
20
-427.3863819317
30
0.0000000000
10
-95.8411654203
20
-427.3850913952
30
0.0000000000
11
-95.8579518776
21
-427.3929093879
31
0.0000000000
11
-95.8545673398
21
-427.3909681736
31
0.0000000000
11
-95.8411654203
21
-427.3850913952
31
0.0000000000
0
SPLINE
5
3BF
100
AcDbEntity
8
0
100
AcDbSpline
62
7
6
CONTINUOUS
70
0
71
3
72
11
73
7
74
5
42
0.0000001000
43
0.0000001000
44
0.0000000001
12
0.1401325979
22
0.0440425303
32
0.0000000000
13
0.1595286702
23
-0.0010276725
33
0.0000000000
40
0.0000000000
40
0.0000000000
40
0.0000000000
40
0.0000000000
40
0.0438216188
40
0.2774879323
40
0.6034667719
40
1.0000000000
40
1.0000000000
40
1.0000000000
40
1.0000000000
10
-95.8411635139
20
-427.3850907961
30
0.0000000000
10
-95.8391165682
20
-427.3844474577
30
0.0000000000
10
-95.8263519830
20
-427.3809764732
30
0.0000000000
10
-95.7936524215
20
-427.3724810665
30
0.0000000000
10
-95.7439122925
20
-427.3669774051
30
0.0000000000
10
-95.7053759274
20
-427.3655988097
30
0.0000000000
10
-95.6842897878
20
-427.3657346451
30
0.0000000000
11
-95.8411635139
21
-427.3850907961
31
0.0000000000
11
-95.8350282866
21
-427.3833403052
31
0.0000000000
11
-95.7988658492
21
-427.3745924988
31
0.0000000000
11
-95.7473888279
21
-427.3679494224
31
0.0000000000
11
-95.6842897878
21
-427.3657346451
31
0.0000000000
0
SPLINE
5
3C0
100
AcDbEntity
8
0
100
AcDbSpline
62
7
6
CONTINUOUS
70
0
71
3
72
8
73
4
74
2
42
0.0000001000
43
0.0000001000
44
0.0000000001
12
0.0377751027
22
-0.0002433446
32
0.0000000000
13
0.0376420626
23
-0.0020944388
33
0.0000000000
40
0.0000000000
40
0.0000000000
40
0.0000000000
40
0.0000000000
40
1.0000000000
40
1.0000000000
40
1.0000000000
40
1.0000000000
10
-95.6842897878
20
-427.3657346451
30
0.0000000000
10
-95.6716980869
20
-427.3658157600
30
0.0000000000
10
-95.6591290690
20
-427.3662151155
30
0.0000000000
10
-95.6465817148
20
-427.3669132617
30
0.0000000000
11
-95.6842897878
21
-427.3657346451
31
0.0000000000
11
-95.6465817148
21
-427.3669132617
31
0.0000000000
0
SPLINE
5
3C1
100
AcDbEntity
8
0
100
AcDbSpline
62
7
6
CONTINUOUS
70
0
71
3
72
9
73
5
74
3
42
0.0000001000
43
0.0000001000
44
0.0000000001
12
0.0603938318
22
-0.0073448720
32
0.0000000000
13
0.0607785955
23
-0.0027725077
33
0.0000000000
40
0.0000000000
40
0.0000000000
40
0.0000000000
40
0.0000000000
40
0.3869911088
40
1.0000000000
40
1.0000000000
40
1.0000000000
40
1.0000000000
10
-96.0531370585
20
-427.6925793239
30
0.0000000000
10
-96.0453464332
20
-427.6935267906
30
0.0000000000
10
-96.0251832313
20
-427.6957191862
30
0.0000000000
10
-96.0049548858
20
-427.6972362366
30
0.0000000000
10
-95.9925356127
20
-427.6978027605
30
0.0000000000
11
-96.0531370585
21
-427.6925793239
31
0.0000000000
11
-96.0297307175
21
-427.6951225247
31
0.0000000000
11
-95.9925356127
21
-427.6978027605
31
0.0000000000
0
SPLINE
5
3C2
100
AcDbEntity
8
0
100
AcDbSpline
62
7
6
CONTINUOUS
70
0
71
3
72
9
73
5
74
3
42
0.0000001000
43
0.0000001000
44
0.0000000001
12
0.0564442669
22
-0.0025747907
32
0.0000000000
13
0.0559810452
23
0.0080425123
33
0.0000000000
40
0.0000000000
40
0.0000000000
40
0.0000000000
40
0.0000000000
40
0.5438656546
40
1.0000000000
40
1.0000000000
40
1.0000000000
40
1.0000000000
10
-95.9925356127
20
-427.6978027605
30
0.0000000000
10
-95.9823029133
20
-427.6982695406
30
0.0000000000
10
-95.9634642945
20
-427.6986741438
30
0.0000000000
10
-95.9446301182
20
-427.6974994231
30
0.0000000000
10
-95.9361184924
20
-427.6962766011
30
0.0000000000
11
-95.9925356127
21
-427.6978027605
31
0.0000000000
11
-95.9618128718
21
-427.6982424922
31
0.0000000000
11
-95.9361184924
21
-427.6962766011
31
0.0000000000
0
SPLINE
5
3C3
100
AcDbEntity
8
0
100
AcDbSpline
62
7
6
CONTINUOUS
70
0
71
3
72
8
73
4
74
2
42
0.0000001000
43
0.0000001000
44
0.0000000001
12
0.0253563285
22
0.0036428149
32
0.0000000000
13
0.0242042291
23
0.0084543714
33
0.0000000000
40
0.0000000000
40
0.0000000000
40
0.0000000000
40
0.0000000000
40
1.0000000000
40
1.0000000000
40
1.0000000000
40
1.0000000000
10
-95.9361184924
20
-427.6962766011
30
0.0000000000
10
-95.9276663829
20
-427.6950623294
30
0.0000000000
10
-95.9192924573
20
-427.6931706400
30
0.0000000000
10
-95.9112243810
20
-427.6903525162
30
0.0000000000
11
-95.9361184924
21
-427.6962766011
31
0.0000000000
11
-95.9112243810
21
-427.6903525162
31
0.0000000000
0
SPLINE
5
3C4
100
AcDbEntity
8
0
100
AcDbSpline
62
7
6
CONTINUOUS
70
0
71
3
72
11
73
7
74
5
42
0.0000001000
43
0.0000001000
44
0.0000000001
12
0.1097795045
22
0.0383452287
32
0.0000000000
13
0.0129853403
23
0.1160160106
33
0.0000000000
40
0.0000000000
40
0.0000000000
40
0.0000000000
40
0.0000000000
40
0.2448027718
40
0.5034455926
40
0.7877064745
40
1.0000000000
40
1.0000000000
40
1.0000000000
40
1.0000000000
10
-95.9112243810
20
-427.6903525162
30
0.0000000000
10
-95.9022662720
20
-427.6872235101
30
0.0000000000
10
-95.8846190214
20
-427.6784398114
30
0.0000000000
10
-95.8618508723
20
-427.6575261960
30
0.0000000000
10
-95.8471077423
20
-427.6317392638
30
0.0000000000
10
-95.8426250359
20
-427.6127260788
30
0.0000000000
10
-95.8417061347
20
-427.6045162629
30
0.0000000000
11
-95.9112243810
21
-427.6903525162
31
0.0000000000
11
-95.8858360622
21
-427.6775977103
31
0.0000000000
11
-95.8637474038
21
-427.6572703901
31
0.0000000000
11
-95.8474105647
21
-427.6286074716
31
0.0000000000
11
-95.8417061347
21
-427.6045162629
31
0.0000000000
0
SPLINE
5
3C5
100
AcDbEntity
8
0
100
AcDbSpline
62
7
6
CONTINUOUS
70
0
71
3
72
8
73
4
74
2
42
0.0000001000
43
0.0000001000
44
0.0000000001
12
0.0012512757
22
0.0111793772
32
0.0000000000
13
0.0000054201
23
0.0111967750
33
0.0000000000
40
0.0000000000
40
0.0000000000
40
0.0000000000
40
0.0000000000
40
1.0000000000
40
1.0000000000
40
1.0000000000
40
1.0000000000
10
-95.8417061347
20
-427.6045162629
30
0.0000000000
10
-95.8412890428
20
-427.6007898038
30
0.0000000000
10
-95.8410774852
20
-427.5970466468
30
0.0000000000
10
-95.8410756785
20
-427.5933143885
30
0.0000000000
11
-95.8417061347
21
-427.6045162629
31
0.0000000000
11
-95.8410756785
21
-427.5933143885
31
0.0000000000
0
SPLINE
5
3C6
100
AcDbEntity
8
0
100
AcDbSpline
62
7
6
CONTINUOUS
70
0
71
3
72
10
73
6
74
4
42
0.0000001000
43
0.0000001000
44
0.0000000001
12
1.0911208316
22
-0.3562194201
32
0.0000000000
13
1.1394011973
23
-0.1385349433
33
0.0000000000
40
0.0000000000
40
0.0000000000
40
0.0000000000
40
0.0000000000
40
0.3242092501
40
0.6736871094
40
1.0000000000
40
1.0000000000
40
1.0000000000
40
1.0000000000
10
-97.1721029521
20
-427.4443783710
30
0.0000000000
10
-97.0541857966
20
-427.4828749147
30
0.0000000000
10
-96.8065659484
20
-427.5551605597
30
0.0000000000
10
-96.4328208364
20
-427.6381415523
30
0.0000000000
10
-96.1770706218
20
-427.6775090775
30
0.0000000000
10
-96.0531368557
20
-427.6925776568
30
0.0000000000
11
-97.1721029521
21
-427.4443783710
31
0.0000000000
11
-96.8148884923
21
-427.5486551432
31
0.0000000000
11
-96.4233134817
21
-427.6355949304
31
0.0000000000
11
-96.0531368557
21
-427.6925776568
31
0.0000000000
0
SPLINE
5
3C7
100
AcDbEntity
8
0
100
AcDbSpline
62
7
6
CONTINUOUS
70
0
71
3
72
8
73
4
74
2
42
0.0000001000
43
0.0000001000
44
0.0000000001
12
-0.0000338558
22
-0.0001072465
32
0.0000000000
13
0.0041573908
23
-0.0006697597
33
0.0000000000
40
0.0000000000
40
0.0000000000
40
0.0000000000
40
0.0000000000
40
1.0000000000
40
1.0000000000
40
1.0000000000
40
1.0000000000
10
-97.4431437701
20
-427.3654423510
30
0.0000000000
10
-97.4431550553
20
-427.3654780998
30
0.0000000000
10
-97.4419495668
20
-427.3656718284
30
0.0000000000
10
-97.4405637699
20
-427.3658950816
30
0.0000000000
11
-97.4431437701
21
-427.3654423510
31
0.0000000000
11
-97.4405637699
21
-427.3658950816
31
0.0000000000
0
SPLINE
5
3C8
100
AcDbEntity
8
0
100
AcDbSpline
62
7
6
CONTINUOUS
70
0
71
3
72
11
73
7
74
5
42
0.0000001000
43
0.0000001000
44
0.0000000001
12
0.0393958244
22
-0.0063467055
32
0.0000000000
13
0.0252524804
23
-0.0062307611
33
0.0000000000
40
0.0000000000
40
0.0000000000
40
0.0000000000
40
0.0000000000
40
0.0437461442
40
0.3811931806
40
0.8487327780
40
1.0000000000
40
1.0000000000
40
1.0000000000
40
1.0000000000
10
-97.4405637699
20
-427.3658950816
30
0.0000000000
10
-97.4399892981
20
-427.3659876296
30
0.0000000000
10
-97.4347134941
20
-427.3668382807
30
0.0000000000
10
-97.4302109433
20
-427.3680429996
30
0.0000000000
10
-97.4213139566
20
-427.3700297013
30
0.0000000000
10
-97.4160264800
20
-427.3713127276
30
0.0000000000
10
-97.4147531891
20
-427.3716268975
30
0.0000000000
11
-97.4405637699
21
-427.3658950816
31
0.0000000000
11
-97.4388212339
21
-427.3661787958
31
0.0000000000
11
-97.4303354076
21
-427.3679514423
31
0.0000000000
11
-97.4186396048
21
-427.3706853011
31
0.0000000000
11
-97.4147531891
21
-427.3716268975
31
0.0000000000
0
SPLINE
5
3C9
100
AcDbEntity
8
0
100
AcDbSpline
62
7
6
CONTINUOUS
70
0
71
3
72
18
73
14
74
12
42
0.0000001000
43
0.0000001000
44
0.0000000001
12
0.2491589938
22
-0.0614771357
32
0.0000000000
13
0.2409641088
23
-0.0786527443
33
0.0000000000
40
0.0000000000
40
0.0000000000
40
0.0000000000
40
0.0000000000
40
0.0441584266
40
0.1147243445
40
0.1955767258
40
0.2863024203
40
0.3862697342
40
0.4948207329
40
0.6111644276
40
0.7344498212
40
0.8637745550
40
0.9980510664
40
1.0000000000
40
1.0000000000
40
1.0000000000
40
1.0000000000
10
-97.4147531891
20
-427.3716268975
30
0.0000000000
10
-97.4110856994
20
-427.3725318087
30
0.0000000000
10
-97.4019720200
20
-427.3748943024
30
0.0000000000
10
-97.3858386508
20
-427.3791624469
30
0.0000000000
10
-97.3661807906
20
-427.3846205483
30
0.0000000000
10
-97.3441054760
20
-427.3909399268
30
0.0000000000
10
-97.3198529920
20
-427.3980674134
30
0.0000000000
10
-97.2935674442
20
-427.4059779895
30
0.0000000000
10
-97.2654473448
20
-427.4146196374
30
0.0000000000
10
-97.2356961694
20
-427.4239296626
30
0.0000000000
10
-97.2045476468
20
-427.4338457708
30
0.0000000000
10
-97.1832004373
20
-427.4407531069
30
0.0000000000
10
-97.1722584937
20
-427.4443242125
30
0.0000000000
10
-97.1721019527
20
-427.4443753088
30
0.0000000000
11
-97.4147531891
21
-427.3716268975
31
0.0000000000
11
-97.4040179605
21
-427.3743714150
31
0.0000000000
11
-97.3867302330
21
-427.3789615523
31
0.0000000000
11
-97.3669780412
21
-427.3844258545
31
0.0000000000
11
-97.3448675342
21
-427.3907484420
31
0.0000000000
11
-97.3205550326
21
-427.3978884738
31
0.0000000000
11
-97.2942058270
21
-427.4058128011
31
0.0000000000
11
-97.2660151238
21
-427.4144707392
31
0.0000000000
11
-97.2361907341
21
-427.4238011523
31
0.0000000000
11
-97.2049540658
21
-427.4337430206
31
0.0000000000
11
-97.1725715813
21
-427.4442220368
31
0.0000000000
11
-97.1721019527
21
-427.4443753088
31
0.0000000000
0
SPLINE
5
3CA
100
AcDbEntity
8
0
100
AcDbSpline
62
7
6
CONTINUOUS
70
0
71
3
72
8
73
4
74
2
42
0.0000001000
43
0.0000001000
44
0.0000000001
12
-0.0000338947
22
-0.0001160309
32
0.0000000000
13
0.0042056179
23
-0.0006729367
33
0.0000000000
40
0.0000000000
40
0.0000000000
40
0.0000000000
40
0.0000000000
40
1.0000000000
40
1.0000000000
40
1.0000000000
40
1.0000000000
10
-97.4431382678
20
-427.3654531537
30
0.0000000000
10
-97.4431495661
20
-427.3654918307
30
0.0000000000
10
-97.4419674719
20
-427.3656824741
30
0.0000000000
10
-97.4405655993
20
-427.3659067863
30
0.0000000000
11
-97.4431382678
21
-427.3654531537
31
0.0000000000
11
-97.4405655993
21
-427.3659067863
31
0.0000000000
0
SPLINE
5
3CB
100
AcDbEntity
8
0
100
AcDbSpline
62
7
6
CONTINUOUS
70
0
71
3
72
17
73
13
74
11
42
0.0000001000
43
0.0000001000
44
0.0000000001
12
0.2509708435
22
-0.0616478837
32
0.0000000000
13
0.2409606472
23
-0.0786734263
33
0.0000000000
40
0.0000000000
40
0.0000000000
40
0.0000000000
40
0.0000000000
40
0.0479700867
40
0.1192779108
40
0.2010034140
40
0.2926090716
40
0.3934274926
40
0.5028415426
40
0.6200107320
40
0.7441297324
40
0.8743023083
40
1.0000000000
40
1.0000000000
40
1.0000000000
40
1.0000000000
10
-97.4147609740
20
-427.3716283446
30
0.0000000000
10
-97.4107479430
20
-427.3726140961
30
0.0000000000
10
-97.4013014135
20
-427.3750672787
30
0.0000000000
10
-97.3847132694
20
-427.3794662928
30
0.0000000000
10
-97.3648606217
20
-427.3849965515
30
0.0000000000
10
-97.3425736389
20
-427.3913816168
30
0.0000000000
10
-97.3181148806
20
-427.3985844030
30
0.0000000000
10
-97.2916278321
20
-427.4065715475
30
0.0000000000
10
-97.2633061601
20
-427.4152838347
30
0.0000000000
10
-97.2333557824
20
-427.4246678766
30
0.0000000000
10
-97.2027652978
20
-427.4344170666
30
0.0000000000
10
-97.1821980237
20
-427.4410789748
30
0.0000000000
10
-97.1721019580
20
-427.4443753309
30
0.0000000000
11
-97.4147609740
21
-427.3716283446
31
0.0000000000
11
-97.4030854830
21
-427.3746127259
31
0.0000000000
11
-97.3856187221
21
-427.3792622398
31
0.0000000000
11
-97.3656568484
21
-427.3847995847
31
0.0000000000
11
-97.3433340280
21
-427.3911920199
31
0.0000000000
11
-97.3188177858
21
-427.3984050291
31
0.0000000000
11
-97.2922628236
21
-427.4064059658
31
0.0000000000
11
-97.2638747111
21
-427.4151350890
31
0.0000000000
11
-97.2338514525
21
-427.4245388142
31
0.0000000000
11
-97.2024131265
21
-427.4345570275
31
0.0000000000
11
-97.1721019580
21
-427.4443753309
31
0.0000000000
0
SPLINE
5
3CC
100
AcDbEntity
8
0
100
AcDbSpline
62
7
6
CONTINUOUS
70
0
71
3
72
16
73
12
74
10
42
0.0000001000
43
0.0000001000
44
0.0000000001
12
0.2571082013
22
-0.0312732353
32
0.0000000000
13
0.0289956003
23
0.2588563033
33
0.0000000000
40
0.0000000000
40
0.0000000000
40
0.0000000000
40
0.0000000000
40
0.0957177787
40
0.2385228785
40
0.3560819468
40
0.4550440047
40
0.5535147798
40
0.6628920152
40
0.7781856162
40
0.9049357695
40
1.0000000000
40
1.0000000000
40
1.0000000000
40
1.0000000000
10
-96.0531370275
20
-427.6925790667
30
0.0000000000
10
-96.0449337522
20
-427.6935768683
30
0.0000000000
10
-96.0244575718
20
-427.6957901514
30
0.0000000000
10
-95.9937897460
20
-427.6980475014
30
0.0000000000
10
-95.9627574162
20
-427.6986609675
30
0.0000000000
10
-95.9355646593
20
-427.6968926536
30
0.0000000000
10
-95.9095840845
20
-427.6909184402
30
0.0000000000
10
-95.8843566069
20
-427.6782439796
30
0.0000000000
10
-95.8617520243
20
-427.6573648654
30
0.0000000000
10
-95.8470955219
20
-427.6316691234
30
0.0000000000
10
-95.8426276353
20
-427.6127186199
30
0.0000000000
10
-95.8417088204
20
-427.6045159615
30
0.0000000000
11
-96.0531370275
21
-427.6925790667
31
0.0000000000
11
-96.0284890648
21
-427.6952403052
31
0.0000000000
11
-95.9915968650
21
-427.6978447288
31
0.0000000000
11
-95.9611535088
21
-427.6982254251
31
0.0000000000
11
-95.9356040331
21
-427.6962024720
31
0.0000000000
11
-95.9108160203
21
-427.6902094094
31
0.0000000000
11
-95.8855504502
21
-427.6774009070
31
0.0000000000
11
-95.8636337846
21
-427.6571223257
31
0.0000000000
11
-95.8474079975
21
-427.6285868309
31
0.0000000000
11
-95.8417088204
21
-427.6045159615
31
0.0000000000
0
SPLINE
5
3CD
100
AcDbEntity
8
0
100
AcDbSpline
62
7
6
CONTINUOUS
70
0
71
3
72
12
73
8
74
6
42
0.0000001000
43
0.0000001000
44
0.0000000001
12
0.1619099871
22
0.0512868116
32
0.0000000000
13
0.1836198709
23
-0.0070518447
33
0.0000000000
40
0.0000000000
40
0.0000000000
40
0.0000000000
40
0.0000000000
40
0.0435347811
40
0.2501577898
40
0.5368832645
40
0.8832351292
40
1.0000000000
40
1.0000000000
40
1.0000000000
40
1.0000000000
10
-95.8411803775
20
-427.3850371402
30
0.0000000000
10
-95.8388308056
20
-427.3842928868
30
0.0000000000
10
-95.8256621468
20
-427.3808331622
30
0.0000000000
10
-95.7919885705
20
-427.3721521375
30
0.0000000000
10
-95.7416213487
20
-427.3668157326
30
0.0000000000
10
-95.6954724075
20
-427.3653171972
30
0.0000000000
10
-95.6670962043
20
-427.3660120452
30
0.0000000000
10
-95.6599494208
20
-427.3662865144
30
0.0000000000
11
-95.8411803775
21
-427.3850371402
31
0.0000000000
11
-95.8341709787
21
-427.3830709780
31
0.0000000000
11
-95.7972495840
21
-427.3742966300
31
0.0000000000
11
-95.7449949756
21
-427.3677604227
31
0.0000000000
11
-95.6814131223
21
-427.3657646684
31
0.0000000000
11
-95.6599494208
21
-427.3662865144
31
0.0000000000
0
SPLINE
5
3CE
100
AcDbEntity
8
0
100
AcDbSpline
62
7
6
CONTINUOUS
70
0
71
3
72
10
73
6
74
4
42
0.0000001000
43
0.0000001000
44
0.0000000001
12
0.6103822664
22
-0.0337146560
32
0.0000000000
13
0.6103836007
23
0.0337145969
33
0.0000000000
40
0.0000000000
40
0.0000000000
40
0.0000000000
40
0.0000000000
40
0.3201470795
40
0.6837622215
40
1.0000000000
40
1.0000000000
40
1.0000000000
40
1.0000000000
10
-95.6465826110
20
-427.3669319767
30
0.0000000000
10
-95.5814452443
20
-427.3705298596
30
0.0000000000
10
-95.4421782741
20
-427.3757570030
30
0.0000000000
10
-95.2383635613
20
-427.3757130734
30
0.0000000000
10
-95.0998945380
20
-427.3704859056
30
0.0000000000
10
-95.0355524201
20
-427.3669319626
30
0.0000000000
11
-95.6465826110
21
-427.3669319767
31
0.0000000000
11
-95.4510111698
21
-427.3742722013
31
0.0000000000
11
-95.2287345344
21
-427.3742242627
31
0.0000000000
11
-95.0355524201
21
-427.3669319626
31
0.0000000000
0
SPLINE
5
3CF
100
AcDbEntity
8
0
100
AcDbSpline
62
7
6
CONTINUOUS
70
0
71
3
72
8
73
4
74
2
42
0.0000001000
43
0.0000001000
44
0.0000000001
12
0.0133593634
22
0.0007433272
32
0.0000000000
13
0.0133758724
23
0.0005149088
33
0.0000000000
40
0.0000000000
40
0.0000000000
40
0.0000000000
40
0.0000000000
40
1.0000000000
40
1.0000000000
40
1.0000000000
40
1.0000000000
10
-95.0355533154
20
-427.3669132617
30
0.0000000000
10
-95.0311001943
20
-427.3666654860
30
0.0000000000
10
-95.0266443444
20
-427.3664553453
30
0.0000000000
10
-95.0221857203
20
-427.3662837090
30
0.0000000000
11
-95.0355533154
21
-427.3669132617
31
0.0000000000
11
-95.0221857203
21
-427.3662837090
31
0.0000000000
0
SPLINE
5
3D0
100
AcDbEntity
8
0
100
AcDbSpline
62
9
6
CONTINUOUS
70
0
71
3
72
10
73
6
74
4
42
0.0000001000
43
0.0000001000
44
0.0000000001
12
0.0000000037
22
-0.0084211513
32
0.0000000000
13
-0.0000000024
23
-0.0084211513
33
0.0000000000
40
0.0000000000
40
0.0000000000
40
0.0000000000
40
0.0000000000
40
0.5552522622
40
0.8890061159
40
1.0000000000
40
1.0000000000
40
1.0000000000
40
1.0000000000
10
-93.2050516840
20
-427.3602313227
30
0.0000000000
10
-93.2050516833
20
-427.3617899438
30
0.0000000000
10
-93.2050516854
20
-427.3642854289
30
0.0000000000
10
-93.2050516839
20
-427.3670924793
30
0.0000000000
10
-93.2050516839
20
-427.3683409086
30
0.0000000000
10
-93.2050516840
20
-427.3686524741
30
0.0000000000
11
-93.2050516840
21
-427.3602313227
31
0.0000000000
11
-93.2050516846
21
-427.3649071861
31
0.0000000000
11
-93.2050516839
21
-427.3677177778
31
0.0000000000
11
-93.2050516840
21
-427.3686524741
31
0.0000000000
0
SPLINE
5
3D1
100
AcDbEntity
8
0
100
AcDbSpline
62
9
6
CONTINUOUS
70
0
71
3
72
11
73
7
74
5
42
0.0000001000
43
0.0000001000
44
0.0000000001
12
0.2347482178
22
0.0766424207
32
0.0000000000
13
0.2489078788
23
0.0675589159
33
0.0000000000
40
0.0000000000
40
0.0000000000
40
0.0000000000
40
0.0000000000
40
0.3504046771
40
0.6666687971
40
0.9304468631
40
1.0000000000
40
1.0000000000
40
1.0000000000
40
1.0000000000
10
-93.5101968027
20
-427.4438738171
30
0.0000000000
10
-93.4827778449
20
-427.4349218629
30
0.0000000000
10
-93.4306764477
20
-427.4182691134
30
0.0000000000
10
-93.3567938091
20
-427.3955561315
30
0.0000000000
10
-93.3069093625
20
-427.3814261290
30
0.0000000000
10
-93.2788481826
20
-427.3735588187
30
0.0000000000
10
-93.2730774080
20
-427.3719925072
30
0.0000000000
11
-93.5101968027
21
-427.4438738171
31
0.0000000000
11
-93.4277774010
21
-427.4175209652
31
0.0000000000
11
-93.3530766154
21
-427.3947333933
31
0.0000000000
11
-93.2904514508
21
-427.3768151662
31
0.0000000000
11
-93.2730774080
21
-427.3719925072
31
0.0000000000
0
SPLINE
5
3D2
100
AcDbEntity
8
0
100
AcDbSpline
62
9
6
CONTINUOUS
70
0
71
3
72
10
73
6
74
4
42
0.0000001000
43
0.0000001000
44
0.0000000001
12
0.0708811429
22
0.0192386565
32
0.0000000000
13
-0.0003549073
23
-0.0703206776
33
0.0000000000
40
0.0000000000
40
0.0000000000
40
0.0000000000
40
0.0000000000
40
0.4410278012
40
0.8596420268
40
1.0000000000
40
1.0000000000
40
1.0000000000
40
1.0000000000
10
-93.2730774080
20
-427.3719925072
30
0.0000000000
10
-93.2626572232
20
-427.3691642464
30
0.0000000000
10
-93.2428833904
20
-427.3641299321
30
0.0000000000
10
-93.2260880802
20
-427.3620161727
30
0.0000000000
10
-93.2050350793
20
-427.3569413001
30
0.0000000000
10
-93.2050516840
20
-427.3602313227
30
0.0000000000
11
-93.2730774080
21
-427.3719925072
31
0.0000000000
11
-93.2437722623
21
-427.3648454697
31
0.0000000000
11
-93.2148724145
21
-427.3592444222
31
0.0000000000
11
-93.2050516840
21
-427.3602313227
31
0.0000000000
0
SPLINE
5
3D3
100
AcDbEntity
8
0
100
AcDbSpline
62
9
6
CONTINUOUS
70
0
71
3
72
12
73
8
74
6
42
0.0000001000
43
0.0000001000
44
0.0000000001
12
1.1394044272
22
0.1385317330
32
0.0000000000
13
1.0911181987
23
0.3562226359
33
0.0000000000
40
0.0000000000
40
0.0000000000
40
0.0000000000
40
0.0000000000
40
0.1736997740
40
0.3668447149
40
0.5660151312
40
0.7736035241
40
1.0000000000
40
1.0000000000
40
1.0000000000
40
1.0000000000
10
-94.6290622381
20
-427.6920507363
30
0.0000000000
10
-94.5630908076
20
-427.6840297594
30
0.0000000000
10
-94.4240381239
20
-427.6647338698
30
0.0000000000
10
-94.2106871518
20
-427.6273246379
30
0.0000000000
10
-93.9862336322
20
-427.5790745229
30
0.0000000000
10
-93.7515399439
20
-427.5188182606
30
0.0000000000
10
-93.5925385744
20
-427.4707563336
30
0.0000000000
10
-93.5101968027
20
-427.4438738171
30
0.0000000000
11
-94.6290622381
21
-427.6920507363
31
0.0000000000
11
-94.4315828107
21
-427.6646469561
31
0.0000000000
11
-94.2132232727
21
-427.6263595354
31
0.0000000000
11
-93.9897222089
21
-427.5783142212
31
0.0000000000
11
-93.7589383514
21
-427.5190614190
31
0.0000000000
11
-93.5101968027
21
-427.4438738171
31
0.0000000000
0
SPLINE
5
3D4
100
AcDbEntity
8
0
100
AcDbSpline
62
9
6
CONTINUOUS
70
0
71
3
72
14
73
10
74
8
42
0.0000001000
43
0.0000001000
44
0.0000000001
12
0.0001275271
22
-0.1030417226
32
0.0000000000
13
0.1022885817
23
0.0124361939
33
0.0000000000
40
0.0000000000
40
0.0000000000
40
0.0000000000
40
0.0000000000
40
0.0475695937
40
0.1569696759
40
0.3115077117
40
0.4870765621
40
0.6663493256
40
0.8385288923
40
1.0000000000
40
1.0000000000
40
1.0000000000
40
1.0000000000
10
-94.7307772777
20
-427.6920507363
30
0.0000000000
10
-94.7307752555
20
-427.6936846206
30
0.0000000000
10
-94.7239767171
20
-427.6961335640
30
0.0000000000
10
-94.7145981663
20
-427.6968483768
30
0.0000000000
10
-94.6989105000
20
-427.6973674082
30
0.0000000000
10
-94.6816146495
20
-427.6967438050
30
0.0000000000
10
-94.6634933158
20
-427.6955877560
30
0.0000000000
10
-94.6459607162
20
-427.6939919264
30
0.0000000000
10
-94.6345677883
20
-427.6927200983
30
0.0000000000
10
-94.6290622381
20
-427.6920507363
30
0.0000000000
11
-94.7307772777
21
-427.6920507363
31
0.0000000000
11
-94.7268450181
21
-427.6949770946
31
0.0000000000
11
-94.7157037963
21
-427.6966942960
31
0.0000000000
11
-94.6997869830
21
-427.6971685662
31
0.0000000000
11
-94.6817030862
21
-427.6966641371
31
0.0000000000
11
-94.6632679599
21
-427.6954882781
31
0.0000000000
11
-94.6455978311
21
-427.6938963584
31
0.0000000000
11
-94.6290622381
21
-427.6920507363
31
0.0000000000
0
SPLINE
5
3D5
100
AcDbEntity
8
0
100
AcDbSpline
62
9
6
CONTINUOUS
70
0
71
3
72
12
73
8
74
6
42
0.0000001000
43
0.0000001000
44
0.0000000001
12
0.0000000955
22
-0.2481769191
32
0.0000000000
13
-0.0000000361
23
-0.2481769192
33
0.0000000000
40
0.0000000000
40
0.0000000000
40
0.0000000000
40
0.0000000000
40
0.3245288541
40
0.5733868835
40
0.7612770168
40
0.8998605882
40
1.0000000000
40
1.0000000000
40
1.0000000000
40
1.0000000000
10
-94.7307772777
20
-427.4438738171
30
0.0000000000
10
-94.7307772673
20
-427.4707206742
30
0.0000000000
10
-94.7307772867
20
-427.5181544709
30
0.0000000000
10
-94.7307772760
20
-427.5811315992
30
0.0000000000
10
-94.7307772767
20
-427.6287262849
30
0.0000000000
10
-94.7307772789
20
-427.6640181279
30
0.0000000000
10
-94.7307772765
20
-427.6837666394
30
0.0000000000
10
-94.7307772777
20
-427.6920507363
30
0.0000000000
11
-94.7307772777
21
-427.4438738171
31
0.0000000000
11
-94.7307772805
21
-427.5244143883
31
0.0000000000
11
-94.7307772773
21
-427.5861752074
31
0.0000000000
11
-94.7307772772
21
-427.6328052018
31
0.0000000000
11
-94.7307772779
21
-427.6671984456
31
0.0000000000
11
-94.7307772777
21
-427.6920507363
31
0.0000000000
0
SPLINE
5
3D6
100
AcDbEntity
8
0
100
AcDbSpline
62
9
6
CONTINUOUS
70
0
71
3
72
8
73
4
74
2
42
0.0000001000
43
0.0000001000
44
0.0000000001
12
0.0259648526
22
0.0014341561
32
0.0000000000
13
0.0260031346
23
0.0007031723
33
0.0000000000
40
0.0000000000
40
0.0000000000
40
0.0000000000
40
0.0000000000
40
1.0000000000
40
1.0000000000
40
1.0000000000
40
1.0000000000
10
-95.0359223964
20
-427.3602313227
30
0.0000000000
10
-95.0272674455
20
-427.3597532707
30
0.0000000000
10
-95.0186038896
20
-427.3593946403
30
0.0000000000
10
-95.0099361780
20
-427.3591602496
30
0.0000000000
11
-95.0359223964
21
-427.3602313227
31
0.0000000000
11
-95.0099361780
21
-427.3591602496
31
0.0000000000
0
SPLINE
5
3D7
100
AcDbEntity
8
0
100
AcDbSpline
62
9
6
CONTINUOUS
70
0
71
3
72
10
73
6
74
4
42
0.0000001000
43
0.0000001000
44
0.0000000001
12
0.1456857917
22
0.0039396100
32
0.0000000000
13
0.1438195669
23
-0.0241745223
33
0.0000000000
40
0.0000000000
40
0.0000000000
40
0.0000000000
40
0.0000000000
40
0.3486430920
40
0.8460685313
40
1.0000000000
40
1.0000000000
40
1.0000000000
40
1.0000000000
10
-95.0099361780
20
-427.3591602496
30
0.0000000000
10
-94.9930053964
20
-427.3587024103
30
0.0000000000
10
-94.9518801984
20
-427.3587416996
30
0.0000000000
10
-94.9033932529
20
-427.3623375746
30
0.0000000000
10
-94.8720499429
20
-427.3669264660
30
0.0000000000
10
-94.8646704905
20
-427.3681668726
30
0.0000000000
11
-95.0099361780
21
-427.3591602496
31
0.0000000000
11
-94.9591294290
21
-427.3592447270
31
0.0000000000
11
-94.8868776626
21
-427.3648830088
31
0.0000000000
11
-94.8646704905
21
-427.3681668726
31
0.0000000000
0
SPLINE
5
3D8
100
AcDbEntity
8
0
100
AcDbSpline
62
9
6
CONTINUOUS
70
0
71
3
72
8
73
4
74
2
42
0.0000001000
43
0.0000001000
44
0.0000000001
12
0.0237336029
22
-0.0039893634
32
0.0000000000
13
0.0234891810
23
-0.0051773087
33
0.0000000000
40
0.0000000000
40
0.0000000000
40
0.0000000000
40
0.0000000000
40
1.0000000000
40
1.0000000000
40
1.0000000000
40
1.0000000000
10
-94.8646704905
20
-427.3681668726
30
0.0000000000
10
-94.8567592896
20
-427.3694966604
30
0.0000000000
10
-94.8488799630
20
-427.3710056713
30
0.0000000000
10
-94.8410502360
20
-427.3727314409
30
0.0000000000
11
-94.8646704905
21
-427.3681668726
31
0.0000000000
11
-94.8410502360
21
-427.3727314409
31
0.0000000000
0
SPLINE
5
3D9
100
AcDbEntity
8
0
100
AcDbSpline
62
9
6
CONTINUOUS
70
0
71
3
72
8
73
4
74
2
42
0.0000001000
43
0.0000001000
44
0.0000000001
12
0.0172327122
22
-0.0037983049
32
0.0000000000
13
0.0170515376
23
-0.0045427719
33
0.0000000000
40
0.0000000000
40
0.0000000000
40
0.0000000000
40
0.0000000000
40
1.0000000000
40
1.0000000000
40
1.0000000000
40
1.0000000000
10
-94.8410502360
20
-427.3727314409
30
0.0000000000
10
-94.8353059986
20
-427.3739975425
30
0.0000000000
10
-94.8295884574
20
-427.3753803111
30
0.0000000000
10
-94.8239046116
20
-427.3768945684
30
0.0000000000
11
-94.8410502360
21
-427.3727314409
31
0.0000000000
11
-94.8239046116
21
-427.3768945684
31
0.0000000000
0
SPLINE
5
3DA
100
AcDbEntity
8
0
100
AcDbSpline
62
9
6
CONTINUOUS
70
0
71
3
72
10
73
6
74
4
42
0.0000001000
43
0.0000001000
44
0.0000000001
12
0.1168063314
22
-0.0311188667
32
0.0000000000
13
-0.0000729979
23
-0.1208295183
33
0.0000000000
40
0.0000000000
40
0.0000000000
40
0.0000000000
40
0.0000000000
40
0.4363905819
40
0.7617294484
40
1.0000000000
40
1.0000000000
40
1.0000000000
40
1.0000000000
10
-94.8239046116
20
-427.3768945684
30
0.0000000000
10
-94.8069135506
20
-427.3814212285
30
0.0000000000
10
-94.7777808721
20
-427.3913736361
30
0.0000000000
10
-94.7425751997
20
-427.4121704592
30
0.0000000000
10
-94.7307714799
20
-427.4342771118
30
0.0000000000
10
-94.7307772777
20
-427.4438738171
30
0.0000000000
11
-94.8239046116
21
-427.3768945684
31
0.0000000000
11
-94.7742936098
21
-427.3947574517
31
0.0000000000
11
-94.7421884032
21
-427.4174416909
31
0.0000000000
11
-94.7307772777
21
-427.4438738171
31
0.0000000000
0
SPLINE
5
3DB
100
AcDbEntity
8
0
100
AcDbSpline
62
9
6
CONTINUOUS
70
0
71
3
72
10
73
6
74
4
42
0.0000001000
43
0.0000001000
44
0.0000000001
12
0.6096363370
22
-0.0336737673
32
0.0000000000
13
0.6096363343
23
0.0336738160
33
0.0000000000
40
0.0000000000
40
0.0000000000
40
0.0000000000
40
0.0000000000
40
0.3328661760
40
0.6669943864
40
1.0000000000
40
1.0000000000
40
1.0000000000
40
1.0000000000
10
-95.6462126339
20
-427.3602313227
30
0.0000000000
10
-95.5785701951
20
-427.3639676088
30
0.0000000000
10
-95.4428776474
20
-427.3689651971
30
0.0000000000
10
-95.2393141565
20
-427.3689667581
30
0.0000000000
10
-95.1035931703
20
-427.3639691793
30
0.0000000000
10
-95.0359223964
20
-427.3602313227
30
0.0000000000
11
-95.6462126339
21
-427.3602313227
31
0.0000000000
11
-95.4431136833
21
-427.3677113268
31
0.0000000000
11
-95.2391064827
21
-427.3677128957
31
0.0000000000
11
-95.0359223964
21
-427.3602313227
31
0.0000000000
0
SPLINE
5
3DC
100
AcDbEntity
8
0
100
AcDbSpline
62
9
6
CONTINUOUS
70
0
71
3
72
11
73
7
74
5
42
0.0000001000
43
0.0000001000
44
0.0000000001
12
0.0000256699
22
0.1384612527
32
0.0000000000
13
0.1352723955
23
0.0298191917
33
0.0000000000
40
0.0000000000
40
0.0000000000
40
0.0000000000
40
0.0000000000
40
0.2091032557
40
0.4931166190
40
0.8736295673
40
1.0000000000
40
1.0000000000
40
1.0000000000
40
1.0000000000
10
-95.9513577526
20
-427.4438738171
30
0.0000000000
10
-95.9513559634
20
-427.4342229176
30
0.0000000000
10
-95.9394667985
20
-427.4120740961
30
0.0000000000
10
-95.9042018899
20
-427.3913139084
30
0.0000000000
10
-95.8695340130
20
-427.3794863503
30
0.0000000000
10
-95.8467835218
20
-427.3739873170
30
0.0000000000
10
-95.8410853781
20
-427.3727312289
30
0.0000000000
11
-95.9513577526
21
-427.4438738171
31
0.0000000000
11
-95.9398315206
21
-427.4173143599
31
0.0000000000
11
-95.9076762677
21
-427.3946762664
31
0.0000000000
11
-95.8580942489
21
-427.3768585881
31
0.0000000000
11
-95.8410853781
21
-427.3727312289
31
0.0000000000
0
SPLINE
5
3DD
100
AcDbEntity
8
0
100
AcDbSpline
62
9
6
CONTINUOUS
70
0
71
3
72
8
73
4
74
2
42
0.0000001000
43
0.0000001000
44
0.0000000001
12
0.0042859530
22
0.0009447874
32
0.0000000000
13
0.0042955310
23
0.0009021475
33
0.0000000000
40
0.0000000000
40
0.0000000000
40
0.0000000000
40
0.0000000000
40
1.0000000000
40
1.0000000000
40
1.0000000000
40
1.0000000000
10
-95.8410853781
20
-427.3727312289
30
0.0000000000
10
-95.8396567271
20
-427.3724162998
30
0.0000000000
10
-95.8382264261
20
-427.3721085915
30
0.0000000000
10
-95.8367945824
20
-427.3718078757
30
0.0000000000
11
-95.8410853781
21
-427.3727312289
31
0.0000000000
11
-95.8367945824
21
-427.3718078757
31
0.0000000000
0
SPLINE
5
3DE
100
AcDbEntity
8
0
100
AcDbSpline
62
9
6
CONTINUOUS
70
0
71
3
72
8
73
4
74
2
42
0.0000001000
43
0.0000001000
44
0.0000000001
12
0.0193422573
22
0.0040622611
32
0.0000000000
13
0.0195005064
23
0.0032741333
33
0.0000000000
40
0.0000000000
40
0.0000000000
40
0.0000000000
40
0.0000000000
40
1.0000000000
40
1.0000000000
40
1.0000000000
40
1.0000000000
10
-95.8367945824
20
-427.3718078757
30
0.0000000000
10
-95.8303471633
20
-427.3704537887
30
0.0000000000
10
-95.8238684662
20
-427.3692414806
30
0.0000000000
10
-95.8173682974
20
-427.3681501029
30
0.0000000000
11
-95.8367945824
21
-427.3718078757
31
0.0000000000
11
-95.8173682974
21
-427.3681501029
31
0.0000000000
0
SPLINE
5
3DF
100
AcDbEntity
8
0
100
AcDbSpline
62
9
6
CONTINUOUS
70
0
71
3
72
10
73
6
74
4
42
0.0000001000
43
0.0000001000
44
0.0000000001
12
0.1436554342
22
0.0241197344
32
0.0000000000
13
0.1455167566
23
-0.0039235326
33
0.0000000000
40
0.0000000000
40
0.0000000000
40
0.0000000000
40
0.0000000000
40
0.1538736103
40
0.6506453984
40
1.0000000000
40
1.0000000000
40
1.0000000000
40
1.0000000000
10
-95.8173682974
20
-427.3681501029
30
0.0000000000
10
-95.8100000373
20
-427.3669129727
30
0.0000000000
10
-95.7787271267
20
-427.3623388875
30
0.0000000000
10
-95.7302970174
20
-427.3587443714
30
0.0000000000
10
-95.6892168399
20
-427.3587018309
30
0.0000000000
10
-95.6722711904
20
-427.3591587323
30
0.0000000000
11
-95.8173682974
21
-427.3681501029
31
0.0000000000
11
-95.7951950311
21
-427.3648745075
31
0.0000000000
11
-95.7231223640
21
-427.3592481949
31
0.0000000000
11
-95.6722711904
21
-427.3591587323
31
0.0000000000
0
SPLINE
5
3E0
100
AcDbEntity
8
0
100
AcDbSpline
62
9
6
CONTINUOUS
70
0
71
3
72
8
73
4
74
2
42
0.0000001000
43
0.0000001000
44
0.0000000001
12
0.0260755307
22
-0.0007030681
32
0.0000000000
13
0.0260370964
23
-0.0014371509
33
0.0000000000
40
0.0000000000
40
0.0000000000
40
0.0000000000
40
0.0000000000
40
1.0000000000
40
1.0000000000
40
1.0000000000
40
1.0000000000
10
-95.6722711904
20
-427.3591587323
30
0.0000000000
10
-95.6635793468
20
-427.3593930883
30
0.0000000000
10
-95.6548916660
20
-427.3597522724
30
0.0000000000
10
-95.6462126339
20
-427.3602313227
30
0.0000000000
11
-95.6722711904
21
-427.3591587323
31
0.0000000000
11
-95.6462126339
21
-427.3602313227
31
0.0000000000
0
SPLINE
5
3E1
100
AcDbEntity
8
0
100
AcDbSpline
62
9
6
CONTINUOUS
70
0
71
3
72
12
73
8
74
6
42
0.0000001000
43
0.0000001000
44
0.0000000001
12
-0.0000000402
22
0.2481769191
32
0.0000000000
13
0.0000000830
23
0.2481769191
33
0.0000000000
40
0.0000000000
40
0.0000000000
40
0.0000000000
40
0.0000000000
40
0.1005484461
40
0.2392339420
40
0.4272491127
40
0.6764381929
40
1.0000000000
40
1.0000000000
40
1.0000000000
40
1.0000000000
10
-95.9513577526
20
-427.6920507363
30
0.0000000000
10
-95.9513577540
20
-427.6837328018
30
0.0000000000
10
-95.9513577509
20
-427.6639420209
30
0.0000000000
10
-95.9513577557
20
-427.6285975647
30
0.0000000000
10
-95.9513577517
20
-427.5809567170
30
0.0000000000
10
-95.9513577474
20
-427.5180218582
30
0.0000000000
10
-95.9513577616
20
-427.4706406746
30
0.0000000000
10
-95.9513577526
20
-427.4438738171
30
0.0000000000
11
-95.9513577526
21
-427.6920507363
31
0.0000000000
11
-95.9513577524
21
-427.6670969327
31
0.0000000000
11
-95.9513577541
21
-427.6326783936
31
0.0000000000
11
-95.9513577522
21
-427.5860173678
31
0.0000000000
11
-95.9513577511
21
-427.5241743896
31
0.0000000000
11
-95.9513577526
21
-427.4438738171
31
0.0000000000
0
SPLINE
5
3E2
100
AcDbEntity
8
0
100
AcDbSpline
62
9
6
CONTINUOUS
70
0
71
3
72
14
73
10
74
8
42
0.0000001000
43
0.0000001000
44
0.0000000001
12
0.1022860762
22
-0.0124369244
32
0.0000000000
13
-0.0002474778
23
0.1030391053
33
0.0000000000
40
0.0000000000
40
0.0000000000
40
0.0000000000
40
0.0000000000
40
0.1614060718
40
0.3347621391
40
0.5142394507
40
0.6893348921
40
0.8429827303
40
0.9520038950
40
1.0000000000
40
1.0000000000
40
1.0000000000
40
1.0000000000
10
-96.0530727922
20
-427.6920507363
30
0.0000000000
10
-96.0475695943
20
-427.6927198680
30
0.0000000000
10
-96.0361389311
20
-427.6939959190
30
0.0000000000
10
-96.0185619410
20
-427.6955945480
30
0.0000000000
10
-96.0004086424
20
-427.6967496370
30
0.0000000000
10
-95.9831553476
20
-427.6973652332
30
0.0000000000
10
-95.9675223500
20
-427.6968513310
30
0.0000000000
10
-95.9581893062
20
-427.6961260818
30
0.0000000000
10
-95.9513537933
20
-427.6936992282
30
0.0000000000
10
-95.9513577526
20
-427.6920507363
30
0.0000000000
11
-96.0530727922
21
-427.6920507363
31
0.0000000000
11
-96.0365442530
21
-427.6938956519
31
0.0000000000
11
-96.0187536799
21
-427.6954970935
31
0.0000000000
11
-96.0002977088
21
-427.6966704947
31
0.0000000000
11
-95.9822628611
21
-427.6971687696
31
0.0000000000
11
-95.9664381811
21
-427.6966946342
31
0.0000000000
11
-95.9553347370
21
-427.6949903734
31
0.0000000000
11
-95.9513577526
21
-427.6920507363
31
0.0000000000
0
SPLINE
5
3E3
100
AcDbEntity
8
0
100
AcDbSpline
62
9
6
CONTINUOUS
70
0
71
3
72
10
73
6
74
4
42
0.0000001000
43
0.0000001000
44
0.0000000001
12
0.0000000011
22
0.0084211513
32
0.0000000000
13
0.0000000040
23
0.0084211513
33
0.0000000000
40
0.0000000000
40
0.0000000000
40
0.0000000000
40
0.0000000000
40
0.1109954972
40
0.4447521893
40
1.0000000000
40
1.0000000000
40
1.0000000000
40
1.0000000000
10
-97.4770833463
20
-427.3686524741
30
0.0000000000
10
-97.4770833462
20
-427.3683409041
30
0.0000000000
10
-97.4770833460
20
-427.3670924623
30
0.0000000000
10
-97.4770833455
20
-427.3642854118
30
0.0000000000
10
-97.4770833470
20
-427.3617899313
30
0.0000000000
10
-97.4770833463
20
-427.3602313227
30
0.0000000000
11
-97.4770833463
21
-427.3686524741
31
0.0000000000
11
-97.4770833461
21
-427.3677177642
31
0.0000000000
11
-97.4770833459
21
-427.3649071486
31
0.0000000000
11
-97.4770833463
21
-427.3602313227
31
0.0000000000
0
SPLINE
5
3E4
100
AcDbEntity
8
0
100
AcDbSpline
62
9
6
CONTINUOUS
70
0
71
3
72
12
73
8
74
6
42
0.0000001000
43
0.0000001000
44
0.0000000001
12
1.0911187217
22
-0.3562227291
32
0.0000000000
13
1.1394049461
23
-0.1385318241
33
0.0000000000
40
0.0000000000
40
0.0000000000
40
0.0000000000
40
0.0000000000
40
0.2220767843
40
0.4263822369
40
0.6251590283
40
0.8222368415
40
1.0000000000
40
1.0000000000
40
1.0000000000
40
1.0000000000
10
-97.1719382275
20
-427.4438738171
30
0.0000000000
10
-97.0911675152
20
-427.4702434165
30
0.0000000000
10
-96.9349736696
20
-427.5175283615
30
0.0000000000
10
-96.7033149212
20
-427.5772919832
30
0.0000000000
10
-96.4788392500
20
-427.6259034442
30
0.0000000000
10
-96.2626649276
20
-427.6640692561
30
0.0000000000
10
-96.1205875329
20
-427.6838421181
30
0.0000000000
10
-96.0530727922
20
-427.6920507363
30
0.0000000000
11
-97.1719382275
21
-427.4438738171
31
0.0000000000
11
-96.9279736288
21
-427.5177294078
31
0.0000000000
11
-96.7009072390
21
-427.5763086256
31
0.0000000000
11
-96.4779208186
21
-427.6245975106
31
0.0000000000
11
-96.2551608740
21
-427.6639259824
31
0.0000000000
11
-96.0530727922
21
-427.6920507363
31
0.0000000000
0
SPLINE
5
3E5
100
AcDbEntity
8
0
100
AcDbSpline
62
9
6
CONTINUOUS
70
0
71
3
72
10
73
6
74
4
42
0.0000001000
43
0.0000001000
44
0.0000000001
12
-0.0000305523
22
0.0705416368
32
0.0000000000
13
0.0710873922
23
-0.0193144344
33
0.0000000000
40
0.0000000000
40
0.0000000000
40
0.0000000000
40
0.0000000000
40
0.1406318942
40
0.5591741542
40
1.0000000000
40
1.0000000000
40
1.0000000000
40
1.0000000000
10
-97.4770833463
20
-427.3602313227
30
0.0000000000
10
-97.4770847785
20
-427.3569245214
30
0.0000000000
10
-97.4559898836
20
-427.3620441544
30
0.0000000000
10
-97.4391154777
20
-427.3641561068
30
0.0000000000
10
-97.4192872338
20
-427.3692083992
30
0.0000000000
10
-97.4088415138
20
-427.3720464999
30
0.0000000000
11
-97.4770833463
21
-427.3602313227
31
0.0000000000
11
-97.4672115410
21
-427.3592505602
31
0.0000000000
11
-97.4382279392
21
-427.3648769536
31
0.0000000000
11
-97.4088415138
21
-427.3720464999
31
0.0000000000
0
SPLINE
5
3E6
100
AcDbEntity
8
0
100
AcDbSpline
62
9
6
CONTINUOUS
70
0
71
3
72
11
73
7
74
5
42
0.0000001000
43
0.0000001000
44
0.0000000001
12
0.2486304027
22
-0.0675528451
32
0.0000000000
13
0.2345404016
23
-0.0765660645
33
0.0000000000
40
0.0000000000
40
0.0000000000
40
0.0000000000
40
0.0000000000
40
0.0697732047
40
0.3340318270
40
0.6507837916
40
1.0000000000
40
1.0000000000
40
1.0000000000
40
1.0000000000
10
-97.4088415138
20
-427.3720464999
30
0.0000000000
10
-97.4030589339
20
-427.3736176260
30
0.0000000000
10
-97.3749726867
20
-427.3815007993
30
0.0000000000
10
-97.3250351171
20
-427.3956457025
30
0.0000000000
10
-97.2512404826
20
-427.4183383182
30
0.0000000000
10
-97.1992399975
20
-427.4349611136
30
0.0000000000
10
-97.1719382275
20
-427.4438738171
30
0.0000000000
11
-97.4088415138
21
-427.3720464999
31
0.0000000000
11
-97.3914326093
21
-427.3768837510
31
0.0000000000
11
-97.3287512434
21
-427.3948244038
31
0.0000000000
11
-97.2540037575
21
-427.4176315779
31
0.0000000000
11
-97.1719382275
21
-427.4438738171
31
0.0000000000
0
SPLINE
5
3E7
100
AcDbEntity
8
0
100
AcDbSpline
62
9
6
CONTINUOUS
70
0
71
3
72
9
73
5
74
3
42
0.0000001000
43
0.0000001000
44
0.0000000001
12
0.0385583277
22
-0.0148674323
32
0.0000000000
13
0.0415816152
23
0.0019562143
33
0.0000000000
40
0.0000000000
40
0.0000000000
40
0.0000000000
40
0.0000000000
40
0.9326375344
40
1.0000000000
40
1.0000000000
40
1.0000000000
40
1.0000000000
10
-97.4770802752
20
-427.3602233821
30
0.0000000000
10
-97.4650932939
20
-427.3648453572
30
0.0000000000
10
-97.4511256439
20
-427.3673165723
30
0.0000000000
10
-97.4372535742
20
-427.3668604751
30
0.0000000000
10
-97.4363198941
20
-427.3668165499
30
0.0000000000
11
-97.4770802752
21
-427.3602233821
31
0.0000000000
11
-97.4391229215
21
-427.3669086395
31
0.0000000000
11
-97.4363198941
21
-427.3668165499
31
0.0000000000
0
SPLINE
5
3E8
100
AcDbEntity
8
0
100
AcDbSpline
62
9
6
CONTINUOUS
70
0
71
3
72
11
73
7
74
5
42
0.0000001000
43
0.0000001000
44
0.0000000001
12
0.1364282044
22
-0.0140105337
32
0.0000000000
13
0.0395342535
23
0.1327328489
33
0.0000000000
40
0.0000000000
40
0.0000000000
40
0.0000000000
40
0.0000000000
40
0.3028818956
40
0.6052345461
40
0.9066924769
40
1.0000000000
40
1.0000000000
40
1.0000000000
40
1.0000000000
10
-95.9513577512
20
-427.6920507225
30
0.0000000000
10
-95.9375838735
20
-427.6934652348
30
0.0000000000
10
-95.9091239539
20
-427.6904926356
30
0.0000000000
10
-95.8721723106
20
-427.6692387784
30
0.0000000000
10
-95.8527767556
20
-427.6428037481
30
0.0000000000
10
-95.8464421091
20
-427.6256688928
30
0.0000000000
10
-95.8452124946
20
-427.6215405684
30
0.0000000000
11
-95.9513577512
21
-427.6920507225
31
0.0000000000
11
-95.9100492247
21
-427.6876814417
31
0.0000000000
11
-95.8740937330
21
-427.6670256252
31
0.0000000000
11
-95.8496963567
21
-427.6336479860
31
0.0000000000
11
-95.8452124946
21
-427.6215405684
31
0.0000000000
0
SPLINE
5
3E9
100
AcDbEntity
8
0
100
AcDbSpline
62
9
6
CONTINUOUS
70
0
71
3
72
8
73
4
74
2
42
0.0000001000
43
0.0000001000
44
0.0000000001
12
0.0033860998
22
0.0113685382
32
0.0000000000
13
0.0020145149
23
0.0116653788
33
0.0000000000
40
0.0000000000
40
0.0000000000
40
0.0000000000
40
0.0000000000
40
1.0000000000
40
1.0000000000
40
1.0000000000
40
1.0000000000
10
-95.8452124946
20
-427.6215405684
30
0.0000000000
10
-95.8440837947
20
-427.6177510557
30
0.0000000000
10
-95.8431806195
20
-427.6138955702
30
0.0000000000
10
-95.8425091146
20
-427.6100071106
30
0.0000000000
11
-95.8452124946
21
-427.6215405684
31
0.0000000000
11
-95.8425091146
21
-427.6100071106
31
0.0000000000
0
SPLINE
5
3EA
100
AcDbEntity
8
0
100
AcDbSpline
62
9
6
CONTINUOUS
70
0
71
3
72
8
73
4
74
2
42
0.0000001000
43
0.0000001000
44
0.0000000001
12
0.0006855855
22
0.0039699952
32
0.0000000000
13
0.0005238670
23
0.0039890075
33
0.0000000000
40
0.0000000000
40
0.0000000000
40
0.0000000000
40
0.0000000000
40
1.0000000000
40
1.0000000000
40
1.0000000000
40
1.0000000000
10
-95.8425091146
20
-427.6100071106
30
0.0000000000
10
-95.8422805861
20
-427.6086837789
30
0.0000000000
10
-95.8420788895
20
-427.6073566281
30
0.0000000000
10
-95.8419042672
20
-427.6060269589
30
0.0000000000
11
-95.8425091146
21
-427.6100071106
31
0.0000000000
11
-95.8419042672
21
-427.6060269589
31
0.0000000000
0
SPLINE
5
3EB
100
AcDbEntity
8
0
100
AcDbSpline
62
9
6
CONTINUOUS
70
0
71
3
72
8
73
4
74
2
42
0.0000001000
43
0.0000001000
44
0.0000000001
12
0.0016657154
22
0.0126836605
32
0.0000000000
13
0.0000000018
23
0.0127109900
33
0.0000000000
40
0.0000000000
40
0.0000000000
40
0.0000000000
40
0.0000000000
40
1.0000000000
40
1.0000000000
40
1.0000000000
40
1.0000000000
10
-95.8419042672
20
-427.6060269589
30
0.0000000000
10
-95.8413490288
20
-427.6017990721
30
0.0000000000
10
-95.8410675157
20
-427.5975457240
30
0.0000000000
10
-95.8410675151
20
-427.5933087273
30
0.0000000000
11
-95.8419042672
21
-427.6060269589
31
0.0000000000
11
-95.8410675151
21
-427.5933087273
31
0.0000000000
0
SPLINE
5
3EC
100
AcDbEntity
8
0
100
AcDbSpline
62
9
6
CONTINUOUS
70
0
71
3
72
10
73
6
74
4
42
0.0000001000
43
0.0000001000
44
0.0000000001
12
0.1210365973
22
-0.0119148569
32
0.0000000000
13
0.0533106822
23
0.1105467502
33
0.0000000000
40
0.0000000000
40
0.0000000000
40
0.0000000000
40
0.0000000000
40
0.3413955304
40
0.6788235121
40
1.0000000000
40
1.0000000000
40
1.0000000000
40
1.0000000000
10
-95.9513572740
20
-427.4438694237
30
0.0000000000
10
-95.9375834896
20
-427.4452253167
30
0.0000000000
10
-95.9093423650
20
-427.4424240647
30
0.0000000000
10
-95.8728058727
20
-427.4224611996
30
0.0000000000
10
-95.8558947536
20
-427.4008299654
30
0.0000000000
10
-95.8501873744
20
-427.3889949597
30
0.0000000000
11
-95.9513572740
21
-427.4438694237
31
0.0000000000
11
-95.9100472068
21
-427.4396886822
31
0.0000000000
11
-95.8740894232
21
-427.4199099121
31
0.0000000000
11
-95.8501873744
21
-427.3889949597
31
0.0000000000
0
SPLINE
5
3ED
100
AcDbEntity
8
0
100
AcDbSpline
62
9
6
CONTINUOUS
70
0
71
3
72
10
73
6
74
4
42
0.0000001000
43
0.0000001000
44
0.0000000001
12
-0.1210105791
22
-0.0119005592
32
0.0000000000
13
-0.0533247757
23
0.1105085263
33
0.0000000000
40
0.0000000000
40
0.0000000000
40
0.0000000000
40
0.0000000000
40
0.3414622253
40
0.6789559621
40
1.0000000000
40
1.0000000000
40
1.0000000000
40
1.0000000000
10
-94.7307772849
20
-427.4438737507
30
0.0000000000
10
-94.7445507988
20
-427.4452282812
30
0.0000000000
10
-94.7727907628
20
-427.4424247409
30
0.0000000000
10
-94.8093176948
20
-427.4224641109
30
0.0000000000
10
-94.8262245055
20
-427.4008418389
30
0.0000000000
10
-94.8319310393
20
-427.3890158044
30
0.0000000000
11
-94.7307772849
21
-427.4438737507
31
0.0000000000
11
-94.7720857965
21
-427.4396896369
31
0.0000000000
11
-94.8080412786
21
-427.4199092018
31
0.0000000000
11
-94.8319310393
21
-427.3890158044
31
0.0000000000
0
SPLINE
5
3EE
100
AcDbEntity
8
0
100
AcDbSpline
62
9
6
CONTINUOUS
70
0
71
3
72
11
73
7
74
5
42
0.0000001000
43
0.0000001000
44
0.0000000001
12
-0.1647257712
22
-0.0169074676
32
0.0000000000
13
-0.0000024998
23
0.1655911898
33
0.0000000000
40
0.0000000000
40
0.0000000000
40
0.0000000000
40
0.0000000000
40
0.2508328946
40
0.5012304873
40
0.7508912799
40
1.0000000000
40
1.0000000000
40
1.0000000000
40
1.0000000000
10
-94.7307772878
20
-427.6920506388
30
0.0000000000
10
-94.7445501685
20
-427.6934642885
30
0.0000000000
10
-94.7730078727
20
-427.6904903051
30
0.0000000000
10
-94.8099559515
20
-427.6692358783
30
0.0000000000
10
-94.8351215292
20
-427.6349340769
30
0.0000000000
10
-94.8410577677
20
-427.6070587968
30
0.0000000000
10
-94.8410579753
20
-427.5933087270
30
0.0000000000
11
-94.7307772878
21
-427.6920506388
31
0.0000000000
11
-94.7720823534
21
-427.6876794395
31
0.0000000000
11
-94.8080344439
21
-427.6670231998
31
0.0000000000
11
-94.8324295507
21
-427.6336464273
31
0.0000000000
11
-94.8410579753
21
-427.5933087270
31
0.0000000000
0
SPLINE
5
3EF
100
AcDbEntity
8
0
100
AcDbSpline
62
9
6
CONTINUOUS
70
0
71
3
72
9
73
5
74
3
42
0.0000001000
43
0.0000001000
44
0.0000000001
12
-0.0385822683
22
-0.0148726601
32
0.0000000000
13
-0.0416051680
23
0.0019714101
33
0.0000000000
40
0.0000000000
40
0.0000000000
40
0.0000000000
40
0.0000000000
40
0.9320597385
40
1.0000000000
40
1.0000000000
40
1.0000000000
40
1.0000000000
10
-93.2050516859
20
-427.3602313178
30
0.0000000000
10
-93.2170386789
20
-427.3648520536
30
0.0000000000
10
-93.2310146951
20
-427.3673235599
30
0.0000000000
10
-93.2448947909
20
-427.3668642997
30
0.0000000000
10
-93.2458370129
20
-427.3668196536
30
0.0000000000
11
-93.2050516859
21
-427.3602313178
31
0.0000000000
11
-93.2430083134
21
-427.3669131761
31
0.0000000000
11
-93.2458370129
21
-427.3668196536
31
0.0000000000
0
SPLINE
5
3F0
100
AcDbEntity
8
0
100
AcDbSpline
62
7
6
CONTINUOUS
70
0
71
3
72
8
73
4
74
2
42
0.0000001000
43
0.0000001000
44
0.0000000001
12
0.0000000000
22
0.5419593887
32
0.0000000000
13
0.3916126434
23
0.4158158328
33
0.0000000000
40
0.0000000000
40
0.0000000000
40
0.0000000000
40
0.0000000000
40
1.0000000000
40
1.0000000000
40
1.0000000000
40
1.0000000000
10
-502.8410675151
20
161.1979425555
30
0.0000000000
10
-502.8410675151
20
161.3785956851
30
0.0000000000
10
-502.7294223121
20
161.5439225360
30
0.0000000000
10
-502.5988847643
20
161.6825278136
30
0.0000000000
11
-502.8410675151
21
161.1979425555
31
0.0000000000
11
-502.5988847643
21
161.6825278136
31
0.0000000000
0
SPLINE
5
3F1
100
AcDbEntity
8
0
100
AcDbSpline
62
7
6
CONTINUOUS
70
0
71
3
72
10
73
6
74
4
42
0.0000001000
43
0.0000001000
44
0.0000000001
12
0.9310995631
22
0.9886451492
32
0.0000000000
13
1.1431628133
23
0.5943790646
33
0.0000000000
40
0.0000000000
40
0.0000000000
40
0.0000000000
40
0.0000000000
40
0.0276994203
40
0.7206241057
40
1.0000000000
40
1.0000000000
40
1.0000000000
40
1.0000000000
10
-502.5988847643
20
161.6825278136
30
0.0000000000
10
-502.5902877916
20
161.6916561127
30
0.0000000000
10
-502.3644984062
20
161.9261213924
30
0.0000000000
10
-501.9990964152
20
162.1395730712
30
0.0000000000
10
-501.6310273294
20
162.3350541021
30
0.0000000000
10
-501.5245699516
20
162.3904058297
30
0.0000000000
11
-502.5988847643
21
161.6825278136
31
0.0000000000
11
-502.5728745151
21
161.7095617570
31
0.0000000000
11
-501.8414896834
21
162.2217215174
31
0.0000000000
11
-501.5245699516
21
162.3904058297
31
0.0000000000
0
SPLINE
5
3F2
100
AcDbEntity
8
0
100
AcDbSpline
62
7
6
CONTINUOUS
70
0
71
3
72
8
73
4
74
2
42
0.0000001000
43
0.0000001000
44
0.0000000001
12
0.3345063704
22
0.1739241176
32
0.0000000000
13
0.3378700504
23
0.1691639944
33
0.0000000000
40
0.0000000000
40
0.0000000000
40
0.0000000000
40
0.0000000000
40
1.0000000000
40
1.0000000000
40
1.0000000000
40
1.0000000000
10
-501.5245699516
20
162.3904058297
30
0.0000000000
10
-501.4130678281
20
162.4483805356
30
0.0000000000
10
-501.3007996749
20
162.5054591997
30
0.0000000000
10
-501.1881763247
20
162.5618471979
30
0.0000000000
11
-501.5245699516
21
162.3904058297
31
0.0000000000
11
-501.1881763247
21
162.5618471979
31
0.0000000000
0
SPLINE
5
3F3
100
AcDbEntity
8
0
100
AcDbSpline
62
7
6
CONTINUOUS
70
0
71
3
72
8
73
4
74
2
42
0.0000001000
43
0.0000001000
44
0.0000000001
12
0.3464313939
22
0.1734504680
32
0.0000000000
13
0.3473433639
23
0.1697579609
33
0.0000000000
40
0.0000000000
40
0.0000000000
40
0.0000000000
40
0.0000000000
40
1.0000000000
40
1.0000000000
40
1.0000000000
40
1.0000000000
10
-501.1881763247
20
162.5618471979
30
0.0000000000
10
-501.0726991934
20
162.6196640205
30
0.0000000000
10
-500.9568486364
20
162.6767547319
30
0.0000000000
10
-500.8410675151
20
162.7333407189
30
0.0000000000
11
-501.1881763247
21
162.5618471979
31
0.0000000000
11
-500.8410675151
21
162.7333407189
31
0.0000000000
0
SPLINE
5
3F4
100
AcDbEntity
8
0
100
AcDbSpline
62
7
6
CONTINUOUS
70
0
71
3
72
8
73
4
74
2
42
0.0000001000
43
0.0000001000
44
0.0000000001
12
0.0000000000
22
-0.5419593887
32
0.0000000000
13
-0.3916126434
23
-0.4158158328
33
0.0000000000
40
0.0000000000
40
0.0000000000
40
0.0000000000
40
0.0000000000
40
1.0000000000
40
1.0000000000
40
1.0000000000
40
1.0000000000
10
97.1589324849
20
-381.7312611177
30
0.0000000000
10
97.1589324849
20
-381.9119142473
30
0.0000000000
10
97.0472872819
20
-382.0772410981
30
0.0000000000
10
96.9167497341
20
-382.2158463757
30
0.0000000000
11
97.1589324849
21
-381.7312611177
31
0.0000000000
11
96.9167497341
21
-382.2158463757
31
0.0000000000
0
SPLINE
5
3F5
100
AcDbEntity
8
0
100
AcDbSpline
62
7
6
CONTINUOUS
70
0
71
3
72
10
73
6
74
4
42
0.0000001000
43
0.0000001000
44
0.0000000001
12
-0.9310995631
22
-0.9886451492
32
0.0000000000
13
-1.1431628133
23
-0.5943790646
33
0.0000000000
40
0.0000000000
40
0.0000000000
40
0.0000000000
40
0.0000000000
40
0.0276994203
40
0.7206241057
40
1.0000000000
40
1.0000000000
40
1.0000000000
40
1.0000000000
10
96.9167497341
20
-382.2158463757
30
0.0000000000
10
96.9081527614
20
-382.2249746749
30
0.0000000000
10
96.6823633760
20
-382.4594399545
30
0.0000000000
10
96.3169613850
20
-382.6728916334
30
0.0000000000
10
95.9488922991
20
-382.8683726643
30
0.0000000000
10
95.8424349213
20
-382.9237243919
30
0.0000000000
11
96.9167497341
21
-382.2158463757
31
0.0000000000
11
96.8907394848
21
-382.2428803192
31
0.0000000000
11
96.1593546532
21
-382.7550400796
31
0.0000000000
11
95.8424349213
21
-382.9237243919
31
0.0000000000
0
SPLINE
5
3F6
100
AcDbEntity
8
0
100
AcDbSpline
62
7
6
CONTINUOUS
70
0
71
3
72
8
73
4
74
2
42
0.0000001000
43
0.0000001000
44
0.0000000001
12
-0.3345063704
22
-0.1739241176
32
0.0000000000
13
-0.3378700504
23
-0.1691639944
33
0.0000000000
40
0.0000000000
40
0.0000000000
40
0.0000000000
40
0.0000000000
40
1.0000000000
40
1.0000000000
40
1.0000000000
40
1.0000000000
10
95.8424349213
20
-382.9237243919
30
0.0000000000
10
95.7309327978
20
-382.9816990977
30
0.0000000000
10
95.6186646446
20
-383.0387777619
30
0.0000000000
10
95.5060412945
20
-383.0951657600
30
0.0000000000
11
95.8424349213
21
-382.9237243919
31
0.0000000000
11
95.5060412945
21
-383.0951657600
31
0.0000000000
0
SPLINE
5
3F7
100
AcDbEntity
8
0
100
AcDbSpline
62
7
6
CONTINUOUS
70
0
71
3
72
8
73
4
74
2
42
0.0000001000
43
0.0000001000
44
0.0000000001
12
-0.3464313939
22
-0.1734504680
32
0.0000000000
13
-0.3473433639
23
-0.1697579609
33
0.0000000000
40
0.0000000000
40
0.0000000000
40
0.0000000000
40
0.0000000000
40
1.0000000000
40
1.0000000000
40
1.0000000000
40
1.0000000000
10
95.5060412945
20
-383.0951657600
30
0.0000000000
10
95.3905641632
20
-383.1529825827
30
0.0000000000
10
95.2747136062
20
-383.2100732941
30
0.0000000000
10
95.1589324849
20
-383.2666592811
30
0.0000000000
11
95.5060412945
21
-383.0951657600
31
0.0000000000
11
95.1589324849
21
-383.2666592811
31
0.0000000000
0
SPLINE
5
3F8
100
AcDbEntity
8
0
100
AcDbSpline
62
7
6
CONTINUOUS
70
0
71
3
72
9
73
5
74
3
42
0.0000001000
43
0.0000001000
44
0.0000000001
12
-1.3107482797
22
0.6406051717
32
0.0000000000
13
-1.2295645273
23
0.7648361892
33
0.0000000000
40
0.0000000000
40
0.0000000000
40
0.0000000000
40
0.0000000000
40
0.7701979721
40
1.0000000000
40
1.0000000000
40
1.0000000000
40
1.0000000000
10
-500.8410675151
20
-383.2666592811
30
0.0000000000
10
-501.1775794041
20
-383.1021950130
30
0.0000000000
10
-501.6152570604
20
-382.8831241954
30
0.0000000000
10
-502.0355939850
20
-382.6477029832
30
0.0000000000
10
-502.1297794589
20
-382.5891160141
30
0.0000000000
11
-500.8410675151
21
-383.2666592811
31
0.0000000000
11
-501.8414896834
21
-382.7550400796
31
0.0000000000
11
-502.1297794589
21
-382.5891160141
31
0.0000000000
0
SPLINE
5
3F9
100
AcDbEntity
8
0
100
AcDbSpline
62
7
6
CONTINUOUS
70
0
71
3
72
8
73
4
74
2
42
0.0000001000
43
0.0000001000
44
0.0000000001
12
-0.4699552132
22
0.2923301269
32
0.0000000000
13
-0.4093653156
23
0.4168118971
33
0.0000000000
40
0.0000000000
40
0.0000000000
40
0.0000000000
40
0.0000000000
40
1.0000000000
40
1.0000000000
40
1.0000000000
40
1.0000000000
10
-502.1297794589
20
-382.5891160141
30
0.0000000000
10
-502.2864311966
20
-382.4916726385
30
0.0000000000
10
-502.4364194099
20
-382.3818176182
30
0.0000000000
10
-502.5728745151
20
-382.2428803192
30
0.0000000000
11
-502.1297794589
21
-382.5891160141
31
0.0000000000
11
-502.5728745151
21
-382.2428803192
31
0.0000000000
0
SPLINE
5
3FA
100
AcDbEntity
8
0
100
AcDbSpline
62
7
6
CONTINUOUS
70
0
71
3
72
8
73
4
74
2
42
0.0000001000
43
0.0000001000
44
0.0000000001
12
-0.4240741352
22
0.4317882783
32
0.0000000000
13
0.0000000000
23
0.5776518784
33
0.0000000000
40
0.0000000000
40
0.0000000000
40
0.0000000000
40
0.0000000000
40
1.0000000000
40
1.0000000000
40
1.0000000000
40
1.0000000000
10
-502.5728745151
20
-382.2428803192
30
0.0000000000
10
-502.7142325602
20
-382.0989508931
30
0.0000000000
10
-502.8410675151
20
-381.9238117438
30
0.0000000000
10
-502.8410675151
20
-381.7312611177
30
0.0000000000
11
-502.5728745151
21
-382.2428803192
31
0.0000000000
11
-502.8410675151
21
-381.7312611177
31
0.0000000000
0
SPLINE
5
3FB
100
AcDbEntity
8
0
100
AcDbSpline
62
7
6
CONTINUOUS
70
0
71
3
72
9
73
5
74
3
42
0.0000001000
43
0.0000001000
44
0.0000000001
12
1.3107482797
22
-0.6406051717
32
0.0000000000
13
1.2295645273
23
-0.7648361892
33
0.0000000000
40
0.0000000000
40
0.0000000000
40
0.0000000000
40
0.0000000000
40
0.7701979721
40
1.0000000000
40
1.0000000000
40
1.0000000000
40
1.0000000000
10
95.1589324849
20
162.7333407189
30
0.0000000000
10
95.4954443739
20
162.5688764509
30
0.0000000000
10
95.9331220301
20
162.3498056332
30
0.0000000000
10
96.3534589547
20
162.1143844210
30
0.0000000000
10
96.4476444286
20
162.0557974519
30
0.0000000000
11
95.1589324849
21
162.7333407189
31
0.0000000000
11
96.1593546532
21
162.2217215174
31
0.0000000000
11
96.4476444286
21
162.0557974519
31
0.0000000000
0
SPLINE
5
3FC
100
AcDbEntity
8
0
100
AcDbSpline
62
7
6
CONTINUOUS
70
0
71
3
72
8
73
4
74
2
42
0.0000001000
43
0.0000001000
44
0.0000000001
12
0.4699552132
22
-0.2923301269
32
0.0000000000
13
0.4093653156
23
-0.4168118971
33
0.0000000000
40
0.0000000000
40
0.0000000000
40
0.0000000000
40
0.0000000000
40
1.0000000000
40
1.0000000000
40
1.0000000000
40
1.0000000000
10
96.4476444286
20
162.0557974519
30
0.0000000000
10
96.6042961664
20
161.9583540763
30
0.0000000000
10
96.7542843796
20
161.8484990560
30
0.0000000000
10
96.8907394848
20
161.7095617570
30
0.0000000000
11
96.4476444286
21
162.0557974519
31
0.0000000000
11
96.8907394848
21
161.7095617570
31
0.0000000000
0
SPLINE
5
3FD
100
AcDbEntity
8
0
100
AcDbSpline
62
7
6
CONTINUOUS
70
0
71
3
72
8
73
4
74
2
42
0.0000001000
43
0.0000001000
44
0.0000000001
12
0.4240741352
22
-0.4317882783
32
0.0000000000
13
-0.0000000000
23
-0.5776518784
33
0.0000000000
40
0.0000000000
40
0.0000000000
40
0.0000000000
40
0.0000000000
40
1.0000000000
40
1.0000000000
40
1.0000000000
40
1.0000000000
10
96.8907394848
20
161.7095617570
30
0.0000000000
10
97.0320975299
20
161.5656323309
30
0.0000000000
10
97.1589324849
20
161.3904931817
30
0.0000000000
10
97.1589324849
20
161.1979425555
30
0.0000000000
11
96.8907394848
21
161.7095617570
31
0.0000000000
11
97.1589324849
21
161.1979425555
31
0.0000000000
0
ENDSEC
0
SECTION
2
OBJECTS
0
DICTIONARY
5
3FE
100
AcDbDictionary
3
ACAD_GROUP
350
3FF
3
ACAD_MLINESTYLE
350
400
0
DICTIONARY
5
3FF
102
{ACAD_REACTORS
330
3FE
102
}
100
AcDbDictionary
0
DICTIONARY
5
400
102
{ACAD_REACTORS
330
3FE
102
}
100
AcDbDictionary
3
STANDARD
350
401
0
MLINESTYLE
5
401
102
{ACAD_REACTORS
330
400
102
}
100
AcDbMlineStyle
2
STANDARD
70
0
3

62
256
51
90.0
52
90.0
71
2
49
0.5
62
256
6
BYLAYER
49
-0.5
62
256
6
BYLAYER
0
ENDSEC
0
EOF
