  0
SECTION
  2
HEADER
  9
$ACADVER
  1
AC1024
  9
$DWGCODEPAGE
  3
ANSI_1252
  9
$EXTMAX
 10
297.0
 20
210.0
 30
0.0
  9
$EXTMIN
 10
0.0
 20
0.0
 30
0.0
  9
$LIMMIN
 10
0.0
 20
0.0
  9
$LIMMAX
 10
297.0
 20
210.0
  9
$VIEWCTR
 10
148.5
 20
105.0
  9
$VIEWSIZE
 40
210.0
  9
$CLAYER
  8
0
  9
$LTSCALE
 40
16.335
  9
$CELTYPE
  6
BYLAYER
  9
$DIMSCALE
 40
1.0
  9
$DIMASZ
 40
3.0
  9
$DIMEXO
 40
0.5
  9
$DIMDLI
 40
11.286
  9
$DIMEXE
 40
1.5
  9
$DIMCEN
 40
2.673
  9
$DIMLFAC
 40
1.0
  9
$DIMBLK
  1
_FILLED
  9
$DIMALT
 70
0
  9
$DIMALTF
 40
0.0393700787
  9
$DIMTXT
 40
3.0
  9
$DIMTOL
 70
1
  9
$DIMLIM
 70
0
  9
$DIMTFAC
 40
1.0
  9
$DIMTP
 40
0.01
  9
$DIMTM
 40
0.01
  9
$DIMGAP
 40
0.625
  9
$DIMDSEP
 70
44
  9
$AUNITS
 70
0
  9
$PDMODE
 70
3
  9
$PDSIZE
 40
3.0
  9
$HANDSEED
  5
A14
  9
$TILEMODE
 70
1
  9
$MEASUREMENT
 70
1
  9
$INSUNITS
 70
4
  0
ENDSEC
  0
SECTION
  2
CLASSES
  0
CLASS
  1
ACDBDICTIONARYWDFLT
  2
AcDbDictionaryWithDefault
  3
AutoCAD 2000
 90
0
 91
1
280
0
281
0
  0
CLASS
  1
ACDBPLACEHOLDER
  2
AcDbPlaceHolder
  3
AutoCAD 2000
 90
0
 91
1
280
0
281
0
  0
CLASS
  1
LAYOUT
  2
AcDbLayout
  3
AutoCAD 2000
 90
0
 91
0
280
0
281
0
  0
ENDSEC
  0
SECTION
  2
TABLES
  0
TABLE
  2
VPORT
  5
8
100
AcDbSymbolTable
 70
2
  0
VPORT
  5
1F4
100
AcDbSymbolTableRecord
100
AcDbViewportTableRecord
  2
*ACTIVE
 70
0
 10
0.0
 20
0.0
 11
1.0
 21
1.0
 12
148.5
 22
105.0
 13
0.0
 23
0.0
 14
1.0
 24
1.0
 15
0.0
 25
0.0
 16
0.0
 26
0.0
 36
1.0
 17
0.0
 27
0.0
 37
0.0
 40
210.0
 41
1.4142857143
 42
50.0
 43
0.0
 44
0.0
 50
0.0
 51
0.0
 71
0
 72
100
 73
1
 74
1
 75
0
 76
0
 77
0
 78
0
  0
ENDTAB
  0
TABLE
  2
LTYPE
  5
5
100
AcDbSymbolTable
 70
6
  0
LTYPE
  5
14
100
AcDbSymbolTableRecord
100
AcDbLinetypeTableRecord
  2
BYBLOCK
 70
0
  3

 72
65
 73
0
 40
0.0
  0
LTYPE
  5
15
100
AcDbSymbolTableRecord
100
AcDbLinetypeTableRecord
  2
BYLAYER
 70
0
  3

 72
65
 73
0
 40
0.0
  0
LTYPE
  5
16
100
AcDbSymbolTableRecord
100
AcDbLinetypeTableRecord
  2
CONTINUOUS
 70
64
  3
Solid line
 72
65
 73
0
 40
0.0
  0
LTYPE
  5
1F5
100
AcDbSymbolTableRecord
100
AcDbLinetypeTableRecord
  2
CENTER
 70
64
  3
____ _ ____ _ ____ _ ____ _ ____ _ ____ _ ____
 72
65
 73
4
 40
0.6
 49
0.375
 74
0
 49
-0.075
 74
0
 49
0.075
 74
0
 49
-0.075
 74
0
  0
LTYPE
  5
1F6
100
AcDbSymbolTableRecord
100
AcDbLinetypeTableRecord
  2
HIDDEN
 70
64
  3
- - - - - - - - - - - - - - - - - - - -
 72
65
 73
2
 40
0.2
 49
0.1
 74
0
 49
-0.1
 74
0
  0
LTYPE
  5
1F7
100
AcDbSymbolTableRecord
100
AcDbLinetypeTableRecord
  2
PHANTOM
 70
64
  3
_____ _ _ _____ _ _ _____ _ _ _____
 72
65
 73
6
 40
0.8
 49
0.45
 74
0
 49
-0.05
 74
0
 49
0.1
 74
0
 49
-0.05
 74
0
 49
0.1
 74
0
 49
-0.05
 74
0
  0
LTYPE
  5
1F8
100
AcDbSymbolTableRecord
100
AcDbLinetypeTableRecord
  2
DOT
 70
64
  3
. . . . . . . . . . . . . . . . . . . .
 72
65
 73
2
 40
0.2
 49
0.1
 74
0
 49
-0.1
 74
0
  0
LTYPE
  5
1F9
100
AcDbSymbolTableRecord
100
AcDbLinetypeTableRecord
  2
DASHED
 70
64
  3
- - - - - - - - - - - - - - - - - - - -
 72
65
 73
2
 40
0.2
 49
0.1
 74
0
 49
-0.1
 74
0
  0
ENDTAB
  0
TABLE
  2
LAYER
  5
2
100
AcDbSymbolTable
 70
36
  0
LAYER
  5
10
100
AcDbSymbolTableRecord
100
AcDbLayerTableRecord
  2
0
 70
0
 62
7
  6
CONTINUOUS
370
-3
390
F
  0
LAYER
  5
1FA
100
AcDbSymbolTableRecord
100
AcDbLayerTableRecord
  2
DEFAULT_1
 70
0
 62
7
  6
CENTER
370
-3
390
F
  0
LAYER
  5
1FB
100
AcDbSymbolTableRecord
100
AcDbLayerTableRecord
  2
DEFAULT_2
 70
0
 62
7
  6
HIDDEN
370
-3
390
F
  0
LAYER
  5
1FC
100
AcDbSymbolTableRecord
100
AcDbLayerTableRecord
  2
DEFAULT_3
 70
0
 62
7
  6
PHANTOM
370
-3
390
F
  0
LAYER
  5
1FD
100
AcDbSymbolTableRecord
100
AcDbLayerTableRecord
  2
Livello_1
 70
0
 62
7
  6
CONTINUOUS
370
-3
390
F
  0
LAYER
  5
1FE
100
AcDbSymbolTableRecord
100
AcDbLayerTableRecord
  2
SNAPLINE
 70
0
 62
7
  6
CONTINUOUS
370
-3
390
F
  0
ENDTAB
  0
TABLE
  2
STYLE
  5
3
100
AcDbSymbolTable
 70
1
  0
STYLE
  5
11
100
AcDbSymbolTableRecord
100
AcDbTextStyleTableRecord
  2
STANDARD
 70
0
 40
0.0
 41
0.8
 50
0.0
 71
0
 42
0.2
  3
txt
  4

  0
STYLE
  5
1FF
100
AcDbSymbolTableRecord
100
AcDbTextStyleTableRecord
  2
TEXTSTYLE_1
 70
0
 40
0.0
 41
0.8
 50
0.0
 71
0
 42
0.2
  3
gdt
  4

  0
ENDTAB
  0
TABLE
  2
VIEW
  5
6
100
AcDbSymbolTable
 70
0
  0
ENDTAB
  0
TABLE
  2
UCS
  5
7
100
AcDbSymbolTable
 70
0
  0
ENDTAB
  0
TABLE
  2
APPID
  5
9
100
AcDbSymbolTable
 70
1
  0
APPID
  5
200
100
AcDbSymbolTableRecord
100
AcDbRegAppTableRecord
  2
ACAD
 70
0
  0
ENDTAB
  0
TABLE
  2
BLOCK_RECORD
  5
1
100
AcDbSymbolTable
 70
0
  0
BLOCK_RECORD
  5
201
100
AcDbSymbolTableRecord
100
AcDbBlockTableRecord
  2
*Model_Space
  0
BLOCK_RECORD
  5
202
100
AcDbSymbolTableRecord
100
AcDbBlockTableRecord
  2
*Paper_Space
  0
BLOCK_RECORD
  5
203
100
AcDbSymbolTableRecord
100
AcDbBlockTableRecord
  2
_FILLED
  0
BLOCK_RECORD
  5
204
100
AcDbSymbolTableRecord
100
AcDbBlockTableRecord
  2
*D0
  0
ENDTAB
  0
TABLE
  2
DIMSTYLE
  5
A
100
AcDbSymbolTable
 70
1
100
AcDbDimStyleTable
 71
0
  0
DIMSTYLE
105
205
100
AcDbSymbolTableRecord
100
AcDbDimStyleTableRecord
  2
STANDARD
 70
0
  3

  4

 40
1.0
 41
3.0
 42
0.5
 43
0.38
 44
1.5
 45
0.0
 46
0.0
 47
0.01
 48
0.01
140
3.0
141
0.09
142
0.0
143
25.4
144
1.0
145
0.0
146
1.0
147
0.625
 71
1
 72
0
 73
0
 74
0
 75
0
 76
0
 77
1
 78
8
 79
2
170
0
171
1
172
0
173
0
174
0
175
0
176
0
177
0
178
0
270
2
179
2
271
2
272
2
273
2
274
2
275
0
280
0
281
0
282
0
283
1
284
8
285
0
286
0
287
3
288
0
340
11
278
44
341
203
342
203
343
203
344
203
  0
DIMSTYLE
105
206
100
AcDbSymbolTableRecord
100
AcDbDimStyleTableRecord
  2
DIMSTYLE_1
 70
0
  3

  4

 40
1.0
 41
3.0
 42
0.5
 43
0.38
 44
1.5
 45
0.0
 46
0.0
 47
0.0
 48
0.0
140
3.0
141
0.09
142
0.0
143
25.4
144
1.0
145
0.0
146
1.0
147
0.75
 71
0
 72
0
 73
0
 74
0
 75
0
 76
0
 77
1
 78
8
 79
2
170
0
171
1
172
0
173
0
174
0
175
0
176
0
177
0
178
0
270
2
179
2
271
1
272
1
273
2
274
2
275
0
280
0
281
0
282
0
283
1
284
8
285
0
286
0
287
3
288
0
340
11
278
44
341
203
342
203
343
203
344
203
  0
ENDTAB
  0
ENDSEC
  0
SECTION
  2
BLOCKS
  0
BLOCK
  5
20
100
AcDbEntity
  8
0
100
AcDbBlockBegin
  2
*Model_Space
 70
0
 10
0.0
 20
0.0
 30
0.0
  3
*Model_Space
  1

  0
ENDBLK
  5
21
100
AcDbEntity
  8
0
100
AcDbBlockEnd
  0
BLOCK
  5
1C
100
AcDbEntity
  8
0
100
AcDbBlockBegin
  2
*Paper_Space
 70
0
 10
0.0
 20
0.0
 30
0.0
  3
*Paper_Space
  1

  0
ENDBLK
  5
1D
100
AcDbEntity
  8
0
100
AcDbBlockEnd
  0
BLOCK
  5
207
100
AcDbEntity
  8
0
100
AcDbBlockBegin
  2
_FILLED
 70
64
 10
0.0
 20
0.0
  3
_FILLED
  1

  0
SOLID
  5
208
100
AcDbEntity
  8
0
  6
BYBLOCK
 62
0
100
AcDbTrace
 10
0.0
 20
0.0
 11
-1.0
 21
0.3166666667
 12
-1.0
 22
-0.3166666667
 13
-1.0
 23
-0.3166666667
  0
ENDBLK
  5
209
100
AcDbEntity
  8
0
  6
BYBLOCK
 62
0
100
AcDbBlockEnd
  0
BLOCK
  5
20A
100
AcDbEntity
  8
0
100
AcDbBlockBegin
 62
7
  6
CONTINUOUS
  2
*D0
 70
65
 10
0.0
 20
0.0
  3
*D0
  1

  0
MTEXT
  5
20B
100
AcDbEntity
  8
0
100
AcDbMText
 62
7
  6
CONTINUOUS
  7
STANDARD
 71
2
 72
1
 10
61.8595938758
 20
3.0412746012
 30
0.0
 11
0.0
 21
1.0
 31
0.0
 73
2
 44
0.9
  1
{\ftxt;\W0.0001;\H0.0001;\~}{\ftxt;\W2.8571428571;\H3.0; }{\ftxt;\W0.0001;\H0.0001;\~}
 40
3.0
 41
12.8571428571
  0
LINE
  5
20C
100
AcDbEntity
  8
0
100
AcDbLine
 62
7
  6
CONTINUOUS
 10
65.6095938758
 20
45.2887669438
 11
65.6095938758
 21
3.0412746012
  0
LINE
  5
20D
100
AcDbEntity
  8
0
100
AcDbLine
 62
7
  6
CONTINUOUS
 10
65.6095938758
 20
-39.2062177415
 11
65.6095938758
 21
3.0412746012
  0
INSERT
  5
20E
100
AcDbEntity
  8
0
100
AcDbBlockReference
 62
7
  6
CONTINUOUS
  2
_FILLED
 10
65.6095938758
 20
45.2887669438
 41
3.0
 42
3.0
 43
3.0
 50
90.0
  0
INSERT
  5
20F
100
AcDbEntity
  8
0
100
AcDbBlockReference
 62
7
  6
CONTINUOUS
  2
_FILLED
 10
65.6095938758
 20
-39.2062177415
 41
3.0
 42
3.0
 43
3.0
 50
270.0
  0
ENDBLK
  5
210
100
AcDbEntity
  8
0
  6
BYBLOCK
 62
0
100
AcDbBlockEnd
  0
ENDSEC
  0
SECTION
  2
ENTITIES
  0
DIMENSION
  5
211
100
AcDbEntity
  8
0
100
AcDbDimension
 62
7
  6
CONTINUOUS
  2
*D0
 10
65.6095938758
 20
-39.2062177415
 11
65.6095938758
 21
2.6127031721
 70
160
 71
2
 72
2
 41
0.9
 42
84.4949846853
  1
{\ftxt;\W0.0001;\H0.0001;\~}{\ftxt;\W2.8571428571;\H3.0; }{\ftxt;\W0.0001;\H0.0001;\~}
  3
DIMSTYLE_1
100
AcDbAlignedDimension
 13
68.2514514175
 23
45.2887669438
 14
68.912648647
 24
-39.2062177415
 50
270.0
100
AcDbRotatedDimension
  0
LINE
  5
212
100
AcDbEntity
  8
0
100
AcDbLine
 62
7
  6
CONTINUOUS
 10
-32.6255600221
 20
-62.7677631469
 11
-32.6028982287
 21
-62.9831212864
  0
LINE
  5
213
100
AcDbEntity
  8
0
100
AcDbLine
 62
7
  6
CONTINUOUS
 10
-6.11364971
 20
44.5856870972
 11
-6.1350231122
 21
44.8188177641
  0
LINE
  5
214
100
AcDbEntity
  8
0
100
AcDbLine
 62
7
  6
CONTINUOUS
 10
-11.0468572273
 20
-39.7035446798
 11
-11.060659699
 21
-39.5513222831
  0
LINE
  5
215
100
AcDbEntity
  8
0
100
AcDbLine
 62
7
  6
CONTINUOUS
 10
-14.7220436584
 20
-57.1110224418
 11
-14.6506040042
 21
-57.9605457743
  0
LINE
  5
216
100
AcDbEntity
  8
0
100
AcDbLine
 62
7
  6
CONTINUOUS
 10
-16.5786116603
 20
3.7517955066
 11
-16.5160529258
 21
2.8936307329
  0
LINE
  5
217
100
AcDbEntity
  8
0
100
AcDbLine
 62
7
  6
CONTINUOUS
 10
-9.4148144543
 20
-6.3451770002
 11
-9.4353569862
 21
-6.0578568863
  0
LINE
  5
218
100
AcDbEntity
  8
0
100
AcDbLine
 62
7
  6
CONTINUOUS
 10
-29.3729981537
 20
-62.5104061234
 11
-29.3792566227
 21
-62.4219615932
  0
LINE
  5
219
100
AcDbEntity
  8
0
100
AcDbLine
 62
7
  6
CONTINUOUS
 10
-25.6651588364
 20
-62.1554733479
 11
-25.6589003683
 21
-62.2439179281
  0
LINE
  5
21A
100
AcDbEntity
  8
0
100
AcDbLine
 62
7
  6
CONTINUOUS
 10
-29.3729981537
 20
91.8041185393
 11
-29.3792566227
 21
91.8925630695
  0
LINE
  5
21B
100
AcDbEntity
  8
0
100
AcDbLine
 62
7
  6
CONTINUOUS
 10
-25.6651588364
 20
92.1590513148
 11
-25.6589003683
 21
92.0706067346
  0
LINE
  5
21C
100
AcDbEntity
  8
0
100
AcDbLine
 62
7
  6
CONTINUOUS
 10
-2.3069249161
 20
0.263426436
 11
-2.3153843257
 21
0.3829372662
  0
LINE
  5
21D
100
AcDbEntity
  8
0
100
AcDbLine
 62
7
  6
CONTINUOUS
 10
-1.8642089803
 20
45.0913302258
 11
-1.8711733738
 21
45.1897266282
  0
LINE
  5
21E
100
AcDbEntity
  8
0
100
AcDbLine
 62
7
  6
CONTINUOUS
 10
-32.6391902907
 20
-62.5509701984
 11
-32.6255600221
 21
-62.7677631469
  0
LINE
  5
21F
100
AcDbEntity
  8
0
100
AcDbLine
 62
7
  6
CONTINUOUS
 10
-6.1350231122
 20
44.8188177641
 11
-6.1478736697
 21
45.0532301516
  0
LINE
  5
220
100
AcDbEntity
  8
0
100
AcDbLine
 62
7
  6
CONTINUOUS
 10
-11.060659699
 20
-39.5513222831
 11
-11.0689584395
 21
-39.3982617541
  0
LINE
  5
221
100
AcDbEntity
  8
0
100
AcDbLine
 62
7
  6
CONTINUOUS
 10
-36.8441226544
 20
-62.4076511152
 11
-36.767083569
 21
-64.123487617
  0
LINE
  5
222
100
AcDbEntity
  8
0
100
AcDbLine
 62
7
  6
CONTINUOUS
 10
-38.327676664
 20
-62.4076511152
 11
-38.2490787158
 21
-64.2077930703
  0
LINE
  5
223
100
AcDbEntity
  8
0
100
AcDbLine
 62
7
  6
CONTINUOUS
 10
-44.3677337847
 20
-62.4076511152
 11
-44.2841123084
 21
-64.5231121108
  0
LINE
  5
224
100
AcDbEntity
  8
0
100
AcDbLine
 62
7
  6
CONTINUOUS
 10
-41.4644056156
 20
-64.2822579157
 11
-41.5379523483
 21
-62.4076511152
  0
LINE
  5
225
100
AcDbEntity
  8
0
100
AcDbLine
 62
7
  6
CONTINUOUS
 10
-46.2924405455
 20
-62.4076511152
 11
-46.2050845151
 21
-64.6475014143
  0
LINE
  5
226
100
AcDbEntity
  8
0
100
AcDbLine
 62
7
  6
CONTINUOUS
 10
-6.5391034528
 20
-39.2958411922
 11
-6.5447390888
 21
-39.1507178782
  0
LINE
  5
227
100
AcDbEntity
  8
0
100
AcDbLine
 62
7
  6
CONTINUOUS
 10
-14.7459275124
 20
-56.2546373884
 11
-14.7220436584
 21
-57.1110224418
  0
LINE
  5
228
100
AcDbEntity
  8
0
100
AcDbLine
 62
7
  6
CONTINUOUS
 10
-29.3792566227
 20
-62.4219615932
 11
-29.381347911
 21
-62.3329397606
  0
LINE
  5
229
100
AcDbEntity
  8
0
100
AcDbLine
 62
7
  6
CONTINUOUS
 10
-29.3792566227
 20
91.8925630695
 11
-29.381347911
 21
91.9815849021
  0
LINE
  5
22A
100
AcDbEntity
  8
0
100
AcDbLine
 62
7
  6
CONTINUOUS
 10
-25.6589003683
 20
-62.2439179281
 11
-25.6568090805
 21
-62.3329397606
  0
LINE
  5
22B
100
AcDbEntity
  8
0
100
AcDbLine
 62
7
  6
CONTINUOUS
 10
-25.6589003683
 20
92.0706067346
 11
-25.6568090805
 21
91.9815849021
  0
LINE
  5
22C
100
AcDbEntity
  8
0
100
AcDbLine
 62
7
  6
CONTINUOUS
 10
-32.6437436587
 20
-62.3329397606
 11
-32.6391902907
 21
-62.5509701984
  0
LINE
  5
22D
100
AcDbEntity
  8
0
100
AcDbLine
 62
7
  6
CONTINUOUS
 10
-6.1478736697
 20
45.0532301516
 11
-6.1521651926
 21
45.2887669438
  0
LINE
  5
22E
100
AcDbEntity
  8
0
100
AcDbLine
 62
7
  6
CONTINUOUS
 10
-11.0689584395
 20
-39.3982617541
 11
-11.0717299028
 21
-39.2444628397
  0
LINE
  5
22F
100
AcDbEntity
  8
0
100
AcDbLine
 62
7
  6
CONTINUOUS
 10
-46.2924405455
 20
109.7717815725
 11
-46.2924405455
 21
-62.4076511152
  0
LINE
  5
230
100
AcDbEntity
  8
0
100
AcDbLine
 62
7
  6
CONTINUOUS
 10
-44.3677337847
 20
103.1011248865
 11
-44.3677337847
 21
-62.4076511152
  0
LINE
  5
231
100
AcDbEntity
  8
0
100
AcDbLine
 62
7
  6
CONTINUOUS
 10
-41.5379523483
 20
-62.4076511152
 11
-41.5379523483
 21
97.0975338694
  0
LINE
  5
232
100
AcDbEntity
  8
0
100
AcDbLine
 62
7
  6
CONTINUOUS
 10
-38.327676664
 20
96.3401030384
 11
-38.327676664
 21
-62.4076511152
  0
LINE
  5
233
100
AcDbEntity
  8
0
100
AcDbLine
 62
7
  6
CONTINUOUS
 10
-36.8441226544
 20
95.8710224602
 11
-36.8441226544
 21
-62.4076511152
  0
LINE
  5
234
100
AcDbEntity
  8
0
100
AcDbLine
 62
7
  6
CONTINUOUS
 10
-32.7269934521
 20
-67.4453310447
 11
-32.7269934521
 21
96.2081129782
  0
LINE
  5
235
100
AcDbEntity
  8
0
100
AcDbLine
 62
7
  6
CONTINUOUS
 10
-26.4819977913
 20
18.0120070455
 11
-26.4819977913
 21
-12.2283032629
  0
LINE
  5
236
100
AcDbEntity
  8
0
100
AcDbLine
 62
7
  6
CONTINUOUS
 10
-24.0378691814
 20
-78.7107360554
 11
-24.0378691814
 21
-79.9701560377
  0
LINE
  5
237
100
AcDbEntity
  8
0
100
AcDbLine
 62
7
  6
CONTINUOUS
 10
-23.0529405443
 20
99.4045137776
 11
-23.0529405443
 21
100.8654765338
  0
LINE
  5
238
100
AcDbEntity
  8
0
100
AcDbLine
 62
7
  6
CONTINUOUS
 10
-22.3945912172
 20
37.283978921
 11
-22.3945912172
 21
8.7965393052
  0
LINE
  5
239
100
AcDbEntity
  8
0
100
AcDbLine
 62
7
  6
CONTINUOUS
 10
-22.3945912172
 20
-2.9484414499
 11
-22.3945912172
 21
-62.3329397606
  0
LINE
  5
23A
100
AcDbEntity
  8
0
100
AcDbLine
 62
7
  6
CONTINUOUS
 10
-21.5919617301
 20
100.8654765338
 11
-21.5919617301
 21
99.4045137776
  0
LINE
  5
23B
100
AcDbEntity
  8
0
100
AcDbLine
 62
7
  6
CONTINUOUS
 10
-16.1060136718
 20
46.8452535039
 11
-16.1061292417
 21
39.477090467
  0
LINE
  5
23C
100
AcDbEntity
  8
0
100
AcDbLine
 62
7
  6
CONTINUOUS
 10
-9.8800674318
 20
90.4268771839
 11
-9.8800674318
 21
48.6240952868
  0
LINE
  5
23D
100
AcDbEntity
  8
0
100
AcDbLine
 62
7
  6
CONTINUOUS
 10
-9.4353569862
 20
-21.2354686302
 11
-9.4353569862
 21
-44.7720357958
  0
LINE
  5
23E
100
AcDbEntity
  8
0
100
AcDbLine
 62
7
  6
CONTINUOUS
 10
-9.4353569862
 20
-6.0578568863
 11
-9.4353569862
 21
38.800441541
  0
LINE
  5
23F
100
AcDbEntity
  8
0
100
AcDbLine
 62
7
  6
CONTINUOUS
 10
-7.6565152033
 20
-8.0764865419
 11
-7.6565152033
 21
-19.2186178171
  0
LINE
  5
240
100
AcDbEntity
  8
0
100
AcDbLine
 62
7
  6
CONTINUOUS
 10
-7.5835826902
 20
-81.3789987295
 11
-7.5835826902
 21
-88.4943658612
  0
LINE
  5
241
100
AcDbEntity
  8
0
100
AcDbLine
 62
7
  6
CONTINUOUS
 10
-9.8800674318
 20
48.6240952868
 11
-9.8813669742
 21
48.5413777757
  0
LINE
  5
242
100
AcDbEntity
  8
0
100
AcDbLine
 62
7
  6
CONTINUOUS
 10
-11.0717299028
 20
-39.2444628397
 11
-11.0689583956
 21
-39.0907298449
  0
LINE
  5
243
100
AcDbEntity
  8
0
100
AcDbLine
 62
7
  6
CONTINUOUS
 10
-22.3991444742
 20
-62.5508105302
 11
-22.3945912172
 21
-62.3329397606
  0
LINE
  5
244
100
AcDbEntity
  8
0
100
AcDbLine
 62
7
  6
CONTINUOUS
 10
-29.381347911
 20
91.9815849021
 11
-29.3792566227
 21
92.0706067346
  0
LINE
  5
245
100
AcDbEntity
  8
0
100
AcDbLine
 62
7
  6
CONTINUOUS
 10
-29.381347911
 20
-62.3329397606
 11
-29.3792566227
 21
-62.2439179281
  0
LINE
  5
246
100
AcDbEntity
  8
0
100
AcDbLine
 62
7
  6
CONTINUOUS
 10
-25.6568090805
 20
91.9815849021
 11
-25.6589003683
 21
91.8925630695
  0
LINE
  5
247
100
AcDbEntity
  8
0
100
AcDbLine
 62
7
  6
CONTINUOUS
 10
-25.6568090805
 20
-62.3329397606
 11
-25.6589003683
 21
-62.4219615932
  0
LINE
  5
248
100
AcDbEntity
  8
0
100
AcDbLine
 62
7
  6
CONTINUOUS
 10
-14.7220463314
 20
-55.3997050692
 11
-14.7459275124
 21
-56.2546373884
  0
LINE
  5
249
100
AcDbEntity
  8
0
100
AcDbLine
 62
7
  6
CONTINUOUS
 10
-22.4127747146
 20
-62.7674555734
 11
-22.3991444742
 21
-62.5508105302
  0
LINE
  5
24A
100
AcDbEntity
  8
0
100
AcDbLine
 62
7
  6
CONTINUOUS
 10
-29.3792566227
 20
92.0706067346
 11
-29.3729981537
 21
92.1590512649
  0
LINE
  5
24B
100
AcDbEntity
  8
0
100
AcDbLine
 62
7
  6
CONTINUOUS
 10
-25.6589003683
 20
91.8925630695
 11
-25.6651588364
 21
91.8041184893
  0
LINE
  5
24C
100
AcDbEntity
  8
0
100
AcDbLine
 62
7
  6
CONTINUOUS
 10
-29.3792566227
 20
-62.2439179281
 11
-29.3729981537
 21
-62.1554733973
  0
LINE
  5
24D
100
AcDbEntity
  8
0
100
AcDbLine
 62
7
  6
CONTINUOUS
 10
-25.6589003683
 20
-62.4219615932
 11
-25.6651588364
 21
-62.5104061728
  0
LINE
  5
24E
100
AcDbEntity
  8
0
100
AcDbLine
 62
7
  6
CONTINUOUS
 10
-16.5160529258
 20
2.8936307329
 11
-16.5786116603
 21
2.0354219791
  0
LINE
  5
24F
100
AcDbEntity
  8
0
100
AcDbLine
 62
7
  6
CONTINUOUS
 10
-38.2503387128
 20
97.1735307717
 11
-38.327676664
 21
96.3401030384
  0
LINE
  5
250
100
AcDbEntity
  8
0
100
AcDbLine
 62
7
  6
CONTINUOUS
 10
-16.1061292417
 20
39.477090467
 11
-16.1576095225
 21
38.9324261247
  0
LINE
  5
251
100
AcDbEntity
  8
0
100
AcDbLine
 62
7
  6
CONTINUOUS
 10
-36.7685661152
 20
96.5972744774
 11
-36.8441226544
 21
95.8710224602
  0
LINE
  5
252
100
AcDbEntity
  8
0
100
AcDbLine
 62
7
  6
CONTINUOUS
 10
-29.3729981537
 20
92.1590512649
 11
-29.3625960242
 21
92.2468156821
  0
LINE
  5
253
100
AcDbEntity
  8
0
100
AcDbLine
 62
7
  6
CONTINUOUS
 10
-25.6651588364
 20
91.8041184893
 11
-25.6755609674
 21
91.7163539733
  0
LINE
  5
254
100
AcDbEntity
  8
0
100
AcDbLine
 62
7
  6
CONTINUOUS
 10
-29.3729981537
 20
-62.1554733973
 11
-29.3625960242
 21
-62.0677089806
  0
LINE
  5
255
100
AcDbEntity
  8
0
100
AcDbLine
 62
7
  6
CONTINUOUS
 10
-29.3625960242
 20
92.2468156821
 11
-29.3480753292
 21
92.3337883958
  0
LINE
  5
256
100
AcDbEntity
  8
0
100
AcDbLine
 62
7
  6
CONTINUOUS
 10
-25.6755609674
 20
91.7163539733
 11
-25.690081668
 21
91.6293811113
  0
LINE
  5
257
100
AcDbEntity
  8
0
100
AcDbLine
 62
7
  6
CONTINUOUS
 10
-29.3480753292
 20
92.3337883958
 11
-29.3294640755
 21
92.4198487381
  0
LINE
  5
258
100
AcDbEntity
  8
0
100
AcDbLine
 62
7
  6
CONTINUOUS
 10
-25.690081668
 20
91.6293811113
 11
-25.7086929343
 21
91.5433205728
  0
LINE
  5
259
100
AcDbEntity
  8
0
100
AcDbLine
 62
7
  6
CONTINUOUS
 10
-29.3294640755
 20
92.4198487381
 11
-29.3067945813
 21
92.50486685
  0
LINE
  5
25A
100
AcDbEntity
  8
0
100
AcDbLine
 62
7
  6
CONTINUOUS
 10
-25.7086929343
 20
91.5433205728
 11
-25.7313624491
 21
91.4583022199
  0
LINE
  5
25B
100
AcDbEntity
  8
0
100
AcDbLine
 62
7
  6
CONTINUOUS
 10
-38.0206052477
 20
97.9760294946
 11
-38.2503387128
 21
97.1735307717
  0
LINE
  5
25C
100
AcDbEntity
  8
0
100
AcDbLine
 62
7
  6
CONTINUOUS
 10
-29.3067945813
 20
92.50486685
 11
-29.2801049072
 21
92.588703792
  0
LINE
  5
25D
100
AcDbEntity
  8
0
100
AcDbLine
 62
7
  6
CONTINUOUS
 10
-25.7313624491
 20
91.4583022199
 11
-25.7580521535
 21
91.3744649956
  0
LINE
  5
25E
100
AcDbEntity
  8
0
100
AcDbLine
 62
7
  6
CONTINUOUS
 10
-36.5445589447
 20
97.2906310227
 11
-36.7685661152
 21
96.5972744774
  0
LINE
  5
25F
100
AcDbEntity
  8
0
100
AcDbLine
 62
7
  6
CONTINUOUS
 10
-29.2801049072
 20
92.588703792
 11
-29.2494402701
 21
92.6712118923
  0
LINE
  5
260
100
AcDbEntity
  8
0
100
AcDbLine
 62
7
  6
CONTINUOUS
 10
-25.7580521535
 20
91.3744649956
 11
-25.7887168299
 21
91.2919565766
  0
LINE
  5
261
100
AcDbEntity
  8
0
100
AcDbLine
 62
7
  6
CONTINUOUS
 10
-29.2494402701
 20
92.6712118923
 11
-29.2148544013
 21
92.7522353628
  0
LINE
  5
262
100
AcDbEntity
  8
0
100
AcDbLine
 62
7
  6
CONTINUOUS
 10
-25.7887168299
 20
91.2919565766
 11
-25.8233027482
 21
91.2109327571
  0
LINE
  5
263
100
AcDbEntity
  8
0
100
AcDbLine
 62
7
  6
CONTINUOUS
 10
-29.2148544013
 20
92.7522353628
 11
-29.1764107813
 21
92.8316111853
  0
LINE
  5
264
100
AcDbEntity
  8
0
100
AcDbLine
 62
7
  6
CONTINUOUS
 10
-37.643580055
 20
98.7276801173
 11
-38.0206052477
 21
97.9760294946
  0
LINE
  5
265
100
AcDbEntity
  8
0
100
AcDbLine
 62
7
  6
CONTINUOUS
 10
-36.1784406888
 20
97.928492205
 11
-36.5445589447
 21
97.2906310227
  0
LINE
  5
266
100
AcDbEntity
  8
0
100
AcDbLine
 62
7
  6
CONTINUOUS
 10
25.3229040056
 20
-89.9229208011
 11
27.4572585831
 21
-89.3203890021
  0
LINE
  5
267
100
AcDbEntity
  8
0
100
AcDbLine
 62
7
  6
CONTINUOUS
 10
22.267532981
 20
-82.4260122409
 11
24.0092153287
 21
-82.0371026049
  0
LINE
  5
268
100
AcDbEntity
  8
0
100
AcDbLine
 62
7
  6
CONTINUOUS
 10
22.8973595183
 20
-88.4459233235
 11
24.9531544496
 21
-88.0316796382
  0
LINE
  5
269
100
AcDbEntity
  8
0
100
AcDbLine
 62
7
  6
CONTINUOUS
 10
22.4175780431
 20
-85.6563095021
 11
24.2392684735
 21
-85.2921714528
  0
LINE
  5
26A
100
AcDbEntity
  8
0
100
AcDbLine
 62
7
  6
CONTINUOUS
 10
23.1450727801
 20
-90.3557243527
 11
25.3229040056
 21
-89.9229208011
  0
LINE
  5
26B
100
AcDbEntity
  8
0
100
AcDbLine
 62
7
  6
CONTINUOUS
 10
2.0542027015
 20
-71.253319989
 11
2.8954560386
 21
-71.1346513875
  0
LINE
  5
26C
100
AcDbEntity
  8
0
100
AcDbLine
 62
7
  6
CONTINUOUS
 10
20.4083208285
 20
-81.1786854008
 11
22.0990523742
 21
-80.9487031075
  0
LINE
  5
26D
100
AcDbEntity
  8
0
100
AcDbLine
 62
7
  6
CONTINUOUS
 10
20.492707557
 20
-82.6606810887
 11
22.267532981
 21
-82.4260122409
  0
LINE
  5
26E
100
AcDbEntity
  8
0
100
AcDbLine
 62
7
  6
CONTINUOUS
 10
20.8080262299
 20
-88.6957148345
 11
22.8973595183
 21
-88.4459233235
  0
LINE
  5
26F
100
AcDbEntity
  8
0
100
AcDbLine
 62
7
  6
CONTINUOUS
 10
20.5665238023
 20
-85.8758764109
 11
22.4175780431
 21
-85.6563095021
  0
LINE
  5
270
100
AcDbEntity
  8
0
100
AcDbLine
 62
7
  6
CONTINUOUS
 10
20.9324195618
 20
-90.6166871305
 11
23.1450727801
 21
-90.3557243527
  0
LINE
  5
271
100
AcDbEntity
  8
0
100
AcDbLine
 62
7
  6
CONTINUOUS
 10
28.2073564816
 20
-67.4392433194
 11
28.4226534898
 21
-67.4165808256
  0
LINE
  5
272
100
AcDbEntity
  8
0
100
AcDbLine
 62
7
  6
CONTINUOUS
 10
1.2046679889
 20
-71.3247597088
 11
2.0542027015
 21
-71.253319989
  0
LINE
  5
273
100
AcDbEntity
  8
0
100
AcDbLine
 62
7
  6
CONTINUOUS
 10
27.9501401468
 20
-64.1868594629
 11
27.8616969487
 21
-64.193117935
  0
LINE
  5
274
100
AcDbEntity
  8
0
100
AcDbLine
 62
7
  6
CONTINUOUS
 10
27.5952073844
 20
-60.4790200513
 11
27.6836532902
 21
-60.4727615863
  0
LINE
  5
275
100
AcDbEntity
  8
0
100
AcDbLine
 62
7
  6
CONTINUOUS
 10
-27.3415987626
 20
-64.1868594634
 11
-27.4300420696
 21
-64.193117935
  0
LINE
  5
276
100
AcDbEntity
  8
0
100
AcDbLine
 62
7
  6
CONTINUOUS
 10
27.9906318857
 20
-67.4528737918
 11
28.2073564816
 21
-67.4392433194
  0
LINE
  5
277
100
AcDbEntity
  8
0
100
AcDbLine
 62
7
  6
CONTINUOUS
 10
-27.3012396853
 20
-67.4528738548
 11
-27.0846291941
 21
-67.4392430749
  0
LINE
  5
278
100
AcDbEntity
  8
0
100
AcDbLine
 62
7
  6
CONTINUOUS
 10
18.6925615927
 20
-81.255724994
 11
20.4083208285
 21
-81.1786854008
  0
LINE
  5
279
100
AcDbEntity
  8
0
100
AcDbLine
 62
7
  6
CONTINUOUS
 10
18.6925615927
 20
-82.7392790409
 11
20.492707557
 21
-82.6606810887
  0
LINE
  5
27A
100
AcDbEntity
  8
0
100
AcDbLine
 62
7
  6
CONTINUOUS
 10
18.6925615927
 20
-88.7793363143
 11
20.8080262299
 21
-88.6957148345
  0
LINE
  5
27B
100
AcDbEntity
  8
0
100
AcDbLine
 62
7
  6
CONTINUOUS
 10
18.6925615927
 20
-85.9493769221
 11
20.5665238023
 21
-85.8758764109
  0
LINE
  5
27C
100
AcDbEntity
  8
0
100
AcDbLine
 62
7
  6
CONTINUOUS
 10
18.6925615927
 20
-90.7040431236
 11
20.9324195618
 21
-90.6166871305
  0
LINE
  5
27D
100
AcDbEntity
  8
0
100
AcDbLine
 62
7
  6
CONTINUOUS
 10
0.3482728195
 20
-71.3486435683
 11
1.2046679889
 21
-71.3247597088
  0
LINE
  5
27E
100
AcDbEntity
  8
0
100
AcDbLine
 62
7
  6
CONTINUOUS
 10
27.8616969487
 20
-64.193117935
 11
27.7726765861
 21
-64.1952092228
  0
LINE
  5
27F
100
AcDbEntity
  8
0
100
AcDbLine
 62
7
  6
CONTINUOUS
 10
-27.4300420696
 20
-64.193117935
 11
-27.5190625508
 21
-64.1952092228
  0
LINE
  5
280
100
AcDbEntity
  8
0
100
AcDbLine
 62
7
  6
CONTINUOUS
 10
27.6836532902
 20
-60.4727615863
 11
27.7726765861
 21
-60.470670298
  0
LINE
  5
281
100
AcDbEntity
  8
0
100
AcDbLine
 62
7
  6
CONTINUOUS
 10
-27.6080857281
 20
-60.4727615863
 11
-27.5190625508
 21
-60.470670298
  0
LINE
  5
282
100
AcDbEntity
  8
0
100
AcDbLine
 62
7
  6
CONTINUOUS
 10
-27.5190625508
 20
-67.4574271683
 11
-27.3012396853
 21
-67.4528738548
  0
LINE
  5
283
100
AcDbEntity
  8
0
100
AcDbLine
 62
7
  6
CONTINUOUS
 10
27.7726765861
 20
-67.4574271683
 11
27.9906318857
 21
-67.4528737918
  0
LINE
  5
284
100
AcDbEntity
  8
0
100
AcDbLine
 62
7
  6
CONTINUOUS
 10
-23.98398631
 20
-78.3528330886
 11
24.8281425153
 21
-78.2991120667
  0
LINE
  5
285
100
AcDbEntity
  8
0
100
AcDbLine
 62
7
  6
CONTINUOUS
 10
-17.9960492521
 20
-90.7040431236
 11
18.6925615927
 21
-90.7040431236
  0
LINE
  5
286
100
AcDbEntity
  8
0
100
AcDbLine
 62
7
  6
CONTINUOUS
 10
-17.9960492521
 20
-88.7793363143
 11
18.6925615927
 21
-88.7793363143
  0
LINE
  5
287
100
AcDbEntity
  8
0
100
AcDbLine
 62
7
  6
CONTINUOUS
 10
-3.8035439015
 20
-87.0855231688
 11
4.0553790949
 21
-87.0855231688
  0
LINE
  5
288
100
AcDbEntity
  8
0
100
AcDbLine
 62
7
  6
CONTINUOUS
 10
7.8354178836
 20
-85.9493769221
 11
18.6925615927
 21
-85.9493769221
  0
LINE
  5
289
100
AcDbEntity
  8
0
100
AcDbLine
 62
7
  6
CONTINUOUS
 10
-7.805937913
 20
-85.9493769221
 11
-17.9960492521
 21
-85.9493769221
  0
LINE
  5
28A
100
AcDbEntity
  8
0
100
AcDbLine
 62
7
  6
CONTINUOUS
 10
-3.8764764147
 20
-85.2337488727
 11
4.1283116081
 21
-85.2337488727
  0
LINE
  5
28B
100
AcDbEntity
  8
0
100
AcDbLine
 62
7
  6
CONTINUOUS
 10
-17.9960492521
 20
-82.7392790409
 11
18.6925615927
 21
-82.7392790409
  0
LINE
  5
28C
100
AcDbEntity
  8
0
100
AcDbLine
 62
7
  6
CONTINUOUS
 10
-17.9960492521
 20
-81.255724994
 11
18.6925615927
 21
-81.255724994
  0
LINE
  5
28D
100
AcDbEntity
  8
0
100
AcDbLine
 62
7
  6
CONTINUOUS
 10
-23.388074328
 20
-76.7303514986
 11
23.250860774
 21
-76.7303514986
  0
LINE
  5
28E
100
AcDbEntity
  8
0
100
AcDbLine
 62
7
  6
CONTINUOUS
 10
-36.0450512156
 20
-67.4453310447
 11
-9.5847796959
 21
-67.4453310447
  0
LINE
  5
28F
100
AcDbEntity
  8
0
100
AcDbLine
 62
7
  6
CONTINUOUS
 10
10.726035781
 20
-67.4453310447
 11
36.8145293683
 21
-67.4453310447
  0
LINE
  5
290
100
AcDbEntity
  8
0
100
AcDbLine
 62
7
  6
CONTINUOUS
 10
-27.7371495419
 20
-67.4528738548
 11
-27.5190625508
 21
-67.4574271683
  0
LINE
  5
291
100
AcDbEntity
  8
0
100
AcDbLine
 62
7
  6
CONTINUOUS
 10
27.5547186699
 20
-67.4528737918
 11
27.7726765861
 21
-67.4574271683
  0
LINE
  5
292
100
AcDbEntity
  8
0
100
AcDbLine
 62
7
  6
CONTINUOUS
 10
-27.5190625508
 20
-64.1952092228
 11
-27.6080857281
 21
-64.193117935
  0
LINE
  5
293
100
AcDbEntity
  8
0
100
AcDbLine
 62
7
  6
CONTINUOUS
 10
27.7726765861
 20
-64.1952092228
 11
27.6836532902
 21
-64.193117935
  0
LINE
  5
294
100
AcDbEntity
  8
0
100
AcDbLine
 62
7
  6
CONTINUOUS
 10
-27.5190625508
 20
-60.470670298
 11
-27.4300420696
 21
-60.4727615863
  0
LINE
  5
295
100
AcDbEntity
  8
0
100
AcDbLine
 62
7
  6
CONTINUOUS
 10
27.7726765861
 20
-60.470670298
 11
27.8616969487
 21
-60.4727615863
  0
LINE
  5
296
100
AcDbEntity
  8
0
100
AcDbLine
 62
7
  6
CONTINUOUS
 10
-0.5081256764
 20
-71.3247597088
 11
0.3482728195
 21
-71.3486435683
  0
LINE
  5
297
100
AcDbEntity
  8
0
100
AcDbLine
 62
7
  6
CONTINUOUS
 10
-20.2359072212
 20
-90.6166871305
 11
-17.9960492521
 21
-90.7040431236
  0
LINE
  5
298
100
AcDbEntity
  8
0
100
AcDbLine
 62
7
  6
CONTINUOUS
 10
-17.9960492521
 20
-85.9493769221
 11
-19.8706027505
 21
-85.8758298339
  0
LINE
  5
299
100
AcDbEntity
  8
0
100
AcDbLine
 62
7
  6
CONTINUOUS
 10
-20.1115094712
 20
-88.6957148345
 11
-17.9960492521
 21
-88.7793363143
  0
LINE
  5
29A
100
AcDbEntity
  8
0
100
AcDbLine
 62
7
  6
CONTINUOUS
 10
-19.7961903868
 20
-82.6606810887
 11
-17.9960492521
 21
-82.7392790409
  0
LINE
  5
29B
100
AcDbEntity
  8
0
100
AcDbLine
 62
7
  6
CONTINUOUS
 10
-19.7118084874
 20
-81.1786854008
 11
-17.9960492521
 21
-81.255724994
  0
LINE
  5
29C
100
AcDbEntity
  8
0
100
AcDbLine
 62
7
  6
CONTINUOUS
 10
-27.953986339
 20
-67.439244099
 11
-27.7371495419
 21
-67.4528738548
  0
LINE
  5
29D
100
AcDbEntity
  8
0
100
AcDbLine
 62
7
  6
CONTINUOUS
 10
27.3379916365
 20
-67.4392433239
 11
27.5547186699
 21
-67.4528737918
  0
LINE
  5
29E
100
AcDbEntity
  8
0
100
AcDbLine
 62
7
  6
CONTINUOUS
 10
-27.6080857281
 20
-64.193117935
 11
-27.6965315245
 21
-64.1868594695
  0
LINE
  5
29F
100
AcDbEntity
  8
0
100
AcDbLine
 62
7
  6
CONTINUOUS
 10
-27.4300420696
 20
-60.4727615863
 11
-27.3415987626
 21
-60.4790200578
  0
LINE
  5
2A0
100
AcDbEntity
  8
0
100
AcDbLine
 62
7
  6
CONTINUOUS
 10
27.6836532902
 20
-64.193117935
 11
27.5952073844
 21
-64.1868594695
  0
LINE
  5
2A1
100
AcDbEntity
  8
0
100
AcDbLine
 62
7
  6
CONTINUOUS
 10
27.8616969487
 20
-60.4727615863
 11
27.9501401468
 21
-60.4790200578
  0
LINE
  5
2A2
100
AcDbEntity
  8
0
100
AcDbLine
 62
7
  6
CONTINUOUS
 10
-1.3576634114
 20
-71.2533199996
 11
-0.5081256764
 21
-71.3247597088
  0
LINE
  5
2A3
100
AcDbEntity
  8
0
100
AcDbLine
 62
7
  6
CONTINUOUS
 10
-4.2044275634
 20
-41.3129616737
 11
-4.3846827187
 21
-41.2961332635
  0
LINE
  5
2A4
100
AcDbEntity
  8
0
100
AcDbLine
 62
7
  6
CONTINUOUS
 10
4.6786139548
 20
-36.9882962135
 11
4.8588653823
 21
-37.0051246816
  0
LINE
  5
2A5
100
AcDbEntity
  8
0
100
AcDbLine
 62
7
  6
CONTINUOUS
 10
-28.1693767679
 20
-67.4165837346
 11
-27.953986339
 21
-67.439244099
  0
LINE
  5
2A6
100
AcDbEntity
  8
0
100
AcDbLine
 62
7
  6
CONTINUOUS
 10
27.1226923663
 20
-67.4165808468
 11
27.3379916365
 21
-67.4392433239
  0
LINE
  5
2A7
100
AcDbEntity
  8
0
100
AcDbLine
 62
7
  6
CONTINUOUS
 10
-22.4485604395
 20
-90.3557243527
 11
-20.2359072212
 21
-90.6166871305
  0
LINE
  5
2A8
100
AcDbEntity
  8
0
100
AcDbLine
 62
7
  6
CONTINUOUS
 10
-27.6965315245
 20
-64.1868594695
 11
-27.7842971307
 21
-64.1764573496
  0
LINE
  5
2A9
100
AcDbEntity
  8
0
100
AcDbLine
 62
7
  6
CONTINUOUS
 10
-27.3415987626
 20
-60.4790200578
 11
-27.2538354421
 21
-60.4894221989
  0
LINE
  5
2AA
100
AcDbEntity
  8
0
100
AcDbLine
 62
7
  6
CONTINUOUS
 10
27.5952073844
 20
-64.1868594695
 11
27.5074416783
 21
-64.1764573511
  0
LINE
  5
2AB
100
AcDbEntity
  8
0
100
AcDbLine
 62
7
  6
CONTINUOUS
 10
27.9501401468
 20
-60.4790200578
 11
28.037903367
 21
-60.4894221999
  0
LINE
  5
2AC
100
AcDbEntity
  8
0
100
AcDbLine
 62
7
  6
CONTINUOUS
 10
-19.8706027505
 20
-85.8758298339
 11
-21.7222317034
 21
-85.6561241071
  0
LINE
  5
2AD
100
AcDbEntity
  8
0
100
AcDbLine
 62
7
  6
CONTINUOUS
 10
-22.2008396005
 20
-88.4459232585
 11
-20.1115094712
 21
-88.6957148345
  0
LINE
  5
2AE
100
AcDbEntity
  8
0
100
AcDbLine
 62
7
  6
CONTINUOUS
 10
-21.571012508
 20
-82.4260121537
 11
-19.7961903868
 21
-82.6606810887
  0
LINE
  5
2AF
100
AcDbEntity
  8
0
100
AcDbLine
 62
7
  6
CONTINUOUS
 10
-21.4025400336
 20
-80.9487031075
 11
-19.7118084874
 21
-81.1786854008
  0
LINE
  5
2B0
100
AcDbEntity
  8
0
100
AcDbLine
 62
7
  6
CONTINUOUS
 10
-2.1989194729
 20
-71.1346514354
 11
-1.3576634114
 21
-71.2533199996
  0
LINE
  5
2B1
100
AcDbEntity
  8
0
100
AcDbLine
 62
7
  6
CONTINUOUS
 10
-28.3831097534
 20
-67.3849408599
 11
-28.1693767679
 21
-67.4165837346
  0
LINE
  5
2B2
100
AcDbEntity
  8
0
100
AcDbLine
 62
7
  6
CONTINUOUS
 10
26.9090327496
 20
-67.3849337603
 11
27.1226923663
 21
-67.4165808468
  0
LINE
  5
2B3
100
AcDbEntity
  8
0
100
AcDbLine
 62
7
  6
CONTINUOUS
 10
-4.3846827187
 20
-41.2961332635
 11
-4.5624719304
 21
-41.268229997
  0
LINE
  5
2B4
100
AcDbEntity
  8
0
100
AcDbLine
 62
7
  6
CONTINUOUS
 10
4.8588653823
 20
-37.0051246816
 11
5.036651089
 21
-37.0330280616
  0
LINE
  5
2B5
100
AcDbEntity
  8
0
100
AcDbLine
 62
7
  6
CONTINUOUS
 10
-27.7842971307
 20
-64.1764573496
 11
-27.8712709588
 21
-64.1619366747
  0
LINE
  5
2B6
100
AcDbEntity
  8
0
100
AcDbLine
 62
7
  6
CONTINUOUS
 10
-27.2538354421
 20
-60.4894221989
 11
-27.1668637005
 21
-60.5039429197
  0
LINE
  5
2B7
100
AcDbEntity
  8
0
100
AcDbLine
 62
7
  6
CONTINUOUS
 10
27.5074416783
 20
-64.1764573511
 11
27.4204677595
 21
-64.1619366782
  0
LINE
  5
2B8
100
AcDbEntity
  8
0
100
AcDbLine
 62
7
  6
CONTINUOUS
 10
28.037903367
 20
-60.4894221999
 11
28.1248750172
 21
-60.5039429227
  0
LINE
  5
2B9
100
AcDbEntity
  8
0
100
AcDbLine
 62
7
  6
CONTINUOUS
 10
-28.5949587956
 20
-67.3443678383
 11
-28.3831097534
 21
-67.3849408599
  0
LINE
  5
2BA
100
AcDbEntity
  8
0
100
AcDbLine
 62
7
  6
CONTINUOUS
 10
26.6972402074
 20
-67.3443537987
 11
26.9090327496
 21
-67.3849337603
  0
LINE
  5
2BB
100
AcDbEntity
  8
0
100
AcDbLine
 62
7
  6
CONTINUOUS
 10
-24.626391665
 20
-89.9229208011
 11
-22.4485604395
 21
-90.3557243527
  0
LINE
  5
2BC
100
AcDbEntity
  8
0
100
AcDbLine
 62
7
  6
CONTINUOUS
 10
-3.0303305053
 20
-70.9691128089
 11
-2.1989194729
 21
-71.1346514354
  0
LINE
  5
2BD
100
AcDbEntity
  8
0
100
AcDbLine
 62
7
  6
CONTINUOUS
 10
-21.7222317034
 20
-85.6561241071
 11
-23.5444737875
 21
-85.2917565305
  0
LINE
  5
2BE
100
AcDbEntity
  8
0
100
AcDbLine
 62
7
  6
CONTINUOUS
 10
-24.2566325305
 20
-88.0316793558
 11
-22.2008396005
 21
-88.4459232585
  0
LINE
  5
2BF
100
AcDbEntity
  8
0
100
AcDbLine
 62
7
  6
CONTINUOUS
 10
-27.8712709588
 20
-64.1619366747
 11
-27.9573323419
 21
-64.1433254543
  0
LINE
  5
2C0
100
AcDbEntity
  8
0
100
AcDbLine
 62
7
  6
CONTINUOUS
 10
27.4204677595
 20
-64.1619366782
 11
27.3344062932
 21
-64.1433254613
  0
LINE
  5
2C1
100
AcDbEntity
  8
0
100
AcDbLine
 62
7
  6
CONTINUOUS
 10
-27.1668637005
 20
-60.5039429197
 11
-27.0808042099
 21
-60.5225542193
  0
LINE
  5
2C2
100
AcDbEntity
  8
0
100
AcDbLine
 62
7
  6
CONTINUOUS
 10
28.1248750172
 20
-60.5039429227
 11
28.2109344252
 21
-60.5225542258
  0
LINE
  5
2C3
100
AcDbEntity
  8
0
100
AcDbLine
 62
7
  6
CONTINUOUS
 10
-4.5624719304
 20
-41.268229997
 11
-4.7371023806
 21
-41.2294207475
  0
LINE
  5
2C4
100
AcDbEntity
  8
0
100
AcDbLine
 62
7
  6
CONTINUOUS
 10
5.036651089
 20
-37.0330280616
 11
5.2112782016
 21
-37.0718374851
  0
LINE
  5
2C5
100
AcDbEntity
  8
0
100
AcDbLine
 62
7
  6
CONTINUOUS
 10
-23.3126929376
 20
-82.0371022287
 11
-21.571012508
 21
-82.4260121537
  0
LINE
  5
2C6
100
AcDbEntity
  8
0
100
AcDbLine
 62
7
  6
CONTINUOUS
 10
-23.0603131683
 20
-80.5676370701
 11
-21.4025400336
 21
-80.9487031075
  0
LINE
  5
2C7
100
AcDbEntity
  8
0
100
AcDbLine
 62
7
  6
CONTINUOUS
 10
-28.8046816919
 20
-67.2949234042
 11
-28.5949587956
 21
-67.3443678383
  0
LINE
  5
2C8
100
AcDbEntity
  8
0
100
AcDbLine
 62
7
  6
CONTINUOUS
 10
26.4875579688
 20
-67.2948991529
 11
26.6972402074
 21
-67.3443537987
  0
LINE
  5
2C9
100
AcDbEntity
  8
0
100
AcDbLine
 62
7
  6
CONTINUOUS
 10
-3.8501864011
 20
-70.7571206512
 11
-3.0303305053
 21
-70.9691128089
  0
LINE
  5
2CA
100
AcDbEntity
  8
0
100
AcDbLine
 62
7
  6
CONTINUOUS
 10
-27.9573323419
 20
-64.1433254543
 11
-28.0423514249
 21
-64.1206560106
  0
LINE
  5
2CB
100
AcDbEntity
  8
0
100
AcDbLine
 62
7
  6
CONTINUOUS
 10
-27.0808042099
 20
-60.5225542193
 11
-26.9957868332
 21
-60.5452237835
  0
LINE
  5
2CC
100
AcDbEntity
  8
0
100
AcDbLine
 62
7
  6
CONTINUOUS
 10
27.3344062932
 20
-64.1433254613
 11
27.249387135
 21
-64.1206560222
  0
LINE
  5
2CD
100
AcDbEntity
  8
0
100
AcDbLine
 62
7
  6
CONTINUOUS
 10
28.2109344252
 20
-60.5225542258
 11
28.2959517268
 21
-60.5452237956
  0
LINE
  5
2CE
100
AcDbEntity
  8
0
100
AcDbLine
 62
7
  6
CONTINUOUS
 10
-29.01202054
 20
-67.2366748293
 11
-28.8046816919
 21
-67.2949234042
  0
LINE
  5
2CF
100
AcDbEntity
  8
0
100
AcDbLine
 62
7
  6
CONTINUOUS
 10
26.2802450653
 20
-67.2366366494
 11
26.4875579688
 21
-67.2948991529
  0
LINE
  5
2D0
100
AcDbEntity
  8
0
100
AcDbLine
 62
7
  6
CONTINUOUS
 10
-26.7607462425
 20
-89.3203890021
 11
-24.626391665
 21
-89.9229208011
  0
LINE
  5
2D1
100
AcDbEntity
  8
0
100
AcDbLine
 62
7
  6
CONTINUOUS
 10
-23.5444737875
 20
-85.2917565305
 11
-25.3299824596
 21
-84.7845220097
  0
LINE
  5
2D2
100
AcDbEntity
  8
0
100
AcDbLine
 62
7
  6
CONTINUOUS
 10
-26.2704603429
 20
-87.4550473881
 11
-24.2566325305
 21
-88.0316793558
  0
LINE
  5
2D3
100
AcDbEntity
  8
0
100
AcDbLine
 62
7
  6
CONTINUOUS
 10
-4.7371023806
 20
-41.2294207475
 11
-4.9078293154
 21
-41.1799317867
  0
LINE
  5
2D4
100
AcDbEntity
  8
0
100
AcDbLine
 62
7
  6
CONTINUOUS
 10
5.2112782016
 20
-37.0718374851
 11
5.382001929
 21
-37.1213266854
  0
LINE
  5
2D5
100
AcDbEntity
  8
0
100
AcDbLine
 62
7
  6
CONTINUOUS
 10
-25.0122360531
 20
-81.4962294119
 11
-23.3126929376
 21
-82.0371022287
  0
LINE
  5
2D6
100
AcDbEntity
  8
0
100
AcDbLine
 62
7
  6
CONTINUOUS
 10
-28.0423514249
 20
-64.1206560106
 11
-28.12618927
 21
-64.0939664055
  0
LINE
  5
2D7
100
AcDbEntity
  8
0
100
AcDbLine
 62
7
  6
CONTINUOUS
 10
-26.9957868332
 20
-60.5452237835
 11
-26.9119505185
 21
-60.571913558
  0
LINE
  5
2D8
100
AcDbEntity
  8
0
100
AcDbLine
 62
7
  6
CONTINUOUS
 10
27.249387135
 20
-64.1206560222
 11
27.1655492229
 21
-64.0939664246
  0
LINE
  5
2D9
100
AcDbEntity
  8
0
100
AcDbLine
 62
7
  6
CONTINUOUS
 10
28.2959517268
 20
-60.5452237956
 11
28.379787975
 21
-60.5719135772
  0
LINE
  5
2DA
100
AcDbEntity
  8
0
100
AcDbLine
 62
7
  6
CONTINUOUS
 10
-4.6566306
 20
-70.4991762558
 11
-3.8501864011
 21
-70.7571206512
  0
LINE
  5
2DB
100
AcDbEntity
  8
0
100
AcDbLine
 62
7
  6
CONTINUOUS
 10
-29.2167020556
 20
-67.1697001026
 11
-29.01202054
 21
-67.2366748293
  0
LINE
  5
2DC
100
AcDbEntity
  8
0
100
AcDbLine
 62
7
  6
CONTINUOUS
 10
26.0755760034
 20
-67.1696439441
 11
26.2802450653
 21
-67.2366366494
  0
LINE
  5
2DD
100
AcDbEntity
  8
0
100
AcDbLine
 62
7
  6
CONTINUOUS
 10
-24.6759811836
 20
-80.0378275107
 11
-23.0603131683
 21
-80.5676370701
  0
LINE
  5
2DE
100
AcDbEntity
  8
0
100
AcDbLine
 62
7
  6
CONTINUOUS
 10
-4.9078293154
 20
-41.1799317867
 11
-5.0738658716
 21
-41.1200567982
  0
LINE
  5
2DF
100
AcDbEntity
  8
0
100
AcDbLine
 62
7
  6
CONTINUOUS
 10
5.382001929
 20
-37.1213266854
 11
5.5480353977
 21
-37.181201984
  0
LINE
  5
2E0
100
AcDbEntity
  8
0
100
AcDbLine
 62
7
  6
CONTINUOUS
 10
-28.8419279247
 20
-88.5508548546
 11
-26.7607462425
 21
-89.3203890021
  0
LINE
  5
2E1
100
AcDbEntity
  8
0
100
AcDbLine
 62
7
  6
CONTINUOUS
 10
-28.12618927
 20
-64.0939664055
 11
-28.2086982084
 21
-64.0633018602
  0
LINE
  5
2E2
100
AcDbEntity
  8
0
100
AcDbLine
 62
7
  6
CONTINUOUS
 10
-26.9119505185
 20
-60.571913558
 11
-26.8294429431
 21
-60.6025783267
  0
LINE
  5
2E3
100
AcDbEntity
  8
0
100
AcDbLine
 62
7
  6
CONTINUOUS
 10
27.1655492229
 20
-64.0939664246
 11
27.083040225
 21
-64.0633018894
  0
LINE
  5
2E4
100
AcDbEntity
  8
0
100
AcDbLine
 62
7
  6
CONTINUOUS
 10
28.379787975
 20
-60.5719135772
 11
28.4622954903
 21
-60.6025783559
  0
LINE
  5
2E5
100
AcDbEntity
  8
0
100
AcDbLine
 62
7
  6
CONTINUOUS
 10
-25.3299824596
 20
-84.7845220097
 11
-27.0705243265
 21
-84.1367423616
  0
LINE
  5
2E6
100
AcDbEntity
  8
0
100
AcDbLine
 62
7
  6
CONTINUOUS
 10
-29.4184382262
 20
-67.0940900688
 11
-29.2167020556
 21
-67.1697001026
  0
LINE
  5
2E7
100
AcDbEntity
  8
0
100
AcDbLine
 62
7
  6
CONTINUOUS
 10
25.8738401005
 20
-67.0940116723
 11
26.0755760034
 21
-67.1696439441
  0
LINE
  5
2E8
100
AcDbEntity
  8
0
100
AcDbLine
 62
7
  6
CONTINUOUS
 10
-7.9847644675
 20
-7.9929798641
 11
-8.2541254095
 21
-7.8920213809
  0
LINE
  5
2E9
100
AcDbEntity
  8
0
100
AcDbLine
 62
7
  6
CONTINUOUS
 10
-28.2328721196
 20
-86.7187042653
 11
-26.2704603429
 21
-87.4550473881
  0
LINE
  5
2EA
100
AcDbEntity
  8
0
100
AcDbLine
 62
7
  6
CONTINUOUS
 10
-5.4476657051
 20
-70.1958927153
 11
-4.6566306
 21
-70.4991762558
  0
LINE
  5
2EB
100
AcDbEntity
  8
0
100
AcDbLine
 62
7
  6
CONTINUOUS
 10
8.7100222172
 20
-19.4274372701
 11
8.4243775012
 21
-19.3121042791
  0
LINE
  5
2EC
100
AcDbEntity
  8
0
100
AcDbLine
 62
7
  6
CONTINUOUS
 10
-24.1527992836
 20
-76.4184599555
 11
-23.388074328
 21
-76.7303514986
  0
LINE
  5
2ED
100
AcDbEntity
  8
0
100
AcDbLine
 62
7
  6
CONTINUOUS
 10
-24.8837633139
 20
-77.9850647855
 11
-23.98398631
 21
-78.3528330886
  0
LINE
  5
2EE
100
AcDbEntity
  8
0
100
AcDbLine
 62
7
  6
CONTINUOUS
 10
-26.6594905374
 20
-80.8064574914
 11
-25.0122360531
 21
-81.4962294119
  0
LINE
  5
2EF
100
AcDbEntity
  8
0
100
AcDbLine
 62
7
  6
CONTINUOUS
 10
-29.6169273316
 20
-67.0099504652
 11
-29.4184382262
 21
-67.0940900688
  0
LINE
  5
2F0
100
AcDbEntity
  8
0
100
AcDbLine
 62
7
  6
CONTINUOUS
 10
25.6753404515
 20
-67.0098454958
 11
25.8738401005
 21
-67.0940116723
  0
LINE
  5
2F1
100
AcDbEntity
  8
0
100
AcDbLine
 62
7
  6
CONTINUOUS
 10
-28.2086982084
 20
-64.0633018602
 11
-28.2897224554
 21
-64.0287161083
  0
LINE
  5
2F2
100
AcDbEntity
  8
0
100
AcDbLine
 62
7
  6
CONTINUOUS
 10
-26.8294429431
 20
-60.6025783267
 11
-26.7484199052
 21
-60.6371643624
  0
LINE
  5
2F3
100
AcDbEntity
  8
0
100
AcDbLine
 62
7
  6
CONTINUOUS
 10
27.083040225
 20
-64.0633018894
 11
27.002015925
 21
-64.0287161497
  0
LINE
  5
2F4
100
AcDbEntity
  8
0
100
AcDbLine
 62
7
  6
CONTINUOUS
 10
28.4622954903
 20
-60.6025783559
 11
28.5433184753
 21
-60.6371644038
  0
LINE
  5
2F5
100
AcDbEntity
  8
0
100
AcDbLine
 62
7
  6
CONTINUOUS
 10
-0.7331021912
 20
-1.8355284497
 11
-0.8426149136
 21
-1.7887734016
  0
LINE
  5
2F6
100
AcDbEntity
  8
0
100
AcDbLine
 62
7
  6
CONTINUOUS
 10
-26.2392066709
 20
-79.3624555181
 11
-24.6759811836
 21
-80.0378275107
  0
LINE
  5
2F7
100
AcDbEntity
  8
0
100
AcDbLine
 62
7
  6
CONTINUOUS
 10
-5.0738658716
 20
-41.1200567982
 11
-5.2343968949
 21
-41.0501644778
  0
LINE
  5
2F8
100
AcDbEntity
  8
0
100
AcDbLine
 62
7
  6
CONTINUOUS
 10
5.5480353977
 20
-37.181201984
 11
5.7085634727
 21
-37.2510947002
  0
LINE
  5
2F9
100
AcDbEntity
  8
0
100
AcDbLine
 62
7
  6
CONTINUOUS
 10
-6.2211649617
 20
-69.848020714
 11
-5.4476657051
 21
-70.1958927153
  0
LINE
  5
2FA
100
AcDbEntity
  8
0
100
AcDbLine
 62
7
  6
CONTINUOUS
 10
-30.8592684252
 20
-87.6179238763
 11
-28.8419279247
 21
-88.5508548546
  0
LINE
  5
2FB
100
AcDbEntity
  8
0
100
AcDbLine
 62
7
  6
CONTINUOUS
 10
-27.0705243265
 20
-84.1367423616
 11
-28.7570402624
 21
-83.3514941949
  0
LINE
  5
2FC
100
AcDbEntity
  8
0
100
AcDbLine
 62
7
  6
CONTINUOUS
 10
-30.1334666134
 20
-85.8262042637
 11
-28.2328721196
 21
-86.7187042653
  0
LINE
  5
2FD
100
AcDbEntity
  8
0
100
AcDbLine
 62
7
  6
CONTINUOUS
 10
-24.900379789
 20
-76.0650226292
 11
-24.1527992836
 21
-76.4184599555
  0
LINE
  5
2FE
100
AcDbEntity
  8
0
100
AcDbLine
 62
7
  6
CONTINUOUS
 10
-29.8118553319
 20
-66.9174037904
 11
-29.6169273316
 21
-67.0099504652
  0
LINE
  5
2FF
100
AcDbEntity
  8
0
100
AcDbLine
 62
7
  6
CONTINUOUS
 10
25.4803925252
 20
-66.9172679788
 11
25.6753404515
 21
-67.0098454958
  0
LINE
  5
300
100
AcDbEntity
  8
0
100
AcDbLine
 62
7
  6
CONTINUOUS
 10
-25.7620957045
 20
-77.5656742549
 11
-24.8837633139
 21
-77.9850647855
  0
LINE
  5
301
100
AcDbEntity
  8
0
100
AcDbLine
 62
7
  6
CONTINUOUS
 10
-28.2897224554
 20
-64.0287161083
 11
-28.3690989949
 21
-63.9902726325
  0
LINE
  5
302
100
AcDbEntity
  8
0
100
AcDbLine
 62
7
  6
CONTINUOUS
 10
-26.7484199052
 20
-60.6371643624
 11
-26.6690444327
 21
-60.6756081841
  0
LINE
  5
303
100
AcDbEntity
  8
0
100
AcDbLine
 62
7
  6
CONTINUOUS
 10
27.002015925
 20
-64.0287161497
 11
26.9226393387
 21
-63.990272689
  0
LINE
  5
304
100
AcDbEntity
  8
0
100
AcDbLine
 62
7
  6
CONTINUOUS
 10
28.5433184753
 20
-60.6371644038
 11
28.6226939009
 21
-60.6756082411
  0
LINE
  5
305
100
AcDbEntity
  8
0
100
AcDbLine
 62
7
  6
CONTINUOUS
 10
-0.8426149136
 20
-1.7887734016
 11
-0.9499041161
 21
-1.7368024916
  0
LINE
  5
306
100
AcDbEntity
  8
0
100
AcDbLine
 62
7
  6
CONTINUOUS
 10
1.2403878934
 20
2.7954023161
 11
1.3476806236
 21
2.7434331603
  0
LINE
  5
307
100
AcDbEntity
  8
0
100
AcDbLine
 62
7
  6
CONTINUOUS
 10
-5.2343968949
 20
-41.0501644778
 11
-5.3885964057
 21
-40.9707026484
  0
LINE
  5
308
100
AcDbEntity
  8
0
100
AcDbLine
 62
7
  6
CONTINUOUS
 10
5.7085634727
 20
-37.2510947002
 11
5.8627602228
 21
-37.3305570424
  0
LINE
  5
309
100
AcDbEntity
  8
0
100
AcDbLine
 62
7
  6
CONTINUOUS
 10
-6.9748898688
 20
-69.4564716601
 11
-6.2211649617
 21
-69.848020714
  0
LINE
  5
30A
100
AcDbEntity
  8
0
100
AcDbLine
 62
7
  6
CONTINUOUS
 10
-28.2432749979
 20
-79.9719622133
 11
-26.6594905374
 21
-80.8064574914
  0
LINE
  5
30B
100
AcDbEntity
  8
0
100
AcDbLine
 62
7
  6
CONTINUOUS
 10
-30.0028976186
 20
-66.8165909399
 11
-29.8118553319
 21
-66.9174037904
  0
LINE
  5
30C
100
AcDbEntity
  8
0
100
AcDbLine
 62
7
  6
CONTINUOUS
 10
25.289322392
 20
-66.8164202238
 11
25.4803925252
 21
-66.9172679788
  0
LINE
  5
30D
100
AcDbEntity
  8
0
100
AcDbLine
 62
7
  6
CONTINUOUS
 10
-25.6287661242
 20
-75.6709135714
 11
-24.900379789
 21
-76.0650226292
  0
LINE
  5
30E
100
AcDbEntity
  8
0
100
AcDbLine
 62
7
  6
CONTINUOUS
 10
-27.7386066791
 20
-78.54588696
 11
-26.2392066709
 21
-79.3624555181
  0
LINE
  5
30F
100
AcDbEntity
  8
0
100
AcDbLine
 62
7
  6
CONTINUOUS
 10
-28.3690989949
 20
-63.9902726325
 11
-28.4466587384
 21
-63.9480457349
  0
LINE
  5
310
100
AcDbEntity
  8
0
100
AcDbLine
 62
7
  6
CONTINUOUS
 10
-26.6690444327
 20
-60.6756081841
 11
-26.591485629
 21
-60.7178354927
  0
LINE
  5
311
100
AcDbEntity
  8
0
100
AcDbLine
 62
7
  6
CONTINUOUS
 10
26.9226393387
 20
-63.990272689
 11
26.8450795543
 21
-63.9480458095
  0
LINE
  5
312
100
AcDbEntity
  8
0
100
AcDbLine
 62
7
  6
CONTINUOUS
 10
28.6226939009
 20
-60.6756082411
 11
28.7002526637
 21
-60.7178355673
  0
LINE
  5
313
100
AcDbEntity
  8
0
100
AcDbLine
 62
7
  6
CONTINUOUS
 10
-0.9499041161
 20
-1.7368024916
 11
-1.0547408356
 21
-1.6797161428
  0
LINE
  5
314
100
AcDbEntity
  8
0
100
AcDbLine
 62
7
  6
CONTINUOUS
 10
1.3476806236
 20
2.7434331603
 11
1.4525202319
 21
2.6863488744
  0
LINE
  5
315
100
AcDbEntity
  8
0
100
AcDbLine
 62
7
  6
CONTINUOUS
 10
-8.2541254095
 20
-7.8920213809
 11
-8.5078365599
 21
-7.7527365278
  0
LINE
  5
316
100
AcDbEntity
  8
0
100
AcDbLine
 62
7
  6
CONTINUOUS
 10
-26.6162863623
 20
-77.0958219621
 11
-25.7620957045
 21
-77.5656742549
  0
LINE
  5
317
100
AcDbEntity
  8
0
100
AcDbLine
 62
7
  6
CONTINUOUS
 10
-32.8012798536
 20
-86.5263218556
 11
-30.8592684252
 21
-87.6179238763
  0
LINE
  5
318
100
AcDbEntity
  8
0
100
AcDbLine
 62
7
  6
CONTINUOUS
 10
-19.870267325
 20
8.1820949895
 11
-19.1229157459
 21
7.7598125526
  0
LINE
  5
319
100
AcDbEntity
  8
0
100
AcDbLine
 62
7
  6
CONTINUOUS
 10
20.1637783628
 20
-2.3950155426
 11
19.4164170107
 21
-1.9727400042
  0
LINE
  5
31A
100
AcDbEntity
  8
0
100
AcDbLine
 62
7
  6
CONTINUOUS
 10
-28.7570402624
 20
-83.3514941949
 11
-30.3797780958
 21
-82.432814144
  0
LINE
  5
31B
100
AcDbEntity
  8
0
100
AcDbLine
 62
7
  6
CONTINUOUS
 10
-31.9610488572
 20
-84.7822165425
 11
-30.1334666134
 21
-85.8262042637
  0
LINE
  5
31C
100
AcDbEntity
  8
0
100
AcDbLine
 62
7
  6
CONTINUOUS
 10
-5.3885964057
 20
-40.9707026484
 11
-5.4718304008
 21
-40.9222456512
  0
LINE
  5
31D
100
AcDbEntity
  8
0
100
AcDbLine
 62
7
  6
CONTINUOUS
 10
5.8627602228
 20
-37.3305570424
 11
5.9460668782
 21
-37.3790593979
  0
LINE
  5
31E
100
AcDbEntity
  8
0
100
AcDbLine
 62
7
  6
CONTINUOUS
 10
-30.1897211227
 20
-66.7076725398
 11
-30.0028976186
 21
-66.8165909399
  0
LINE
  5
31F
100
AcDbEntity
  8
0
100
AcDbLine
 62
7
  6
CONTINUOUS
 10
25.1024645956
 20
-66.7074632097
 11
25.289322392
 21
-66.8164202238
  0
LINE
  5
320
100
AcDbEntity
  8
0
100
AcDbLine
 62
7
  6
CONTINUOUS
 10
-7.706513841
 20
-69.0223366563
 11
-6.9748898688
 21
-69.4564716601
  0
LINE
  5
321
100
AcDbEntity
  8
0
100
AcDbLine
 62
7
  6
CONTINUOUS
 10
8.9765732492
 20
-19.586194687
 11
8.7100222172
 21
-19.4274372701
  0
LINE
  5
322
100
AcDbEntity
  8
0
100
AcDbLine
 62
7
  6
CONTINUOUS
 10
-28.4466587384
 20
-63.9480457349
 11
-28.522227938
 21
-63.9021213765
  0
LINE
  5
323
100
AcDbEntity
  8
0
100
AcDbLine
 62
7
  6
CONTINUOUS
 10
-26.591485629
 20
-60.7178354927
 11
-26.5159172569
 21
-60.7637603256
  0
LINE
  5
324
100
AcDbEntity
  8
0
100
AcDbLine
 62
7
  6
CONTINUOUS
 10
26.8450795543
 20
-63.9480458095
 11
26.7695103184
 21
-63.9021214718
  0
LINE
  5
325
100
AcDbEntity
  8
0
100
AcDbLine
 62
7
  6
CONTINUOUS
 10
28.7002526637
 20
-60.7178355673
 11
28.7758209995
 21
-60.7637604209
  0
LINE
  5
326
100
AcDbEntity
  8
0
100
AcDbLine
 62
7
  6
CONTINUOUS
 10
-1.0547408356
 20
-1.6797161428
 11
-1.1568897763
 21
-1.617630598
  0
LINE
  5
327
100
AcDbEntity
  8
0
100
AcDbLine
 62
7
  6
CONTINUOUS
 10
1.4525202319
 20
2.6863488744
 11
1.5546715269
 21
2.6242656828
  0
LINE
  5
328
100
AcDbEntity
  8
0
100
AcDbLine
 62
7
  6
CONTINUOUS
 10
-26.3358391312
 20
-75.2371675994
 11
-25.6287661242
 21
-75.6709135714
  0
LINE
  5
329
100
AcDbEntity
  8
0
100
AcDbLine
 62
7
  6
CONTINUOUS
 10
-27.4435444689
 20
-76.5768925283
 11
-26.6162863623
 21
-77.0958219621
  0
LINE
  5
32A
100
AcDbEntity
  8
0
100
AcDbLine
 62
7
  6
CONTINUOUS
 10
-30.3719867349
 20
-66.5908299155
 11
-30.1897211227
 21
-66.7076725398
  0
LINE
  5
32B
100
AcDbEntity
  8
0
100
AcDbLine
 62
7
  6
CONTINUOUS
 10
24.9201597077
 20
-66.5905787522
 11
25.1024645956
 21
-66.7074632097
  0
LINE
  5
32C
100
AcDbEntity
  8
0
100
AcDbLine
 62
7
  6
CONTINUOUS
 10
-29.7516220501
 20
-78.9983048078
 11
-28.2432749979
 21
-79.9719622133
  0
LINE
  5
32D
100
AcDbEntity
  8
0
100
AcDbLine
 62
7
  6
CONTINUOUS
 10
-5.4718304008
 20
-40.9222456512
 11
-5.6143005711
 21
-40.8291026714
  0
LINE
  5
32E
100
AcDbEntity
  8
0
100
AcDbLine
 62
7
  6
CONTINUOUS
 10
5.9460668782
 20
-37.3790593979
 11
6.0885302085
 21
-37.4722070671
  0
LINE
  5
32F
100
AcDbEntity
  8
0
100
AcDbLine
 62
7
  6
CONTINUOUS
 10
9.72364155
 20
-35.7111494065
 11
9.8540617067
 21
-35.7982584013
  0
LINE
  5
330
100
AcDbEntity
  8
0
100
AcDbLine
 62
7
  6
CONTINUOUS
 10
-29.1620276269
 20
-77.5939535856
 11
-27.7386066791
 21
-78.54588696
  0
LINE
  5
331
100
AcDbEntity
  8
0
100
AcDbLine
 62
7
  6
CONTINUOUS
 10
-34.6558911186
 20
-85.2820817722
 11
-32.8012798536
 21
-86.5263218556
  0
LINE
  5
332
100
AcDbEntity
  8
0
100
AcDbLine
 62
7
  6
CONTINUOUS
 10
-8.4136514258
 20
-68.5468998866
 11
-7.706513841
 21
-69.0223366563
  0
LINE
  5
333
100
AcDbEntity
  8
0
100
AcDbLine
 62
7
  6
CONTINUOUS
 10
-28.522227938
 20
-63.9021213765
 11
-28.5956298288
 21
-63.8525977417
  0
LINE
  5
334
100
AcDbEntity
  8
0
100
AcDbLine
 62
7
  6
CONTINUOUS
 10
-26.5159172569
 20
-60.7637603256
 11
-26.4425160958
 21
-60.8132844969
  0
LINE
  5
335
100
AcDbEntity
  8
0
100
AcDbLine
 62
7
  6
CONTINUOUS
 10
26.7695103184
 20
-63.9021214718
 11
26.6961083954
 21
-63.8525978607
  0
LINE
  5
336
100
AcDbEntity
  8
0
100
AcDbLine
 62
7
  6
CONTINUOUS
 10
28.7758209995
 20
-60.7637604209
 11
28.8492221284
 21
-60.8132846159
  0
LINE
  5
337
100
AcDbEntity
  8
0
100
AcDbLine
 62
7
  6
CONTINUOUS
 10
-1.1568897763
 20
-1.617630598
 11
-1.2561115382
 21
-1.5506786851
  0
LINE
  5
338
100
AcDbEntity
  8
0
100
AcDbLine
 62
7
  6
CONTINUOUS
 10
1.5546715269
 20
2.6242656828
 11
1.653895222
 21
2.5573163778
  0
LINE
  5
339
100
AcDbEntity
  8
0
100
AcDbLine
 62
7
  6
CONTINUOUS
 10
-30.3797780958
 20
-82.432814144
 11
-31.9284975574
 21
-81.3858570272
  0
LINE
  5
33A
100
AcDbEntity
  8
0
100
AcDbLine
 62
7
  6
CONTINUOUS
 10
-33.7038712698
 20
-83.5927066329
 11
-31.9610488572
 21
-84.7822165425
  0
LINE
  5
33B
100
AcDbEntity
  8
0
100
AcDbLine
 62
7
  6
CONTINUOUS
 10
-27.0194359202
 20
-74.7649899533
 11
-26.3358391312
 21
-75.2371675994
  0
LINE
  5
33C
100
AcDbEntity
  8
0
100
AcDbLine
 62
7
  6
CONTINUOUS
 10
-30.5493520024
 20
-66.4662656447
 11
-30.3719867349
 21
-66.5908299155
  0
LINE
  5
33D
100
AcDbEntity
  8
0
100
AcDbLine
 62
7
  6
CONTINUOUS
 10
24.7427516122
 20
-66.4659700495
 11
24.9201597077
 21
-66.5905787522
  0
LINE
  5
33E
100
AcDbEntity
  8
0
100
AcDbLine
 62
7
  6
CONTINUOUS
 10
-28.2410237303
 20
-76.0105080627
 11
-27.4435444689
 21
-76.5768925283
  0
LINE
  5
33F
100
AcDbEntity
  8
0
100
AcDbLine
 62
7
  6
CONTINUOUS
 10
9.8540617067
 20
-35.7982584013
 11
9.9812728823
 21
-35.8902770132
  0
LINE
  5
340
100
AcDbEntity
  8
0
100
AcDbLine
 62
7
  6
CONTINUOUS
 10
-28.5956298288
 20
-63.8525977417
 11
-28.6666864598
 21
-63.7995854822
  0
LINE
  5
341
100
AcDbEntity
  8
0
100
AcDbLine
 62
7
  6
CONTINUOUS
 10
-26.4425160958
 20
-60.8132844969
 11
-26.3714601132
 21
-60.8662973515
  0
LINE
  5
342
100
AcDbEntity
  8
0
100
AcDbLine
 62
7
  6
CONTINUOUS
 10
26.6961083954
 20
-63.8525978607
 11
26.6250517361
 21
-63.7995856274
  0
LINE
  5
343
100
AcDbEntity
  8
0
100
AcDbLine
 62
7
  6
CONTINUOUS
 10
28.8492221284
 20
-60.8132846159
 11
28.9202780827
 21
-60.8662974967
  0
LINE
  5
344
100
AcDbEntity
  8
0
100
AcDbLine
 62
7
  6
CONTINUOUS
 10
-1.2561115382
 20
-1.5506786851
 11
-1.3521650992
 21
-1.4790101483
  0
LINE
  5
345
100
AcDbEntity
  8
0
100
AcDbLine
 62
7
  6
CONTINUOUS
 10
1.653895222
 20
2.5573163778
 11
1.7499504107
 21
2.4856506538
  0
LINE
  5
346
100
AcDbEntity
  8
0
100
AcDbLine
 62
7
  6
CONTINUOUS
 10
-8.5078365599
 20
-7.7527365278
 11
-8.7406291101
 21
-7.5775182418
  0
LINE
  5
347
100
AcDbEntity
  8
0
100
AcDbLine
 62
7
  6
CONTINUOUS
 10
-5.6143005711
 20
-40.8291026714
 11
-5.748213751
 21
-40.7280980201
  0
LINE
  5
348
100
AcDbEntity
  8
0
100
AcDbLine
 62
7
  6
CONTINUOUS
 10
6.0885302085
 20
-37.4722070671
 11
6.2224367522
 21
-37.573216369
  0
LINE
  5
349
100
AcDbEntity
  8
0
100
AcDbLine
 62
7
  6
CONTINUOUS
 10
-9.0938921226
 20
-68.0316451426
 11
-8.4136514258
 21
-68.5468998866
  0
LINE
  5
34A
100
AcDbEntity
  8
0
100
AcDbLine
 62
7
  6
CONTINUOUS
 10
-30.7214740273
 20
-66.3342036483
 11
-30.5493520024
 21
-66.4662656447
  0
LINE
  5
34B
100
AcDbEntity
  8
0
100
AcDbLine
 62
7
  6
CONTINUOUS
 10
24.5705845749
 20
-66.3338617604
 11
24.7427516122
 21
-66.4659700495
  0
LINE
  5
34C
100
AcDbEntity
  8
0
100
AcDbLine
 62
7
  6
CONTINUOUS
 10
-27.6773790236
 20
-74.2557601805
 11
-27.0194359202
 21
-74.7649899533
  0
LINE
  5
34D
100
AcDbEntity
  8
0
100
AcDbLine
 62
7
  6
CONTINUOUS
 10
-31.1721346439
 20
-77.8926084577
 11
-29.7516220501
 21
-78.9983048078
  0
LINE
  5
34E
100
AcDbEntity
  8
0
100
AcDbLine
 62
7
  6
CONTINUOUS
 10
-19.1229157459
 20
7.7598125526
 11
-18.4417859806
 21
7.2295019283
  0
LINE
  5
34F
100
AcDbEntity
  8
0
100
AcDbLine
 62
7
  6
CONTINUOUS
 10
19.4164170107
 20
-1.9727400042
 11
18.7352828787
 21
-1.4424392529
  0
LINE
  5
350
100
AcDbEntity
  8
0
100
AcDbLine
 62
7
  6
CONTINUOUS
 10
9.9812728823
 20
-35.8902770132
 11
10.1050785095
 21
-35.9870732441
  0
LINE
  5
351
100
AcDbEntity
  8
0
100
AcDbLine
 62
7
  6
CONTINUOUS
 10
-9.3971282909
 20
-42.5972238321
 11
-9.5179612867
 21
-42.5026421899
  0
LINE
  5
352
100
AcDbEntity
  8
0
100
AcDbLine
 62
7
  6
CONTINUOUS
 10
-36.4107585937
 20
-83.8926494993
 11
-34.6558911186
 21
-85.2820817722
  0
LINE
  5
353
100
AcDbEntity
  8
0
100
AcDbLine
 62
7
  6
CONTINUOUS
 10
-31.9284975574
 20
-81.3858570272
 11
-33.3927387248
 21
-80.2169832009
  0
LINE
  5
354
100
AcDbEntity
  8
0
100
AcDbLine
 62
7
  6
CONTINUOUS
 10
-29.0058657243
 20
-75.3985324186
 11
-28.2410237303
 21
-76.0105080627
  0
LINE
  5
355
100
AcDbEntity
  8
0
100
AcDbLine
 62
7
  6
CONTINUOUS
 10
-35.3499484865
 20
-82.2650339867
 11
-33.7038712698
 21
-83.5927066329
  0
LINE
  5
356
100
AcDbEntity
  8
0
100
AcDbLine
 62
7
  6
CONTINUOUS
 10
-30.4969403732
 20
-76.5141217388
 11
-29.1620276269
 21
-77.5939535856
  0
LINE
  5
357
100
AcDbEntity
  8
0
100
AcDbLine
 62
7
  6
CONTINUOUS
 10
-28.6666864598
 20
-63.7995854822
 11
-28.7352206498
 21
-63.7432076073
  0
LINE
  5
358
100
AcDbEntity
  8
0
100
AcDbLine
 62
7
  6
CONTINUOUS
 10
-26.3714601132
 20
-60.8662973515
 11
-26.3029265056
 21
-60.9226758732
  0
LINE
  5
359
100
AcDbEntity
  8
0
100
AcDbLine
 62
7
  6
CONTINUOUS
 10
26.6250517361
 20
-63.7995856274
 11
26.5565175209
 21
-63.7432077808
  0
LINE
  5
35A
100
AcDbEntity
  8
0
100
AcDbLine
 62
7
  6
CONTINUOUS
 10
28.9202780827
 20
-60.8662974967
 11
28.9888116651
 21
-60.9226760467
  0
LINE
  5
35B
100
AcDbEntity
  8
0
100
AcDbLine
 62
7
  6
CONTINUOUS
 10
1.7499504107
 20
2.4856506538
 11
1.8425972248
 21
2.4094349593
  0
LINE
  5
35C
100
AcDbEntity
  8
0
100
AcDbLine
 62
7
  6
CONTINUOUS
 10
-1.3521650992
 20
-1.4790101483
 11
-1.4448104731
 21
-1.402791504
  0
LINE
  5
35D
100
AcDbEntity
  8
0
100
AcDbLine
 62
7
  6
CONTINUOUS
 10
9.2174551003
 20
-19.7851372037
 11
8.9765732492
 21
-19.586194687
  0
LINE
  5
35E
100
AcDbEntity
  8
0
100
AcDbLine
 62
7
  6
CONTINUOUS
 10
-30.8880125056
 20
-66.1948887899
 11
-30.7214740273
 21
-66.3342036483
  0
LINE
  5
35F
100
AcDbEntity
  8
0
100
AcDbLine
 62
7
  6
CONTINUOUS
 10
24.4040001887
 20
-66.1944995883
 11
24.5705845749
 21
-66.3338617604
  0
LINE
  5
360
100
AcDbEntity
  8
0
100
AcDbLine
 62
7
  6
CONTINUOUS
 10
-9.5179612867
 20
-42.5026421899
 11
-9.6353493187
 21
-42.4036856061
  0
LINE
  5
361
100
AcDbEntity
  8
0
100
AcDbLine
 62
7
  6
CONTINUOUS
 10
10.1050785095
 20
-35.9870732441
 11
10.2252837836
 21
-36.088504453
  0
LINE
  5
362
100
AcDbEntity
  8
0
100
AcDbLine
 62
7
  6
CONTINUOUS
 10
-9.7448374065
 20
-67.4782545598
 11
-9.0938921226
 21
-68.0316451426
  0
LINE
  5
363
100
AcDbEntity
  8
0
100
AcDbLine
 62
7
  6
CONTINUOUS
 10
10.4863341578
 20
-45.0790564286
 11
9.8366148893
 21
-44.5219306413
  0
LINE
  5
364
100
AcDbEntity
  8
0
100
AcDbLine
 62
7
  6
CONTINUOUS
 10
-28.3075078252
 20
-73.7110295984
 11
-27.6773790236
 21
-74.2557601805
  0
LINE
  5
365
100
AcDbEntity
  8
0
100
AcDbLine
 62
7
  6
CONTINUOUS
 10
-5.748213751
 20
-40.7280980201
 11
-5.8729367642
 21
-40.6199517244
  0
LINE
  5
366
100
AcDbEntity
  8
0
100
AcDbLine
 62
7
  6
CONTINUOUS
 10
6.2224367522
 20
-37.573216369
 11
6.3471534941
 21
-37.6813674172
  0
LINE
  5
367
100
AcDbEntity
  8
0
100
AcDbLine
 62
7
  6
CONTINUOUS
 10
-29.7352463842
 20
-74.743065386
 11
-29.0058657243
 21
-75.3985324186
  0
LINE
  5
368
100
AcDbEntity
  8
0
100
AcDbLine
 62
7
  6
CONTINUOUS
 10
-28.7352206498
 20
-63.7432076073
 11
-28.8010580088
 21
-63.6835990131
  0
LINE
  5
369
100
AcDbEntity
  8
0
100
AcDbLine
 62
7
  6
CONTINUOUS
 10
-26.3029265056
 20
-60.9226758732
 11
-26.2370896765
 21
-60.9822851597
  0
LINE
  5
36A
100
AcDbEntity
  8
0
100
AcDbLine
 62
7
  6
CONTINUOUS
 10
26.5565175209
 20
-63.7432077808
 11
26.4906801382
 21
-63.6835992168
  0
LINE
  5
36B
100
AcDbEntity
  8
0
100
AcDbLine
 62
7
  6
CONTINUOUS
 10
28.9888116651
 20
-60.9226760467
 11
29.0546484705
 21
-60.982285364
  0
LINE
  5
36C
100
AcDbEntity
  8
0
100
AcDbLine
 62
7
  6
CONTINUOUS
 10
-1.4448104731
 20
-1.402791504
 11
-1.5338114514
 21
-1.3222053939
  0
LINE
  5
36D
100
AcDbEntity
  8
0
100
AcDbLine
 62
7
  6
CONTINUOUS
 10
1.8425972248
 20
2.4094349593
 11
1.9315995725
 21
2.3288518534
  0
LINE
  5
36E
100
AcDbEntity
  8
0
100
AcDbLine
 62
7
  6
CONTINUOUS
 10
-9.6353493187
 20
-42.4036856061
 11
-9.7491158616
 21
-42.3004964938
  0
LINE
  5
36F
100
AcDbEntity
  8
0
100
AcDbLine
 62
7
  6
CONTINUOUS
 10
10.2252837836
 20
-36.088504453
 11
10.3416970665
 21
-36.1944178224
  0
LINE
  5
370
100
AcDbEntity
  8
0
100
AcDbLine
 62
7
  6
CONTINUOUS
 10
-31.0486328049
 20
-66.0485859811
 11
-30.8880125056
 21
-66.1948887899
  0
LINE
  5
371
100
AcDbEntity
  8
0
100
AcDbLine
 62
7
  6
CONTINUOUS
 10
24.243334269
 20
-66.0481493634
 11
24.4040001887
 21
-66.1944995883
  0
LINE
  5
372
100
AcDbEntity
  8
0
100
AcDbLine
 62
7
  6
CONTINUOUS
 10
-30.9040643348
 20
-76.1423633234
 11
-30.4969403732
 21
-76.5141217388
  0
LINE
  5
373
100
AcDbEntity
  8
0
100
AcDbLine
 62
7
  6
CONTINUOUS
 10
-36.3963429577
 20
-81.2990236109
 11
-35.3499484865
 21
-82.2650339867
  0
LINE
  5
374
100
AcDbEntity
  8
0
100
AcDbLine
 62
7
  6
CONTINUOUS
 10
-33.3927387248
 20
-80.2169832009
 11
-34.5224728116
 21
-79.1734164045
  0
LINE
  5
375
100
AcDbEntity
  8
0
100
AcDbLine
 62
7
  6
CONTINUOUS
 10
-38.0536292576
 20
-82.3668863896
 11
-36.4107585937
 21
-83.8926494993
  0
LINE
  5
376
100
AcDbEntity
  8
0
100
AcDbLine
 62
7
  6
CONTINUOUS
 10
-32.4924279869
 20
-76.6635990736
 11
-31.1721346439
 21
-77.8926084577
  0
LINE
  5
377
100
AcDbEntity
  8
0
100
AcDbLine
 62
7
  6
CONTINUOUS
 10
-10.2858698708
 20
-66.9668676437
 11
-9.7448374065
 21
-67.4782545598
  0
LINE
  5
378
100
AcDbEntity
  8
0
100
AcDbLine
 62
7
  6
CONTINUOUS
 10
10.9799558318
 20
-45.5475462893
 11
10.4863341578
 21
-45.0790564286
  0
LINE
  5
379
100
AcDbEntity
  8
0
100
AcDbLine
 62
7
  6
CONTINUOUS
 10
-28.8010580088
 20
-63.6835990131
 11
-28.8070418559
 21
-63.6778923783
  0
LINE
  5
37A
100
AcDbEntity
  8
0
100
AcDbLine
 62
7
  6
CONTINUOUS
 10
-26.2370896765
 20
-60.9822851597
 11
-26.2311155633
 21
-60.9879825826
  0
LINE
  5
37B
100
AcDbEntity
  8
0
100
AcDbLine
 62
7
  6
CONTINUOUS
 10
26.4906801382
 20
-63.6835992168
 11
26.484695865
 21
-63.6778921786
  0
LINE
  5
37C
100
AcDbEntity
  8
0
100
AcDbLine
 62
7
  6
CONTINUOUS
 10
29.0546484705
 20
-60.982285364
 11
29.0606221576
 21
-60.9879823824
  0
LINE
  5
37D
100
AcDbEntity
  8
0
100
AcDbLine
 62
7
  6
CONTINUOUS
 10
1.9315995725
 20
2.3288518534
 11
1.9397117165
 21
2.3211153773
  0
LINE
  5
37E
100
AcDbEntity
  8
0
100
AcDbLine
 62
7
  6
CONTINUOUS
 10
-9.7491158616
 20
-42.3004964938
 11
-9.796280474
 21
-42.2554418856
  0
LINE
  5
37F
100
AcDbEntity
  8
0
100
AcDbLine
 62
7
  6
CONTINUOUS
 10
24.2103412188
 20
-66.0165195188
 11
24.243334269
 21
-66.0481493634
  0
LINE
  5
380
100
AcDbEntity
  8
0
100
AcDbLine
 62
7
  6
CONTINUOUS
 10
-28.9077108345
 20
-73.1325120561
 11
-28.3075078252
 21
-73.7110295984
  0
LINE
  5
381
100
AcDbEntity
  8
0
100
AcDbLine
 62
7
  6
CONTINUOUS
 10
10.3416970665
 20
-36.1944178224
 11
10.4303877907
 21
-36.2806798314
  0
LINE
  5
382
100
AcDbEntity
  8
0
100
AcDbLine
 62
7
  6
CONTINUOUS
 10
-31.2030089988
 20
-65.895578792
 11
-31.0486328049
 21
-66.0485859811
  0
LINE
  5
383
100
AcDbEntity
  8
0
100
AcDbLine
 62
7
  6
CONTINUOUS
 10
-1.5338114514
 20
-1.3222053939
 11
-1.6189383285
 21
-1.2374494463
  0
LINE
  5
384
100
AcDbEntity
  8
0
100
AcDbLine
 62
7
  6
CONTINUOUS
 10
-5.8729367642
 20
-40.6199517244
 11
-5.9879273821
 21
-40.5054047986
  0
LINE
  5
385
100
AcDbEntity
  8
0
100
AcDbLine
 62
7
  6
CONTINUOUS
 10
6.3471534941
 20
-37.6813674172
 11
6.4621383582
 21
-37.7959193722
  0
LINE
  5
386
100
AcDbEntity
  8
0
100
AcDbLine
 62
7
  6
CONTINUOUS
 10
-8.7406291101
 20
-7.5775182418
 11
-8.9381566334
 21
-7.3801176358
  0
LINE
  5
387
100
AcDbEntity
  8
0
100
AcDbLine
 62
7
  6
CONTINUOUS
 10
9.2700848501
 20
-19.8377332874
 11
9.2174551003
 21
-19.7851372037
  0
LINE
  5
388
100
AcDbEntity
  8
0
100
AcDbLine
 62
7
  6
CONTINUOUS
 10
-18.4417859806
 20
7.2295019283
 11
-18.0238548618
 21
6.8115708014
  0
LINE
  5
389
100
AcDbEntity
  8
0
100
AcDbLine
 62
7
  6
CONTINUOUS
 10
18.7352828787
 20
-1.4424392529
 11
18.3172607574
 21
-1.0244171241
  0
LINE
  5
38A
100
AcDbEntity
  8
0
100
AcDbLine
 62
7
  6
CONTINUOUS
 10
-30.3690625775
 20
-74.1073521306
 11
-29.7352463842
 21
-74.743065386
  0
LINE
  5
38B
100
AcDbEntity
  8
0
100
AcDbLine
 62
7
  6
CONTINUOUS
 10
-28.8070418559
 20
-63.6778923783
 11
-28.8697356164
 21
-63.6149218261
  0
LINE
  5
38C
100
AcDbEntity
  8
0
100
AcDbLine
 62
7
  6
CONTINUOUS
 10
-26.2311155633
 20
-60.9879825826
 11
-26.1684218482
 21
-61.0509534116
  0
LINE
  5
38D
100
AcDbEntity
  8
0
100
AcDbLine
 62
7
  6
CONTINUOUS
 10
26.484695865
 20
-63.6778921786
 11
26.4220021025
 21
-63.6149216385
  0
LINE
  5
38E
100
AcDbEntity
  8
0
100
AcDbLine
 62
7
  6
CONTINUOUS
 10
29.0606221576
 20
-60.9879823824
 11
29.1233158707
 21
-61.0509532241
  0
LINE
  5
38F
100
AcDbEntity
  8
0
100
AcDbLine
 62
7
  6
CONTINUOUS
 10
1.9397117165
 20
2.3211153773
 11
2.0244642968
 21
2.2359866864
  0
LINE
  5
390
100
AcDbEntity
  8
0
100
AcDbLine
 62
7
  6
CONTINUOUS
 10
-9.796280474
 20
-42.2554418856
 11
-9.9045741753
 21
-42.1465039806
  0
LINE
  5
391
100
AcDbEntity
  8
0
100
AcDbLine
 62
7
  6
CONTINUOUS
 10
24.0572833875
 20
-65.8621039085
 11
24.2103412188
 21
-66.0165195188
  0
LINE
  5
392
100
AcDbEntity
  8
0
100
AcDbLine
 62
7
  6
CONTINUOUS
 10
-29.0116727691
 20
-73.0256980611
 11
-28.9077108345
 21
-73.1325120561
  0
LINE
  5
393
100
AcDbEntity
  8
0
100
AcDbLine
 62
7
  6
CONTINUOUS
 10
-32.1026659133
 20
-74.9084009804
 11
-30.9040643348
 21
-76.1423633234
  0
LINE
  5
394
100
AcDbEntity
  8
0
100
AcDbLine
 62
7
  6
CONTINUOUS
 10
10.4303877907
 20
-36.2806798314
 11
10.5395466314
 21
-36.3941648957
  0
LINE
  5
395
100
AcDbEntity
  8
0
100
AcDbLine
 62
7
  6
CONTINUOUS
 10
-31.2347502479
 20
-65.8624704875
 11
-31.2030089988
 21
-65.895578792
  0
LINE
  5
396
100
AcDbEntity
  8
0
100
AcDbLine
 62
7
  6
CONTINUOUS
 10
-1.6189383285
 20
-1.2374494463
 11
-1.6265770807
 21
-1.2294397334
  0
LINE
  5
397
100
AcDbEntity
  8
0
100
AcDbLine
 62
7
  6
CONTINUOUS
 10
11.5703146486
 20
-46.1673802639
 11
10.9799558318
 21
-45.5475462893
  0
LINE
  5
398
100
AcDbEntity
  8
0
100
AcDbLine
 62
7
  6
CONTINUOUS
 10
-10.8755301532
 20
-66.3475729109
 11
-10.2858698708
 21
-66.9668676437
  0
LINE
  5
399
100
AcDbEntity
  8
0
100
AcDbLine
 62
7
  6
CONTINUOUS
 10
-37.8534328916
 20
-79.7615495962
 11
-36.3963429577
 21
-81.2990236109
  0
LINE
  5
39A
100
AcDbEntity
  8
0
100
AcDbLine
 62
7
  6
CONTINUOUS
 10
-4.3464562224
 20
40.8520180201
 11
-4.5074717509
 21
41.023436546
  0
LINE
  5
39B
100
AcDbEntity
  8
0
100
AcDbLine
 62
7
  6
CONTINUOUS
 10
-34.5224728116
 20
-79.1734164045
 11
-35.8056936557
 21
-77.8040489716
  0
LINE
  5
39C
100
AcDbEntity
  8
0
100
AcDbLine
 62
7
  6
CONTINUOUS
 10
-9.9045741753
 20
-42.1465039806
 11
-10.0087975713
 21
-42.0337608969
  0
LINE
  5
39D
100
AcDbEntity
  8
0
100
AcDbLine
 62
7
  6
CONTINUOUS
 10
-39.4810316418
 20
-80.8223755688
 11
-38.0536292576
 21
-82.3668863896
  0
LINE
  5
39E
100
AcDbEntity
  8
0
100
AcDbLine
 62
7
  6
CONTINUOUS
 10
-33.4810075163
 20
-75.5837356139
 11
-32.4924279869
 21
-76.6635990736
  0
LINE
  5
39F
100
AcDbEntity
  8
0
100
AcDbLine
 62
7
  6
CONTINUOUS
 10
-29.573596283
 20
-72.4102230811
 11
-29.0116727691
 21
-73.0256980611
  0
LINE
  5
3A0
100
AcDbEntity
  8
0
100
AcDbLine
 62
7
  6
CONTINUOUS
 10
-31.3810605139
 20
-65.701845409
 11
-31.2347502479
 21
-65.8624704875
  0
LINE
  5
3A1
100
AcDbEntity
  8
0
100
AcDbLine
 62
7
  6
CONTINUOUS
 10
23.910929765
 20
-65.7014436337
 11
24.0572833875
 21
-65.8621039085
  0
LINE
  5
3A2
100
AcDbEntity
  8
0
100
AcDbLine
 62
7
  6
CONTINUOUS
 10
-28.8697356164
 20
-63.6149218261
 11
-28.9293445575
 21
-63.5490848912
  0
LINE
  5
3A3
100
AcDbEntity
  8
0
100
AcDbLine
 62
7
  6
CONTINUOUS
 10
-26.1684218482
 20
-61.0509534116
 11
-26.1088129101
 21
-61.1167906673
  0
LINE
  5
3A4
100
AcDbEntity
  8
0
100
AcDbLine
 62
7
  6
CONTINUOUS
 10
26.4220021025
 20
-63.6149216385
 11
26.3623931614
 21
-63.5490847177
  0
LINE
  5
3A5
100
AcDbEntity
  8
0
100
AcDbLine
 62
7
  6
CONTINUOUS
 10
29.1233158707
 20
-61.0509532241
 11
29.1829248083
 21
-61.1167904938
  0
LINE
  5
3A6
100
AcDbEntity
  8
0
100
AcDbLine
 62
7
  6
CONTINUOUS
 10
-1.6265770807
 20
-1.2294397334
 11
-1.7071632417
 21
-1.1404386397
  0
LINE
  5
3A7
100
AcDbEntity
  8
0
100
AcDbLine
 62
7
  6
CONTINUOUS
 10
2.0244642968
 20
2.2359866864
 11
2.1050470386
 21
2.1469838924
  0
LINE
  5
3A8
100
AcDbEntity
  8
0
100
AcDbLine
 62
7
  6
CONTINUOUS
 10
-31.0223801397
 20
-73.3759799398
 11
-30.3690625775
 21
-74.1073521306
  0
LINE
  5
3A9
100
AcDbEntity
  8
0
100
AcDbLine
 62
7
  6
CONTINUOUS
 10
10.5395466314
 20
-36.3941648957
 11
10.6443640154
 21
-36.5116046636
  0
LINE
  5
3AA
100
AcDbEntity
  8
0
100
AcDbLine
 62
7
  6
CONTINUOUS
 10
-4.5074717509
 20
41.023436546
 11
-4.6620184184
 21
41.2005616809
  0
LINE
  5
3AB
100
AcDbEntity
  8
0
100
AcDbLine
 62
7
  6
CONTINUOUS
 10
-5.9879273821
 20
-40.5054047986
 11
-6.0927408452
 21
-40.3851986521
  0
LINE
  5
3AC
100
AcDbEntity
  8
0
100
AcDbLine
 62
7
  6
CONTINUOUS
 10
6.4621383582
 20
-37.7959193722
 11
6.5669467123
 21
-37.9161310295
  0
LINE
  5
3AD
100
AcDbEntity
  8
0
100
AcDbLine
 62
7
  6
CONTINUOUS
 10
-10.0087975713
 20
-42.0337608969
 11
-10.1087996833
 21
-41.9173837674
  0
LINE
  5
3AE
100
AcDbEntity
  8
0
100
AcDbLine
 62
7
  6
CONTINUOUS
 10
12.1242705726
 20
-46.8186871283
 11
11.5703146486
 21
-46.1673802639
  0
LINE
  5
3AF
100
AcDbEntity
  8
0
100
AcDbLine
 62
7
  6
CONTINUOUS
 10
-11.4289243716
 20
-65.6966360962
 11
-10.8755301532
 21
-66.3475729109
  0
LINE
  5
3B0
100
AcDbEntity
  8
0
100
AcDbLine
 62
7
  6
CONTINUOUS
 10
-31.5203850385
 20
-65.5352990939
 11
-31.3810605139
 21
-65.701845409
  0
LINE
  5
3B1
100
AcDbEntity
  8
0
100
AcDbLine
 62
7
  6
CONTINUOUS
 10
23.7715648494
 20
-65.5348656882
 11
23.910929765
 21
-65.7014436337
  0
LINE
  5
3B2
100
AcDbEntity
  8
0
100
AcDbLine
 62
7
  6
CONTINUOUS
 10
10.6443640154
 20
-36.5116046636
 11
10.7446789171
 21
-36.6328112856
  0
LINE
  5
3B3
100
AcDbEntity
  8
0
100
AcDbLine
 62
7
  6
CONTINUOUS
 10
9.4690745887
 20
-20.078357762
 11
9.2700848501
 21
-19.8377332874
  0
LINE
  5
3B4
100
AcDbEntity
  8
0
100
AcDbLine
 62
7
  6
CONTINUOUS
 10
-28.9293445575
 20
-63.5490848912
 11
-28.9857227409
 21
-63.4805511681
  0
LINE
  5
3B5
100
AcDbEntity
  8
0
100
AcDbLine
 62
7
  6
CONTINUOUS
 10
-26.1088129101
 20
-61.1167906673
 11
-26.0524346989
 21
-61.1853247448
  0
LINE
  5
3B6
100
AcDbEntity
  8
0
100
AcDbLine
 62
7
  6
CONTINUOUS
 10
26.3623931614
 20
-63.5490847177
 11
26.306014979
 21
-63.4805510098
  0
LINE
  5
3B7
100
AcDbEntity
  8
0
100
AcDbLine
 62
7
  6
CONTINUOUS
 10
29.1829248083
 20
-61.1167904938
 11
29.239303021
 21
-61.185324587
  0
LINE
  5
3B8
100
AcDbEntity
  8
0
100
AcDbLine
 62
7
  6
CONTINUOUS
 10
-1.7071632417
 20
-1.1404386397
 11
-1.7833819692
 21
-1.0477931049
  0
LINE
  5
3B9
100
AcDbEntity
  8
0
100
AcDbLine
 62
7
  6
CONTINUOUS
 10
2.1050470386
 20
2.1469838924
 11
2.1812624084
 21
2.0543365878
  0
LINE
  5
3BA
100
AcDbEntity
  8
0
100
AcDbLine
 62
7
  6
CONTINUOUS
 10
-1.370442016
 20
43.9356339904
 11
-1.4331965176
 21
44.0119088205
  0
LINE
  5
3BB
100
AcDbEntity
  8
0
100
AcDbLine
 62
7
  6
CONTINUOUS
 10
-30.1009025629
 20
-71.7658124897
 11
-29.573596283
 21
-72.4102230811
  0
LINE
  5
3BC
100
AcDbEntity
  8
0
100
AcDbLine
 62
7
  6
CONTINUOUS
 10
-4.6620184184
 20
41.2005616809
 11
-4.8098672036
 21
41.3831180441
  0
LINE
  5
3BD
100
AcDbEntity
  8
0
100
AcDbLine
 62
7
  6
CONTINUOUS
 10
-33.18247431
 20
-73.5735244399
 11
-32.1026659133
 21
-74.9084009804
  0
LINE
  5
3BE
100
AcDbEntity
  8
0
100
AcDbLine
 62
7
  6
CONTINUOUS
 10
-39.1811053311
 20
-78.1154726463
 11
-37.8534328916
 21
-79.7615495962
  0
LINE
  5
3BF
100
AcDbEntity
  8
0
100
AcDbLine
 62
7
  6
CONTINUOUS
 10
-35.8056936557
 20
-77.8040489716
 11
-36.9745515031
 21
-76.3398516371
  0
LINE
  5
3C0
100
AcDbEntity
  8
0
100
AcDbLine
 62
7
  6
CONTINUOUS
 10
-10.1087996833
 20
-41.9173837674
 11
-10.2044380114
 21
-41.7975478718
  0
LINE
  5
3C1
100
AcDbEntity
  8
0
100
AcDbLine
 62
7
  6
CONTINUOUS
 10
-31.6321276815
 20
-72.609243123
 11
-31.0223801397
 21
-73.3759799398
  0
LINE
  5
3C2
100
AcDbEntity
  8
0
100
AcDbLine
 62
7
  6
CONTINUOUS
 10
-40.8704660673
 20
-79.0675045207
 11
-39.4810316418
 21
-80.8223755688
  0
LINE
  5
3C3
100
AcDbEntity
  8
0
100
AcDbLine
 62
7
  6
CONTINUOUS
 10
-18.0238548618
 20
6.8115708014
 11
-17.493544243
 21
6.1304410189
  0
LINE
  5
3C4
100
AcDbEntity
  8
0
100
AcDbLine
 62
7
  6
CONTINUOUS
 10
18.3172607574
 20
-1.0244171241
 11
17.7869600126
 21
-0.3432829749
  0
LINE
  5
3C5
100
AcDbEntity
  8
0
100
AcDbLine
 62
7
  6
CONTINUOUS
 10
-34.5867036139
 20
-74.1632233631
 11
-33.4810075163
 21
-75.5837356139
  0
LINE
  5
3C6
100
AcDbEntity
  8
0
100
AcDbLine
 62
7
  6
CONTINUOUS
 10
-31.6524585215
 20
-65.3631664244
 11
-31.5203850385
 21
-65.5352990939
  0
LINE
  5
3C7
100
AcDbEntity
  8
0
100
AcDbLine
 62
7
  6
CONTINUOUS
 10
23.6394544128
 20
-65.3627058811
 11
23.7715648494
 21
-65.5348656882
  0
LINE
  5
3C8
100
AcDbEntity
  8
0
100
AcDbLine
 62
7
  6
CONTINUOUS
 10
10.7446789171
 20
-36.6328112856
 11
10.8403399153
 21
-36.757592562
  0
LINE
  5
3C9
100
AcDbEntity
  8
0
100
AcDbLine
 62
7
  6
CONTINUOUS
 10
12.6399611759
 20
-47.4991099833
 11
12.1242705726
 21
-46.8186871283
  0
LINE
  5
3CA
100
AcDbEntity
  8
0
100
AcDbLine
 62
7
  6
CONTINUOUS
 10
-11.9441817104
 20
-65.0164052794
 11
-11.4289243716
 21
-65.6966360962
  0
LINE
  5
3CB
100
AcDbEntity
  8
0
100
AcDbLine
 62
7
  6
CONTINUOUS
 10
-8.9381566334
 20
-7.3801176358
 11
-9.1134094033
 21
-7.1475795294
  0
LINE
  5
3CC
100
AcDbEntity
  8
0
100
AcDbLine
 62
7
  6
CONTINUOUS
 10
-6.0927408452
 20
-40.3851986521
 11
-6.1870300683
 21
-40.2600551493
  0
LINE
  5
3CD
100
AcDbEntity
  8
0
100
AcDbLine
 62
7
  6
CONTINUOUS
 10
6.5669467123
 20
-37.9161310295
 11
6.6612315646
 21
-38.0412807486
  0
LINE
  5
3CE
100
AcDbEntity
  8
0
100
AcDbLine
 62
7
  6
CONTINUOUS
 10
-4.8098672036
 20
41.3831180441
 11
-4.9508034453
 21
41.5708249889
  0
LINE
  5
3CF
100
AcDbEntity
  8
0
100
AcDbLine
 62
7
  6
CONTINUOUS
 10
-1.7833819692
 20
-1.0477931049
 11
-1.8550506158
 21
-0.9517393411
  0
LINE
  5
3D0
100
AcDbEntity
  8
0
100
AcDbLine
 62
7
  6
CONTINUOUS
 10
-1.4331965176
 20
44.0119088205
 11
-1.4922030024
 21
44.0909868225
  0
LINE
  5
3D1
100
AcDbEntity
  8
0
100
AcDbLine
 62
7
  6
CONTINUOUS
 10
-28.9857227409
 20
-63.4805511681
 11
-29.0387352738
 21
-63.4094950484
  0
LINE
  5
3D2
100
AcDbEntity
  8
0
100
AcDbLine
 62
7
  6
CONTINUOUS
 10
-26.0524346989
 20
-61.1853247448
 11
-25.9994221187
 21
-61.2563812423
  0
LINE
  5
3D3
100
AcDbEntity
  8
0
100
AcDbLine
 62
7
  6
CONTINUOUS
 10
26.306014979
 20
-63.4805510098
 11
26.2530024486
 21
-63.4094949072
  0
LINE
  5
3D4
100
AcDbEntity
  8
0
100
AcDbLine
 62
7
  6
CONTINUOUS
 10
29.239303021
 20
-61.185324587
 11
29.2923156032
 21
-61.2563811011
  0
LINE
  5
3D5
100
AcDbEntity
  8
0
100
AcDbLine
 62
7
  6
CONTINUOUS
 10
2.1812624084
 20
2.0543365878
 11
2.252927846
 21
1.958280861
  0
LINE
  5
3D6
100
AcDbEntity
  8
0
100
AcDbLine
 62
7
  6
CONTINUOUS
 10
-10.2044380114
 20
-41.7975478718
 11
-10.2955791225
 21
-41.674431443
  0
LINE
  5
3D7
100
AcDbEntity
  8
0
100
AcDbLine
 62
7
  6
CONTINUOUS
 10
-30.5919521803
 20
-71.0946068251
 11
-30.1009025629
 21
-71.7658124897
  0
LINE
  5
3D8
100
AcDbEntity
  8
0
100
AcDbLine
 62
7
  6
CONTINUOUS
 10
10.8403399153
 20
-36.757592562
 11
10.9312058246
 21
-36.8857533263
  0
LINE
  5
3D9
100
AcDbEntity
  8
0
100
AcDbLine
 62
7
  6
CONTINUOUS
 10
-32.196211275
 20
-71.8099713881
 11
-31.6321276815
 21
-72.609243123
  0
LINE
  5
3DA
100
AcDbEntity
  8
0
100
AcDbLine
 62
7
  6
CONTINUOUS
 10
-31.7770356438
 20
-65.1857881118
 11
-31.6524585215
 21
-65.3631664244
  0
LINE
  5
3DB
100
AcDbEntity
  8
0
100
AcDbLine
 62
7
  6
CONTINUOUS
 10
23.5148440929
 20
-65.1853057834
 11
23.6394544128
 21
-65.3627058811
  0
LINE
  5
3DC
100
AcDbEntity
  8
0
100
AcDbLine
 62
7
  6
CONTINUOUS
 10
-4.9508034453
 20
41.5708249889
 11
-5.0846276074
 21
41.7633985908
  0
LINE
  5
3DD
100
AcDbEntity
  8
0
100
AcDbLine
 62
7
  6
CONTINUOUS
 10
-10.2955791225
 20
-41.674431443
 11
-10.3820990758
 21
-41.5482144525
  0
LINE
  5
3DE
100
AcDbEntity
  8
0
100
AcDbLine
 62
7
  6
CONTINUOUS
 10
-40.370614987
 20
-76.3726505968
 11
-39.1811053311
 21
-78.1154726463
  0
LINE
  5
3DF
100
AcDbEntity
  8
0
100
AcDbLine
 62
7
  6
CONTINUOUS
 10
-36.9745515031
 20
-76.3398516371
 11
-38.0214860765
 21
-74.7911886896
  0
LINE
  5
3E0
100
AcDbEntity
  8
0
100
AcDbLine
 62
7
  6
CONTINUOUS
 10
-29.0387352738
 20
-63.4094950484
 11
-29.0882591466
 21
-63.3360937163
  0
LINE
  5
3E1
100
AcDbEntity
  8
0
100
AcDbLine
 62
7
  6
CONTINUOUS
 10
-25.9994221187
 20
-61.2563812423
 11
-25.9498981869
 21
-61.3297829661
  0
LINE
  5
3E2
100
AcDbEntity
  8
0
100
AcDbLine
 62
7
  6
CONTINUOUS
 10
26.2530024486
 20
-63.4094949072
 11
26.2034785784
 21
-63.3360935918
  0
LINE
  5
3E3
100
AcDbEntity
  8
0
100
AcDbLine
 62
7
  6
CONTINUOUS
 10
29.2923156032
 20
-61.2563811011
 11
29.3418395381
 21
-61.3297828416
  0
LINE
  5
3E4
100
AcDbEntity
  8
0
100
AcDbLine
 62
7
  6
CONTINUOUS
 10
-1.8550506158
 20
-0.9517393411
 11
-1.9220026578
 21
-0.8525173418
  0
LINE
  5
3E5
100
AcDbEntity
  8
0
100
AcDbLine
 62
7
  6
CONTINUOUS
 10
2.252927846
 20
1.958280861
 11
2.3198769009
 21
1.8590565779
  0
LINE
  5
3E6
100
AcDbEntity
  8
0
100
AcDbLine
 62
7
  6
CONTINUOUS
 10
-1.4922030024
 20
44.0909868225
 11
-1.5473246409
 21
44.1726705254
  0
LINE
  5
3E7
100
AcDbEntity
  8
0
100
AcDbLine
 62
7
  6
CONTINUOUS
 10
-29.0387352738
 20
90.9050296143
 11
-29.0882591466
 21
90.9784309464
  0
LINE
  5
3E8
100
AcDbEntity
  8
0
100
AcDbLine
 62
7
  6
CONTINUOUS
 10
1.8900505098
 20
46.4864769865
 11
1.9451754611
 21
46.404793039
  0
LINE
  5
3E9
100
AcDbEntity
  8
0
100
AcDbLine
 62
7
  6
CONTINUOUS
 10
13.1157174292
 20
-48.2062479191
 11
12.6399611759
 21
-47.4991099833
  0
LINE
  5
3EA
100
AcDbEntity
  8
0
100
AcDbLine
 62
7
  6
CONTINUOUS
 10
-12.4196201915
 20
-64.309278921
 11
-11.9441817104
 21
-65.0164052794
  0
LINE
  5
3EB
100
AcDbEntity
  8
0
100
AcDbLine
 62
7
  6
CONTINUOUS
 10
-42.1147088318
 20
-77.2128885829
 11
-40.8704660673
 21
-79.0675045207
  0
LINE
  5
3EC
100
AcDbEntity
  8
0
100
AcDbLine
 62
7
  6
CONTINUOUS
 10
-34.1343782374
 20
-72.1501529519
 11
-33.18247431
 21
-73.5735244399
  0
LINE
  5
3ED
100
AcDbEntity
  8
0
100
AcDbLine
 62
7
  6
CONTINUOUS
 10
10.9312058246
 20
-36.8857533263
 11
11.0171461289
 21
-37.0170968483
  0
LINE
  5
3EE
100
AcDbEntity
  8
0
100
AcDbLine
 62
7
  6
CONTINUOUS
 10
-31.045273123
 20
-70.398781167
 11
-30.5919521803
 21
-71.0946068251
  0
LINE
  5
3EF
100
AcDbEntity
  8
0
100
AcDbLine
 62
7
  6
CONTINUOUS
 10
-35.5603607229
 20
-72.6548767611
 11
-34.5867036139
 21
-74.1632233631
  0
LINE
  5
3F0
100
AcDbEntity
  8
0
100
AcDbLine
 62
7
  6
CONTINUOUS
 10
-6.1870300683
 20
-40.2600551493
 11
-6.2705398366
 21
-40.1306588456
  0
LINE
  5
3F1
100
AcDbEntity
  8
0
100
AcDbLine
 62
7
  6
CONTINUOUS
 10
6.6612315646
 20
-38.0412807486
 11
6.7447377513
 21
-38.1706842034
  0
LINE
  5
3F2
100
AcDbEntity
  8
0
100
AcDbLine
 62
7
  6
CONTINUOUS
 10
-5.0846276074
 20
41.7633985908
 11
-5.211155759
 21
41.9605536315
  0
LINE
  5
3F3
100
AcDbEntity
  8
0
100
AcDbLine
 62
7
  6
CONTINUOUS
 10
23.3979584792
 20
-65.0030096239
 11
23.5148440929
 21
-65.1853057834
  0
LINE
  5
3F4
100
AcDbEntity
  8
0
100
AcDbLine
 62
7
  6
CONTINUOUS
 10
-31.8938919915
 20
-65.003507613
 11
-31.7770356438
 21
-65.1857881118
  0
LINE
  5
3F5
100
AcDbEntity
  8
0
100
AcDbLine
 62
7
  6
CONTINUOUS
 10
-10.3820990758
 20
-41.5482144525
 11
-10.4638836734
 21
-41.4190773945
  0
LINE
  5
3F6
100
AcDbEntity
  8
0
100
AcDbLine
 62
7
  6
CONTINUOUS
 10
-32.7127728421
 20
-70.9810286057
 11
-32.196211275
 21
-71.8099713881
  0
LINE
  5
3F7
100
AcDbEntity
  8
0
100
AcDbLine
 62
7
  6
CONTINUOUS
 10
-29.0882591466
 20
-63.3360937163
 11
-29.1341837097
 21
-63.2605251253
  0
LINE
  5
3F8
100
AcDbEntity
  8
0
100
AcDbLine
 62
7
  6
CONTINUOUS
 10
-25.9498981869
 20
-61.3297829661
 11
-25.9039735598
 21
-61.4053519509
  0
LINE
  5
3F9
100
AcDbEntity
  8
0
100
AcDbLine
 62
7
  6
CONTINUOUS
 10
26.2034785784
 20
-63.3360935918
 11
26.1575540178
 21
-63.2605250184
  0
LINE
  5
3FA
100
AcDbEntity
  8
0
100
AcDbLine
 62
7
  6
CONTINUOUS
 10
29.3418395381
 20
-61.3297828416
 11
29.3877641677
 21
-61.405351844
  0
LINE
  5
3FB
100
AcDbEntity
  8
0
100
AcDbLine
 62
7
  6
CONTINUOUS
 10
-1.9220026578
 20
-0.8525173418
 11
-1.9840883439
 21
-0.7503681374
  0
LINE
  5
3FC
100
AcDbEntity
  8
0
100
AcDbLine
 62
7
  6
CONTINUOUS
 10
2.3198769009
 20
1.8590565779
 11
2.3819598772
 21
1.7569046421
  0
LINE
  5
3FD
100
AcDbEntity
  8
0
100
AcDbLine
 62
7
  6
CONTINUOUS
 10
-1.5473246409
 20
44.1726705254
 11
-1.5984384637
 21
44.2567617368
  0
LINE
  5
3FE
100
AcDbEntity
  8
0
100
AcDbLine
 62
7
  6
CONTINUOUS
 10
-29.0882591466
 20
90.9784309464
 11
-29.1341837097
 21
91.0539995369
  0
LINE
  5
3FF
100
AcDbEntity
  8
0
100
AcDbLine
 62
7
  6
CONTINUOUS
 10
1.9451754611
 20
46.404793039
 11
1.9962920416
 21
46.3207025129
  0
LINE
  5
400
100
AcDbEntity
  8
0
100
AcDbLine
 62
7
  6
CONTINUOUS
 10
-25.9498981869
 20
92.9847416966
 11
-25.9039735598
 21
92.9091727113
  0
LINE
  5
401
100
AcDbEntity
  8
0
100
AcDbLine
 62
7
  6
CONTINUOUS
 10
11.0171461289
 20
-37.0170968483
 11
11.0980412133
 21
-37.1514262273
  0
LINE
  5
402
100
AcDbEntity
  8
0
100
AcDbLine
 62
7
  6
CONTINUOUS
 10
9.6278284039
 20
-20.3445542513
 11
9.4690745887
 21
-20.078357762
  0
LINE
  5
403
100
AcDbEntity
  8
0
100
AcDbLine
 62
7
  6
CONTINUOUS
 10
13.550071926
 20
-48.9376946726
 11
13.1157174292
 21
-48.2062479191
  0
LINE
  5
404
100
AcDbEntity
  8
0
100
AcDbLine
 62
7
  6
CONTINUOUS
 10
-12.8537561931
 20
-63.577667411
 11
-12.4196201915
 21
-64.309278921
  0
LINE
  5
405
100
AcDbEntity
  8
0
100
AcDbLine
 62
7
  6
CONTINUOUS
 10
-5.211155759
 20
41.9605536315
 11
-5.3302197738
 21
42.1620055503
  0
LINE
  5
406
100
AcDbEntity
  8
0
100
AcDbLine
 62
7
  6
CONTINUOUS
 10
-22.3945912172
 20
8.7965393052
 11
-22.359725919
 21
8.7373038738
  0
LINE
  5
407
100
AcDbEntity
  8
0
100
AcDbLine
 62
7
  6
CONTINUOUS
 10
-10.4638836734
 20
-41.4190773945
 11
-10.5408285448
 21
-41.2872001042
  0
LINE
  5
408
100
AcDbEntity
  8
0
100
AcDbLine
 62
7
  6
CONTINUOUS
 10
23.2890006981
 20
-64.8161612336
 11
23.3979584792
 21
-65.0030096239
  0
LINE
  5
409
100
AcDbEntity
  8
0
100
AcDbLine
 62
7
  6
CONTINUOUS
 10
-32.002824481
 20
-64.8166680867
 11
-31.8938919915
 21
-65.003507613
  0
LINE
  5
40A
100
AcDbEntity
  8
0
100
AcDbLine
 62
7
  6
CONTINUOUS
 10
-31.4595669836
 20
-69.6805130402
 11
-31.045273123
 21
-70.398781167
  0
LINE
  5
40B
100
AcDbEntity
  8
0
100
AcDbLine
 62
7
  6
CONTINUOUS
 10
-41.4146024425
 20
-74.5450687689
 11
-40.370614987
 21
-76.3726505968
  0
LINE
  5
40C
100
AcDbEntity
  8
0
100
AcDbLine
 62
7
  6
CONTINUOUS
 10
-38.0214860765
 20
-74.7911886896
 11
-38.9401408983
 21
-73.1685153765
  0
LINE
  5
40D
100
AcDbEntity
  8
0
100
AcDbLine
 62
7
  6
CONTINUOUS
 10
-17.493544243
 20
6.1304410189
 11
-17.0712618092
 21
5.3830894172
  0
LINE
  5
40E
100
AcDbEntity
  8
0
100
AcDbLine
 62
7
  6
CONTINUOUS
 10
17.7869600126
 20
-0.3432829749
 11
17.3646844767
 21
0.4040784
  0
LINE
  5
40F
100
AcDbEntity
  8
0
100
AcDbLine
 62
7
  6
CONTINUOUS
 10
-43.2063136887
 20
-75.270871864
 11
-42.1147088318
 21
-77.2128885829
  0
LINE
  5
410
100
AcDbEntity
  8
0
100
AcDbLine
 62
7
  6
CONTINUOUS
 10
11.0980412133
 20
-37.1514262273
 11
11.1737823955
 21
-37.2885457346
  0
LINE
  5
411
100
AcDbEntity
  8
0
100
AcDbLine
 62
7
  6
CONTINUOUS
 10
-9.1134094033
 20
-7.1475795294
 11
-9.2526925435
 21
-6.8941964327
  0
LINE
  5
412
100
AcDbEntity
  8
0
100
AcDbLine
 62
7
  6
CONTINUOUS
 10
-33.1801959129
 20
-70.1252662916
 11
-32.7127728421
 21
-70.9810286057
  0
LINE
  5
413
100
AcDbEntity
  8
0
100
AcDbLine
 62
7
  6
CONTINUOUS
 10
-6.2705398366
 20
-40.1306588456
 11
-6.3430958448
 21
-39.997642566
  0
LINE
  5
414
100
AcDbEntity
  8
0
100
AcDbLine
 62
7
  6
CONTINUOUS
 10
6.7447377513
 20
-38.1706842034
 11
6.8172909706
 21
-38.3037087954
  0
LINE
  5
415
100
AcDbEntity
  8
0
100
AcDbLine
 62
7
  6
CONTINUOUS
 10
-34.9509164483
 20
-70.6508088391
 11
-34.1343782374
 21
-72.1501529519
  0
LINE
  5
416
100
AcDbEntity
  8
0
100
AcDbLine
 62
7
  6
CONTINUOUS
 10
-1.9840883439
 20
-0.7503681374
 11
-2.0411748373
 21
-0.6455311395
  0
LINE
  5
417
100
AcDbEntity
  8
0
100
AcDbLine
 62
7
  6
CONTINUOUS
 10
2.3819598772
 20
1.7569046421
 11
2.4390439811
 21
1.652064338
  0
LINE
  5
418
100
AcDbEntity
  8
0
100
AcDbLine
 62
7
  6
CONTINUOUS
 10
-1.5984384637
 20
44.2567617368
 11
-1.6454354622
 21
44.34306373
  0
LINE
  5
419
100
AcDbEntity
  8
0
100
AcDbLine
 62
7
  6
CONTINUOUS
 10
1.9962920416
 20
46.3207025129
 11
2.0432912769
 21
46.2344021772
  0
LINE
  5
41A
100
AcDbEntity
  8
0
100
AcDbLine
 62
7
  6
CONTINUOUS
 10
-29.1341837097
 20
-63.2605251253
 11
-29.1764107813
 21
-63.1829660434
  0
LINE
  5
41B
100
AcDbEntity
  8
0
100
AcDbLine
 62
7
  6
CONTINUOUS
 10
-25.9039735598
 20
-61.4053519509
 11
-25.8617464256
 21
-61.4829114211
  0
LINE
  5
41C
100
AcDbEntity
  8
0
100
AcDbLine
 62
7
  6
CONTINUOUS
 10
26.1575540178
 20
-63.2605250184
 11
26.1153269492
 21
-63.1829659536
  0
LINE
  5
41D
100
AcDbEntity
  8
0
100
AcDbLine
 62
7
  6
CONTINUOUS
 10
29.3877641677
 20
-61.405351844
 11
29.4299913043
 21
-61.4829113309
  0
LINE
  5
41E
100
AcDbEntity
  8
0
100
AcDbLine
 62
7
  6
CONTINUOUS
 10
-29.1341837097
 20
91.0539995369
 11
-29.1764107813
 21
91.1315586188
  0
LINE
  5
41F
100
AcDbEntity
  8
0
100
AcDbLine
 62
7
  6
CONTINUOUS
 10
-25.9039735598
 20
92.9091727113
 11
-25.8617464256
 21
92.8316132416
  0
LINE
  5
420
100
AcDbEntity
  8
0
100
AcDbLine
 62
7
  6
CONTINUOUS
 10
-5.3302197738
 20
42.1620055503
 11
-5.4416672517
 21
42.3674723056
  0
LINE
  5
421
100
AcDbEntity
  8
0
100
AcDbLine
 62
7
  6
CONTINUOUS
 10
-10.5408285448
 20
-41.2872001042
 11
-10.6128390642
 21
-41.1527606267
  0
LINE
  5
422
100
AcDbEntity
  8
0
100
AcDbLine
 62
7
  6
CONTINUOUS
 10
-32.1036512918
 20
-64.6256094824
 11
-32.002824481
 21
-64.8166680867
  0
LINE
  5
423
100
AcDbEntity
  8
0
100
AcDbLine
 62
7
  6
CONTINUOUS
 10
23.1881524929
 20
-64.6251011191
 11
23.2890006981
 21
-64.8161612336
  0
LINE
  5
424
100
AcDbEntity
  8
0
100
AcDbLine
 62
7
  6
CONTINUOUS
 10
-36.3948557074
 20
-71.0710927918
 11
-35.5603607229
 21
-72.6548767611
  0
LINE
  5
425
100
AcDbEntity
  8
0
100
AcDbLine
 62
7
  6
CONTINUOUS
 10
13.9417587758
 20
-49.6910754932
 11
13.550071926
 21
-48.9376946726
  0
LINE
  5
426
100
AcDbEntity
  8
0
100
AcDbLine
 62
7
  6
CONTINUOUS
 10
-13.2453057029
 20
-62.8239560478
 11
-12.8537561931
 21
-63.577667411
  0
LINE
  5
427
100
AcDbEntity
  8
0
100
AcDbLine
 62
7
  6
CONTINUOUS
 10
-31.833708529
 20
-68.9419518353
 11
-31.4595669836
 21
-69.6805130402
  0
LINE
  5
428
100
AcDbEntity
  8
0
100
AcDbLine
 62
7
  6
CONTINUOUS
 10
11.1737823955
 20
-37.2885457346
 11
11.2442717697
 21
-37.4282620873
  0
LINE
  5
429
100
AcDbEntity
  8
0
100
AcDbLine
 62
7
  6
CONTINUOUS
 10
-5.4416672517
 20
42.3674723056
 11
-5.5453611835
 21
42.5766761235
  0
LINE
  5
42A
100
AcDbEntity
  8
0
100
AcDbLine
 62
7
  6
CONTINUOUS
 10
-10.6128390642
 20
-41.1527606267
 11
-10.6798301096
 21
-41.0159341642
  0
LINE
  5
42B
100
AcDbEntity
  8
0
100
AcDbLine
 62
7
  6
CONTINUOUS
 10
2.0432912769
 20
46.2344021772
 11
2.0860778637
 21
46.1460852859
  0
LINE
  5
42C
100
AcDbEntity
  8
0
100
AcDbLine
 62
7
  6
CONTINUOUS
 10
-29.1764107813
 20
-63.1829660434
 11
-29.2148544013
 21
-63.1035902214
  0
LINE
  5
42D
100
AcDbEntity
  8
0
100
AcDbLine
 62
7
  6
CONTINUOUS
 10
-25.8617464256
 20
-61.4829114211
 11
-25.8233027482
 21
-61.5622876157
  0
LINE
  5
42E
100
AcDbEntity
  8
0
100
AcDbLine
 62
7
  6
CONTINUOUS
 10
26.1153269492
 20
-63.1829659536
 11
26.0768833318
 21
-63.1035901478
  0
LINE
  5
42F
100
AcDbEntity
  8
0
100
AcDbLine
 62
7
  6
CONTINUOUS
 10
-2.0411748373
 20
-0.6455311395
 11
-2.0931458891
 21
-0.5382416582
  0
LINE
  5
430
100
AcDbEntity
  8
0
100
AcDbLine
 62
7
  6
CONTINUOUS
 10
29.4299913043
 20
-61.4829113309
 11
29.4684349843
 21
-61.5622875421
  0
LINE
  5
431
100
AcDbEntity
  8
0
100
AcDbLine
 62
7
  6
CONTINUOUS
 10
2.4390439811
 20
1.652064338
 11
2.4910129856
 21
1.5447708529
  0
LINE
  5
432
100
AcDbEntity
  8
0
100
AcDbLine
 62
7
  6
CONTINUOUS
 10
-29.1764107813
 20
91.1315586188
 11
-29.2148544013
 21
91.2109344413
  0
LINE
  5
433
100
AcDbEntity
  8
0
100
AcDbLine
 62
7
  6
CONTINUOUS
 10
-25.8617464256
 20
92.8316132416
 11
-25.8233027482
 21
92.752237047
  0
LINE
  5
434
100
AcDbEntity
  8
0
100
AcDbLine
 62
7
  6
CONTINUOUS
 10
-1.6454354622
 20
44.34306373
 11
-1.6882202883
 21
44.4313832776
  0
LINE
  5
435
100
AcDbEntity
  8
0
100
AcDbLine
 62
7
  6
CONTINUOUS
 10
-32.196211339
 20
-64.4306658284
 11
-32.1036512918
 21
-64.6256094824
  0
LINE
  5
436
100
AcDbEntity
  8
0
100
AcDbLine
 62
7
  6
CONTINUOUS
 10
23.0955747717
 20
-64.4301637465
 11
23.1881524929
 21
-64.6251011191
  0
LINE
  5
437
100
AcDbEntity
  8
0
100
AcDbLine
 62
7
  6
CONTINUOUS
 10
-33.5971013423
 20
-69.245480236
 11
-33.1801959129
 21
-70.1252662916
  0
LINE
  5
438
100
AcDbEntity
  8
0
100
AcDbLine
 62
7
  6
CONTINUOUS
 10
-42.3071021975
 20
-72.6444746861
 11
-41.4146024425
 21
-74.5450687689
  0
LINE
  5
439
100
AcDbEntity
  8
0
100
AcDbLine
 62
7
  6
CONTINUOUS
 10
-38.9401408983
 20
-73.1685153765
 11
-39.7253648146
 21
-71.4820655246
  0
LINE
  5
43A
100
AcDbEntity
  8
0
100
AcDbLine
 62
7
  6
CONTINUOUS
 10
-44.1392473077
 20
-73.2535261083
 11
-43.2063136887
 21
-75.270871864
  0
LINE
  5
43B
100
AcDbEntity
  8
0
100
AcDbLine
 62
7
  6
CONTINUOUS
 10
11.2442717697
 20
-37.4282620873
 11
11.3094218656
 21
-37.5703856218
  0
LINE
  5
43C
100
AcDbEntity
  8
0
100
AcDbLine
 62
7
  6
CONTINUOUS
 10
-6.3430958448
 20
-39.997642566
 11
-6.4045898396
 21
-39.8615770495
  0
LINE
  5
43D
100
AcDbEntity
  8
0
100
AcDbLine
 62
7
  6
CONTINUOUS
 10
6.8172909706
 20
-38.3037087954
 11
6.8787829293
 21
-38.4397839983
  0
LINE
  5
43E
100
AcDbEntity
  8
0
100
AcDbLine
 62
7
  6
CONTINUOUS
 10
-5.5453611835
 20
42.5766761235
 11
-5.641179369
 21
42.7893450899
  0
LINE
  5
43F
100
AcDbEntity
  8
0
100
AcDbLine
 62
7
  6
CONTINUOUS
 10
14.2897057322
 20
-50.4640804978
 11
13.9417587758
 21
-49.6910754932
  0
LINE
  5
440
100
AcDbEntity
  8
0
100
AcDbLine
 62
7
  6
CONTINUOUS
 10
-13.5931777798
 20
-62.050471223
 11
-13.2453057029
 21
-62.8239560478
  0
LINE
  5
441
100
AcDbEntity
  8
0
100
AcDbLine
 62
7
  6
CONTINUOUS
 10
-10.6798301096
 20
-41.0159341642
 11
-10.7417256841
 21
-40.8768921172
  0
LINE
  5
442
100
AcDbEntity
  8
0
100
AcDbLine
 62
7
  6
CONTINUOUS
 10
-32.1667391113
 20
-68.1851910815
 11
-31.833708529
 21
-68.9419518353
  0
LINE
  5
443
100
AcDbEntity
  8
0
100
AcDbLine
 62
7
  6
CONTINUOUS
 10
-35.6262617692
 20
-69.0876362454
 11
-34.9509164483
 21
-70.6508088391
  0
LINE
  5
444
100
AcDbEntity
  8
0
100
AcDbLine
 62
7
  6
CONTINUOUS
 10
-2.0931458891
 20
-0.5382416582
 11
-2.1399010698
 21
-0.42872867
  0
LINE
  5
445
100
AcDbEntity
  8
0
100
AcDbLine
 62
7
  6
CONTINUOUS
 10
2.4910129856
 20
1.5447708529
 11
2.5377664711
 21
1.4352530498
  0
LINE
  5
446
100
AcDbEntity
  8
0
100
AcDbLine
 62
7
  6
CONTINUOUS
 10
-1.6882202883
 20
44.4313832776
 11
-1.7267106028
 21
44.5215324732
  0
LINE
  5
447
100
AcDbEntity
  8
0
100
AcDbLine
 62
7
  6
CONTINUOUS
 10
2.0860778637
 20
46.1460852859
 11
2.1245695175
 21
46.0559397535
  0
LINE
  5
448
100
AcDbEntity
  8
0
100
AcDbLine
 62
7
  6
CONTINUOUS
 10
-29.2148544013
 20
-63.1035902214
 11
-29.2494402701
 21
-63.0225667509
  0
LINE
  5
449
100
AcDbEntity
  8
0
100
AcDbLine
 62
7
  6
CONTINUOUS
 10
-25.8233027482
 20
-61.5622876157
 11
-25.7887168299
 21
-61.6433114352
  0
LINE
  5
44A
100
AcDbEntity
  8
0
100
AcDbLine
 62
7
  6
CONTINUOUS
 10
26.0768833318
 20
-63.1035901478
 11
26.0422974644
 21
-63.0225666924
  0
LINE
  5
44B
100
AcDbEntity
  8
0
100
AcDbLine
 62
7
  6
CONTINUOUS
 10
29.4684349843
 20
-61.5622875421
 11
29.5030209051
 21
-61.6433113767
  0
LINE
  5
44C
100
AcDbEntity
  8
0
100
AcDbLine
 62
7
  6
CONTINUOUS
 10
-29.2148544013
 20
91.2109344413
 11
-29.2494402701
 21
91.2919579118
  0
LINE
  5
44D
100
AcDbEntity
  8
0
100
AcDbLine
 62
7
  6
CONTINUOUS
 10
-25.8233027482
 20
92.752237047
 11
-25.7887168299
 21
92.671213227
  0
LINE
  5
44E
100
AcDbEntity
  8
0
100
AcDbLine
 62
7
  6
CONTINUOUS
 10
23.011408573
 20
-64.2316750959
 11
23.0955747717
 21
-64.4301637465
  0
LINE
  5
44F
100
AcDbEntity
  8
0
100
AcDbLine
 62
7
  6
CONTINUOUS
 10
-32.2803633212
 20
-64.2321627945
 11
-32.196211339
 21
-64.4306658284
  0
LINE
  5
450
100
AcDbEntity
  8
0
100
AcDbLine
 62
7
  6
CONTINUOUS
 10
-37.0846273743
 20
-69.4238387518
 11
-36.3948557074
 21
-71.0710927918
  0
LINE
  5
451
100
AcDbEntity
  8
0
100
AcDbLine
 62
7
  6
CONTINUOUS
 10
11.3094218656
 20
-37.5703856218
 11
11.369155152
 21
-37.7147313495
  0
LINE
  5
452
100
AcDbEntity
  8
0
100
AcDbLine
 62
7
  6
CONTINUOUS
 10
-5.641179369
 20
42.7893450899
 11
-5.7290136253
 21
43.0052145733
  0
LINE
  5
453
100
AcDbEntity
  8
0
100
AcDbLine
 62
7
  6
CONTINUOUS
 10
-33.9623339459
 20
-68.3443722716
 11
-33.5971013423
 21
-69.245480236
  0
LINE
  5
454
100
AcDbEntity
  8
0
100
AcDbLine
 62
7
  6
CONTINUOUS
 10
9.7431421238
 20
-20.6297910877
 11
9.6278284039
 21
-20.3445542513
  0
LINE
  5
455
100
AcDbEntity
  8
0
100
AcDbLine
 62
7
  6
CONTINUOUS
 10
-10.7417256841
 20
-40.8768921172
 11
-10.7984584047
 21
-40.7358012291
  0
LINE
  5
456
100
AcDbEntity
  8
0
100
AcDbLine
 62
7
  6
CONTINUOUS
 10
-17.0712618092
 20
5.3830894172
 11
-16.7646853273
 21
4.5854973046
  0
LINE
  5
457
100
AcDbEntity
  8
0
100
AcDbLine
 62
7
  6
CONTINUOUS
 10
17.3646844767
 20
0.4040784
 11
17.0581114282
 21
1.2016894346
  0
LINE
  5
458
100
AcDbEntity
  8
0
100
AcDbLine
 62
7
  6
CONTINUOUS
 10
14.5930195744
 20
-51.2544931792
 11
14.2897057322
 21
-50.4640804978
  0
LINE
  5
459
100
AcDbEntity
  8
0
100
AcDbLine
 62
7
  6
CONTINUOUS
 10
-13.896461164
 20
-61.2594512108
 11
-13.5931777798
 21
-62.050471223
  0
LINE
  5
45A
100
AcDbEntity
  8
0
100
AcDbLine
 62
7
  6
CONTINUOUS
 10
-32.4578546968
 20
-67.4122445873
 11
-32.1667391113
 21
-68.1851910815
  0
LINE
  5
45B
100
AcDbEntity
  8
0
100
AcDbLine
 62
7
  6
CONTINUOUS
 10
-9.2526925435
 20
-6.8941964327
 11
-9.3536382665
 21
-6.6252028476
  0
LINE
  5
45C
100
AcDbEntity
  8
0
100
AcDbLine
 62
7
  6
CONTINUOUS
 10
-43.0434451181
 20
-70.6820632432
 11
-42.3071021975
 21
-72.6444746861
  0
LINE
  5
45D
100
AcDbEntity
  8
0
100
AcDbLine
 62
7
  6
CONTINUOUS
 10
-32.3559844065
 20
-64.0304155644
 11
-32.2803633212
 21
-64.2321627945
  0
LINE
  5
45E
100
AcDbEntity
  8
0
100
AcDbLine
 62
7
  6
CONTINUOUS
 10
22.9357764005
 20
-64.0299505384
 11
23.011408573
 21
-64.2316750959
  0
LINE
  5
45F
100
AcDbEntity
  8
0
100
AcDbLine
 62
7
  6
CONTINUOUS
 10
-39.7253648146
 20
-71.4820655246
 11
-40.3731241208
 21
-69.7415835083
  0
LINE
  5
460
100
AcDbEntity
  8
0
100
AcDbLine
 62
7
  6
CONTINUOUS
 10
-29.2494402701
 20
-63.0225667509
 11
-29.2801049072
 21
-62.9400586506
  0
LINE
  5
461
100
AcDbEntity
  8
0
100
AcDbLine
 62
7
  6
CONTINUOUS
 10
-25.7887168299
 20
-61.6433114352
 11
-25.7580521535
 21
-61.7258198541
  0
LINE
  5
462
100
AcDbEntity
  8
0
100
AcDbLine
 62
7
  6
CONTINUOUS
 10
-2.1399010698
 20
-0.42872867
 11
-2.1813546293
 21
-0.3172129051
  0
LINE
  5
463
100
AcDbEntity
  8
0
100
AcDbLine
 62
7
  6
CONTINUOUS
 10
26.0422974644
 20
-63.0225666924
 11
26.0116328294
 21
-62.9400586062
  0
LINE
  5
464
100
AcDbEntity
  8
0
100
AcDbLine
 62
7
  6
CONTINUOUS
 10
2.5377664711
 20
1.4352530498
 11
2.5792186802
 21
1.3237315512
  0
LINE
  5
465
100
AcDbEntity
  8
0
100
AcDbLine
 62
7
  6
CONTINUOUS
 10
-29.2494402701
 20
91.2919579118
 11
-29.2801049072
 21
91.3744660121
  0
LINE
  5
466
100
AcDbEntity
  8
0
100
AcDbLine
 62
7
  6
CONTINUOUS
 10
29.5030209051
 20
-61.6433113767
 11
29.5336855836
 21
-61.7258198098
  0
LINE
  5
467
100
AcDbEntity
  8
0
100
AcDbLine
 62
7
  6
CONTINUOUS
 10
-25.7887168299
 20
92.671213227
 11
-25.7580521535
 21
92.5887048086
  0
LINE
  5
468
100
AcDbEntity
  8
0
100
AcDbLine
 62
7
  6
CONTINUOUS
 10
-1.7267106028
 20
44.5215324732
 11
-1.7608361169
 21
44.6133302967
  0
LINE
  5
469
100
AcDbEntity
  8
0
100
AcDbLine
 62
7
  6
CONTINUOUS
 10
2.1245695175
 20
46.0559397535
 11
2.1586960063
 21
45.9641465918
  0
LINE
  5
46A
100
AcDbEntity
  8
0
100
AcDbLine
 62
7
  6
CONTINUOUS
 10
11.369155152
 20
-37.7147313495
 11
11.4234033987
 21
-37.8611198768
  0
LINE
  5
46B
100
AcDbEntity
  8
0
100
AcDbLine
 62
7
  6
CONTINUOUS
 10
-44.908783627
 20
-71.1723399934
 11
-44.1392473077
 21
-73.2535261083
  0
LINE
  5
46C
100
AcDbEntity
  8
0
100
AcDbLine
 62
7
  6
CONTINUOUS
 10
-5.7290136253
 20
43.0052145733
 11
-5.8087688127
 21
43.2240284476
  0
LINE
  5
46D
100
AcDbEntity
  8
0
100
AcDbLine
 62
7
  6
CONTINUOUS
 10
-6.4045898396
 20
-39.8615770495
 11
-6.4549622946
 21
-39.7229649259
  0
LINE
  5
46E
100
AcDbEntity
  8
0
100
AcDbLine
 62
7
  6
CONTINUOUS
 10
6.8787829293
 20
-38.4397839983
 11
6.9291540208
 21
-38.578407373
  0
LINE
  5
46F
100
AcDbEntity
  8
0
100
AcDbLine
 62
7
  6
CONTINUOUS
 10
-10.7984584047
 20
-40.7358012291
 11
-10.8499688884
 21
-40.5928228549
  0
LINE
  5
470
100
AcDbEntity
  8
0
100
AcDbLine
 62
7
  6
CONTINUOUS
 10
-34.274941532
 20
-67.4245185958
 11
-33.9623339459
 21
-68.3443722716
  0
LINE
  5
471
100
AcDbEntity
  8
0
100
AcDbLine
 62
7
  6
CONTINUOUS
 10
11.4234033987
 20
-37.8611198768
 11
11.4721069207
 21
-38.0093781871
  0
LINE
  5
472
100
AcDbEntity
  8
0
100
AcDbLine
 62
7
  6
CONTINUOUS
 10
-36.1560515181
 20
-67.4720068507
 11
-35.6262617692
 21
-69.0876362454
  0
LINE
  5
473
100
AcDbEntity
  8
0
100
AcDbLine
 62
7
  6
CONTINUOUS
 10
-32.4229686113
 20
-63.8257270646
 11
-32.3559844065
 21
-64.0304155644
  0
LINE
  5
474
100
AcDbEntity
  8
0
100
AcDbLine
 62
7
  6
CONTINUOUS
 10
22.8687838636
 20
-63.8252930634
 11
22.9357764005
 21
-64.0299505384
  0
LINE
  5
475
100
AcDbEntity
  8
0
100
AcDbLine
 62
7
  6
CONTINUOUS
 10
-5.8087688127
 20
43.2240284476
 11
-5.8803617041
 21
43.445540119
  0
LINE
  5
476
100
AcDbEntity
  8
0
100
AcDbLine
 62
7
  6
CONTINUOUS
 10
14.8509660659
 20
-52.0602131952
 11
14.5930195744
 21
-51.2544931792
  0
LINE
  5
477
100
AcDbEntity
  8
0
100
AcDbLine
 62
7
  6
CONTINUOUS
 10
-14.1544052947
 20
-60.4530225147
 11
-13.896461164
 21
-61.2594512108
  0
LINE
  5
478
100
AcDbEntity
  8
0
100
AcDbLine
 62
7
  6
CONTINUOUS
 10
-10.8499688884
 20
-40.5928228549
 11
-10.8962050453
 21
-40.4481123499
  0
LINE
  5
479
100
AcDbEntity
  8
0
100
AcDbLine
 62
7
  6
CONTINUOUS
 10
-29.2801049072
 20
-62.9400586506
 11
-29.3067945813
 21
-62.8562217086
  0
LINE
  5
47A
100
AcDbEntity
  8
0
100
AcDbLine
 62
7
  6
CONTINUOUS
 10
-25.7580521535
 20
-61.7258198541
 11
-25.7313624491
 21
-61.8096570785
  0
LINE
  5
47B
100
AcDbEntity
  8
0
100
AcDbLine
 62
7
  6
CONTINUOUS
 10
-2.1813546293
 20
-0.3172129051
 11
-2.2174340458
 21
-0.2039052718
  0
LINE
  5
47C
100
AcDbEntity
  8
0
100
AcDbLine
 62
7
  6
CONTINUOUS
 10
-29.2801049072
 20
91.3744660121
 11
-29.3067945813
 21
91.4583029541
  0
LINE
  5
47D
100
AcDbEntity
  8
0
100
AcDbLine
 62
7
  6
CONTINUOUS
 10
2.5792186802
 20
1.3237315512
 11
2.6152970721
 21
1.2104171707
  0
LINE
  5
47E
100
AcDbEntity
  8
0
100
AcDbLine
 62
7
  6
CONTINUOUS
 10
-25.7580521535
 20
92.5887048086
 11
-25.7313624491
 21
92.5048675842
  0
LINE
  5
47F
100
AcDbEntity
  8
0
100
AcDbLine
 62
7
  6
CONTINUOUS
 10
26.0116328294
 20
-62.9400586062
 11
25.9849431562
 21
-62.8562216763
  0
LINE
  5
480
100
AcDbEntity
  8
0
100
AcDbLine
 62
7
  6
CONTINUOUS
 10
29.5336855836
 20
-61.7258198098
 11
29.560375289
 21
-61.8096570462
  0
LINE
  5
481
100
AcDbEntity
  8
0
100
AcDbLine
 62
7
  6
CONTINUOUS
 10
-1.7608361169
 20
44.6133302967
 11
-1.7905373794
 21
44.7066038874
  0
LINE
  5
482
100
AcDbEntity
  8
0
100
AcDbLine
 62
7
  6
CONTINUOUS
 10
2.1586960063
 20
45.9641465918
 11
2.1883979425
 21
45.8708786385
  0
LINE
  5
483
100
AcDbEntity
  8
0
100
AcDbLine
 62
7
  6
CONTINUOUS
 10
-37.6255000066
 20
-67.7242959302
 11
-37.0846273743
 21
-69.4238387518
  0
LINE
  5
484
100
AcDbEntity
  8
0
100
AcDbLine
 62
7
  6
CONTINUOUS
 10
11.4721069207
 20
-38.0093781871
 11
11.5152137293
 21
-38.1593402666
  0
LINE
  5
485
100
AcDbEntity
  8
0
100
AcDbLine
 62
7
  6
CONTINUOUS
 10
-43.6200769431
 20
-68.6682356093
 11
-43.0434451181
 21
-70.6820632432
  0
LINE
  5
486
100
AcDbEntity
  8
0
100
AcDbLine
 62
7
  6
CONTINUOUS
 10
-40.3731241208
 20
-69.7415835083
 11
-40.880344013
 21
-67.9561197916
  0
LINE
  5
487
100
AcDbEntity
  8
0
100
AcDbLine
 62
7
  6
CONTINUOUS
 10
-5.8803617041
 20
43.445540119
 11
-5.9437197394
 21
43.6695133382
  0
LINE
  5
488
100
AcDbEntity
  8
0
100
AcDbLine
 62
7
  6
CONTINUOUS
 10
-45.511316967
 20
-69.0379826733
 11
-44.908783627
 21
-71.1723399934
  0
LINE
  5
489
100
AcDbEntity
  8
0
100
AcDbLine
 62
7
  6
CONTINUOUS
 10
22.8105215548
 20
-63.6179918754
 11
22.8687838636
 21
-63.8252930634
  0
LINE
  5
48A
100
AcDbEntity
  8
0
100
AcDbLine
 62
7
  6
CONTINUOUS
 10
-32.4812249394
 20
-63.6183865545
 11
-32.4229686113
 21
-63.8257270646
  0
LINE
  5
48B
100
AcDbEntity
  8
0
100
AcDbLine
 62
7
  6
CONTINUOUS
 10
-10.8962050453
 20
-40.4481123499
 11
-10.9371213027
 21
-40.3018185841
  0
LINE
  5
48C
100
AcDbEntity
  8
0
100
AcDbLine
 62
7
  6
CONTINUOUS
 10
-6.4549622946
 20
-39.7229649259
 11
-6.4941840556
 21
-39.5822388973
  0
LINE
  5
48D
100
AcDbEntity
  8
0
100
AcDbLine
 62
7
  6
CONTINUOUS
 10
6.9291540208
 20
-38.578407373
 11
6.9683749766
 21
-38.7191463792
  0
LINE
  5
48E
100
AcDbEntity
  8
0
100
AcDbLine
 62
7
  6
CONTINUOUS
 10
-29.3067945813
 20
-62.8562217086
 11
-29.3294640755
 21
-62.7712035962
  0
LINE
  5
48F
100
AcDbEntity
  8
0
100
AcDbLine
 62
7
  6
CONTINUOUS
 10
-25.7313624491
 20
-61.8096570785
 11
-25.7086929343
 21
-61.8946754314
  0
LINE
  5
490
100
AcDbEntity
  8
0
100
AcDbLine
 62
7
  6
CONTINUOUS
 10
-29.3067945813
 20
91.4583029541
 11
-29.3294640755
 21
91.543321066
  0
LINE
  5
491
100
AcDbEntity
  8
0
100
AcDbLine
 62
7
  6
CONTINUOUS
 10
-2.2174340458
 20
-0.2039052718
 11
-2.2480783475
 21
-0.0890056609
  0
LINE
  5
492
100
AcDbEntity
  8
0
100
AcDbLine
 62
7
  6
CONTINUOUS
 10
-25.7313624491
 20
92.5048675842
 11
-25.7086929343
 21
92.4198492313
  0
LINE
  5
493
100
AcDbEntity
  8
0
100
AcDbLine
 62
7
  6
CONTINUOUS
 10
2.6152970721
 20
1.2104171707
 11
2.6459406426
 21
1.0955097143
  0
LINE
  5
494
100
AcDbEntity
  8
0
100
AcDbLine
 62
7
  6
CONTINUOUS
 10
25.9849431562
 20
-62.8562216763
 11
25.9622736631
 21
-62.7712035745
  0
LINE
  5
495
100
AcDbEntity
  8
0
100
AcDbLine
 62
7
  6
CONTINUOUS
 10
-1.7905373794
 20
44.7066038874
 11
-1.8157643824
 21
44.8011895145
  0
LINE
  5
496
100
AcDbEntity
  8
0
100
AcDbLine
 62
7
  6
CONTINUOUS
 10
29.560375289
 20
-61.8096570462
 11
29.5830448048
 21
-61.8946754097
  0
LINE
  5
497
100
AcDbEntity
  8
0
100
AcDbLine
 62
7
  6
CONTINUOUS
 10
2.1883979425
 20
45.8708786385
 11
2.2136253776
 21
45.7762995846
  0
LINE
  5
498
100
AcDbEntity
  8
0
100
AcDbLine
 62
7
  6
CONTINUOUS
 10
15.06294596
 20
-52.8792730137
 11
14.8509660659
 21
-52.0602131952
  0
LINE
  5
499
100
AcDbEntity
  8
0
100
AcDbLine
 62
7
  6
CONTINUOUS
 10
-14.3663971755
 20
-59.6331822639
 11
-14.1544052947
 21
-60.4530225147
  0
LINE
  5
49A
100
AcDbEntity
  8
0
100
AcDbLine
 62
7
  6
CONTINUOUS
 10
11.5152137293
 20
-38.1593402666
 11
11.5526786151
 21
-38.3108475884
  0
LINE
  5
49B
100
AcDbEntity
  8
0
100
AcDbLine
 62
7
  6
CONTINUOUS
 10
-5.9437197394
 20
43.6695133382
 11
-5.9987796959
 21
43.8957228046
  0
LINE
  5
49C
100
AcDbEntity
  8
0
100
AcDbLine
 62
7
  6
CONTINUOUS
 10
-10.9371213027
 20
-40.3018185841
 11
-10.9726777845
 21
-40.1540835858
  0
LINE
  5
49D
100
AcDbEntity
  8
0
100
AcDbLine
 62
7
  6
CONTINUOUS
 10
-32.5306753537
 20
-63.4086685892
 11
-32.4812249394
 21
-63.6183865545
  0
LINE
  5
49E
100
AcDbEntity
  8
0
100
AcDbLine
 62
7
  6
CONTINUOUS
 10
22.7610670955
 20
-63.4083213674
 11
22.8105215548
 21
-63.6179918754
  0
LINE
  5
49F
100
AcDbEntity
  8
0
100
AcDbLine
 62
7
  6
CONTINUOUS
 10
9.8131066486
 20
-20.9283178236
 11
9.7431421238
 21
-20.6297910877
  0
LINE
  5
4A0
100
AcDbEntity
  8
0
100
AcDbLine
 62
7
  6
CONTINUOUS
 10
-36.5371058421
 20
-65.814245848
 11
-36.1560515181
 21
-67.4720068507
  0
LINE
  5
4A1
100
AcDbEntity
  8
0
100
AcDbLine
 62
7
  6
CONTINUOUS
 10
-38.0144098232
 20
-65.9826155329
 11
-37.6255000066
 21
-67.7242959302
  0
LINE
  5
4A2
100
AcDbEntity
  8
0
100
AcDbLine
 62
7
  6
CONTINUOUS
 10
-16.7646853273
 20
4.5854973046
 11
-16.5786116603
 21
3.7517955066
  0
LINE
  5
4A3
100
AcDbEntity
  8
0
100
AcDbLine
 62
7
  6
CONTINUOUS
 10
-9.3536382665
 20
-6.6252028476
 11
-9.4148144543
 21
-6.3451770002
  0
LINE
  5
4A4
100
AcDbEntity
  8
0
100
AcDbLine
 62
7
  6
CONTINUOUS
 10
-29.3294640755
 20
-62.7712035962
 11
-29.3480753292
 21
-62.6851432544
  0
LINE
  5
4A5
100
AcDbEntity
  8
0
100
AcDbLine
 62
7
  6
CONTINUOUS
 10
-25.7086929343
 20
-61.8946754314
 11
-25.690081668
 21
-61.9807359694
  0
LINE
  5
4A6
100
AcDbEntity
  8
0
100
AcDbLine
 62
7
  6
CONTINUOUS
 10
-29.3294640755
 20
91.543321066
 11
-29.3480753292
 21
91.6293814083
  0
LINE
  5
4A7
100
AcDbEntity
  8
0
100
AcDbLine
 62
7
  6
CONTINUOUS
 10
-25.7086929343
 20
92.4198492313
 11
-25.690081668
 21
92.3337886928
  0
LINE
  5
4A8
100
AcDbEntity
  8
0
100
AcDbLine
 62
7
  6
CONTINUOUS
 10
-2.2480783475
 20
-0.0890056609
 11
-2.2732362693
 21
0.0272978905
  0
LINE
  5
4A9
100
AcDbEntity
  8
0
100
AcDbLine
 62
7
  6
CONTINUOUS
 10
2.6459406426
 20
1.0955097143
 11
2.6710980869
 21
0.9791971491
  0
LINE
  5
4AA
100
AcDbEntity
  8
0
100
AcDbLine
 62
7
  6
CONTINUOUS
 10
-1.8157643824
 20
44.8011895145
 11
-1.8364750355
 21
44.8969332442
  0
LINE
  5
4AB
100
AcDbEntity
  8
0
100
AcDbLine
 62
7
  6
CONTINUOUS
 10
2.2136253776
 20
45.7762995846
 11
2.2343362803
 21
45.6805633142
  0
LINE
  5
4AC
100
AcDbEntity
  8
0
100
AcDbLine
 62
7
  6
CONTINUOUS
 10
25.9622736631
 20
-62.7712035745
 11
25.9436624104
 21
-62.6851432413
  0
LINE
  5
4AD
100
AcDbEntity
  8
0
100
AcDbLine
 62
7
  6
CONTINUOUS
 10
11.5526786151
 20
-38.3108475884
 11
11.5844621829
 21
-38.4637494416
  0
LINE
  5
4AE
100
AcDbEntity
  8
0
100
AcDbLine
 62
7
  6
CONTINUOUS
 10
-5.9987796959
 20
43.8957228046
 11
-6.0454863033
 21
44.123954573
  0
LINE
  5
4AF
100
AcDbEntity
  8
0
100
AcDbLine
 62
7
  6
CONTINUOUS
 10
-10.9726777845
 20
-40.1540835858
 11
-11.0028394551
 21
-40.0050423045
  0
LINE
  5
4B0
100
AcDbEntity
  8
0
100
AcDbLine
 62
7
  6
CONTINUOUS
 10
-44.0343207636
 20
-66.6124426198
 11
-43.6200769431
 21
-68.6682356093
  0
LINE
  5
4B1
100
AcDbEntity
  8
0
100
AcDbLine
 62
7
  6
CONTINUOUS
 10
-40.880344013
 20
-67.9561197916
 11
-41.2447031336
 21
-66.1338987347
  0
LINE
  5
4B2
100
AcDbEntity
  8
0
100
AcDbLine
 62
7
  6
CONTINUOUS
 10
15.2284685669
 20
-53.7098484063
 11
15.06294596
 21
-52.8792730137
  0
LINE
  5
4B3
100
AcDbEntity
  8
0
100
AcDbLine
 62
7
  6
CONTINUOUS
 10
-14.5319355787
 20
-58.8017867414
 11
-14.3663971755
 21
-59.6331822639
  0
LINE
  5
4B4
100
AcDbEntity
  8
0
100
AcDbLine
 62
7
  6
CONTINUOUS
 10
-45.944121401
 20
-66.860151297
 11
-45.511316967
 21
-69.0379826733
  0
LINE
  5
4B5
100
AcDbEntity
  8
0
100
AcDbLine
 62
7
  6
CONTINUOUS
 10
-6.4941840556
 20
-39.5822388973
 11
-6.5222382408
 21
-39.4397636983
  0
LINE
  5
4B6
100
AcDbEntity
  8
0
100
AcDbLine
 62
7
  6
CONTINUOUS
 10
6.9683749766
 20
-38.7191463792
 11
6.996428777
 21
-38.861636417
  0
LINE
  5
4B7
100
AcDbEntity
  8
0
100
AcDbLine
 62
7
  6
CONTINUOUS
 10
-32.5712526407
 20
-63.1968323451
 11
-32.5306753537
 21
-63.4086685892
  0
LINE
  5
4B8
100
AcDbEntity
  8
0
100
AcDbLine
 62
7
  6
CONTINUOUS
 10
22.7204872893
 20
-63.1965404525
 11
22.7610670955
 21
-63.4083213674
  0
LINE
  5
4B9
100
AcDbEntity
  8
0
100
AcDbLine
 62
7
  6
CONTINUOUS
 10
11.5844621829
 20
-38.4637494416
 11
11.6105298686
 21
-38.6179031287
  0
LINE
  5
4BA
100
AcDbEntity
  8
0
100
AcDbLine
 62
7
  6
CONTINUOUS
 10
-29.3480753292
 20
-62.6851432544
 11
-29.3625960242
 21
-62.5981705407
  0
LINE
  5
4BB
100
AcDbEntity
  8
0
100
AcDbLine
 62
7
  6
CONTINUOUS
 10
-25.690081668
 20
-61.9807359694
 11
-25.6755609674
 21
-62.0677088318
  0
LINE
  5
4BC
100
AcDbEntity
  8
0
100
AcDbLine
 62
7
  6
CONTINUOUS
 10
-29.3480753292
 20
91.6293814083
 11
-29.3625960242
 21
91.716354122
  0
LINE
  5
4BD
100
AcDbEntity
  8
0
100
AcDbLine
 62
7
  6
CONTINUOUS
 10
-25.690081668
 20
92.3337886928
 11
-25.6755609674
 21
92.2468158309
  0
LINE
  5
4BE
100
AcDbEntity
  8
0
100
AcDbLine
 62
7
  6
CONTINUOUS
 10
-2.2732362693
 20
0.0272978905
 11
-2.2928643358
 21
0.1448296699
  0
LINE
  5
4BF
100
AcDbEntity
  8
0
100
AcDbLine
 62
7
  6
CONTINUOUS
 10
2.6710980869
 20
0.9791971491
 11
2.6907258806
 21
0.8616551272
  0
LINE
  5
4C0
100
AcDbEntity
  8
0
100
AcDbLine
 62
7
  6
CONTINUOUS
 10
-1.8364750355
 20
44.8969332442
 11
-1.8526335788
 21
44.9936913113
  0
LINE
  5
4C1
100
AcDbEntity
  8
0
100
AcDbLine
 62
7
  6
CONTINUOUS
 10
-6.0454863033
 20
44.123954573
 11
-6.0837908357
 21
44.3540062641
  0
LINE
  5
4C2
100
AcDbEntity
  8
0
100
AcDbLine
 62
7
  6
CONTINUOUS
 10
-11.0028394551
 20
-40.0050423045
 11
-11.0275752521
 21
-39.8548224899
  0
LINE
  5
4C3
100
AcDbEntity
  8
0
100
AcDbLine
 62
7
  6
CONTINUOUS
 10
-32.6028982287
 20
-62.9831212864
 11
-32.5712526407
 21
-63.1968323451
  0
LINE
  5
4C4
100
AcDbEntity
  8
0
100
AcDbLine
 62
7
  6
CONTINUOUS
 10
-14.6506040042
 20
-57.9605457743
 11
-14.5319355787
 21
-58.8017867414
  0
LINE
  5
4C5
100
AcDbEntity
  8
0
100
AcDbLine
 62
7
  6
CONTINUOUS
 10
15.3471242845
 20
-54.5502631179
 11
15.2284685669
 21
-53.7098484063
  0
LINE
  5
4C6
100
AcDbEntity
  8
0
100
AcDbLine
 62
7
  6
CONTINUOUS
 10
-36.767083569
 20
-64.123487617
 11
-36.5371058421
 21
-65.814245848
  0
LINE
  5
4C7
100
AcDbEntity
  8
0
100
AcDbLine
 62
7
  6
CONTINUOUS
 10
-38.2490787158
 20
-64.2077930703
 11
-38.0144098232
 21
-65.9826155329
  0
LINE
  5
4C8
100
AcDbEntity
  8
0
100
AcDbLine
 62
7
  6
CONTINUOUS
 10
11.6105298686
 20
-38.6179031287
 11
11.6308509455
 21
-38.7731740246
  0
LINE
  5
4C9
100
AcDbEntity
  8
0
100
AcDbLine
 62
7
  6
CONTINUOUS
 10
-6.0837908357
 20
44.3540062641
 11
-6.11364971
 21
44.5856870972
  0
LINE
  5
4CA
100
AcDbEntity
  8
0
100
AcDbLine
 62
7
  6
CONTINUOUS
 10
-11.0275752521
 20
-39.8548224899
 11
-11.0468572273
 21
-39.7035446798
  0
LINE
  5
4CB
100
AcDbEntity
  8
0
100
AcDbLine
 62
7
  6
CONTINUOUS
 10
-44.2841123084
 20
-64.5231121108
 11
-44.0343207636
 21
-66.6124426198
  0
LINE
  5
4CC
100
AcDbEntity
  8
0
100
AcDbLine
 62
7
  6
CONTINUOUS
 10
-41.2447031336
 20
-66.1338987347
 11
-41.4644056156
 21
-64.2822579157
  0
LINE
  5
4CD
100
AcDbEntity
  8
0
100
AcDbLine
 62
7
  6
CONTINUOUS
 10
-29.3625960242
 20
-62.5981705407
 11
-29.3729981537
 21
-62.5104061234
  0
LINE
  5
4CE
100
AcDbEntity
  8
0
100
AcDbLine
 62
7
  6
CONTINUOUS
 10
-25.6755609674
 20
-62.0677088318
 11
-25.6651588364
 21
-62.1554733479
  0
LINE
  5
4CF
100
AcDbEntity
  8
0
100
AcDbLine
 62
7
  6
CONTINUOUS
 10
-29.3625960242
 20
91.716354122
 11
-29.3729981537
 21
91.8041185393
  0
LINE
  5
4D0
100
AcDbEntity
  8
0
100
AcDbLine
 62
7
  6
CONTINUOUS
 10
-25.6755609674
 20
92.2468158309
 11
-25.6651588364
 21
92.1590513148
  0
LINE
  5
4D1
100
AcDbEntity
  8
0
100
AcDbLine
 62
7
  6
CONTINUOUS
 10
-2.2928643358
 20
0.1448296699
 11
-2.3069249161
 21
0.263426436
  0
LINE
  5
4D2
100
AcDbEntity
  8
0
100
AcDbLine
 62
7
  6
CONTINUOUS
 10
2.6907258806
 20
0.8616551272
 11
2.7047863379
 21
0.7430468427
  0
LINE
  5
4D3
100
AcDbEntity
  8
0
100
AcDbLine
 62
7
  6
CONTINUOUS
 10
-1.8526335788
 20
44.9936913113
 11
-1.8642089803
 21
45.0913302258
  0
LINE
  5
4D4
100
AcDbEntity
  8
0
100
AcDbLine
 62
7
  6
CONTINUOUS
 10
-46.2050845151
 20
-64.6475014143
 11
-45.944121401
 21
-66.860151297
  0
LINE
  5
4D5
100
AcDbEntity
  8
0
100
AcDbLine
 62
7
  6
CONTINUOUS
 10
-6.5222382408
 20
-39.4397636983
 11
-6.5391034528
 21
-39.2958411922
  0
LINE
  5
4D6
100
AcDbEntity
  8
0
100
AcDbLine
 62
7
  6
CONTINUOUS
 10
6.996428777
 20
-38.861636417
 11
7.0132938736
 21
-39.0055757243
  0
LINE
  5
4D7
100
AcDbEntity
  8
0
100
AcDbLine
 62
7
  6
CONTINUOUS
 10
11.6308509455
 20
-38.7731740246
 11
11.6453975539
 21
-38.9294355178
  0
LINE
  5
4D8
100
AcDbEntity
  8
0
100
AcDbLine
 62
7
  6
CONTINUOUS
 10
6.515611217
 20
45.9857731011
 11
6.5365749975
 21
45.7546800317
  0
LINE
  5
4D9
100
AcDbEntity
  8
0
100
AcDbLine
 62
7
  6
CONTINUOUS
 10
15.4185573524
 20
-55.3989882895
 11
15.3471242845
 21
-54.5502631179
  0
LINE
  5
4DA
100
AcDbEntity
  8
0
100
AcDbLine
 62
7
  6
CONTINUOUS
 10
9.8366148893
 20
-21.2354686302
 11
9.8131066486
 21
-20.9283178236
  0
LINE
  5
4DB
100
AcDbEntity
  8
0
100
AcDbLine
 62
7
  6
CONTINUOUS
 10
2.7047863379
 20
0.7430468427
 11
2.7132457172
 21
0.6235231852
  0
LINE
  5
4DC
100
AcDbEntity
  8
0
100
AcDbLine
 62
7
  6
CONTINUOUS
 10
2.262070389
 20
45.4861836511
 11
2.269034785
 21
45.3877969583
  0
LINE
  5
4DD
100
AcDbEntity
  8
0
100
AcDbLine
 62
7
  6
CONTINUOUS
 10
2.3907012555
 20
86.4693535672
 11
2.3805838443
 21
86.6123277195
  0
LINE
  5
4DE
100
AcDbEntity
  8
0
100
AcDbLine
 62
7
  6
CONTINUOUS
 10
11.6453975539
 20
-38.9294355178
 11
11.6541437547
 21
-39.0865688477
  0
LINE
  5
4DF
100
AcDbEntity
  8
0
100
AcDbLine
 62
7
  6
CONTINUOUS
 10
6.5365749975
 20
45.7546800317
 11
6.5491800542
 21
45.5222930376
  0
LINE
  5
4E0
100
AcDbEntity
  8
0
100
AcDbLine
 62
7
  6
CONTINUOUS
 10
7.0132938736
 20
-39.0055757243
 11
7.0189295055
 21
-39.1507178782
  0
LINE
  5
4E1
100
AcDbEntity
  8
0
100
AcDbLine
 62
7
  6
CONTINUOUS
 10
-2.3153843257
 20
0.3829372662
 11
-2.3182110127
 21
0.5032231454
  0
LINE
  5
4E2
100
AcDbEntity
  8
0
100
AcDbLine
 62
7
  6
CONTINUOUS
 10
-1.8711733738
 20
45.1897266282
 11
-1.8735005671
 21
45.2887669438
  0
LINE
  5
4E3
100
AcDbEntity
  8
0
100
AcDbLine
 62
7
  6
CONTINUOUS
 10
2.7132457172
 20
0.6235231852
 11
2.7160724078
 21
0.5032231454
  0
LINE
  5
4E4
100
AcDbEntity
  8
0
100
AcDbLine
 62
7
  6
CONTINUOUS
 10
2.269034785
 20
45.3877969583
 11
2.2713619733
 21
45.2887669438
  0
LINE
  5
4E5
100
AcDbEntity
  8
0
100
AcDbLine
 62
7
  6
CONTINUOUS
 10
2.3805838443
 20
86.6123277195
 11
2.3772030565
 21
86.7562371647
  0
LINE
  5
4E6
100
AcDbEntity
  8
0
100
AcDbLine
 62
7
  6
CONTINUOUS
 10
-4.0258991243
 20
-81.3789987295
 11
-4.0258991243
 21
-88.4943658612
  0
LINE
  5
4E7
100
AcDbEntity
  8
0
100
AcDbLine
 62
7
  6
CONTINUOUS
 10
0.0147233444
 20
-37.2050207358
 11
0.0147233444
 21
-41.3185923586
  0
LINE
  5
4E8
100
AcDbEntity
  8
0
100
AcDbLine
 62
7
  6
CONTINUOUS
 10
0.1988501099
 20
56.8512385324
 11
0.1988501099
 21
-47.8033600781
  0
LINE
  5
4E9
100
AcDbEntity
  8
0
100
AcDbLine
 62
7
  6
CONTINUOUS
 10
4.2012441213
 20
-81.3789987295
 11
4.2012441213
 21
-88.4943658612
  0
LINE
  5
4EA
100
AcDbEntity
  8
0
100
AcDbLine
 62
7
  6
CONTINUOUS
 10
-6.1521651926
 20
45.2887669438
 11
-6.1478734831
 21
45.5245197438
  0
LINE
  5
4EB
100
AcDbEntity
  8
0
100
AcDbLine
 62
7
  6
CONTINUOUS
 10
-1.8735005671
 20
45.2887669438
 11
-1.8711733738
 21
45.3878072594
  0
LINE
  5
4EC
100
AcDbEntity
  8
0
100
AcDbLine
 62
7
  6
CONTINUOUS
 10
-2.3182110127
 20
0.5032231454
 11
-2.3153843257
 21
0.6235240646
  0
LINE
  5
4ED
100
AcDbEntity
  8
0
100
AcDbLine
 62
7
  6
CONTINUOUS
 10
2.3772030565
 20
86.7562371647
 11
2.3805838443
 21
86.9001612118
  0
LINE
  5
4EE
100
AcDbEntity
  8
0
100
AcDbLine
 62
7
  6
CONTINUOUS
 10
2.2713619733
 20
45.2887669438
 11
2.269034785
 21
45.1897369293
  0
LINE
  5
4EF
100
AcDbEntity
  8
0
100
AcDbLine
 62
7
  6
CONTINUOUS
 10
-6.5447390888
 20
-39.1507178782
 11
-6.5391034528
 21
-39.005573612
  0
LINE
  5
4F0
100
AcDbEntity
  8
0
100
AcDbLine
 62
7
  6
CONTINUOUS
 10
-11.0689583956
 20
-39.0907298449
 11
-11.0606594186
 21
-38.9377307019
  0
LINE
  5
4F1
100
AcDbEntity
  8
0
100
AcDbLine
 62
7
  6
CONTINUOUS
 10
-6.1478734831
 20
45.5245197438
 11
-6.1350234062
 21
45.7591042052
  0
LINE
  5
4F2
100
AcDbEntity
  8
0
100
AcDbLine
 62
7
  6
CONTINUOUS
 10
-1.8711733738
 20
45.3878072594
 11
-1.8642089803
 21
45.4862036624
  0
LINE
  5
4F3
100
AcDbEntity
  8
0
100
AcDbLine
 62
7
  6
CONTINUOUS
 10
2.3805838443
 20
86.9001612118
 11
2.3907011813
 21
87.0431475293
  0
LINE
  5
4F4
100
AcDbEntity
  8
0
100
AcDbLine
 62
7
  6
CONTINUOUS
 10
-9.4353569862
 20
38.800441541
 11
-9.4148144543
 21
39.0877616543
  0
LINE
  5
4F5
100
AcDbEntity
  8
0
100
AcDbLine
 62
7
  6
CONTINUOUS
 10
-9.4118484511
 20
-20.9282828885
 11
-9.4353569862
 21
-21.2354686302
  0
LINE
  5
4F6
100
AcDbEntity
  8
0
100
AcDbLine
 62
7
  6
CONTINUOUS
 10
-14.6506179323
 20
-54.5517100432
 11
-14.7220463314
 21
-55.3997050692
  0
LINE
  5
4F7
100
AcDbEntity
  8
0
100
AcDbLine
 62
7
  6
CONTINUOUS
 10
-11.0606594186
 20
-38.9377307019
 11
-11.0468563958
 21
-38.7855658731
  0
LINE
  5
4F8
100
AcDbEntity
  8
0
100
AcDbLine
 62
7
  6
CONTINUOUS
 10
-6.1350234062
 20
45.7591042052
 11
-6.1136527375
 21
45.9923628564
  0
LINE
  5
4F9
100
AcDbEntity
  8
0
100
AcDbLine
 62
7
  6
CONTINUOUS
 10
-22.4354370985
 20
-62.9826786259
 11
-22.4127747146
 21
-62.7674555734
  0
LINE
  5
4FA
100
AcDbEntity
  8
0
100
AcDbLine
 62
7
  6
CONTINUOUS
 10
-25.6651588364
 20
-62.5104061728
 11
-25.6755609674
 21
-62.5981706894
  0
LINE
  5
4FB
100
AcDbEntity
  8
0
100
AcDbLine
 62
7
  6
CONTINUOUS
 10
-6.1136527375
 20
45.9923628564
 11
-6.0838004434
 21
46.2241276826
  0
LINE
  5
4FC
100
AcDbEntity
  8
0
100
AcDbLine
 62
7
  6
CONTINUOUS
 10
-9.8813669742
 20
48.5413777757
 11
-9.9505115295
 21
48.0467272996
  0
LINE
  5
4FD
100
AcDbEntity
  8
0
100
AcDbLine
 62
7
  6
CONTINUOUS
 10
-22.4670845219
 20
-63.1962683663
 11
-22.4354370985
 21
-62.9826786259
  0
LINE
  5
4FE
100
AcDbEntity
  8
0
100
AcDbLine
 62
7
  6
CONTINUOUS
 10
-29.3625960242
 20
-62.0677089806
 11
-29.3480753292
 21
-61.9807362669
  0
LINE
  5
4FF
100
AcDbEntity
  8
0
100
AcDbLine
 62
7
  6
CONTINUOUS
 10
-25.6755609674
 20
-62.5981706894
 11
-25.690081668
 21
-62.6851435514
  0
LINE
  5
500
100
AcDbEntity
  8
0
100
AcDbLine
 62
7
  6
CONTINUOUS
 10
-25.8233027482
 20
91.2109327571
 11
-25.8617464256
 21
91.1315565626
  0
LINE
  5
501
100
AcDbEntity
  8
0
100
AcDbLine
 62
7
  6
CONTINUOUS
 10
-29.1764107813
 20
92.8316111853
 11
-29.1341837097
 21
92.9091702673
  0
LINE
  5
502
100
AcDbEntity
  8
0
100
AcDbLine
 62
7
  6
CONTINUOUS
 10
-25.8617464256
 20
91.1315565626
 11
-25.9039735598
 21
91.0539970928
  0
LINE
  5
503
100
AcDbEntity
  8
0
100
AcDbLine
 62
7
  6
CONTINUOUS
 10
-29.1341837097
 20
92.9091702673
 11
-29.0882591466
 21
92.9847388577
  0
LINE
  5
504
100
AcDbEntity
  8
0
100
AcDbLine
 62
7
  6
CONTINUOUS
 10
-37.1291735578
 20
99.4036986189
 11
-37.643580055
 21
98.7276801173
  0
LINE
  5
505
100
AcDbEntity
  8
0
100
AcDbLine
 62
7
  6
CONTINUOUS
 10
24.2392684735
 20
-85.2921714528
 11
26.0242561658
 21
-84.7852551465
  0
LINE
  5
506
100
AcDbEntity
  8
0
100
AcDbLine
 62
7
  6
CONTINUOUS
 10
22.0990523742
 20
-80.9487031075
 11
23.7568255089
 21
-80.5676370701
  0
LINE
  5
507
100
AcDbEntity
  8
0
100
AcDbLine
 62
7
  6
CONTINUOUS
 10
2.8954560386
 20
-71.1346513875
 11
3.7268646351
 21
-70.9691126808
  0
LINE
  5
508
100
AcDbEntity
  8
0
100
AcDbLine
 62
7
  6
CONTINUOUS
 10
28.636311018
 20
-67.3849337038
 11
28.8481016401
 21
-67.3443536818
  0
LINE
  5
509
100
AcDbEntity
  8
0
100
AcDbLine
 62
7
  6
CONTINUOUS
 10
28.1248750172
 20
-64.161936598
 11
28.037903367
 21
-64.1764573208
  0
LINE
  5
50A
100
AcDbEntity
  8
0
100
AcDbLine
 62
7
  6
CONTINUOUS
 10
-26.8694285969
 20
-67.4165791879
 11
-26.6558505256
 21
-67.3849289196
  0
LINE
  5
50B
100
AcDbEntity
  8
0
100
AcDbLine
 62
7
  6
CONTINUOUS
 10
28.4226534898
 20
-67.4165808256
 11
28.636311018
 21
-67.3849337038
  0
LINE
  5
50C
100
AcDbEntity
  8
0
100
AcDbLine
 62
7
  6
CONTINUOUS
 10
28.037903367
 20
-64.1764573208
 11
27.9501401468
 21
-64.1868594629
  0
LINE
  5
50D
100
AcDbEntity
  8
0
100
AcDbLine
 62
7
  6
CONTINUOUS
 10
27.5074416783
 20
-60.4894221702
 11
27.5952073844
 21
-60.4790200513
  0
LINE
  5
50E
100
AcDbEntity
  8
0
100
AcDbLine
 62
7
  6
CONTINUOUS
 10
-27.2538354421
 20
-64.1764573223
 11
-27.3415987626
 21
-64.1868594634
  0
LINE
  5
50F
100
AcDbEntity
  8
0
100
AcDbLine
 62
7
  6
CONTINUOUS
 10
-27.0846291941
 20
-67.4392430749
 11
-26.8694285969
 21
-67.4165791879
  0
LINE
  5
510
100
AcDbEntity
  8
0
100
AcDbLine
 62
7
  6
CONTINUOUS
 10
-27.6965315245
 20
-60.4790200518
 11
-27.6080857281
 21
-60.4727615863
  0
LINE
  5
511
100
AcDbEntity
  8
0
100
AcDbLine
 62
7
  6
CONTINUOUS
 10
4.4965318573
 20
-41.3185923586
 11
-4.0223414411
 21
-41.3185923586
  0
LINE
  5
512
100
AcDbEntity
  8
0
100
AcDbLine
 62
7
  6
CONTINUOUS
 10
-14.0267417979
 20
-39.2062177415
 11
68.912648647
 21
-39.2062177415
  0
LINE
  5
513
100
AcDbEntity
  8
0
100
AcDbLine
 62
7
  6
CONTINUOUS
 10
-4.0223414411
 20
-41.3185923586
 11
-4.2044275634
 21
-41.3129616737
  0
LINE
  5
514
100
AcDbEntity
  8
0
100
AcDbLine
 62
7
  6
CONTINUOUS
 10
4.4965318573
 20
-36.982665513
 11
4.6786139548
 21
-36.9882962135
  0
LINE
  5
515
100
AcDbEntity
  8
0
100
AcDbLine
 62
7
  6
CONTINUOUS
 10
-7.7043759661
 20
-8.0541641696
 11
-7.9847644675
 21
-7.9929798641
  0
LINE
  5
516
100
AcDbEntity
  8
0
100
AcDbLine
 62
7
  6
CONTINUOUS
 10
8.4243775012
 20
-19.3121042791
 11
8.1254496676
 21
-19.2421275769
  0
LINE
  5
517
100
AcDbEntity
  8
0
100
AcDbLine
 62
7
  6
CONTINUOUS
 10
-0.508279215
 20
-1.9130612095
 11
-0.6215866612
 21
-1.8769818917
  0
LINE
  5
518
100
AcDbEntity
  8
0
100
AcDbLine
 62
7
  6
CONTINUOUS
 10
-0.6215866612
 20
-1.8769818917
 11
-0.7331021912
 21
-1.8355284497
  0
LINE
  5
519
100
AcDbEntity
  8
0
100
AcDbLine
 62
7
  6
CONTINUOUS
 10
1.01935029
 20
2.8836082296
 11
1.1308709072
 21
2.8421559241
  0
LINE
  5
51A
100
AcDbEntity
  8
0
100
AcDbLine
 62
7
  6
CONTINUOUS
 10
-20.6678594108
 20
8.4886714723
 11
-19.870267325
 21
8.1820949895
  0
LINE
  5
51B
100
AcDbEntity
  8
0
100
AcDbLine
 62
7
  6
CONTINUOUS
 10
20.9613893707
 20
-2.7015885921
 11
20.1637783628
 21
-2.3950155426
  0
LINE
  5
51C
100
AcDbEntity
  8
0
100
AcDbLine
 62
7
  6
CONTINUOUS
 10
1.1308709072
 20
2.8421559241
 11
1.2403878934
 21
2.7954023161
  0
LINE
  5
51D
100
AcDbEntity
  8
0
100
AcDbLine
 62
7
  6
CONTINUOUS
 10
-1.1544104522
 20
43.7196126123
 11
-1.227699877
 21
43.7859703269
  0
LINE
  5
51E
100
AcDbEntity
  8
0
100
AcDbLine
 62
7
  6
CONTINUOUS
 10
-1.227699877
 20
43.7859703269
 11
-1.234302144
 21
43.7922665931
  0
LINE
  5
51F
100
AcDbEntity
  8
0
100
AcDbLine
 62
7
  6
CONTINUOUS
 10
9.1418375957
 20
40.3200666835
 11
9.3393968488
 21
40.1226370863
  0
LINE
  5
520
100
AcDbEntity
  8
0
100
AcDbLine
 62
7
  6
CONTINUOUS
 10
-1.234302144
 20
43.7922665931
 11
-1.3040896836
 21
43.8623568261
  0
LINE
  5
521
100
AcDbEntity
  8
0
100
AcDbLine
 62
7
  6
CONTINUOUS
 10
1.6321306834
 20
46.7852060789
 11
1.7019237938
 21
46.7151126228
  0
LINE
  5
522
100
AcDbEntity
  8
0
100
AcDbLine
 62
7
  6
CONTINUOUS
 10
-4.2916746187
 20
40.7964799053
 11
-4.3464562224
 21
40.8520180201
  0
LINE
  5
523
100
AcDbEntity
  8
0
100
AcDbLine
 62
7
  6
CONTINUOUS
 10
-1.3040896836
 20
43.8623568261
 11
-1.370442016
 21
43.9356339904
  0
LINE
  5
524
100
AcDbEntity
  8
0
100
AcDbLine
 62
7
  6
CONTINUOUS
 10
1.7019237938
 20
46.7151126228
 11
1.7682811635
 21
46.6418328425
  0
LINE
  5
525
100
AcDbEntity
  8
0
100
AcDbLine
 62
7
  6
CONTINUOUS
 10
4.9407487193
 20
49.5174796262
 11
5.0923426275
 21
49.3415165237
  0
LINE
  5
526
100
AcDbEntity
  8
0
100
AcDbLine
 62
7
  6
CONTINUOUS
 10
1.7682811635
 20
46.6418328425
 11
1.8310401352
 21
46.5655561034
  0
LINE
  5
527
100
AcDbEntity
  8
0
100
AcDbLine
 62
7
  6
CONTINUOUS
 10
-28.9293445575
 20
90.7654397715
 11
-28.9857227409
 21
90.8339734946
  0
LINE
  5
528
100
AcDbEntity
  8
0
100
AcDbLine
 62
7
  6
CONTINUOUS
 10
5.0923426275
 20
49.3415165237
 11
5.2373412438
 21
49.160257743
  0
LINE
  5
529
100
AcDbEntity
  8
0
100
AcDbLine
 62
7
  6
CONTINUOUS
 10
10.6450420741
 20
47.331066041
 11
10.3764000205
 21
47.6733715804
  0
LINE
  5
52A
100
AcDbEntity
  8
0
100
AcDbLine
 62
7
  6
CONTINUOUS
 10
9.3393968488
 20
40.1226370863
 11
9.5146599621
 21
39.8900915606
  0
LINE
  5
52B
100
AcDbEntity
  8
0
100
AcDbLine
 62
7
  6
CONTINUOUS
 10
1.8310401352
 20
46.5655561034
 11
1.8900505098
 21
46.4864769865
  0
LINE
  5
52C
100
AcDbEntity
  8
0
100
AcDbLine
 62
7
  6
CONTINUOUS
 10
-28.9857227409
 20
90.8339734946
 11
-29.0387352738
 21
90.9050296143
  0
LINE
  5
52D
100
AcDbEntity
  8
0
100
AcDbLine
 62
7
  6
CONTINUOUS
 10
-26.0524346989
 20
93.1291999179
 11
-25.9994221187
 21
93.0581434204
  0
LINE
  5
52E
100
AcDbEntity
  8
0
100
AcDbLine
 62
7
  6
CONTINUOUS
 10
5.2373412438
 20
49.160257743
 11
5.3755409028
 21
48.9739720738
  0
LINE
  5
52F
100
AcDbEntity
  8
0
100
AcDbLine
 62
7
  6
CONTINUOUS
 10
5.3755409028
 20
48.9739720738
 11
5.5067519759
 21
48.7829313932
  0
LINE
  5
530
100
AcDbEntity
  8
0
100
AcDbLine
 62
7
  6
CONTINUOUS
 10
-25.9994221187
 20
93.0581434204
 11
-25.9498981869
 21
92.9847416966
  0
LINE
  5
531
100
AcDbEntity
  8
0
100
AcDbLine
 62
7
  6
CONTINUOUS
 10
5.5067519759
 20
48.7829313932
 11
5.6307993108
 21
48.5874088426
  0
LINE
  5
532
100
AcDbEntity
  8
0
100
AcDbLine
 62
7
  6
CONTINUOUS
 10
16.8312181154
 20
38.1643045497
 11
16.5570180089
 21
38.608411519
  0
LINE
  5
533
100
AcDbEntity
  8
0
100
AcDbLine
 62
7
  6
CONTINUOUS
 10
5.6307993108
 20
48.5874088426
 11
5.7475224155
 21
48.3876770381
  0
LINE
  5
534
100
AcDbEntity
  8
0
100
AcDbLine
 62
7
  6
CONTINUOUS
 10
9.5146599621
 20
39.8900915606
 11
9.6539486963
 21
39.636710854
  0
LINE
  5
535
100
AcDbEntity
  8
0
100
AcDbLine
 62
7
  6
CONTINUOUS
 10
5.7475224155
 20
48.3876770381
 11
5.8567753925
 21
48.1840063505
  0
LINE
  5
536
100
AcDbEntity
  8
0
100
AcDbLine
 62
7
  6
CONTINUOUS
 10
5.8567753925
 20
48.1840063505
 11
5.958426636
 21
47.9766632951
  0
LINE
  5
537
100
AcDbEntity
  8
0
100
AcDbLine
 62
7
  6
CONTINUOUS
 10
5.958426636
 20
47.9766632951
 11
6.0523583115
 21
47.7659090528
  0
LINE
  5
538
100
AcDbEntity
  8
0
100
AcDbLine
 62
7
  6
CONTINUOUS
 10
10.3764000205
 20
47.6733715804
 11
10.2013978436
 21
48.0938381748
  0
LINE
  5
539
100
AcDbEntity
  8
0
100
AcDbLine
 62
7
  6
CONTINUOUS
 10
6.0523583115
 20
47.7659090528
 11
6.1384656393
 21
47.5519981492
  0
LINE
  5
53A
100
AcDbEntity
  8
0
100
AcDbLine
 62
7
  6
CONTINUOUS
 10
9.6539486963
 20
39.636710854
 11
9.7548963621
 21
39.3677307351
  0
LINE
  5
53B
100
AcDbEntity
  8
0
100
AcDbLine
 62
7
  6
CONTINUOUS
 10
6.1384656393
 20
47.5519981492
 11
6.2166560089
 21
47.3351773042
  0
LINE
  5
53C
100
AcDbEntity
  8
0
100
AcDbLine
 62
7
  6
CONTINUOUS
 10
16.5570180089
 20
38.608411519
 11
16.4210584033
 21
38.9938925482
  0
LINE
  5
53D
100
AcDbEntity
  8
0
100
AcDbLine
 62
7
  6
CONTINUOUS
 10
6.2166560089
 20
47.3351773042
 11
6.2868479539
 21
47.1156844706
  0
LINE
  5
53E
100
AcDbEntity
  8
0
100
AcDbLine
 62
7
  6
CONTINUOUS
 10
2.5408682344
 20
85.7748358885
 11
2.4977234117
 21
85.9103507612
  0
LINE
  5
53F
100
AcDbEntity
  8
0
100
AcDbLine
 62
7
  6
CONTINUOUS
 10
6.2868479539
 20
47.1156844706
 11
6.3489700152
 21
46.8937480568
  0
LINE
  5
540
100
AcDbEntity
  8
0
100
AcDbLine
 62
7
  6
CONTINUOUS
 10
2.4977234117
 20
85.9103507612
 11
2.4610771044
 21
86.0477771345
  0
LINE
  5
541
100
AcDbEntity
  8
0
100
AcDbLine
 62
7
  6
CONTINUOUS
 10
6.3489700152
 20
46.8937480568
 11
6.4029595271
 21
46.6695863437
  0
LINE
  5
542
100
AcDbEntity
  8
0
100
AcDbLine
 62
7
  6
CONTINUOUS
 10
17.0581114282
 20
1.2016894346
 11
16.8720385942
 21
2.0354219791
  0
LINE
  5
543
100
AcDbEntity
  8
0
100
AcDbLine
 62
7
  6
CONTINUOUS
 10
9.7548963621
 20
39.3677307351
 11
9.8160725973
 21
39.0877289232
  0
LINE
  5
544
100
AcDbEntity
  8
0
100
AcDbLine
 62
7
  6
CONTINUOUS
 10
29.5830448048
 20
-61.8946754097
 11
29.6016560711
 21
-61.9807359568
  0
LINE
  5
545
100
AcDbEntity
  8
0
100
AcDbLine
 62
7
  6
CONTINUOUS
 10
2.4610771044
 20
86.0477771345
 11
2.4309909107
 21
86.1868905107
  0
LINE
  5
546
100
AcDbEntity
  8
0
100
AcDbLine
 62
7
  6
CONTINUOUS
 10
6.4029595271
 20
46.6695863437
 11
6.4487613479
 21
46.4434070831
  0
LINE
  5
547
100
AcDbEntity
  8
0
100
AcDbLine
 62
7
  6
CONTINUOUS
 10
2.2343362803
 20
45.6805633142
 11
2.2504949451
 21
45.5838135297
  0
LINE
  5
548
100
AcDbEntity
  8
0
100
AcDbLine
 62
7
  6
CONTINUOUS
 10
25.9436624104
 20
-62.6851432413
 11
25.9291417154
 21
-62.5981705341
  0
LINE
  5
549
100
AcDbEntity
  8
0
100
AcDbLine
 62
7
  6
CONTINUOUS
 10
2.4309909107
 20
86.1868905107
 11
2.4075171686
 21
86.327481014
  0
LINE
  5
54A
100
AcDbEntity
  8
0
100
AcDbLine
 62
7
  6
CONTINUOUS
 10
29.6016560711
 20
-61.9807359568
 11
29.6161767722
 21
-62.0677088253
  0
LINE
  5
54B
100
AcDbEntity
  8
0
100
AcDbLine
 62
7
  6
CONTINUOUS
 10
6.4487613479
 20
46.4434070831
 11
6.4863265676
 21
46.2154072736
  0
LINE
  5
54C
100
AcDbEntity
  8
0
100
AcDbLine
 62
7
  6
CONTINUOUS
 10
22.6888403132
 20
-62.9828922421
 11
22.7204872893
 21
-63.1965404525
  0
LINE
  5
54D
100
AcDbEntity
  8
0
100
AcDbLine
 62
7
  6
CONTINUOUS
 10
10.2013978436
 20
48.0938381748
 11
10.1323795639
 21
48.5790258529
  0
LINE
  5
54E
100
AcDbEntity
  8
0
100
AcDbLine
 62
7
  6
CONTINUOUS
 10
6.4863265676
 20
46.2154072736
 11
6.515611217
 21
45.9857731011
  0
LINE
  5
54F
100
AcDbEntity
  8
0
100
AcDbLine
 62
7
  6
CONTINUOUS
 10
2.2504949451
 20
45.5838135297
 11
2.262070389
 21
45.4861836511
  0
LINE
  5
550
100
AcDbEntity
  8
0
100
AcDbLine
 62
7
  6
CONTINUOUS
 10
2.4075171686
 20
86.327481014
 11
2.3907012555
 21
86.4693535672
  0
LINE
  5
551
100
AcDbEntity
  8
0
100
AcDbLine
 62
7
  6
CONTINUOUS
 10
22.6661778995
 20
-62.7676040409
 11
22.6888403132
 21
-62.9828922421
  0
LINE
  5
552
100
AcDbEntity
  8
0
100
AcDbLine
 62
7
  6
CONTINUOUS
 10
16.8720385942
 20
2.0354219791
 11
16.8094797291
 21
2.8936307329
  0
LINE
  5
553
100
AcDbEntity
  8
0
100
AcDbLine
 62
7
  6
CONTINUOUS
 10
9.8160725973
 20
39.0877289232
 11
9.8366148893
 21
38.800441541
  0
LINE
  5
554
100
AcDbEntity
  8
0
100
AcDbLine
 62
7
  6
CONTINUOUS
 10
25.9187395858
 20
-62.5104061214
 11
25.9124811168
 21
-62.4219615932
  0
LINE
  5
555
100
AcDbEntity
  8
0
100
AcDbLine
 62
7
  6
CONTINUOUS
 10
8.3847286273
 20
87.0431531051
 11
8.3948458716
 21
86.9001612118
  0
LINE
  5
556
100
AcDbEntity
  8
0
100
AcDbLine
 62
7
  6
CONTINUOUS
 10
22.6525474554
 20
-62.5508876238
 11
22.6661778995
 21
-62.7676040409
  0
LINE
  5
557
100
AcDbEntity
  8
0
100
AcDbLine
 62
7
  6
CONTINUOUS
 10
15.442439853
 20
-56.2546373884
 11
15.4185573524
 21
-55.3989882895
  0
LINE
  5
558
100
AcDbEntity
  8
0
100
AcDbLine
 62
7
  6
CONTINUOUS
 10
8.3948458716
 20
86.9001612118
 11
8.3982265712
 21
86.7562371647
  0
LINE
  5
559
100
AcDbEntity
  8
0
100
AcDbLine
 62
7
  6
CONTINUOUS
 10
11.6541437547
 20
-39.0865688477
 11
11.657064635
 21
-39.2444628397
  0
LINE
  5
55A
100
AcDbEntity
  8
0
100
AcDbLine
 62
7
  6
CONTINUOUS
 10
6.5491800542
 20
45.5222930376
 11
6.5533898048
 21
45.2887669438
  0
LINE
  5
55B
100
AcDbEntity
  8
0
100
AcDbLine
 62
7
  6
CONTINUOUS
 10
10.1323795639
 20
48.5790258529
 11
10.1319026252
 21
48.6240952868
  0
LINE
  5
55C
100
AcDbEntity
  8
0
100
AcDbLine
 62
7
  6
CONTINUOUS
 10
7.6859951739
 20
-8.0764865419
 11
7.6859951739
 21
-19.2186178171
  0
LINE
  5
55D
100
AcDbEntity
  8
0
100
AcDbLine
 62
7
  6
CONTINUOUS
 10
7.7589276871
 20
-81.3789987295
 11
7.7589276871
 21
-88.4943658612
  0
LINE
  5
55E
100
AcDbEntity
  8
0
100
AcDbLine
 62
7
  6
CONTINUOUS
 10
9.8366148893
 20
38.800441541
 11
9.8366148893
 21
-6.0578568863
  0
LINE
  5
55F
100
AcDbEntity
  8
0
100
AcDbLine
 62
7
  6
CONTINUOUS
 10
9.8366148893
 20
-44.5219306413
 11
9.8366148893
 21
-21.2354686302
  0
LINE
  5
560
100
AcDbEntity
  8
0
100
AcDbLine
 62
7
  6
CONTINUOUS
 10
10.1319026252
 20
48.6240952868
 11
10.1319026252
 21
90.4268771839
  0
LINE
  5
561
100
AcDbEntity
  8
0
100
AcDbLine
 62
7
  6
CONTINUOUS
 10
6.5533898048
 20
45.2887669438
 11
6.5491802519
 21
45.0551783375
  0
LINE
  5
562
100
AcDbEntity
  8
0
100
AcDbLine
 62
7
  6
CONTINUOUS
 10
11.657064635
 20
-39.2444628397
 11
11.6541438631
 21
-39.4022363101
  0
LINE
  5
563
100
AcDbEntity
  8
0
100
AcDbLine
 62
7
  6
CONTINUOUS
 10
2.7160724078
 20
0.5032231454
 11
2.7132457172
 21
0.3829381456
  0
LINE
  5
564
100
AcDbEntity
  8
0
100
AcDbLine
 62
7
  6
CONTINUOUS
 10
8.3982265712
 20
86.7562371647
 11
8.3948458716
 21
86.6123277195
  0
LINE
  5
565
100
AcDbEntity
  8
0
100
AcDbLine
 62
7
  6
CONTINUOUS
 10
7.0189295055
 20
-39.1507178782
 11
7.0132938736
 21
-39.2958390804
  0
LINE
  5
566
100
AcDbEntity
  8
0
100
AcDbLine
 62
7
  6
CONTINUOUS
 10
6.5491802519
 20
45.0551783375
 11
6.5365755764
 21
44.822719917
  0
LINE
  5
567
100
AcDbEntity
  8
0
100
AcDbLine
 62
7
  6
CONTINUOUS
 10
-2.3153843257
 20
0.6235240646
 11
-2.3069249504
 21
0.74304878
  0
LINE
  5
568
100
AcDbEntity
  8
0
100
AcDbLine
 62
7
  6
CONTINUOUS
 10
2.269034785
 20
45.1897369293
 11
2.262070389
 21
45.091350237
  0
LINE
  5
569
100
AcDbEntity
  8
0
100
AcDbLine
 62
7
  6
CONTINUOUS
 10
8.3948458716
 20
86.6123277195
 11
8.3847285532
 21
86.4693479919
  0
LINE
  5
56A
100
AcDbEntity
  8
0
100
AcDbLine
 62
7
  6
CONTINUOUS
 10
2.7132457172
 20
0.3829381456
 11
2.7047863036
 21
0.2634283733
  0
LINE
  5
56B
100
AcDbEntity
  8
0
100
AcDbLine
 62
7
  6
CONTINUOUS
 10
6.5365755764
 20
44.822719917
 11
6.5156119895
 21
44.5915455205
  0
LINE
  5
56C
100
AcDbEntity
  8
0
100
AcDbLine
 62
7
  6
CONTINUOUS
 10
-6.5391034528
 20
-39.005573612
 11
-6.5222383563
 21
-38.861632438
  0
LINE
  5
56D
100
AcDbEntity
  8
0
100
AcDbLine
 62
7
  6
CONTINUOUS
 10
2.3907011813
 20
87.0431475293
 11
2.4075168398
 21
87.1850299136
  0
LINE
  5
56E
100
AcDbEntity
  8
0
100
AcDbLine
 62
7
  6
CONTINUOUS
 10
-1.8642089803
 20
45.4862036624
 11
-1.8526335788
 21
45.5838425763
  0
LINE
  5
56F
100
AcDbEntity
  8
0
100
AcDbLine
 62
7
  6
CONTINUOUS
 10
2.262070389
 20
45.091350237
 11
2.2504949451
 21
44.9937203584
  0
LINE
  5
570
100
AcDbEntity
  8
0
100
AcDbLine
 62
7
  6
CONTINUOUS
 10
-2.3069249504
 20
0.74304878
 11
-2.2928644895
 21
0.8616582943
  0
LINE
  5
571
100
AcDbEntity
  8
0
100
AcDbLine
 62
7
  6
CONTINUOUS
 10
8.3847285532
 20
86.4693479919
 11
8.3679124803
 21
86.3274642592
  0
LINE
  5
572
100
AcDbEntity
  8
0
100
AcDbLine
 62
7
  6
CONTINUOUS
 10
-11.0468563958
 20
-38.7855658731
 11
-11.0275734807
 21
-38.6343425339
  0
LINE
  5
573
100
AcDbEntity
  8
0
100
AcDbLine
 62
7
  6
CONTINUOUS
 10
-14.5319688252
 20
-53.7120101967
 11
-14.6506179323
 21
-54.5517100432
  0
LINE
  5
574
100
AcDbEntity
  8
0
100
AcDbLine
 62
7
  6
CONTINUOUS
 10
-11.0275734807
 20
-38.6343425339
 11
-11.0028363299
 21
-38.4841748173
  0
LINE
  5
575
100
AcDbEntity
  8
0
100
AcDbLine
 62
7
  6
CONTINUOUS
 10
-6.0838004434
 20
46.2241276826
 11
-6.0455079155
 21
46.4542197435
  0
LINE
  5
576
100
AcDbEntity
  8
0
100
AcDbLine
 62
7
  6
CONTINUOUS
 10
2.4075168398
 20
87.1850299136
 11
2.4309900499
 21
87.325628033
  0
LINE
  5
577
100
AcDbEntity
  8
0
100
AcDbLine
 62
7
  6
CONTINUOUS
 10
-1.8526335788
 20
45.5838425763
 11
-1.8364750355
 21
45.680600644
  0
LINE
  5
578
100
AcDbEntity
  8
0
100
AcDbLine
 62
7
  6
CONTINUOUS
 10
8.3679124803
 20
86.3274642592
 11
8.3444380736
 21
86.1868570418
  0
LINE
  5
579
100
AcDbEntity
  8
0
100
AcDbLine
 62
7
  6
CONTINUOUS
 10
2.2504949451
 20
44.9937203584
 11
2.2343362803
 21
44.8969705734
  0
LINE
  5
57A
100
AcDbEntity
  8
0
100
AcDbLine
 62
7
  6
CONTINUOUS
 10
-22.5076655912
 20
-63.4079978817
 11
-22.4670845219
 21
-63.1962683663
  0
LINE
  5
57B
100
AcDbEntity
  8
0
100
AcDbLine
 62
7
  6
CONTINUOUS
 10
-6.0455079155
 20
46.4542197435
 11
-5.9988202574
 21
46.6824489231
  0
LINE
  5
57C
100
AcDbEntity
  8
0
100
AcDbLine
 62
7
  6
CONTINUOUS
 10
2.4309900499
 20
87.325628033
 11
2.4610753491
 21
87.4647469467
  0
LINE
  5
57D
100
AcDbEntity
  8
0
100
AcDbLine
 62
7
  6
CONTINUOUS
 10
-29.3480753292
 20
-61.9807362669
 11
-29.3294640755
 21
-61.8946759246
  0
LINE
  5
57E
100
AcDbEntity
  8
0
100
AcDbLine
 62
7
  6
CONTINUOUS
 10
-25.690081668
 20
-62.6851435514
 11
-25.7086929343
 21
-62.7712040894
  0
LINE
  5
57F
100
AcDbEntity
  8
0
100
AcDbLine
 62
7
  6
CONTINUOUS
 10
-1.8364750355
 20
45.680600644
 11
-1.8157643824
 21
45.7763443731
  0
LINE
  5
580
100
AcDbEntity
  8
0
100
AcDbLine
 62
7
  6
CONTINUOUS
 10
-9.4148144543
 20
39.0877616543
 11
-9.3536382665
 21
39.3677875018
  0
LINE
  5
581
100
AcDbEntity
  8
0
100
AcDbLine
 62
7
  6
CONTINUOUS
 10
-16.5786116603
 20
2.0354219791
 11
-16.7646843279
 21
1.2016868514
  0
LINE
  5
582
100
AcDbEntity
  8
0
100
AcDbLine
 62
7
  6
CONTINUOUS
 10
-5.9988202574
 20
46.6824489231
 11
-5.9437876256
 21
46.9086138139
  0
LINE
  5
583
100
AcDbEntity
  8
0
100
AcDbLine
 62
7
  6
CONTINUOUS
 10
2.4610753491
 20
87.4647469467
 11
2.4977203293
 21
87.6021769318
  0
LINE
  5
584
100
AcDbEntity
  8
0
100
AcDbLine
 62
7
  6
CONTINUOUS
 10
-16.1576095225
 20
38.9324261247
 11
-16.3002845766
 21
38.4615443869
  0
LINE
  5
585
100
AcDbEntity
  8
0
100
AcDbLine
 62
7
  6
CONTINUOUS
 10
2.4977203293
 20
87.6021769318
 11
2.5408633382
 21
87.7376936592
  0
LINE
  5
586
100
AcDbEntity
  8
0
100
AcDbLine
 62
7
  6
CONTINUOUS
 10
-25.9039735598
 20
91.0539970928
 11
-25.9498981869
 21
90.9784281075
  0
LINE
  5
587
100
AcDbEntity
  8
0
100
AcDbLine
 62
7
  6
CONTINUOUS
 10
-29.0882591466
 20
92.9847388577
 11
-29.0387352738
 21
93.0581401898
  0
LINE
  5
588
100
AcDbEntity
  8
0
100
AcDbLine
 62
7
  6
CONTINUOUS
 10
-25.9498981869
 20
90.9784281075
 11
-25.9994221187
 21
90.9050263837
  0
LINE
  5
589
100
AcDbEntity
  8
0
100
AcDbLine
 62
7
  6
CONTINUOUS
 10
-29.0387352738
 20
93.0581401898
 11
-28.9857227409
 21
93.1291963095
  0
LINE
  5
58A
100
AcDbEntity
  8
0
100
AcDbLine
 62
7
  6
CONTINUOUS
 10
29.0577821223
 20
-67.2948989431
 11
29.2650934274
 21
-67.2366363085
  0
LINE
  5
58B
100
AcDbEntity
  8
0
100
AcDbLine
 62
7
  6
CONTINUOUS
 10
3.7268646351
 20
-70.9691126808
 11
4.5467183727
 21
-70.7571203865
  0
LINE
  5
58C
100
AcDbEntity
  8
0
100
AcDbLine
 62
7
  6
CONTINUOUS
 10
28.8481016401
 20
-67.3443536818
 11
29.0577821223
 21
-67.2948989431
  0
LINE
  5
58D
100
AcDbEntity
  8
0
100
AcDbLine
 62
7
  6
CONTINUOUS
 10
28.2109344252
 20
-64.1433252949
 11
28.1248750172
 21
-64.161936598
  0
LINE
  5
58E
100
AcDbEntity
  8
0
100
AcDbLine
 62
7
  6
CONTINUOUS
 10
27.3344062932
 20
-60.5225540599
 11
27.4204677595
 21
-60.5039428431
  0
LINE
  5
58F
100
AcDbEntity
  8
0
100
AcDbLine
 62
7
  6
CONTINUOUS
 10
-26.6558505256
 20
-67.3849289196
 11
-26.4441232465
 21
-67.3443433933
  0
LINE
  5
590
100
AcDbEntity
  8
0
100
AcDbLine
 62
7
  6
CONTINUOUS
 10
27.4204677595
 20
-60.5039428431
 11
27.5074416783
 21
-60.4894221702
  0
LINE
  5
591
100
AcDbEntity
  8
0
100
AcDbLine
 62
7
  6
CONTINUOUS
 10
-27.1668637005
 20
-64.1619366011
 11
-27.2538354421
 21
-64.1764573223
  0
LINE
  5
592
100
AcDbEntity
  8
0
100
AcDbLine
 62
7
  6
CONTINUOUS
 10
-27.8712709588
 20
-60.5039428461
 11
-27.7842971307
 21
-60.4894221712
  0
LINE
  5
593
100
AcDbEntity
  8
0
100
AcDbLine
 62
7
  6
CONTINUOUS
 10
-27.7842971307
 20
-60.4894221712
 11
-27.6965315245
 21
-60.4790200518
  0
LINE
  5
594
100
AcDbEntity
  8
0
100
AcDbLine
 62
7
  6
CONTINUOUS
 10
4.6786139548
 20
-41.3129616737
 11
4.4965318573
 21
-41.3185923586
  0
LINE
  5
595
100
AcDbEntity
  8
0
100
AcDbLine
 62
7
  6
CONTINUOUS
 10
-4.2044275634
 20
-36.9882962135
 11
-4.0223414411
 21
-36.982665513
  0
LINE
  5
596
100
AcDbEntity
  8
0
100
AcDbLine
 62
7
  6
CONTINUOUS
 10
-4.0223414411
 20
-36.982665513
 11
4.4965318573
 21
-36.982665513
  0
LINE
  5
597
100
AcDbEntity
  8
0
100
AcDbLine
 62
7
  6
CONTINUOUS
 10
8.1254496676
 20
-19.2421275769
 11
7.8179683962
 21
-19.2186178171
  0
LINE
  5
598
100
AcDbEntity
  8
0
100
AcDbLine
 62
7
  6
CONTINUOUS
 10
-0.2770762095
 20
-1.9688632983
 11
-0.3933797246
 21
-1.9437054329
  0
LINE
  5
599
100
AcDbEntity
  8
0
100
AcDbLine
 62
7
  6
CONTINUOUS
 10
0.7911304237
 20
2.9503303171
 11
0.906036859
 21
2.9196866941
  0
LINE
  5
59A
100
AcDbEntity
  8
0
100
AcDbLine
 62
7
  6
CONTINUOUS
 10
-0.3933797246
 20
-1.9437054329
 11
-0.508279215
 21
-1.9130612095
  0
LINE
  5
59B
100
AcDbEntity
  8
0
100
AcDbLine
 62
7
  6
CONTINUOUS
 10
0.906036859
 20
2.9196866941
 11
1.01935029
 21
2.8836082296
  0
LINE
  5
59C
100
AcDbEntity
  8
0
100
AcDbLine
 62
7
  6
CONTINUOUS
 10
-0.9173100866
 20
43.5426957385
 11
-0.9990190126
 21
43.5978310978
  0
LINE
  5
59D
100
AcDbEntity
  8
0
100
AcDbLine
 62
7
  6
CONTINUOUS
 10
-0.9990190126
 20
43.5978310978
 11
-1.0781185243
 21
43.6568492532
  0
LINE
  5
59E
100
AcDbEntity
  8
0
100
AcDbLine
 62
7
  6
CONTINUOUS
 10
1.3967805462
 20
46.9796876445
 11
1.475888741
 21
46.9206670748
  0
LINE
  5
59F
100
AcDbEntity
  8
0
100
AcDbLine
 62
7
  6
CONTINUOUS
 10
8.9090241206
 20
40.4953007013
 11
9.1418375957
 21
40.3200666835
  0
LINE
  5
5A0
100
AcDbEntity
  8
0
100
AcDbLine
 62
7
  6
CONTINUOUS
 10
1.475888741
 20
46.9206670748
 11
1.5521892051
 21
46.8579013993
  0
LINE
  5
5A1
100
AcDbEntity
  8
0
100
AcDbLine
 62
7
  6
CONTINUOUS
 10
-1.0781185243
 20
43.6568492532
 11
-1.1544104522
 21
43.7196126123
  0
LINE
  5
5A2
100
AcDbEntity
  8
0
100
AcDbLine
 62
7
  6
CONTINUOUS
 10
4.2727013099
 20
50.1634063144
 11
4.4482580843
 21
50.0113219288
  0
LINE
  5
5A3
100
AcDbEntity
  8
0
100
AcDbLine
 62
7
  6
CONTINUOUS
 10
1.5521892051
 20
46.8579013993
 11
1.6254869075
 21
46.7915415679
  0
LINE
  5
5A4
100
AcDbEntity
  8
0
100
AcDbLine
 62
7
  6
CONTINUOUS
 10
4.4482580843
 20
50.0113219288
 11
4.6182350484
 21
49.8528764308
  0
LINE
  5
5A5
100
AcDbEntity
  8
0
100
AcDbLine
 62
7
  6
CONTINUOUS
 10
1.6254869075
 20
46.7915415679
 11
1.6321306834
 21
46.7852060789
  0
LINE
  5
5A6
100
AcDbEntity
  8
0
100
AcDbLine
 62
7
  6
CONTINUOUS
 10
4.6182350484
 20
49.8528764308
 11
4.6186554654
 21
49.8524699409
  0
LINE
  5
5A7
100
AcDbEntity
  8
0
100
AcDbLine
 62
7
  6
CONTINUOUS
 10
17.2035785125
 20
37.7964048435
 11
16.8312181154
 21
38.1643045497
  0
LINE
  5
5A8
100
AcDbEntity
  8
0
100
AcDbLine
 62
7
  6
CONTINUOUS
 10
4.6186554654
 20
49.8524699409
 11
4.7827765275
 21
49.6878831676
  0
LINE
  5
5A9
100
AcDbEntity
  8
0
100
AcDbLine
 62
7
  6
CONTINUOUS
 10
-28.8070418559
 20
90.6366322839
 11
-28.8697356164
 21
90.6996028361
  0
LINE
  5
5AA
100
AcDbEntity
  8
0
100
AcDbLine
 62
7
  6
CONTINUOUS
 10
4.7827765275
 20
49.6878831676
 11
4.9407487193
 21
49.5174796262
  0
LINE
  5
5AB
100
AcDbEntity
  8
0
100
AcDbLine
 62
7
  6
CONTINUOUS
 10
-28.8697356164
 20
90.6996028361
 11
-28.9293445575
 21
90.7654397715
  0
LINE
  5
5AC
100
AcDbEntity
  8
0
100
AcDbLine
 62
7
  6
CONTINUOUS
 10
-26.1684218482
 20
93.2635712511
 11
-26.1088129101
 21
93.1977339954
  0
LINE
  5
5AD
100
AcDbEntity
  8
0
100
AcDbLine
 62
7
  6
CONTINUOUS
 10
-26.1088129101
 20
93.1977339954
 11
-26.0524346989
 21
93.1291999179
  0
LINE
  5
5AE
100
AcDbEntity
  8
0
100
AcDbLine
 62
7
  6
CONTINUOUS
 10
2.8509901965
 20
85.1347069187
 11
2.7767524117
 21
85.2568490955
  0
LINE
  5
5AF
100
AcDbEntity
  8
0
100
AcDbLine
 62
7
  6
CONTINUOUS
 10
2.7767524117
 20
85.2568490955
 11
2.7084918039
 21
85.3822095656
  0
LINE
  5
5B0
100
AcDbEntity
  8
0
100
AcDbLine
 62
7
  6
CONTINUOUS
 10
2.7084918039
 20
85.3822095656
 11
2.6463471457
 21
85.5105078791
  0
LINE
  5
5B1
100
AcDbEntity
  8
0
100
AcDbLine
 62
7
  6
CONTINUOUS
 10
8.0669270945
 20
88.1305484728
 11
8.1290748054
 21
88.0022104903
  0
LINE
  5
5B2
100
AcDbEntity
  8
0
100
AcDbLine
 62
7
  6
CONTINUOUS
 10
2.6463471457
 20
85.5105078791
 11
2.5904384321
 21
85.641471061
  0
LINE
  5
5B3
100
AcDbEntity
  8
0
100
AcDbLine
 62
7
  6
CONTINUOUS
 10
8.1290748054
 20
88.0022104903
 11
8.1849861991
 21
87.8712090992
  0
LINE
  5
5B4
100
AcDbEntity
  8
0
100
AcDbLine
 62
7
  6
CONTINUOUS
 10
2.5904384321
 20
85.641471061
 11
2.5408682344
 21
85.7748358885
  0
LINE
  5
5B5
100
AcDbEntity
  8
0
100
AcDbLine
 62
7
  6
CONTINUOUS
 10
8.1849861991
 20
87.8712090992
 11
8.2345585483
 21
87.7378081122
  0
LINE
  5
5B6
100
AcDbEntity
  8
0
100
AcDbLine
 62
7
  6
CONTINUOUS
 10
8.2345585483
 20
87.7378081122
 11
8.2777049347
 21
87.6022596058
  0
LINE
  5
5B7
100
AcDbEntity
  8
0
100
AcDbLine
 62
7
  6
CONTINUOUS
 10
8.2777049347
 20
87.6022596058
 11
8.3143522374
 21
87.4648024876
  0
LINE
  5
5B8
100
AcDbEntity
  8
0
100
AcDbLine
 62
7
  6
CONTINUOUS
 10
8.3143522374
 20
87.4648024876
 11
8.3444389343
 21
87.3256615034
  0
LINE
  5
5B9
100
AcDbEntity
  8
0
100
AcDbLine
 62
7
  6
CONTINUOUS
 10
8.3444389343
 20
87.3256615034
 11
8.367912809
 21
87.1850466695
  0
LINE
  5
5BA
100
AcDbEntity
  8
0
100
AcDbLine
 62
7
  6
CONTINUOUS
 10
16.4210584033
 20
38.9938925482
 11
16.3578488652
 21
39.5057523081
  0
LINE
  5
5BB
100
AcDbEntity
  8
0
100
AcDbLine
 62
7
  6
CONTINUOUS
 10
25.9291417154
 20
-62.5981705341
 11
25.9187395858
 21
-62.5104061214
  0
LINE
  5
5BC
100
AcDbEntity
  8
0
100
AcDbLine
 62
7
  6
CONTINUOUS
 10
8.367912809
 20
87.1850466695
 11
8.3847286273
 21
87.0431531051
  0
LINE
  5
5BD
100
AcDbEntity
  8
0
100
AcDbLine
 62
7
  6
CONTINUOUS
 10
29.6161767722
 20
-62.0677088253
 11
29.6265789032
 21
-62.1554733459
  0
LINE
  5
5BE
100
AcDbEntity
  8
0
100
AcDbLine
 62
7
  6
CONTINUOUS
 10
29.6265789032
 20
-62.1554733459
 11
29.6328373717
 21
-62.2439179281
  0
LINE
  5
5BF
100
AcDbEntity
  8
0
100
AcDbLine
 62
7
  6
CONTINUOUS
 10
25.9187395858
 20
91.8041185413
 11
25.9124811168
 21
91.8925630695
  0
LINE
  5
5C0
100
AcDbEntity
  8
0
100
AcDbLine
 62
7
  6
CONTINUOUS
 10
25.9124811168
 20
-62.4219615932
 11
25.9103898285
 21
-62.3329397606
  0
LINE
  5
5C1
100
AcDbEntity
  8
0
100
AcDbLine
 62
7
  6
CONTINUOUS
 10
22.6479940809
 20
-62.3329397606
 11
22.6525474554
 21
-62.5508876238
  0
LINE
  5
5C2
100
AcDbEntity
  8
0
100
AcDbLine
 62
7
  6
CONTINUOUS
 10
16.3578488652
 20
39.5057523081
 11
16.3578488652
 21
46.8452535039
  0
LINE
  5
5C3
100
AcDbEntity
  8
0
100
AcDbLine
 62
7
  6
CONTINUOUS
 10
22.6479940809
 20
-62.3329397606
 11
22.6479940809
 21
-2.9502202918
  0
LINE
  5
5C4
100
AcDbEntity
  8
0
100
AcDbLine
 62
7
  6
CONTINUOUS
 10
22.6479940809
 20
8.7373038738
 11
22.6479940809
 21
37.283978921
  0
LINE
  5
5C5
100
AcDbEntity
  8
0
100
AcDbLine
 62
7
  6
CONTINUOUS
 10
24.8281425153
 20
-78.2991120667
 11
24.8281425153
 21
-80.1925112605
  0
LINE
  5
5C6
100
AcDbEntity
  8
0
100
AcDbLine
 62
7
  6
CONTINUOUS
 10
15.4185560005
 20
-57.1110224418
 11
15.442439853
 21
-56.2546373884
  0
LINE
  5
5C7
100
AcDbEntity
  8
0
100
AcDbLine
 62
7
  6
CONTINUOUS
 10
11.6541438631
 20
-39.4022363101
 11
11.645397633
 21
-39.5592640418
  0
LINE
  5
5C8
100
AcDbEntity
  8
0
100
AcDbLine
 62
7
  6
CONTINUOUS
 10
9.8366148893
 20
-6.0578568863
 11
9.8160725973
 21
-6.3451442685
  0
LINE
  5
5C9
100
AcDbEntity
  8
0
100
AcDbLine
 62
7
  6
CONTINUOUS
 10
16.8094797291
 20
2.8936307329
 11
16.8720385942
 21
3.7517955066
  0
LINE
  5
5CA
100
AcDbEntity
  8
0
100
AcDbLine
 62
7
  6
CONTINUOUS
 10
7.0132938736
 20
-39.2958390804
 11
6.9964286616
 21
-39.4397597203
  0
LINE
  5
5CB
100
AcDbEntity
  8
0
100
AcDbLine
 62
7
  6
CONTINUOUS
 10
2.7047863036
 20
0.2634283733
 11
2.6907257263
 21
0.1448328365
  0
LINE
  5
5CC
100
AcDbEntity
  8
0
100
AcDbLine
 62
7
  6
CONTINUOUS
 10
6.5156119895
 20
44.5915455205
 11
6.486326916
 21
44.3618192498
  0
LINE
  5
5CD
100
AcDbEntity
  8
0
100
AcDbLine
 62
7
  6
CONTINUOUS
 10
6.486326916
 20
44.3618192498
 11
6.4487601781
 21
44.1337158389
  0
LINE
  5
5CE
100
AcDbEntity
  8
0
100
AcDbLine
 62
7
  6
CONTINUOUS
 10
-2.2928644895
 20
0.8616582943
 11
-2.2732366797
 21
0.9792017095
  0
LINE
  5
5CF
100
AcDbEntity
  8
0
100
AcDbLine
 62
7
  6
CONTINUOUS
 10
2.6907257263
 20
0.1448328365
 11
2.671097677
 21
0.0273024503
  0
LINE
  5
5D0
100
AcDbEntity
  8
0
100
AcDbLine
 62
7
  6
CONTINUOUS
 10
-6.5222383563
 20
-38.861632438
 11
-6.494184582
 21
-38.7191408169
  0
LINE
  5
5D1
100
AcDbEntity
  8
0
100
AcDbLine
 62
7
  6
CONTINUOUS
 10
-14.3664500908
 20
-52.8821061182
 11
-14.5319688252
 21
-53.7120101967
  0
LINE
  5
5D2
100
AcDbEntity
  8
0
100
AcDbLine
 62
7
  6
CONTINUOUS
 10
-11.0028363299
 20
-38.4841748173
 11
-10.9726729171
 21
-38.3351839795
  0
LINE
  5
5D3
100
AcDbEntity
  8
0
100
AcDbLine
 62
7
  6
CONTINUOUS
 10
6.4487601781
 20
44.1337158389
 11
6.402955238
 21
43.9074208944
  0
LINE
  5
5D4
100
AcDbEntity
  8
0
100
AcDbLine
 62
7
  6
CONTINUOUS
 10
8.3444380736
 20
86.1868570418
 11
8.3143504816
 21
86.0477215946
  0
LINE
  5
5D5
100
AcDbEntity
  8
0
100
AcDbLine
 62
7
  6
CONTINUOUS
 10
2.2343362803
 20
44.8969705734
 11
2.2136253776
 21
44.801234303
  0
LINE
  5
5D6
100
AcDbEntity
  8
0
100
AcDbLine
 62
7
  6
CONTINUOUS
 10
-2.2732366797
 20
0.9792017095
 11
-2.2480791991
 21
1.0955158171
  0
LINE
  5
5D7
100
AcDbEntity
  8
0
100
AcDbLine
 62
7
  6
CONTINUOUS
 10
-9.3418839924
 20
-20.6297312936
 11
-9.4118484511
 21
-20.9282828885
  0
LINE
  5
5D8
100
AcDbEntity
  8
0
100
AcDbLine
 62
7
  6
CONTINUOUS
 10
-22.5571224956
 20
-63.6176243787
 11
-22.5076655912
 21
-63.4079978817
  0
LINE
  5
5D9
100
AcDbEntity
  8
0
100
AcDbLine
 62
7
  6
CONTINUOUS
 10
6.402955238
 20
43.9074208944
 11
6.3489604882
 21
43.6831310084
  0
LINE
  5
5DA
100
AcDbEntity
  8
0
100
AcDbLine
 62
7
  6
CONTINUOUS
 10
8.3143504816
 20
86.0477215946
 11
8.2777018518
 21
85.9102680873
  0
LINE
  5
5DB
100
AcDbEntity
  8
0
100
AcDbLine
 62
7
  6
CONTINUOUS
 10
-29.3294640755
 20
-61.8946759246
 11
-29.3067945813
 21
-61.8096578122
  0
LINE
  5
5DC
100
AcDbEntity
  8
0
100
AcDbLine
 62
7
  6
CONTINUOUS
 10
-25.7086929343
 20
-62.7712040894
 11
-25.7313624491
 21
-62.8562224428
  0
LINE
  5
5DD
100
AcDbEntity
  8
0
100
AcDbLine
 62
7
  6
CONTINUOUS
 10
-1.8157643824
 20
45.7763443731
 11
-1.7905373794
 21
45.8709300002
  0
LINE
  5
5DE
100
AcDbEntity
  8
0
100
AcDbLine
 62
7
  6
CONTINUOUS
 10
2.2136253776
 20
44.801234303
 11
2.1883979425
 21
44.7066552496
  0
LINE
  5
5DF
100
AcDbEntity
  8
0
100
AcDbLine
 62
7
  6
CONTINUOUS
 10
-5.9437876256
 20
46.9086138139
 11
-5.8804665927
 21
47.1325017673
  0
LINE
  5
5E0
100
AcDbEntity
  8
0
100
AcDbLine
 62
7
  6
CONTINUOUS
 10
8.2777018518
 20
85.9102680873
 11
8.2345536507
 21
85.7747214329
  0
LINE
  5
5E1
100
AcDbEntity
  8
0
100
AcDbLine
 62
7
  6
CONTINUOUS
 10
-1.7905373794
 20
45.8709300002
 11
-1.7608361169
 21
45.9642035909
  0
LINE
  5
5E2
100
AcDbEntity
  8
0
100
AcDbLine
 62
7
  6
CONTINUOUS
 10
-5.8804665927
 20
47.1325017673
 11
-5.8089215168
 21
47.3538891116
  0
LINE
  5
5E3
100
AcDbEntity
  8
0
100
AcDbLine
 62
7
  6
CONTINUOUS
 10
-5.8089215168
 20
47.3538891116
 11
-5.7292258815
 21
47.5725415641
  0
LINE
  5
5E4
100
AcDbEntity
  8
0
100
AcDbLine
 62
7
  6
CONTINUOUS
 10
2.5408633382
 20
87.7376936592
 11
2.5904312013
 21
87.871058765
  0
LINE
  5
5E5
100
AcDbEntity
  8
0
100
AcDbLine
 62
7
  6
CONTINUOUS
 10
8.2345536507
 20
85.7747214329
 11
8.1849789658
 21
85.6413207217
  0
LINE
  5
5E6
100
AcDbEntity
  8
0
100
AcDbLine
 62
7
  6
CONTINUOUS
 10
-9.3536382665
 20
39.3677875018
 11
-9.2526925435
 21
39.6367810874
  0
LINE
  5
5E7
100
AcDbEntity
  8
0
100
AcDbLine
 62
7
  6
CONTINUOUS
 10
-9.9505115295
 20
48.0467272996
 11
-10.1148287504
 21
47.6382211887
  0
LINE
  5
5E8
100
AcDbEntity
  8
0
100
AcDbLine
 62
7
  6
CONTINUOUS
 10
2.5904312013
 20
87.871058765
 11
2.6463370458
 21
88.0020208436
  0
LINE
  5
5E9
100
AcDbEntity
  8
0
100
AcDbLine
 62
7
  6
CONTINUOUS
 10
2.6463370458
 20
88.0020208436
 11
2.7084783095
 21
88.1303168739
  0
LINE
  5
5EA
100
AcDbEntity
  8
0
100
AcDbLine
 62
7
  6
CONTINUOUS
 10
-25.9994221187
 20
90.9050263837
 11
-26.0524346989
 21
90.8339698863
  0
LINE
  5
5EB
100
AcDbEntity
  8
0
100
AcDbLine
 62
7
  6
CONTINUOUS
 10
-28.9857227409
 20
93.1291963095
 11
-28.9293445575
 21
93.1977300326
  0
LINE
  5
5EC
100
AcDbEntity
  8
0
100
AcDbLine
 62
7
  6
CONTINUOUS
 10
-26.0524346989
 20
90.8339698863
 11
-26.1088129101
 21
90.7654358087
  0
LINE
  5
5ED
100
AcDbEntity
  8
0
100
AcDbLine
 62
7
  6
CONTINUOUS
 10
-35.683027632
 20
98.4828792858
 11
-36.1784406888
 21
97.928492205
  0
LINE
  5
5EE
100
AcDbEntity
  8
0
100
AcDbLine
 62
7
  6
CONTINUOUS
 10
-28.9293445575
 20
93.1977300326
 11
-28.8697356164
 21
93.263566968
  0
LINE
  5
5EF
100
AcDbEntity
  8
0
100
AcDbLine
 62
7
  6
CONTINUOUS
 10
-36.8538243853
 20
99.6790478458
 11
-37.1291735578
 21
99.4036986189
  0
LINE
  5
5F0
100
AcDbEntity
  8
0
100
AcDbLine
 62
7
  6
CONTINUOUS
 10
28.2959517268
 20
-64.1206557252
 11
28.2109344252
 21
-64.1433252949
  0
LINE
  5
5F1
100
AcDbEntity
  8
0
100
AcDbLine
 62
7
  6
CONTINUOUS
 10
27.249387135
 20
-60.5452234986
 11
27.3344062932
 21
-60.5225540599
  0
LINE
  5
5F2
100
AcDbEntity
  8
0
100
AcDbLine
 62
7
  6
CONTINUOUS
 10
-26.4441232465
 20
-67.3443433933
 11
-26.2344909341
 21
-67.2948802676
  0
LINE
  5
5F3
100
AcDbEntity
  8
0
100
AcDbLine
 62
7
  6
CONTINUOUS
 10
-27.0808042099
 20
-64.143325302
 11
-27.1668637005
 21
-64.1619366011
  0
LINE
  5
5F4
100
AcDbEntity
  8
0
100
AcDbLine
 62
7
  6
CONTINUOUS
 10
-27.9573323419
 20
-60.5225540665
 11
-27.8712709588
 21
-60.5039428461
  0
LINE
  5
5F5
100
AcDbEntity
  8
0
100
AcDbLine
 62
7
  6
CONTINUOUS
 10
4.8588661159
 20
-41.2961332222
 11
4.6786139548
 21
-41.3129616737
  0
LINE
  5
5F6
100
AcDbEntity
  8
0
100
AcDbLine
 62
7
  6
CONTINUOUS
 10
-4.3846819851
 20
-37.0051246403
 11
-4.2044275634
 21
-36.9882962135
  0
LINE
  5
5F7
100
AcDbEntity
  8
0
100
AcDbLine
 62
7
  6
CONTINUOUS
 10
7.8179683962
 20
-19.2186178171
 11
-7.416743784
 21
-19.2186178171
  0
LINE
  5
5F8
100
AcDbEntity
  8
0
100
AcDbLine
 62
7
  6
CONTINUOUS
 10
-7.416743784
 20
-8.0747077
 11
-7.7043759661
 21
-8.0541641696
  0
LINE
  5
5F9
100
AcDbEntity
  8
0
100
AcDbLine
 62
7
  6
CONTINUOUS
 10
-0.0409474089
 20
-2.0025518886
 11
-0.1595443631
 21
-1.9884913279
  0
LINE
  5
5FA
100
AcDbEntity
  8
0
100
AcDbLine
 62
7
  6
CONTINUOUS
 10
-0.1595443631
 20
-1.9884913279
 11
-0.2770762095
 21
-1.9688632983
  0
LINE
  5
5FB
100
AcDbEntity
  8
0
100
AcDbLine
 62
7
  6
CONTINUOUS
 10
0.5572781006
 20
2.9951156105
 11
0.6748189522
 21
2.9754877961
  0
LINE
  5
5FC
100
AcDbEntity
  8
0
100
AcDbLine
 62
7
  6
CONTINUOUS
 10
0.6748189522
 20
2.9754877961
 11
0.7911304237
 21
2.9503303171
  0
LINE
  5
5FD
100
AcDbEntity
  8
0
100
AcDbLine
 62
7
  6
CONTINUOUS
 10
21.7951218845
 20
-2.8876614262
 11
20.9613893707
 21
-2.7015885921
  0
LINE
  5
5FE
100
AcDbEntity
  8
0
100
AcDbLine
 62
7
  6
CONTINUOUS
 10
-21.5015611781
 20
8.6747451399
 11
-20.6678594108
 21
8.4886714723
  0
LINE
  5
5FF
100
AcDbEntity
  8
0
100
AcDbLine
 62
7
  6
CONTINUOUS
 10
-0.7468593782
 20
43.4445545675
 11
-0.8331908975
 21
43.4915669548
  0
LINE
  5
600
100
AcDbEntity
  8
0
100
AcDbLine
 62
7
  6
CONTINUOUS
 10
8.6552981845
 20
40.634597347
 11
8.9090241206
 21
40.4953007013
  0
LINE
  5
601
100
AcDbEntity
  8
0
100
AcDbLine
 62
7
  6
CONTINUOUS
 10
17.6611390188
 20
37.5196227429
 11
17.2035785125
 21
37.7964048435
  0
LINE
  5
602
100
AcDbEntity
  8
0
100
AcDbLine
 62
7
  6
CONTINUOUS
 10
-0.8331908975
 20
43.4915669548
 11
-0.9173100866
 21
43.5426957385
  0
LINE
  5
603
100
AcDbEntity
  8
0
100
AcDbLine
 62
7
  6
CONTINUOUS
 10
1.2309351429
 20
47.0859565374
 11
1.3150629166
 21
47.0348254202
  0
LINE
  5
604
100
AcDbEntity
  8
0
100
AcDbLine
 62
7
  6
CONTINUOUS
 10
3.5200134538
 20
50.703973132
 11
3.7152116539
 21
50.5793785635
  0
LINE
  5
605
100
AcDbEntity
  8
0
100
AcDbLine
 62
7
  6
CONTINUOUS
 10
1.3150629166
 20
47.0348254202
 11
1.3967805462
 21
46.9796876445
  0
LINE
  5
606
100
AcDbEntity
  8
0
100
AcDbLine
 62
7
  6
CONTINUOUS
 10
3.7152116539
 20
50.5793785635
 11
3.905907756
 21
50.4476325204
  0
LINE
  5
607
100
AcDbEntity
  8
0
100
AcDbLine
 62
7
  6
CONTINUOUS
 10
11.0041460557
 20
47.0723939441
 11
10.6450420741
 21
47.331066041
  0
LINE
  5
608
100
AcDbEntity
  8
0
100
AcDbLine
 62
7
  6
CONTINUOUS
 10
3.905907756
 20
50.4476325204
 11
4.0918283035
 21
50.3089114697
  0
LINE
  5
609
100
AcDbEntity
  8
0
100
AcDbLine
 62
7
  6
CONTINUOUS
 10
4.0918283035
 20
50.3089114697
 11
4.2727013099
 21
50.1634063144
  0
LINE
  5
60A
100
AcDbEntity
  8
0
100
AcDbLine
 62
7
  6
CONTINUOUS
 10
-28.6666864598
 20
90.5149391805
 11
-28.7352206498
 21
90.5713170549
  0
LINE
  5
60B
100
AcDbEntity
  8
0
100
AcDbLine
 62
7
  6
CONTINUOUS
 10
-28.7352206498
 20
90.5713170549
 11
-28.8010580088
 21
90.6309256496
  0
LINE
  5
60C
100
AcDbEntity
  8
0
100
AcDbLine
 62
7
  6
CONTINUOUS
 10
-26.3029265056
 20
93.3918487895
 11
-26.2370896765
 21
93.3322395025
  0
LINE
  5
60D
100
AcDbEntity
  8
0
100
AcDbLine
 62
7
  6
CONTINUOUS
 10
-28.8010580088
 20
90.6309256496
 11
-28.8070418559
 21
90.6366322839
  0
LINE
  5
60E
100
AcDbEntity
  8
0
100
AcDbLine
 62
7
  6
CONTINUOUS
 10
-26.2370896765
 20
93.3322395025
 11
-26.2311155633
 21
93.3265420801
  0
LINE
  5
60F
100
AcDbEntity
  8
0
100
AcDbLine
 62
7
  6
CONTINUOUS
 10
-26.2311155633
 20
93.3265420801
 11
-26.1684218482
 21
93.2635712511
  0
LINE
  5
610
100
AcDbEntity
  8
0
100
AcDbLine
 62
7
  6
CONTINUOUS
 10
3.1078819837
 20
84.7904491349
 11
3.0167434401
 21
84.9012204197
  0
LINE
  5
611
100
AcDbEntity
  8
0
100
AcDbLine
 62
7
  6
CONTINUOUS
 10
3.0167434401
 20
84.9012204197
 11
2.9310467108
 21
85.0160683084
  0
LINE
  5
612
100
AcDbEntity
  8
0
100
AcDbLine
 62
7
  6
CONTINUOUS
 10
2.9310467108
 20
85.0160683084
 11
2.8509901965
 21
85.1347069187
  0
LINE
  5
613
100
AcDbEntity
  8
0
100
AcDbLine
 62
7
  6
CONTINUOUS
 10
7.8443641975
 20
88.4968100292
 11
7.9244227021
 21
88.378131941
  0
LINE
  5
614
100
AcDbEntity
  8
0
100
AcDbLine
 62
7
  6
CONTINUOUS
 10
7.9244227021
 20
88.378131941
 11
7.9986633348
 21
88.2559493712
  0
LINE
  5
615
100
AcDbEntity
  8
0
100
AcDbLine
 62
7
  6
CONTINUOUS
 10
7.9986633348
 20
88.2559493712
 11
8.0669270945
 21
88.1305484728
  0
LINE
  5
616
100
AcDbEntity
  8
0
100
AcDbLine
 62
7
  6
CONTINUOUS
 10
25.9436624104
 20
91.6293814214
 11
25.9291417154
 21
91.7163541286
  0
LINE
  5
617
100
AcDbEntity
  8
0
100
AcDbLine
 62
7
  6
CONTINUOUS
 10
25.9291417154
 20
91.7163541286
 11
25.9187395858
 21
91.8041185413
  0
LINE
  5
618
100
AcDbEntity
  8
0
100
AcDbLine
 62
7
  6
CONTINUOUS
 10
29.6265789032
 20
92.1590513168
 11
29.6328373717
 21
92.0706067346
  0
LINE
  5
619
100
AcDbEntity
  8
0
100
AcDbLine
 62
7
  6
CONTINUOUS
 10
25.9124811168
 20
91.8925630695
 11
25.9103898285
 21
91.9815849021
  0
LINE
  5
61A
100
AcDbEntity
  8
0
100
AcDbLine
 62
7
  6
CONTINUOUS
 10
29.6328373717
 20
-62.2439179281
 11
29.634928659
 21
-62.3329397606
  0
LINE
  5
61B
100
AcDbEntity
  8
0
100
AcDbLine
 62
7
  6
CONTINUOUS
 10
29.6328373717
 20
92.0706067346
 11
29.634928659
 21
91.9815849021
  0
LINE
  5
61C
100
AcDbEntity
  8
0
100
AcDbLine
 62
7
  6
CONTINUOUS
 10
26.8814768525
 20
-12.3777259725
 11
26.8814768525
 21
17.8625843359
  0
LINE
  5
61D
100
AcDbEntity
  8
0
100
AcDbLine
 62
7
  6
CONTINUOUS
 10
32.9789732425
 20
96.2081129782
 11
32.9789732425
 21
-67.4453310447
  0
LINE
  5
61E
100
AcDbEntity
  8
0
100
AcDbLine
 62
7
  6
CONTINUOUS
 10
25.9103898285
 20
91.9815849021
 11
25.9124811168
 21
92.0706067346
  0
LINE
  5
61F
100
AcDbEntity
  8
0
100
AcDbLine
 62
7
  6
CONTINUOUS
 10
25.9103898285
 20
-62.3329397606
 11
25.9124811168
 21
-62.2439179281
  0
LINE
  5
620
100
AcDbEntity
  8
0
100
AcDbLine
 62
7
  6
CONTINUOUS
 10
29.634928659
 20
91.9815849021
 11
29.6328373717
 21
91.8925630695
  0
LINE
  5
621
100
AcDbEntity
  8
0
100
AcDbLine
 62
7
  6
CONTINUOUS
 10
29.634928659
 20
-62.3329397606
 11
29.6328373717
 21
-62.4219615932
  0
LINE
  5
622
100
AcDbEntity
  8
0
100
AcDbLine
 62
7
  6
CONTINUOUS
 10
25.9124811168
 20
92.0706067346
 11
25.9187395858
 21
92.1590512628
  0
LINE
  5
623
100
AcDbEntity
  8
0
100
AcDbLine
 62
7
  6
CONTINUOUS
 10
29.6328373717
 20
91.8925630695
 11
29.6265789032
 21
91.8041184873
  0
LINE
  5
624
100
AcDbEntity
  8
0
100
AcDbLine
 62
7
  6
CONTINUOUS
 10
15.3471163478
 20
-57.9605458469
 11
15.4185560005
 21
-57.1110224418
  0
LINE
  5
625
100
AcDbEntity
  8
0
100
AcDbLine
 62
7
  6
CONTINUOUS
 10
11.645397633
 20
-39.5592640418
 11
11.6308502875
 21
-39.7154354831
  0
LINE
  5
626
100
AcDbEntity
  8
0
100
AcDbLine
 62
7
  6
CONTINUOUS
 10
25.9187395858
 20
92.1590512628
 11
25.9291417154
 21
92.2468156755
  0
LINE
  5
627
100
AcDbEntity
  8
0
100
AcDbLine
 62
7
  6
CONTINUOUS
 10
29.6265789032
 20
91.8041184873
 11
29.6161767722
 21
91.7163539667
  0
LINE
  5
628
100
AcDbEntity
  8
0
100
AcDbLine
 62
7
  6
CONTINUOUS
 10
11.6308502875
 20
-39.7154354831
 11
11.6105271452
 21
-39.8706323915
  0
LINE
  5
629
100
AcDbEntity
  8
0
100
AcDbLine
 62
7
  6
CONTINUOUS
 10
25.9291417154
 20
92.2468156755
 11
25.9436624104
 21
92.3337883827
  0
LINE
  5
62A
100
AcDbEntity
  8
0
100
AcDbLine
 62
7
  6
CONTINUOUS
 10
29.6161767722
 20
91.7163539667
 11
29.6016560711
 21
91.6293810982
  0
LINE
  5
62B
100
AcDbEntity
  8
0
100
AcDbLine
 62
7
  6
CONTINUOUS
 10
2.671097677
 20
0.0273024503
 11
2.645939791
 21
-0.0889995586
  0
LINE
  5
62C
100
AcDbEntity
  8
0
100
AcDbLine
 62
7
  6
CONTINUOUS
 10
25.9436624104
 20
92.3337883827
 11
25.9622736631
 21
92.4198487165
  0
LINE
  5
62D
100
AcDbEntity
  8
0
100
AcDbLine
 62
7
  6
CONTINUOUS
 10
29.6016560711
 20
91.6293810982
 11
29.5830448048
 21
91.5433205517
  0
LINE
  5
62E
100
AcDbEntity
  8
0
100
AcDbLine
 62
7
  6
CONTINUOUS
 10
-10.9726729171
 20
-38.3351839795
 11
-10.9371143765
 21
-38.1874984762
  0
LINE
  5
62F
100
AcDbEntity
  8
0
100
AcDbLine
 62
7
  6
CONTINUOUS
 10
-14.1544635085
 20
-52.0636468454
 11
-14.3664500908
 21
-52.8821061182
  0
LINE
  5
630
100
AcDbEntity
  8
0
100
AcDbLine
 62
7
  6
CONTINUOUS
 10
-2.2480791991
 20
1.0955158171
 11
-2.2174355702
 21
1.2104249481
  0
LINE
  5
631
100
AcDbEntity
  8
0
100
AcDbLine
 62
7
  6
CONTINUOUS
 10
25.9622736631
 20
92.4198487165
 11
25.9849431562
 21
92.5048668183
  0
LINE
  5
632
100
AcDbEntity
  8
0
100
AcDbLine
 62
7
  6
CONTINUOUS
 10
2.645939791
 20
-0.0889995586
 11
2.6152955478
 21
-0.2038974954
  0
LINE
  5
633
100
AcDbEntity
  8
0
100
AcDbLine
 62
7
  6
CONTINUOUS
 10
6.3489604882
 20
43.6831310084
 11
6.2868305637
 21
43.4610537169
  0
LINE
  5
634
100
AcDbEntity
  8
0
100
AcDbLine
 62
7
  6
CONTINUOUS
 10
-10.9371143765
 20
-38.1874984762
 11
-10.8961958641
 21
-38.0412539423
  0
LINE
  5
635
100
AcDbEntity
  8
0
100
AcDbLine
 62
7
  6
CONTINUOUS
 10
-22.6153888116
 20
-63.8248891793
 11
-22.5571224956
 21
-63.6176243787
  0
LINE
  5
636
100
AcDbEntity
  8
0
100
AcDbLine
 62
7
  6
CONTINUOUS
 10
-29.3067945813
 20
-61.8096578122
 11
-29.2801049072
 21
-61.7258208702
  0
LINE
  5
637
100
AcDbEntity
  8
0
100
AcDbLine
 62
7
  6
CONTINUOUS
 10
-25.7313624491
 20
-62.8562224428
 11
-25.7580521535
 21
-62.9400596666
  0
LINE
  5
638
100
AcDbEntity
  8
0
100
AcDbLine
 62
7
  6
CONTINUOUS
 10
25.9849431562
 20
92.5048668183
 11
26.0116328294
 21
92.5887037476
  0
LINE
  5
639
100
AcDbEntity
  8
0
100
AcDbLine
 62
7
  6
CONTINUOUS
 10
2.1883979425
 20
44.7066552496
 11
2.1586960063
 21
44.6133872958
  0
LINE
  5
63A
100
AcDbEntity
  8
0
100
AcDbLine
 62
7
  6
CONTINUOUS
 10
6.2868305637
 20
43.4610537169
 11
6.2166276601
 21
43.2414072892
  0
LINE
  5
63B
100
AcDbEntity
  8
0
100
AcDbLine
 62
7
  6
CONTINUOUS
 10
6.2166276601
 20
43.2414072892
 11
6.1384228259
 21
43.0244203434
  0
LINE
  5
63C
100
AcDbEntity
  8
0
100
AcDbLine
 62
7
  6
CONTINUOUS
 10
-1.7608361169
 20
45.9642035909
 11
-1.7267106028
 21
46.0560014149
  0
LINE
  5
63D
100
AcDbEntity
  8
0
100
AcDbLine
 62
7
  6
CONTINUOUS
 10
2.1586960063
 20
44.6133872958
 11
2.1245695175
 21
44.5215941341
  0
LINE
  5
63E
100
AcDbEntity
  8
0
100
AcDbLine
 62
7
  6
CONTINUOUS
 10
-16.7646843279
 20
1.2016868514
 11
-17.0712574409
 21
0.4040709735
  0
LINE
  5
63F
100
AcDbEntity
  8
0
100
AcDbLine
 62
7
  6
CONTINUOUS
 10
-5.7292258815
 20
47.5725415641
 11
-5.6414635856
 21
47.788214832
  0
LINE
  5
640
100
AcDbEntity
  8
0
100
AcDbLine
 62
7
  6
CONTINUOUS
 10
8.1849789658
 20
85.6413207217
 11
8.129064702
 21
85.5103182234
  0
LINE
  5
641
100
AcDbEntity
  8
0
100
AcDbLine
 62
7
  6
CONTINUOUS
 10
-1.7267106028
 20
46.0560014149
 11
-1.6882202883
 21
46.1461506105
  0
LINE
  5
642
100
AcDbEntity
  8
0
100
AcDbLine
 62
7
  6
CONTINUOUS
 10
-5.6414635856
 20
47.788214832
 11
-5.5457301516
 21
48.0006554207
  0
LINE
  5
643
100
AcDbEntity
  8
0
100
AcDbLine
 62
7
  6
CONTINUOUS
 10
8.129064702
 20
85.5103182234
 11
8.066913595
 21
85.3819779531
  0
LINE
  5
644
100
AcDbEntity
  8
0
100
AcDbLine
 62
7
  6
CONTINUOUS
 10
-5.5457301516
 20
48.0006554207
 11
-5.4421338116
 21
48.2096016403
  0
LINE
  5
645
100
AcDbEntity
  8
0
100
AcDbLine
 62
7
  6
CONTINUOUS
 10
2.7084783095
 20
88.1303168739
 11
2.7767350291
 21
88.2556740877
  0
LINE
  5
646
100
AcDbEntity
  8
0
100
AcDbLine
 62
7
  6
CONTINUOUS
 10
8.066913595
 20
85.3819779531
 11
7.9986459456
 21
85.2565737928
  0
LINE
  5
647
100
AcDbEntity
  8
0
100
AcDbLine
 62
7
  6
CONTINUOUS
 10
2.7767350291
 20
88.2556740877
 11
2.850968487
 21
88.3778122446
  0
LINE
  5
648
100
AcDbEntity
  8
0
100
AcDbLine
 62
7
  6
CONTINUOUS
 10
-26.1088129101
 20
90.7654358087
 11
-26.1684218482
 21
90.6995985531
  0
LINE
  5
649
100
AcDbEntity
  8
0
100
AcDbLine
 62
7
  6
CONTINUOUS
 10
-28.8697356164
 20
93.263566968
 11
-28.8640289447
 21
93.2695507803
  0
LINE
  5
64A
100
AcDbEntity
  8
0
100
AcDbLine
 62
7
  6
CONTINUOUS
 10
-26.1684218482
 20
90.6995985531
 11
-26.1741192338
 21
90.6936244045
  0
LINE
  5
64B
100
AcDbEntity
  8
0
100
AcDbLine
 62
7
  6
CONTINUOUS
 10
-28.8640289447
 20
93.2695507803
 11
-28.8010580088
 21
93.3322441546
  0
LINE
  5
64C
100
AcDbEntity
  8
0
100
AcDbLine
 62
7
  6
CONTINUOUS
 10
-26.1741192338
 20
90.6936244045
 11
-26.2370896765
 21
90.6309303017
  0
LINE
  5
64D
100
AcDbEntity
  8
0
100
AcDbLine
 62
7
  6
CONTINUOUS
 10
-26.2344909341
 20
-67.2948802676
 11
-26.0272136611
 21
-67.2366059276
  0
LINE
  5
64E
100
AcDbEntity
  8
0
100
AcDbLine
 62
7
  6
CONTINUOUS
 10
-26.9957868332
 20
-64.1206557373
 11
-27.0808042099
 21
-64.143325302
  0
LINE
  5
64F
100
AcDbEntity
  8
0
100
AcDbLine
 62
7
  6
CONTINUOUS
 10
-28.0423514249
 20
-60.5452235107
 11
-27.9573323419
 21
-60.5225540665
  0
LINE
  5
650
100
AcDbEntity
  8
0
100
AcDbLine
 62
7
  6
CONTINUOUS
 10
5.0366532884
 20
-41.2682298169
 11
4.8588661159
 21
-41.2961332222
  0
LINE
  5
651
100
AcDbEntity
  8
0
100
AcDbLine
 62
7
  6
CONTINUOUS
 10
-4.5624697314
 20
-37.0330278816
 11
-4.3846819851
 21
-37.0051246403
  0
LINE
  5
652
100
AcDbEntity
  8
0
100
AcDbLine
 62
7
  6
CONTINUOUS
 10
22.7332178152
 20
-12.3777259725
 11
26.8814768525
 21
-12.3777259725
  0
LINE
  5
653
100
AcDbEntity
  8
0
100
AcDbLine
 62
7
  6
CONTINUOUS
 10
-26.4819977913
 20
-12.2283032629
 11
-22.3319599117
 21
-12.2283032629
  0
LINE
  5
654
100
AcDbEntity
  8
0
100
AcDbLine
 62
7
  6
CONTINUOUS
 10
7.8179683962
 20
-8.0747077
 11
-7.416743784
 21
-8.0747077
  0
LINE
  5
655
100
AcDbEntity
  8
0
100
AcDbLine
 62
7
  6
CONTINUOUS
 10
-22.359725919
 20
-2.9502202918
 11
-22.3945912172
 21
-2.9484414499
  0
LINE
  5
656
100
AcDbEntity
  8
0
100
AcDbLine
 62
7
  6
CONTINUOUS
 10
0.0785637486
 20
-2.0110112911
 11
-0.0409474089
 21
-2.0025518886
  0
LINE
  5
657
100
AcDbEntity
  8
0
100
AcDbLine
 62
7
  6
CONTINUOUS
 10
22.6533306061
 20
-2.9502202918
 11
21.7951218845
 21
-2.8876614262
  0
LINE
  5
658
100
AcDbEntity
  8
0
100
AcDbLine
 62
7
  6
CONTINUOUS
 10
0.4386710656
 20
3.0091760784
 11
0.5572781006
 21
2.9951156105
  0
LWPOLYLINE
  5
659
100
AcDbEntity
  8
0
100
AcDbPolyline
 62
7
  6
CONTINUOUS
 90
3
 70
0
 43
0.3500000006
 10
64.5738799438
 20
4.1841326523
 10
64.7881644287
 20
4.1127037354
 10
65.0738800964
 20
3.9698459015
  0
LINE
  5
65A
100
AcDbEntity
  8
0
100
AcDbLine
 62
7
  6
CONTINUOUS
 10
-0.5683328109
 20
43.3632503354
 11
-0.6585101783
 21
43.4017546894
  0
LINE
  5
65B
100
AcDbEntity
  8
0
100
AcDbLine
 62
7
  6
CONTINUOUS
 10
-0.6585101783
 20
43.4017546894
 11
-0.7468593782
 21
43.4445545675
  0
LINE
  5
65C
100
AcDbEntity
  8
0
100
AcDbLine
 62
7
  6
CONTINUOUS
 10
1.0562382053
 20
47.1757729446
 11
1.1445953046
 21
47.1329711025
  0
LINE
  5
65D
100
AcDbEntity
  8
0
100
AcDbLine
 62
7
  6
CONTINUOUS
 10
3.1172012194
 20
50.9310751951
 11
3.3205862851
 21
50.8212544096
  0
LINE
  5
65E
100
AcDbEntity
  8
0
100
AcDbLine
 62
7
  6
CONTINUOUS
 10
1.1445953046
 20
47.1329711025
 11
1.2309351429
 21
47.0859565374
  0
LINE
  5
65F
100
AcDbEntity
  8
0
100
AcDbLine
 62
7
  6
CONTINUOUS
 10
3.3205862851
 20
50.8212544096
 11
3.5200134538
 21
50.703973132
  0
LINE
  5
660
100
AcDbEntity
  8
0
100
AcDbLine
 62
7
  6
CONTINUOUS
 10
-28.5956298288
 20
90.4619269205
 11
-28.6666864598
 21
90.5149391805
  0
LINE
  5
661
100
AcDbEntity
  8
0
100
AcDbLine
 62
7
  6
CONTINUOUS
 10
-26.4425160958
 20
93.5012401658
 11
-26.3714601132
 21
93.4482273112
  0
LINE
  5
662
100
AcDbEntity
  8
0
100
AcDbLine
 62
7
  6
CONTINUOUS
 10
-26.3714601132
 20
93.4482273112
 11
-26.3029265056
 21
93.3918487895
  0
LINE
  5
663
100
AcDbEntity
  8
0
100
AcDbLine
 62
7
  6
CONTINUOUS
 10
3.3158103835
 20
84.5725176338
 11
3.2139860222
 21
84.6738257823
  0
LINE
  5
664
100
AcDbEntity
  8
0
100
AcDbLine
 62
7
  6
CONTINUOUS
 10
3.2139860222
 20
84.6738257823
 11
3.204244821
 21
84.684035814
  0
LINE
  5
665
100
AcDbEntity
  8
0
100
AcDbLine
 62
7
  6
CONTINUOUS
 10
3.204244821
 20
84.684035814
 11
3.1078819837
 21
84.7904491349
  0
LINE
  5
666
100
AcDbEntity
  8
0
100
AcDbLine
 62
7
  6
CONTINUOUS
 10
7.5711731668
 20
88.8289459197
 11
7.667530515
 21
88.7225016194
  0
LINE
  5
667
100
AcDbEntity
  8
0
100
AcDbLine
 62
7
  6
CONTINUOUS
 10
7.667530515
 20
88.7225016194
 11
7.7586670441
 21
88.6116955416
  0
LINE
  5
668
100
AcDbEntity
  8
0
100
AcDbLine
 62
7
  6
CONTINUOUS
 10
7.7586670441
 20
88.6116955416
 11
7.8443641975
 21
88.4968100292
  0
LINE
  5
669
100
AcDbEntity
  8
0
100
AcDbLine
 62
7
  6
CONTINUOUS
 10
26.1575540178
 20
91.0539996443
 11
26.1153269492
 21
91.1315587091
  0
LINE
  5
66A
100
AcDbEntity
  8
0
100
AcDbLine
 62
7
  6
CONTINUOUS
 10
26.1153269492
 20
91.1315587091
 11
26.0768833318
 21
91.2109345149
  0
LINE
  5
66B
100
AcDbEntity
  8
0
100
AcDbLine
 62
7
  6
CONTINUOUS
 10
26.0768833318
 20
91.2109345149
 11
26.0422974644
 21
91.2919579703
  0
LINE
  5
66C
100
AcDbEntity
  8
0
100
AcDbLine
 62
7
  6
CONTINUOUS
 10
29.4684349843
 20
92.7522371206
 11
29.5030209051
 21
92.6712132855
  0
LINE
  5
66D
100
AcDbEntity
  8
0
100
AcDbLine
 62
7
  6
CONTINUOUS
 10
26.0422974644
 20
91.2919579703
 11
26.0116328294
 21
91.3744660565
  0
LINE
  5
66E
100
AcDbEntity
  8
0
100
AcDbLine
 62
7
  6
CONTINUOUS
 10
29.5030209051
 20
92.6712132855
 11
29.5336855836
 21
92.5887048529
  0
LINE
  5
66F
100
AcDbEntity
  8
0
100
AcDbLine
 62
7
  6
CONTINUOUS
 10
26.0116328294
 20
91.3744660565
 11
25.9849431562
 21
91.4583029859
  0
LINE
  5
670
100
AcDbEntity
  8
0
100
AcDbLine
 62
7
  6
CONTINUOUS
 10
29.5336855836
 20
92.5887048529
 11
29.560375289
 21
92.5048676165
  0
LINE
  5
671
100
AcDbEntity
  8
0
100
AcDbLine
 62
7
  6
CONTINUOUS
 10
25.9849431562
 20
91.4583029859
 11
25.9622736631
 21
91.5433210877
  0
LINE
  5
672
100
AcDbEntity
  8
0
100
AcDbLine
 62
7
  6
CONTINUOUS
 10
29.560375289
 20
92.5048676165
 11
29.5830448048
 21
92.4198492525
  0
LINE
  5
673
100
AcDbEntity
  8
0
100
AcDbLine
 62
7
  6
CONTINUOUS
 10
25.9622736631
 20
91.5433210877
 11
25.9436624104
 21
91.6293814214
  0
LINE
  5
674
100
AcDbEntity
  8
0
100
AcDbLine
 62
7
  6
CONTINUOUS
 10
29.5830448048
 20
92.4198492525
 11
29.6016560711
 21
92.3337887059
  0
LINE
  5
675
100
AcDbEntity
  8
0
100
AcDbLine
 62
7
  6
CONTINUOUS
 10
29.6016560711
 20
92.3337887059
 11
29.6161767722
 21
92.2468158374
  0
LINE
  5
676
100
AcDbEntity
  8
0
100
AcDbLine
 62
7
  6
CONTINUOUS
 10
29.6161767722
 20
92.2468158374
 11
29.6265789032
 21
92.1590513168
  0
LINE
  5
677
100
AcDbEntity
  8
0
100
AcDbLine
 62
7
  6
CONTINUOUS
 10
37.540634995
 20
95.8710224602
 11
37.4650784558
 21
96.5972744774
  0
LINE
  5
678
100
AcDbEntity
  8
0
100
AcDbLine
 62
7
  6
CONTINUOUS
 10
39.0241890046
 20
96.3401030384
 11
38.9468505704
 21
97.1735660846
  0
LINE
  5
679
100
AcDbEntity
  8
0
100
AcDbLine
 62
7
  6
CONTINUOUS
 10
37.540634995
 20
-62.4076511152
 11
37.540634995
 21
95.8710224602
  0
LINE
  5
67A
100
AcDbEntity
  8
0
100
AcDbLine
 62
7
  6
CONTINUOUS
 10
39.0241890046
 20
-62.4076511152
 11
39.0241890046
 21
96.3401030384
  0
LINE
  5
67B
100
AcDbEntity
  8
0
100
AcDbLine
 62
7
  6
CONTINUOUS
 10
42.2344646889
 20
-62.4076511152
 11
42.2344646889
 21
96.8751786466
  0
LINE
  5
67C
100
AcDbEntity
  8
0
100
AcDbLine
 62
7
  6
CONTINUOUS
 10
45.0642461258
 20
-62.4076511152
 11
45.0642461258
 21
102.8787696637
  0
LINE
  5
67D
100
AcDbEntity
  8
0
100
AcDbLine
 62
7
  6
CONTINUOUS
 10
32.8927710332
 20
-62.5508876238
 11
32.8973244067
 21
-62.3329397606
  0
LINE
  5
67E
100
AcDbEntity
  8
0
100
AcDbLine
 62
7
  6
CONTINUOUS
 10
37.4635959096
 20
-64.123487617
 11
37.540634995
 21
-62.4076511152
  0
LINE
  5
67F
100
AcDbEntity
  8
0
100
AcDbLine
 62
7
  6
CONTINUOUS
 10
32.879140589
 20
-62.7676040833
 11
32.8927710332
 21
-62.5508876238
  0
LINE
  5
680
100
AcDbEntity
  8
0
100
AcDbLine
 62
7
  6
CONTINUOUS
 10
25.9124811168
 20
-62.2439179281
 11
25.9187395858
 21
-62.1554733999
  0
LINE
  5
681
100
AcDbEntity
  8
0
100
AcDbLine
 62
7
  6
CONTINUOUS
 10
29.6328373717
 20
-62.4219615932
 11
29.6265789032
 21
-62.5104061754
  0
LINE
  5
682
100
AcDbEntity
  8
0
100
AcDbLine
 62
7
  6
CONTINUOUS
 10
15.2284479198
 20
-58.8017869602
 11
15.3471163478
 21
-57.9605458469
  0
LINE
  5
683
100
AcDbEntity
  8
0
100
AcDbLine
 62
7
  6
CONTINUOUS
 10
11.6105271452
 20
-39.8706323915
 11
11.584455416
 21
-40.0247285581
  0
LINE
  5
684
100
AcDbEntity
  8
0
100
AcDbLine
 62
7
  6
CONTINUOUS
 10
6.9964286616
 20
-39.4397597203
 11
6.9683744496
 21
-39.5822333361
  0
LINE
  5
685
100
AcDbEntity
  8
0
100
AcDbLine
 62
7
  6
CONTINUOUS
 10
11.584455416
 20
-40.0247285581
 11
11.5526651564
 21
-40.177589629
  0
LINE
  5
686
100
AcDbEntity
  8
0
100
AcDbLine
 62
7
  6
CONTINUOUS
 10
9.8160725973
 20
-6.3451442685
 11
9.7548963621
 21
-6.6251460809
  0
LINE
  5
687
100
AcDbEntity
  8
0
100
AcDbLine
 62
7
  6
CONTINUOUS
 10
16.8720385942
 20
3.7517955066
 11
17.0581124276
 21
4.5854947209
  0
LINE
  5
688
100
AcDbEntity
  8
0
100
AcDbLine
 62
7
  6
CONTINUOUS
 10
29.5830448048
 20
91.5433205517
 11
29.560375289
 21
91.4583021877
  0
LINE
  5
689
100
AcDbEntity
  8
0
100
AcDbLine
 62
7
  6
CONTINUOUS
 10
-6.494184582
 20
-38.7191408169
 11
-6.4549637095
 21
-38.5784005396
  0
LINE
  5
68A
100
AcDbEntity
  8
0
100
AcDbLine
 62
7
  6
CONTINUOUS
 10
-2.2174355702
 20
1.2104249481
 11
-2.181357097
 21
1.3237411136
  0
LINE
  5
68B
100
AcDbEntity
  8
0
100
AcDbLine
 62
7
  6
CONTINUOUS
 10
29.560375289
 20
91.4583021877
 11
29.5336855836
 21
91.3744649512
  0
LINE
  5
68C
100
AcDbEntity
  8
0
100
AcDbLine
 62
7
  6
CONTINUOUS
 10
2.6152955478
 20
-0.2038974954
 11
2.5792162124
 21
-0.3172033432
  0
LINE
  5
68D
100
AcDbEntity
  8
0
100
AcDbLine
 62
7
  6
CONTINUOUS
 10
-10.8961958641
 20
-38.0412539423
 11
-10.8499574195
 21
-37.8965930635
  0
LINE
  5
68E
100
AcDbEntity
  8
0
100
AcDbLine
 62
7
  6
CONTINUOUS
 10
-13.8964890928
 20
-51.2584312016
 11
-14.1544635085
 21
-52.0636468454
  0
LINE
  5
68F
100
AcDbEntity
  8
0
100
AcDbLine
 62
7
  6
CONTINUOUS
 10
-22.6823873
 20
-64.0295180318
 11
-22.6153888116
 21
-63.8248891793
  0
LINE
  5
690
100
AcDbEntity
  8
0
100
AcDbLine
 62
7
  6
CONTINUOUS
 10
26.0116328294
 20
92.5887037476
 11
26.0422974644
 21
92.6712118338
  0
LINE
  5
691
100
AcDbEntity
  8
0
100
AcDbLine
 62
7
  6
CONTINUOUS
 10
-29.2801049072
 20
-61.7258208702
 11
-29.2494402701
 21
-61.6433127704
  0
LINE
  5
692
100
AcDbEntity
  8
0
100
AcDbLine
 62
7
  6
CONTINUOUS
 10
29.5336855836
 20
91.3744649512
 11
29.5030209051
 21
91.2919565186
  0
LINE
  5
693
100
AcDbEntity
  8
0
100
AcDbLine
 62
7
  6
CONTINUOUS
 10
-2.181357097
 20
1.3237411136
 11
-2.1399047871
 21
1.4352644829
  0
LINE
  5
694
100
AcDbEntity
  8
0
100
AcDbLine
 62
7
  6
CONTINUOUS
 10
-25.7580521535
 20
-62.9400596666
 11
-25.7887168299
 21
-63.0225680856
  0
LINE
  5
695
100
AcDbEntity
  8
0
100
AcDbLine
 62
7
  6
CONTINUOUS
 10
6.1384228259
 20
43.0244203434
 11
6.0522972094
 21
42.8103312712
  0
LINE
  5
696
100
AcDbEntity
  8
0
100
AcDbLine
 62
7
  6
CONTINUOUS
 10
2.1245695175
 20
44.5215941341
 11
2.0860778637
 21
44.4314486017
  0
LINE
  5
697
100
AcDbEntity
  8
0
100
AcDbLine
 62
7
  6
CONTINUOUS
 10
26.0422974644
 20
92.6712118338
 11
26.0768833318
 21
92.7522352892
  0
LINE
  5
698
100
AcDbEntity
  8
0
100
AcDbLine
 62
7
  6
CONTINUOUS
 10
29.5030209051
 20
91.2919565186
 11
29.4684349843
 21
91.2109326835
  0
LINE
  5
699
100
AcDbEntity
  8
0
100
AcDbLine
 62
7
  6
CONTINUOUS
 10
6.0522972094
 20
42.8103312712
 11
5.9583432233
 21
42.59938747
  0
LINE
  5
69A
100
AcDbEntity
  8
0
100
AcDbLine
 62
7
  6
CONTINUOUS
 10
26.0768833318
 20
92.7522352892
 11
26.1153269492
 21
92.831611095
  0
LINE
  5
69B
100
AcDbEntity
  8
0
100
AcDbLine
 62
7
  6
CONTINUOUS
 10
-1.6882202883
 20
46.1461506105
 11
-1.6454354622
 21
46.2344701576
  0
LINE
  5
69C
100
AcDbEntity
  8
0
100
AcDbLine
 62
7
  6
CONTINUOUS
 10
2.0860778637
 20
44.4314486017
 11
2.0432912769
 21
44.3431317104
  0
LINE
  5
69D
100
AcDbEntity
  8
0
100
AcDbLine
 62
7
  6
CONTINUOUS
 10
-5.4421338116
 20
48.2096016403
 11
-5.3307964499
 21
48.4147848118
  0
LINE
  5
69E
100
AcDbEntity
  8
0
100
AcDbLine
 62
7
  6
CONTINUOUS
 10
-1.6454354622
 20
46.2344701576
 11
-1.5984384637
 21
46.3207721508
  0
LINE
  5
69F
100
AcDbEntity
  8
0
100
AcDbLine
 62
7
  6
CONTINUOUS
 10
-9.2526925435
 20
39.6367810874
 11
-9.1134094033
 21
39.8901641841
  0
LINE
  5
6A0
100
AcDbEntity
  8
0
100
AcDbLine
 62
7
  6
CONTINUOUS
 10
-16.3002845766
 20
38.4615443869
 11
-16.5305730571
 21
38.0687152981
  0
LINE
  5
6A1
100
AcDbEntity
  8
0
100
AcDbLine
 62
7
  6
CONTINUOUS
 10
-5.3307964499
 20
48.4147848118
 11
-5.211854363
 21
48.6159306552
  0
LINE
  5
6A2
100
AcDbEntity
  8
0
100
AcDbLine
 62
7
  6
CONTINUOUS
 10
7.9986459456
 20
85.2565737928
 11
7.9244009835
 21
85.1343871967
  0
LINE
  5
6A3
100
AcDbEntity
  8
0
100
AcDbLine
 62
7
  6
CONTINUOUS
 10
2.850968487
 20
88.3778122446
 11
2.9310203104
 21
88.4964462755
  0
LINE
  5
6A4
100
AcDbEntity
  8
0
100
AcDbLine
 62
7
  6
CONTINUOUS
 10
7.9244009835
 20
85.1343871967
 11
7.844337786
 21
85.0157045234
  0
LINE
  5
6A5
100
AcDbEntity
  8
0
100
AcDbLine
 62
7
  6
CONTINUOUS
 10
2.9310203104
 20
88.4964462755
 11
3.0167120825
 21
88.6112892251
  0
LINE
  5
6A6
100
AcDbEntity
  8
0
100
AcDbLine
 62
7
  6
CONTINUOUS
 10
-28.8010580088
 20
93.3322441546
 11
-28.7352206498
 21
93.3918527492
  0
LINE
  5
6A7
100
AcDbEntity
  8
0
100
AcDbLine
 62
7
  6
CONTINUOUS
 10
-26.2370896765
 20
90.6309303017
 11
-26.3029265056
 21
90.5713210147
  0
LINE
  5
6A8
100
AcDbEntity
  8
0
100
AcDbLine
 62
7
  6
CONTINUOUS
 10
-28.7352206498
 20
93.3918527492
 11
-28.6666864598
 21
93.4482306236
  0
LINE
  5
6A9
100
AcDbEntity
  8
0
100
AcDbLine
 62
7
  6
CONTINUOUS
 10
-35.3716587826
 20
98.7352741258
 11
-35.683027632
 21
98.4828792858
  0
LINE
  5
6AA
100
AcDbEntity
  8
0
100
AcDbLine
 62
7
  6
CONTINUOUS
 10
-36.1777936781
 20
100.1934634682
 11
-36.8538243853
 21
99.6790478458
  0
LINE
  5
6AB
100
AcDbEntity
  8
0
100
AcDbLine
 62
7
  6
CONTINUOUS
 10
5.2112825638
 20
-41.2294202861
 11
5.0366532884
 21
-41.2682298169
  0
LINE
  5
6AC
100
AcDbEntity
  8
0
100
AcDbLine
 62
7
  6
CONTINUOUS
 10
-4.7370980184
 20
-37.0718370237
 11
-4.5624697314
 21
-37.0330278816
  0
LINE
  5
6AD
100
AcDbEntity
  8
0
100
AcDbLine
 62
7
  6
CONTINUOUS
 10
-7.416743784
 20
-19.2186178171
 11
-7.7242654445
 21
-19.2421275769
  0
LINE
  5
6AE
100
AcDbEntity
  8
0
100
AcDbLine
 62
7
  6
CONTINUOUS
 10
8.1055622768
 20
-8.0541641696
 11
7.8179683962
 21
-8.0747077
  0
LINE
  5
6AF
100
AcDbEntity
  8
0
100
AcDbLine
 62
7
  6
CONTINUOUS
 10
0.3191487378
 20
-2.0110112911
 11
0.1988501099
 21
-2.0138379771
  0
LINE
  5
6B0
100
AcDbEntity
  8
0
100
AcDbLine
 62
7
  6
CONTINUOUS
 10
22.6479940809
 20
-2.9502202918
 11
22.6533306061
 21
-2.9502202918
  0
LWPOLYLINE
  5
6B1
100
AcDbEntity
  8
0
100
AcDbPolyline
 62
7
  6
CONTINUOUS
 90
4
 70
0
 43
0.3500000006
 10
64.43102211
 20
-1.2444401093
 10
63.5738796387
 20
-1.2444401093
 10
63.1453061371
 20
-0.8158688736
 10
63.1453061371
 20
-0.1730108871
  0
LWPOLYLINE
  5
6B2
100
AcDbEntity
  8
0
100
AcDbPolyline
 62
7
  6
CONTINUOUS
 90
2
 70
0
 43
0.3500000006
 10
64.8595956116
 20
2.112703125
 10
63.3595951538
 20
2.112703125
  0
LINE
  5
6B3
100
AcDbEntity
  8
0
100
AcDbLine
 62
7
  6
CONTINUOUS
 10
0.1988501099
 20
-2.0138379771
 11
0.0785637486
 21
-2.0110112911
  0
LINE
  5
6B4
100
AcDbEntity
  8
0
100
AcDbLine
 62
7
  6
CONTINUOUS
 10
0.1988501099
 20
3.0204621523
 11
0.3191487378
 21
3.0176354617
  0
LINE
  5
6B5
100
AcDbEntity
  8
0
100
AcDbLine
 62
7
  6
CONTINUOUS
 10
0.3191487378
 20
3.0176354617
 11
0.4386710656
 21
3.0091760784
  0
LINE
  5
6B6
100
AcDbEntity
  8
0
100
AcDbLine
 62
7
  6
CONTINUOUS
 10
-22.359725919
 20
8.7373038738
 11
-21.5015611781
 21
8.6747451399
  0
LINE
  5
6B7
100
AcDbEntity
  8
0
100
AcDbLine
 62
7
  6
CONTINUOUS
 10
-0.3832166198
 20
43.2994005877
 11
-0.4765100508
 21
43.32911235
  0
LINE
  5
6B8
100
AcDbEntity
  8
0
100
AcDbLine
 62
7
  6
CONTINUOUS
 10
18.1957607578
 20
37.345052759
 11
17.6611390188
 21
37.5196227429
  0
LINE
  5
6B9
100
AcDbEntity
  8
0
100
AcDbLine
 62
7
  6
CONTINUOUS
 10
-0.4765100508
 20
43.32911235
 11
-0.5683328109
 21
43.3632503354
  0
LINE
  5
6BA
100
AcDbEntity
  8
0
100
AcDbLine
 62
7
  6
CONTINUOUS
 10
0.8742241588
 20
47.2484184144
 11
0.9660535133
 21
47.2142790055
  0
LINE
  5
6BB
100
AcDbEntity
  8
0
100
AcDbLine
 62
7
  6
CONTINUOUS
 10
8.3859349381
 20
40.735562408
 11
8.6552981845
 21
40.634597347
  0
LINE
  5
6BC
100
AcDbEntity
  8
0
100
AcDbLine
 62
7
  6
CONTINUOUS
 10
0.9660535133
 20
47.2142790055
 11
1.0562382053
 21
47.1757729446
  0
LINE
  5
6BD
100
AcDbEntity
  8
0
100
AcDbLine
 62
7
  6
CONTINUOUS
 10
-28.4466587384
 20
90.3664789278
 11
-28.522227938
 21
90.4124032862
  0
LINE
  5
6BE
100
AcDbEntity
  8
0
100
AcDbLine
 62
7
  6
CONTINUOUS
 10
-28.522227938
 20
90.4124032862
 11
-28.5956298288
 21
90.4619269205
  0
LINE
  5
6BF
100
AcDbEntity
  8
0
100
AcDbLine
 62
7
  6
CONTINUOUS
 10
-26.5159172569
 20
93.5507643371
 11
-26.4425160958
 21
93.5012401658
  0
LINE
  5
6C0
100
AcDbEntity
  8
0
100
AcDbLine
 62
7
  6
CONTINUOUS
 10
3.6479961866
 20
84.2994268795
 11
3.5330926764
 21
84.3850916648
  0
LINE
  5
6C1
100
AcDbEntity
  8
0
100
AcDbLine
 62
7
  6
CONTINUOUS
 10
3.5330926764
 20
84.3850916648
 11
3.4222703893
 21
84.4761944579
  0
LINE
  5
6C2
100
AcDbEntity
  8
0
100
AcDbLine
 62
7
  6
CONTINUOUS
 10
3.4222703893
 20
84.4761944579
 11
3.3158103835
 21
84.5725176338
  0
LINE
  5
6C3
100
AcDbEntity
  8
0
100
AcDbLine
 62
7
  6
CONTINUOUS
 10
7.3543099512
 20
89.0358565981
 11
7.4607063216
 21
88.9394600686
  0
LINE
  5
6C4
100
AcDbEntity
  8
0
100
AcDbLine
 62
7
  6
CONTINUOUS
 10
7.4607063216
 20
88.9394600686
 11
7.4698314739
 21
88.9307538695
  0
LINE
  5
6C5
100
AcDbEntity
  8
0
100
AcDbLine
 62
7
  6
CONTINUOUS
 10
7.4698314739
 20
88.9307538695
 11
7.5711731668
 21
88.8289459197
  0
LINE
  5
6C6
100
AcDbEntity
  8
0
100
AcDbLine
 62
7
  6
CONTINUOUS
 10
26.3623931614
 20
90.765439945
 11
26.306014979
 21
90.8339736529
  0
LINE
  5
6C7
100
AcDbEntity
  8
0
100
AcDbLine
 62
7
  6
CONTINUOUS
 10
26.306014979
 20
90.8339736529
 11
26.2530024486
 21
90.9050297555
  0
LINE
  5
6C8
100
AcDbEntity
  8
0
100
AcDbLine
 62
7
  6
CONTINUOUS
 10
29.239303021
 20
93.1292000757
 11
29.2923156032
 21
93.0581435616
  0
LINE
  5
6C9
100
AcDbEntity
  8
0
100
AcDbLine
 62
7
  6
CONTINUOUS
 10
26.2530024486
 20
90.9050297555
 11
26.2034785784
 21
90.9784310709
  0
LINE
  5
6CA
100
AcDbEntity
  8
0
100
AcDbLine
 62
7
  6
CONTINUOUS
 10
29.2923156032
 20
93.0581435616
 11
29.3418395381
 21
92.9847418211
  0
LINE
  5
6CB
100
AcDbEntity
  8
0
100
AcDbLine
 62
7
  6
CONTINUOUS
 10
26.2034785784
 20
90.9784310709
 11
26.1575540178
 21
91.0539996443
  0
LINE
  5
6CC
100
AcDbEntity
  8
0
100
AcDbLine
 62
7
  6
CONTINUOUS
 10
29.3418395381
 20
92.9847418211
 11
29.3877641677
 21
92.9091728187
  0
LINE
  5
6CD
100
AcDbEntity
  8
0
100
AcDbLine
 62
7
  6
CONTINUOUS
 10
29.3877641677
 20
92.9091728187
 11
29.4299913043
 21
92.8316133318
  0
LINE
  5
6CE
100
AcDbEntity
  8
0
100
AcDbLine
 62
7
  6
CONTINUOUS
 10
29.4299913043
 20
92.8316133318
 11
29.4684349843
 21
92.7522371206
  0
LINE
  5
6CF
100
AcDbEntity
  8
0
100
AcDbLine
 62
7
  6
CONTINUOUS
 10
37.4650784558
 20
96.5972744774
 11
37.2410712853
 21
97.2906310227
  0
LINE
  5
6D0
100
AcDbEntity
  8
0
100
AcDbLine
 62
7
  6
CONTINUOUS
 10
38.9468505704
 20
97.1735660846
 11
38.7171171784
 21
97.9760866405
  0
LINE
  5
6D1
100
AcDbEntity
  8
0
100
AcDbLine
 62
7
  6
CONTINUOUS
 10
46.9889528861
 20
-62.4076511152
 11
46.9889528861
 21
109.7717815725
  0
LINE
  5
6D2
100
AcDbEntity
  8
0
100
AcDbLine
 62
7
  6
CONTINUOUS
 10
46.9015968557
 20
-64.6475014143
 11
46.9889528861
 21
-62.4076511152
  0
LINE
  5
6D3
100
AcDbEntity
  8
0
100
AcDbLine
 62
7
  6
CONTINUOUS
 10
42.1609645327
 20
-64.2816666152
 11
42.2344646889
 21
-62.4076511152
  0
LINE
  5
6D4
100
AcDbEntity
  8
0
100
AcDbLine
 62
7
  6
CONTINUOUS
 10
44.9806246419
 20
-64.5231150631
 11
45.0642461258
 21
-62.4076511152
  0
LINE
  5
6D5
100
AcDbEntity
  8
0
100
AcDbLine
 62
7
  6
CONTINUOUS
 10
38.9455910468
 20
-64.2077963246
 11
39.0241890046
 21
-62.4076511152
  0
LINE
  5
6D6
100
AcDbEntity
  8
0
100
AcDbLine
 62
7
  6
CONTINUOUS
 10
32.8564781744
 20
-62.9828923701
 11
32.879140589
 21
-62.7676040833
  0
LINE
  5
6D7
100
AcDbEntity
  8
0
100
AcDbLine
 62
7
  6
CONTINUOUS
 10
25.9187395858
 20
-62.1554733999
 11
25.9291417154
 21
-62.0677089872
  0
LINE
  5
6D8
100
AcDbEntity
  8
0
100
AcDbLine
 62
7
  6
CONTINUOUS
 10
29.6265789032
 20
-62.5104061754
 11
29.6161767722
 21
-62.598170696
  0
LINE
  5
6D9
100
AcDbEntity
  8
0
100
AcDbLine
 62
7
  6
CONTINUOUS
 10
25.9291417154
 20
-62.0677089872
 11
25.9436624104
 21
-61.98073628
  0
LINE
  5
6DA
100
AcDbEntity
  8
0
100
AcDbLine
 62
7
  6
CONTINUOUS
 10
15.0629095065
 20
-59.6331826996
 11
15.2284479198
 21
-58.8017869602
  0
LINE
  5
6DB
100
AcDbEntity
  8
0
100
AcDbLine
 62
7
  6
CONTINUOUS
 10
11.5526651564
 20
-40.177589629
 11
11.515190261
 21
-40.3290730307
  0
LINE
  5
6DC
100
AcDbEntity
  8
0
100
AcDbLine
 62
7
  6
CONTINUOUS
 10
6.9683744496
 20
-39.5822333361
 11
6.9291526054
 21
-39.7229580934
  0
LINE
  5
6DD
100
AcDbEntity
  8
0
100
AcDbLine
 62
7
  6
CONTINUOUS
 10
-10.8499574195
 20
-37.8965930635
 11
-10.798444817
 21
-37.7536653289
  0
LINE
  5
6DE
100
AcDbEntity
  8
0
100
AcDbLine
 62
7
  6
CONTINUOUS
 10
-6.4549637095
 20
-38.5784005396
 11
-6.4045927909
 21
-38.439776228
  0
LINE
  5
6DF
100
AcDbEntity
  8
0
100
AcDbLine
 62
7
  6
CONTINUOUS
 10
2.5792162124
 20
-0.3172033432
 11
2.5377627543
 21
-0.4287172379
  0
LINE
  5
6E0
100
AcDbEntity
  8
0
100
AcDbLine
 62
7
  6
CONTINUOUS
 10
-22.7580277384
 20
-64.2312217708
 11
-22.6823873
 21
-64.0295180318
  0
LINE
  5
6E1
100
AcDbEntity
  8
0
100
AcDbLine
 62
7
  6
CONTINUOUS
 10
-13.593113018
 20
-50.468403937
 11
-13.8964890928
 21
-51.2584312016
  0
LINE
  5
6E2
100
AcDbEntity
  8
0
100
AcDbLine
 62
7
  6
CONTINUOUS
 10
-10.798444817
 20
-37.7536653289
 11
-10.7417103824
 21
-37.6126266658
  0
LINE
  5
6E3
100
AcDbEntity
  8
0
100
AcDbLine
 62
7
  6
CONTINUOUS
 10
-9.2265726928
 20
-20.3444818517
 11
-9.3418839924
 21
-20.6297312936
  0
LINE
  5
6E4
100
AcDbEntity
  8
0
100
AcDbLine
 62
7
  6
CONTINUOUS
 10
-29.2494402701
 20
-61.6433127704
 11
-29.2148544013
 21
-61.5622892999
  0
LINE
  5
6E5
100
AcDbEntity
  8
0
100
AcDbLine
 62
7
  6
CONTINUOUS
 10
-2.1399047871
 20
1.4352644829
 11
-2.0931511881
 21
1.5447842122
  0
LINE
  5
6E6
100
AcDbEntity
  8
0
100
AcDbLine
 62
7
  6
CONTINUOUS
 10
-25.7887168299
 20
-63.0225680856
 11
-25.8233027482
 21
-63.1035919056
  0
LINE
  5
6E7
100
AcDbEntity
  8
0
100
AcDbLine
 62
7
  6
CONTINUOUS
 10
2.5377627543
 20
-0.4287172379
 11
2.491007687
 21
-0.5382282994
  0
LINE
  5
6E8
100
AcDbEntity
  8
0
100
AcDbLine
 62
7
  6
CONTINUOUS
 10
29.4684349843
 20
91.2109326835
 11
29.4299913043
 21
91.1315564723
  0
LINE
  5
6E9
100
AcDbEntity
  8
0
100
AcDbLine
 62
7
  6
CONTINUOUS
 10
5.9583432233
 20
42.59938747
 11
5.8566656026
 21
42.3918443826
  0
LINE
  5
6EA
100
AcDbEntity
  8
0
100
AcDbLine
 62
7
  6
CONTINUOUS
 10
5.8566656026
 20
42.3918443826
 11
5.7473823199
 21
42.1879643482
  0
LINE
  5
6EB
100
AcDbEntity
  8
0
100
AcDbLine
 62
7
  6
CONTINUOUS
 10
26.1153269492
 20
92.831611095
 11
26.1575540178
 21
92.9091701599
  0
LINE
  5
6EC
100
AcDbEntity
  8
0
100
AcDbLine
 62
7
  6
CONTINUOUS
 10
29.4299913043
 20
91.1315564723
 11
29.3877641677
 21
91.0539969854
  0
LINE
  5
6ED
100
AcDbEntity
  8
0
100
AcDbLine
 62
7
  6
CONTINUOUS
 10
2.0432912769
 20
44.3431317104
 11
1.9962920416
 21
44.2568313752
  0
LINE
  5
6EE
100
AcDbEntity
  8
0
100
AcDbLine
 62
7
  6
CONTINUOUS
 10
-17.0712574409
 20
0.4040709735
 11
-17.4935332405
 21
-0.3432966423
  0
LINE
  5
6EF
100
AcDbEntity
  8
0
100
AcDbLine
 62
7
  6
CONTINUOUS
 10
26.1575540178
 20
92.9091701599
 11
26.2034785784
 21
92.9847387332
  0
LINE
  5
6F0
100
AcDbEntity
  8
0
100
AcDbLine
 62
7
  6
CONTINUOUS
 10
29.3877641677
 20
91.0539969854
 11
29.3418395381
 21
90.978427983
  0
LINE
  5
6F1
100
AcDbEntity
  8
0
100
AcDbLine
 62
7
  6
CONTINUOUS
 10
-1.5984384637
 20
46.3207721508
 11
-1.5473246409
 21
46.4048633622
  0
LINE
  5
6F2
100
AcDbEntity
  8
0
100
AcDbLine
 62
7
  6
CONTINUOUS
 10
1.9962920416
 20
44.2568313752
 11
1.9451754611
 21
44.1727408491
  0
LINE
  5
6F3
100
AcDbEntity
  8
0
100
AcDbLine
 62
7
  6
CONTINUOUS
 10
-5.211854363
 20
48.6159306552
 11
-5.0854588145
 21
48.8127608462
  0
LINE
  5
6F4
100
AcDbEntity
  8
0
100
AcDbLine
 62
7
  6
CONTINUOUS
 10
26.2034785784
 20
92.9847387332
 11
26.2530024486
 21
93.0581400486
  0
LINE
  5
6F5
100
AcDbEntity
  8
0
100
AcDbLine
 62
7
  6
CONTINUOUS
 10
-5.0854588145
 20
48.8127608462
 11
-4.9517763535
 21
49.0049947173
  0
LINE
  5
6F6
100
AcDbEntity
  8
0
100
AcDbLine
 62
7
  6
CONTINUOUS
 10
7.844337786
 20
85.0157045234
 11
7.7586356734
 21
84.9008140654
  0
LINE
  5
6F7
100
AcDbEntity
  8
0
100
AcDbLine
 62
7
  6
CONTINUOUS
 10
7.7586356734
 20
84.9008140654
 11
7.6674940318
 21
84.7900028686
  0
LINE
  5
6F8
100
AcDbEntity
  8
0
100
AcDbLine
 62
7
  6
CONTINUOUS
 10
3.0167120825
 20
88.6112892251
 11
3.1078455146
 21
88.7220553975
  0
LINE
  5
6F9
100
AcDbEntity
  8
0
100
AcDbLine
 62
7
  6
CONTINUOUS
 10
3.1078455146
 20
88.7220553975
 11
3.2042032137
 21
88.8284636029
  0
LINE
  5
6FA
100
AcDbEntity
  8
0
100
AcDbLine
 62
7
  6
CONTINUOUS
 10
3.2042032137
 20
88.8284636029
 11
3.2139510609
 21
88.8386805941
  0
LINE
  5
6FB
100
AcDbEntity
  8
0
100
AcDbLine
 62
7
  6
CONTINUOUS
 10
-26.3029265056
 20
90.5713210147
 11
-26.3714601132
 21
90.5149424929
  0
LINE
  5
6FC
100
AcDbEntity
  8
0
100
AcDbLine
 62
7
  6
CONTINUOUS
 10
-28.6666864598
 20
93.4482306236
 11
-28.5956298288
 21
93.5012428837
  0
LINE
  5
6FD
100
AcDbEntity
  8
0
100
AcDbLine
 62
7
  6
CONTINUOUS
 10
-26.3714601132
 20
90.5149424929
 11
-26.4425160958
 21
90.4619296383
  0
LINE
  5
6FE
100
AcDbEntity
  8
0
100
AcDbLine
 62
7
  6
CONTINUOUS
 10
-21.5015611781
 20
-2.8876614262
 11
-22.359725919
 21
-2.9502202918
  0
LINE
  5
6FF
100
AcDbEntity
  8
0
100
AcDbLine
 62
7
  6
CONTINUOUS
 10
0.438671342
 20
-2.0025519123
 11
0.3191487378
 21
-2.0110112911
  0
LINE
  5
700
100
AcDbEntity
  8
0
100
AcDbLine
 62
7
  6
CONTINUOUS
 10
0.0785637486
 20
3.0176354617
 11
0.1988501099
 21
3.0204621523
  0
LINE
  5
701
100
AcDbEntity
  8
0
100
AcDbLine
 62
7
  6
CONTINUOUS
 10
22.6533306061
 20
8.7373038738
 11
22.6479940809
 21
8.7373038738
  0
LINE
  5
702
100
AcDbEntity
  8
0
100
AcDbLine
 62
7
  6
CONTINUOUS
 10
8.1055622768
 20
40.7967488243
 11
8.3859349381
 21
40.735562408
  0
LINE
  5
703
100
AcDbEntity
  8
0
100
AcDbLine
 62
7
  6
CONTINUOUS
 10
-0.288618178
 20
43.274165292
 11
-0.3832166198
 21
43.2994005877
  0
LINE
  5
704
100
AcDbEntity
  8
0
100
AcDbLine
 62
7
  6
CONTINUOUS
 10
0.6863218901
 20
47.3033674464
 11
0.7809250158
 21
47.2781313072
  0
LINE
  5
705
100
AcDbEntity
  8
0
100
AcDbLine
 62
7
  6
CONTINUOUS
 10
0.7809250158
 20
47.2781313072
 11
0.8742241588
 21
47.2484184144
  0
LINE
  5
706
100
AcDbEntity
  8
0
100
AcDbLine
 62
7
  6
CONTINUOUS
 10
11.4600854208
 20
46.9052880179
 11
11.0041460557
 21
47.0723939441
  0
LINE
  5
707
100
AcDbEntity
  8
0
100
AcDbLine
 62
7
  6
CONTINUOUS
 10
-28.3690989949
 20
90.3242520302
 11
-28.4466587384
 21
90.3664789278
  0
LINE
  5
708
100
AcDbEntity
  8
0
100
AcDbLine
 62
7
  6
CONTINUOUS
 10
-26.6690444327
 20
93.6389164781
 11
-26.591485629
 21
93.59668917
  0
LINE
  5
709
100
AcDbEntity
  8
0
100
AcDbLine
 62
7
  6
CONTINUOUS
 10
3.8889035365
 20
84.1451854368
 11
3.7666953908
 21
84.2193985995
  0
LINE
  5
70A
100
AcDbEntity
  8
0
100
AcDbLine
 62
7
  6
CONTINUOUS
 10
-26.591485629
 20
93.59668917
 11
-26.5159172569
 21
93.5507643371
  0
LINE
  5
70B
100
AcDbEntity
  8
0
100
AcDbLine
 62
7
  6
CONTINUOUS
 10
3.7666953908
 20
84.2193985995
 11
3.6479961866
 21
84.2994268795
  0
LINE
  5
70C
100
AcDbEntity
  8
0
100
AcDbLine
 62
7
  6
CONTINUOUS
 10
7.0101139295
 20
89.2928414375
 11
7.1287288825
 21
89.2127560258
  0
LINE
  5
70D
100
AcDbEntity
  8
0
100
AcDbLine
 62
7
  6
CONTINUOUS
 10
7.1287288825
 20
89.2127560258
 11
7.2435566036
 21
89.1270280453
  0
LINE
  5
70E
100
AcDbEntity
  8
0
100
AcDbLine
 62
7
  6
CONTINUOUS
 10
7.2435566036
 20
89.1270280453
 11
7.3543099512
 21
89.0358565981
  0
LINE
  5
70F
100
AcDbEntity
  8
0
100
AcDbLine
 62
7
  6
CONTINUOUS
 10
26.5565175209
 20
90.5713168814
 11
26.4906801382
 21
90.6309254459
  0
LINE
  5
710
100
AcDbEntity
  8
0
100
AcDbLine
 62
7
  6
CONTINUOUS
 10
26.4906801382
 20
90.6309254459
 11
26.484695865
 21
90.6366324836
  0
LINE
  5
711
100
AcDbEntity
  8
0
100
AcDbLine
 62
7
  6
CONTINUOUS
 10
26.484695865
 20
90.6366324836
 11
26.4220021025
 21
90.6996030237
  0
LINE
  5
712
100
AcDbEntity
  8
0
100
AcDbLine
 62
7
  6
CONTINUOUS
 10
29.0606221576
 20
93.3265422798
 11
29.1233158707
 21
93.2635714386
  0
LINE
  5
713
100
AcDbEntity
  8
0
100
AcDbLine
 62
7
  6
CONTINUOUS
 10
26.4220021025
 20
90.6996030237
 11
26.3623931614
 21
90.765439945
  0
LINE
  5
714
100
AcDbEntity
  8
0
100
AcDbLine
 62
7
  6
CONTINUOUS
 10
29.1233158707
 20
93.2635714386
 11
29.1829248083
 21
93.1977341689
  0
LINE
  5
715
100
AcDbEntity
  8
0
100
AcDbLine
 62
7
  6
CONTINUOUS
 10
29.1829248083
 20
93.1977341689
 11
29.239303021
 21
93.1292000757
  0
LINE
  5
716
100
AcDbEntity
  8
0
100
AcDbLine
 62
7
  6
CONTINUOUS
 10
37.2410712853
 20
97.2906310227
 11
36.8749530294
 21
97.928492205
  0
LINE
  5
717
100
AcDbEntity
  8
0
100
AcDbLine
 62
7
  6
CONTINUOUS
 10
38.7171171784
 20
97.9760866405
 11
38.3400957155
 21
98.7277430538
  0
LWPOLYLINE
  5
718
100
AcDbEntity
  8
0
100
AcDbPolyline
 62
7
  6
CONTINUOUS
 90
3
 70
0
 43
0.3500000006
 10
64.2167376251
 20
2.6127032776
 10
64.2167376251
 20
1.1127028198
 10
61.859594696
 20
1.7555608063
  0
LWPOLYLINE
  5
719
100
AcDbEntity
  8
0
100
AcDbPolyline
 62
7
  6
CONTINUOUS
 90
8
 70
0
 43
0.3500000006
 10
64.8595956116
 20
5.1841306915
 10
64.8595956116
 20
6.0412754288
 10
64.43102211
 20
6.4698466644
 10
63.5738796387
 20
6.4698466644
 10
63.1453061371
 20
6.0412754288
 10
63.1453061371
 20
5.1841306915
 10
61.859594696
 20
5.1841306915
 10
61.859594696
 20
6.4698466644
  0
LINE
  5
71A
100
AcDbEntity
  8
0
100
AcDbLine
 62
7
  6
CONTINUOUS
 10
41.9414008656
 20
-66.1327327359
 11
42.1609645327
 21
-64.2816666152
  0
LINE
  5
71B
100
AcDbEntity
  8
0
100
AcDbLine
 62
7
  6
CONTINUOUS
 10
44.7308330961
 20
-66.6124480968
 11
44.9806246419
 21
-64.5231150631
  0
LINE
  5
71C
100
AcDbEntity
  8
0
100
AcDbLine
 62
7
  6
CONTINUOUS
 10
38.7109221537
 20
-65.9826215146
 11
38.9455910468
 21
-64.2077963246
  0
LINE
  5
71D
100
AcDbEntity
  8
0
100
AcDbLine
 62
7
  6
CONTINUOUS
 10
37.2336181832
 20
-65.814245848
 11
37.4635959096
 21
-64.123487617
  0
LINE
  5
71E
100
AcDbEntity
  8
0
100
AcDbLine
 62
7
  6
CONTINUOUS
 10
32.8248311938
 20
-63.1965407086
 11
32.8564781744
 21
-62.9828923701
  0
LINE
  5
71F
100
AcDbEntity
  8
0
100
AcDbLine
 62
7
  6
CONTINUOUS
 10
29.6161767722
 20
-62.598170696
 11
29.6016560711
 21
-62.6851435645
  0
LINE
  5
720
100
AcDbEntity
  8
0
100
AcDbLine
 62
7
  6
CONTINUOUS
 10
32.784251378
 20
-63.408321793
 11
32.8248311938
 21
-63.1965407086
  0
LINE
  5
721
100
AcDbEntity
  8
0
100
AcDbLine
 62
7
  6
CONTINUOUS
 10
25.9436624104
 20
-61.98073628
 11
25.9622736631
 21
-61.8946759462
  0
LINE
  5
722
100
AcDbEntity
  8
0
100
AcDbLine
 62
7
  6
CONTINUOUS
 10
14.850917605
 20
-60.4530232348
 11
15.0629095065
 21
-59.6331826996
  0
LINE
  5
723
100
AcDbEntity
  8
0
100
AcDbLine
 62
7
  6
CONTINUOUS
 10
11.515190261
 20
-40.3290730307
 11
11.4720694724
 21
-40.4790280227
  0
LINE
  5
724
100
AcDbEntity
  8
0
100
AcDbLine
 62
7
  6
CONTINUOUS
 10
11.4720694724
 20
-40.4790280227
 11
11.4233473869
 21
-40.6272958776
  0
LINE
  5
725
100
AcDbEntity
  8
0
100
AcDbLine
 62
7
  6
CONTINUOUS
 10
6.9291526054
 20
-39.7229580934
 11
6.878779978
 21
-39.8615692797
  0
LINE
  5
726
100
AcDbEntity
  8
0
100
AcDbLine
 62
7
  6
CONTINUOUS
 10
9.7548963621
 20
-6.6251460809
 11
9.6539486963
 21
-6.8941261993
  0
LINE
  5
727
100
AcDbEntity
  8
0
100
AcDbLine
 62
7
  6
CONTINUOUS
 10
17.0581124276
 20
4.5854947209
 11
17.3646888454
 21
5.3830819913
  0
LINE
  5
728
100
AcDbEntity
  8
0
100
AcDbLine
 62
7
  6
CONTINUOUS
 10
-22.842204858
 20
-64.4296973363
 11
-22.7580277384
 21
-64.2312217708
  0
LINE
  5
729
100
AcDbEntity
  8
0
100
AcDbLine
 62
7
  6
CONTINUOUS
 10
-10.7417103824
 20
-37.6126266658
 11
-10.6798137617
 21
-37.4736389459
  0
LINE
  5
72A
100
AcDbEntity
  8
0
100
AcDbLine
 62
7
  6
CONTINUOUS
 10
-13.2450546969
 20
-49.6956460593
 11
-13.593113018
 21
-50.468403937
  0
LINE
  5
72B
100
AcDbEntity
  8
0
100
AcDbLine
 62
7
  6
CONTINUOUS
 10
-6.4045927909
 20
-38.439776228
 11
-6.3431011272
 21
-38.3037004326
  0
LINE
  5
72C
100
AcDbEntity
  8
0
100
AcDbLine
 62
7
  6
CONTINUOUS
 10
-22.9347964508
 20
-64.6246291734
 11
-22.842204858
 21
-64.4296973363
  0
LINE
  5
72D
100
AcDbEntity
  8
0
100
AcDbLine
 62
7
  6
CONTINUOUS
 10
-29.2148544013
 20
-61.5622892999
 11
-29.1764107813
 21
-61.4829134774
  0
LINE
  5
72E
100
AcDbEntity
  8
0
100
AcDbLine
 62
7
  6
CONTINUOUS
 10
-25.8233027482
 20
-63.1035919056
 11
-25.8617464256
 21
-63.1829681001
  0
LINE
  5
72F
100
AcDbEntity
  8
0
100
AcDbLine
 62
7
  6
CONTINUOUS
 10
-2.0931511881
 20
1.5447842122
 11
-2.0411820686
 21
1.6520796461
  0
LINE
  5
730
100
AcDbEntity
  8
0
100
AcDbLine
 62
7
  6
CONTINUOUS
 10
2.491007687
 20
-0.5382282994
 11
2.4390367498
 21
-0.6455158324
  0
LINE
  5
731
100
AcDbEntity
  8
0
100
AcDbLine
 62
7
  6
CONTINUOUS
 10
-2.0411820686
 20
1.6520796461
 11
-1.9840978669
 21
1.7569218851
  0
LINE
  5
732
100
AcDbEntity
  8
0
100
AcDbLine
 62
7
  6
CONTINUOUS
 10
5.7473823199
 20
42.1879643482
 11
5.6306253309
 21
41.9880152713
  0
LINE
  5
733
100
AcDbEntity
  8
0
100
AcDbLine
 62
7
  6
CONTINUOUS
 10
5.6306253309
 20
41.9880152713
 11
5.506541128
 21
41.7922691317
  0
LINE
  5
734
100
AcDbEntity
  8
0
100
AcDbLine
 62
7
  6
CONTINUOUS
 10
-1.5473246409
 20
46.4048633622
 11
-1.4922030024
 21
46.4865470651
  0
LINE
  5
735
100
AcDbEntity
  8
0
100
AcDbLine
 62
7
  6
CONTINUOUS
 10
29.3418395381
 20
90.978427983
 11
29.2923156032
 21
90.9050262425
  0
LINE
  5
736
100
AcDbEntity
  8
0
100
AcDbLine
 62
7
  6
CONTINUOUS
 10
1.9451754611
 20
44.1727408491
 11
1.8900505098
 21
44.0910569016
  0
LINE
  5
737
100
AcDbEntity
  8
0
100
AcDbLine
 62
7
  6
CONTINUOUS
 10
5.506541128
 20
41.7922691317
 11
5.3752910656
 21
41.6010003532
  0
LINE
  5
738
100
AcDbEntity
  8
0
100
AcDbLine
 62
7
  6
CONTINUOUS
 10
26.2530024486
 20
93.0581400486
 11
26.306014979
 21
93.1291961512
  0
LINE
  5
739
100
AcDbEntity
  8
0
100
AcDbLine
 62
7
  6
CONTINUOUS
 10
29.2923156032
 20
90.9050262425
 11
29.239303021
 21
90.8339697284
  0
LINE
  5
73A
100
AcDbEntity
  8
0
100
AcDbLine
 62
7
  6
CONTINUOUS
 10
-1.4922030024
 20
46.4865470651
 11
-1.4331965176
 21
46.5656250676
  0
LINE
  5
73B
100
AcDbEntity
  8
0
100
AcDbLine
 62
7
  6
CONTINUOUS
 10
-4.9517763535
 20
49.0049947173
 11
-4.8109888814
 21
49.1923510711
  0
LINE
  5
73C
100
AcDbEntity
  8
0
100
AcDbLine
 62
7
  6
CONTINUOUS
 10
-9.1134094033
 20
39.8901641841
 11
-8.9381566334
 21
40.1227022904
  0
LINE
  5
73D
100
AcDbEntity
  8
0
100
AcDbLine
 62
7
  6
CONTINUOUS
 10
-10.1148287504
 20
47.6382211887
 11
-10.368108681
 21
47.312159006
  0
LINE
  5
73E
100
AcDbEntity
  8
0
100
AcDbLine
 62
7
  6
CONTINUOUS
 10
-4.8109888814
 20
49.1923510711
 11
-4.6632934518
 21
49.3745500678
  0
LINE
  5
73F
100
AcDbEntity
  8
0
100
AcDbLine
 62
7
  6
CONTINUOUS
 10
26.306014979
 20
93.1291961512
 11
26.3623931614
 21
93.1977298591
  0
LINE
  5
740
100
AcDbEntity
  8
0
100
AcDbLine
 62
7
  6
CONTINUOUS
 10
29.239303021
 20
90.8339697284
 11
29.1829248083
 21
90.7654356353
  0
LINE
  5
741
100
AcDbEntity
  8
0
100
AcDbLine
 62
7
  6
CONTINUOUS
 10
7.6674940318
 20
84.7900028686
 11
7.5711315445
 21
84.6835534482
  0
LINE
  5
742
100
AcDbEntity
  8
0
100
AcDbLine
 62
7
  6
CONTINUOUS
 10
26.3623931614
 20
93.1977298591
 11
26.4220021025
 21
93.2635667805
  0
LINE
  5
743
100
AcDbEntity
  8
0
100
AcDbLine
 62
7
  6
CONTINUOUS
 10
7.5711315445
 20
84.6835534482
 11
7.5624360221
 21
84.6744316723
  0
LINE
  5
744
100
AcDbEntity
  8
0
100
AcDbLine
 62
7
  6
CONTINUOUS
 10
7.5624360221
 20
84.6744316723
 11
7.4606672003
 21
84.5730414686
  0
LINE
  5
745
100
AcDbEntity
  8
0
100
AcDbLine
 62
7
  6
CONTINUOUS
 10
3.2139510609
 20
88.8386805941
 11
3.3157711875
 21
88.9399838595
  0
LINE
  5
746
100
AcDbEntity
  8
0
100
AcDbLine
 62
7
  6
CONTINUOUS
 10
3.3157711875
 20
88.9399838595
 11
3.4222273117
 21
89.0363024444
  0
LINE
  5
747
100
AcDbEntity
  8
0
100
AcDbLine
 62
7
  6
CONTINUOUS
 10
-26.4425160958
 20
90.4619296383
 11
-26.5159172569
 21
90.412405467
  0
LINE
  5
748
100
AcDbEntity
  8
0
100
AcDbLine
 62
7
  6
CONTINUOUS
 10
-28.5956298288
 20
93.5012428837
 11
-28.522227938
 21
93.550766518
  0
LINE
  5
749
100
AcDbEntity
  8
0
100
AcDbLine
 62
7
  6
CONTINUOUS
 10
-28.522227938
 20
93.550766518
 11
-28.4466587384
 21
93.5966908763
  0
LINE
  5
74A
100
AcDbEntity
  8
0
100
AcDbLine
 62
7
  6
CONTINUOUS
 10
-34.7337976205
 20
99.1013923841
 11
-35.3716587826
 21
98.7352741258
  0
LINE
  5
74B
100
AcDbEntity
  8
0
100
AcDbLine
 62
7
  6
CONTINUOUS
 10
-7.7242654445
 20
-19.2421275769
 11
-8.0232081929
 21
-19.3121017161
  0
LINE
  5
74C
100
AcDbEntity
  8
0
100
AcDbLine
 62
7
  6
CONTINUOUS
 10
0.55727893
 20
-1.9884914363
 11
0.438671342
 21
-2.0025519123
  0
LINE
  5
74D
100
AcDbEntity
  8
0
100
AcDbLine
 62
7
  6
CONTINUOUS
 10
-0.1595435336
 20
2.9951155016
 11
-0.0409471326
 21
3.0091760547
  0
LINE
  5
74E
100
AcDbEntity
  8
0
100
AcDbLine
 62
7
  6
CONTINUOUS
 10
21.7951218845
 20
8.6747451399
 11
22.6533306061
 21
8.7373038738
  0
LINE
  5
74F
100
AcDbEntity
  8
0
100
AcDbLine
 62
7
  6
CONTINUOUS
 10
-0.0409471326
 20
3.0091760547
 11
0.0785637486
 21
3.0176354617
  0
LINE
  5
750
100
AcDbEntity
  8
0
100
AcDbLine
 62
7
  6
CONTINUOUS
 10
26.8814768525
 20
17.8625843359
 11
22.7332178152
 21
17.8625843359
  0
LINE
  5
751
100
AcDbEntity
  8
0
100
AcDbLine
 62
7
  6
CONTINUOUS
 10
-22.3319599117
 20
18.0120070455
 11
-26.4819977913
 21
18.0120070455
  0
LINE
  5
752
100
AcDbEntity
  8
0
100
AcDbLine
 62
7
  6
CONTINUOUS
 10
-0.0961196623
 20
43.2372861676
 11
-0.1928706186
 21
43.2534486087
  0
LINE
  5
753
100
AcDbEntity
  8
0
100
AcDbLine
 62
7
  6
CONTINUOUS
 10
-0.1928706186
 20
43.2534486087
 11
-0.288618178
 21
43.274165292
  0
LINE
  5
754
100
AcDbEntity
  8
0
100
AcDbLine
 62
7
  6
CONTINUOUS
 10
0.5905708147
 20
47.3240847082
 11
0.6863218901
 21
47.3033674464
  0
LINE
  5
755
100
AcDbEntity
  8
0
100
AcDbLine
 62
7
  6
CONTINUOUS
 10
-28.2086982084
 20
90.251222802
 11
-28.2897224554
 21
90.2858085544
  0
LINE
  5
756
100
AcDbEntity
  8
0
100
AcDbLine
 62
7
  6
CONTINUOUS
 10
4.1427121905
 20
84.0148190611
 11
4.0143357936
 21
84.0769459541
  0
LINE
  5
757
100
AcDbEntity
  8
0
100
AcDbLine
 62
7
  6
CONTINUOUS
 10
-28.2897224554
 20
90.2858085544
 11
-28.3690989949
 21
90.3242520302
  0
LINE
  5
758
100
AcDbEntity
  8
0
100
AcDbLine
 62
7
  6
CONTINUOUS
 10
-26.7484199052
 20
93.6773603003
 11
-26.6690444327
 21
93.6389164781
  0
LINE
  5
759
100
AcDbEntity
  8
0
100
AcDbLine
 62
7
  6
CONTINUOUS
 10
4.0143357936
 20
84.0769459541
 11
3.8889035365
 21
84.1451854368
  0
LINE
  5
75A
100
AcDbEntity
  8
0
100
AcDbLine
 62
7
  6
CONTINUOUS
 10
6.888000145
 20
89.3671052369
 11
7.0101139295
 21
89.2928414375
  0
LINE
  5
75B
100
AcDbEntity
  8
0
100
AcDbLine
 62
7
  6
CONTINUOUS
 10
26.6961083954
 20
90.4619268015
 11
26.6250517361
 21
90.5149390353
  0
LINE
  5
75C
100
AcDbEntity
  8
0
100
AcDbLine
 62
7
  6
CONTINUOUS
 10
26.6250517361
 20
90.5149390353
 11
26.5565175209
 21
90.5713168814
  0
LINE
  5
75D
100
AcDbEntity
  8
0
100
AcDbLine
 62
7
  6
CONTINUOUS
 10
28.9202780827
 20
93.448227166
 11
28.9888116651
 21
93.391848616
  0
LINE
  5
75E
100
AcDbEntity
  8
0
100
AcDbLine
 62
7
  6
CONTINUOUS
 10
28.9888116651
 20
93.391848616
 11
29.0546484705
 21
93.3322392987
  0
LINE
  5
75F
100
AcDbEntity
  8
0
100
AcDbLine
 62
7
  6
CONTINUOUS
 10
29.0546484705
 20
93.3322392987
 11
29.0606221576
 21
93.3265422798
  0
LINE
  5
760
100
AcDbEntity
  8
0
100
AcDbLine
 62
7
  6
CONTINUOUS
 10
37.8256990318
 20
99.4037526642
 11
37.5503690234
 21
99.6790826776
  0
LINE
  5
761
100
AcDbEntity
  8
0
100
AcDbLine
 62
7
  6
CONTINUOUS
 10
36.8749530294
 20
97.928492205
 11
36.622558192
 21
98.2398610624
  0
LINE
  5
762
100
AcDbEntity
  8
0
100
AcDbLine
 62
7
  6
CONTINUOUS
 10
38.3400957155
 20
98.7277430538
 11
37.8256990318
 21
99.4037526642
  0
LINE
  5
763
100
AcDbEntity
  8
0
100
AcDbLine
 62
7
  6
CONTINUOUS
 10
46.6406337416
 20
-66.860151297
 11
46.9015968557
 21
-64.6475014143
  0
LINE
  5
764
100
AcDbEntity
  8
0
100
AcDbLine
 62
7
  6
CONTINUOUS
 10
29.6016560711
 20
-62.6851435645
 11
29.5830448048
 21
-62.771204111
  0
LINE
  5
765
100
AcDbEntity
  8
0
100
AcDbLine
 62
7
  6
CONTINUOUS
 10
32.7347969025
 20
-63.6179925107
 11
32.784251378
 21
-63.408321793
  0
LINE
  5
766
100
AcDbEntity
  8
0
100
AcDbLine
 62
7
  6
CONTINUOUS
 10
25.9622736631
 20
-61.8946759462
 11
25.9849431562
 21
-61.8096578444
  0
LINE
  5
767
100
AcDbEntity
  8
0
100
AcDbLine
 62
7
  6
CONTINUOUS
 10
29.5830448048
 20
-62.771204111
 11
29.560375289
 21
-62.856222475
  0
LINE
  5
768
100
AcDbEntity
  8
0
100
AcDbLine
 62
7
  6
CONTINUOUS
 10
14.5929734406
 20
-61.2594522768
 11
14.850917605
 21
-60.4530232348
  0
LINE
  5
769
100
AcDbEntity
  8
0
100
AcDbLine
 62
7
  6
CONTINUOUS
 10
11.4233473869
 20
-40.6272958776
 11
11.3690754404
 21
-40.7737102074
  0
LINE
  5
76A
100
AcDbEntity
  8
0
100
AcDbLine
 62
7
  6
CONTINUOUS
 10
-10.6798137617
 20
-37.4736389459
 11
-10.612822616
 21
-37.3368693657
  0
LINE
  5
76B
100
AcDbEntity
  8
0
100
AcDbLine
 62
7
  6
CONTINUOUS
 10
-12.8531915956
 20
-48.9423589731
 11
-13.2450546969
 21
-49.6956460593
  0
LINE
  5
76C
100
AcDbEntity
  8
0
100
AcDbLine
 62
7
  6
CONTINUOUS
 10
-23.0356617114
 20
-64.8156910003
 11
-22.9347964508
 21
-64.6246291734
  0
LINE
  5
76D
100
AcDbEntity
  8
0
100
AcDbLine
 62
7
  6
CONTINUOUS
 10
-10.612822616
 20
-37.3368693657
 11
-10.5408132306
 21
-37.2024897055
  0
LINE
  5
76E
100
AcDbEntity
  8
0
100
AcDbLine
 62
7
  6
CONTINUOUS
 10
2.4390367498
 20
-0.6455158324
 11
2.3819503541
 21
-0.7503508955
  0
LINE
  5
76F
100
AcDbEntity
  8
0
100
AcDbLine
 62
7
  6
CONTINUOUS
 10
-29.1764107813
 20
-61.4829134774
 11
-29.1341837097
 21
-61.4053543954
  0
LINE
  5
770
100
AcDbEntity
  8
0
100
AcDbLine
 62
7
  6
CONTINUOUS
 10
-25.8617464256
 20
-63.1829681001
 11
-25.9039735598
 21
-63.2605275699
  0
LINE
  5
771
100
AcDbEntity
  8
0
100
AcDbLine
 62
7
  6
CONTINUOUS
 10
-9.0678257307
 20
-20.0782853347
 11
-9.2265726928
 21
-20.3444818517
  0
LINE
  5
772
100
AcDbEntity
  8
0
100
AcDbLine
 62
7
  6
CONTINUOUS
 10
-1.9840978669
 20
1.7569218851
 11
-1.9220148312
 21
1.8590757027
  0
LINE
  5
773
100
AcDbEntity
  8
0
100
AcDbLine
 62
7
  6
CONTINUOUS
 10
5.3752910656
 20
41.6010003532
 11
5.2370514473
 21
41.4144840595
  0
LINE
  5
774
100
AcDbEntity
  8
0
100
AcDbLine
 62
7
  6
CONTINUOUS
 10
1.8900505098
 20
44.0910569016
 11
1.8310401352
 21
44.0119777848
  0
LINE
  5
775
100
AcDbEntity
  8
0
100
AcDbLine
 62
7
  6
CONTINUOUS
 10
5.2370514473
 20
41.4144840595
 11
5.0920133607
 21
41.2329942517
  0
LINE
  5
776
100
AcDbEntity
  8
0
100
AcDbLine
 62
7
  6
CONTINUOUS
 10
-1.4331965176
 20
46.5656250676
 11
-1.370442016
 21
46.6418998977
  0
LINE
  5
777
100
AcDbEntity
  8
0
100
AcDbLine
 62
7
  6
CONTINUOUS
 10
1.8310401352
 20
44.0119777848
 11
1.7682811635
 21
43.9357010451
  0
LINE
  5
778
100
AcDbEntity
  8
0
100
AcDbLine
 62
7
  6
CONTINUOUS
 10
-4.6632934518
 20
49.3745500678
 11
-4.5089017983
 21
49.5513151521
  0
LINE
  5
779
100
AcDbEntity
  8
0
100
AcDbLine
 62
7
  6
CONTINUOUS
 10
29.1829248083
 20
90.7654356353
 11
29.1233158707
 21
90.6995983655
  0
LINE
  5
77A
100
AcDbEntity
  8
0
100
AcDbLine
 62
7
  6
CONTINUOUS
 10
-1.370442016
 20
46.6418998977
 11
-1.3040896836
 21
46.7151770615
  0
LINE
  5
77B
100
AcDbEntity
  8
0
100
AcDbLine
 62
7
  6
CONTINUOUS
 10
-4.5089017983
 20
49.5513151521
 11
-4.3480395881
 21
49.7223749707
  0
LINE
  5
77C
100
AcDbEntity
  8
0
100
AcDbLine
 62
7
  6
CONTINUOUS
 10
26.4220021025
 20
93.2635667805
 11
26.4277091806
 21
93.2695510158
  0
LINE
  5
77D
100
AcDbEntity
  8
0
100
AcDbLine
 62
7
  6
CONTINUOUS
 10
29.1233158707
 20
90.6995983655
 11
29.1176188921
 21
90.69362464
  0
LINE
  5
77E
100
AcDbEntity
  8
0
100
AcDbLine
 62
7
  6
CONTINUOUS
 10
26.4277091806
 20
93.2695510158
 11
26.4906801382
 21
93.3322443583
  0
LINE
  5
77F
100
AcDbEntity
  8
0
100
AcDbLine
 62
7
  6
CONTINUOUS
 10
29.1176188921
 20
90.69362464
 11
29.0546484705
 21
90.6309305054
  0
LINE
  5
780
100
AcDbEntity
  8
0
100
AcDbLine
 62
7
  6
CONTINUOUS
 10
7.4606672003
 20
84.5730414686
 11
7.3542669477
 21
84.4766403394
  0
LINE
  5
781
100
AcDbEntity
  8
0
100
AcDbLine
 62
7
  6
CONTINUOUS
 10
26.4906801382
 20
93.3322443583
 11
26.5565175209
 21
93.3918529227
  0
LINE
  5
782
100
AcDbEntity
  8
0
100
AcDbLine
 62
7
  6
CONTINUOUS
 10
7.3542669477
 20
84.4766403394
 11
7.2435102066
 21
84.3854646688
  0
LINE
  5
783
100
AcDbEntity
  8
0
100
AcDbLine
 62
7
  6
CONTINUOUS
 10
3.4222273117
 20
89.0363024444
 11
3.5330462068
 21
89.127401022
  0
LINE
  5
784
100
AcDbEntity
  8
0
100
AcDbLine
 62
7
  6
CONTINUOUS
 10
3.5330462068
 20
89.127401022
 11
3.6479469421
 21
89.213062028
  0
LINE
  5
785
100
AcDbEntity
  8
0
100
AcDbLine
 62
7
  6
CONTINUOUS
 10
-26.5159172569
 20
90.412405467
 11
-26.591485629
 21
90.3664806341
  0
LINE
  5
786
100
AcDbEntity
  8
0
100
AcDbLine
 62
7
  6
CONTINUOUS
 10
-28.4466587384
 20
93.5966908763
 11
-28.3690989949
 21
93.638917774
  0
LINE
  5
787
100
AcDbEntity
  8
0
100
AcDbLine
 62
7
  6
CONTINUOUS
 10
-35.4261281678
 20
100.5704967948
 11
-36.1777936781
 21
100.1934634682
  0
LINE
  5
788
100
AcDbEntity
  8
0
100
AcDbLine
 62
7
  6
CONTINUOUS
 10
8.3859349381
 20
-7.9929777533
 11
8.1055622768
 21
-8.0541641696
  0
LINE
  5
789
100
AcDbEntity
  8
0
100
AcDbLine
 62
7
  6
CONTINUOUS
 10
0.7911331733
 20
-1.9437060405
 11
0.6748206091
 21
-1.9688635897
  0
LINE
  5
78A
100
AcDbEntity
  8
0
100
AcDbLine
 62
7
  6
CONTINUOUS
 10
0.6748206091
 20
-1.9688635897
 11
0.55727893
 21
-1.9884914363
  0
LINE
  5
78B
100
AcDbEntity
  8
0
100
AcDbLine
 62
7
  6
CONTINUOUS
 10
-0.2770745526
 20
2.9754875047
 11
-0.1595435336
 21
2.9951155016
  0
LINE
  5
78C
100
AcDbEntity
  8
0
100
AcDbLine
 62
7
  6
CONTINUOUS
 10
0.0998609886
 20
43.2187435398
 11
0.0014992798
 21
43.2257086856
  0
LINE
  5
78D
100
AcDbEntity
  8
0
100
AcDbLine
 62
7
  6
CONTINUOUS
 10
7.8179683962
 20
40.8172923541
 11
8.1055622768
 21
40.7967488243
  0
LINE
  5
78E
100
AcDbEntity
  8
0
100
AcDbLine
 62
7
  6
CONTINUOUS
 10
18.803756317
 20
37.283978921
 11
18.1957607578
 21
37.345052759
  0
LINE
  5
78F
100
AcDbEntity
  8
0
100
AcDbLine
 62
7
  6
CONTINUOUS
 10
12.0219050756
 20
46.8452535039
 11
11.4600854208
 21
46.9052880179
  0
LINE
  5
790
100
AcDbEntity
  8
0
100
AcDbLine
 62
7
  6
CONTINUOUS
 10
0.0014992798
 20
43.2257086856
 11
-0.0961196623
 21
43.2372861676
  0
LINE
  5
791
100
AcDbEntity
  8
0
100
AcDbLine
 62
7
  6
CONTINUOUS
 10
0.3961978898
 20
47.3518251521
 11
0.4938176377
 21
47.3402474996
  0
LINE
  5
792
100
AcDbEntity
  8
0
100
AcDbLine
 62
7
  6
CONTINUOUS
 10
0.4938176377
 20
47.3402474996
 11
0.5905708147
 21
47.3240847082
  0
LINE
  5
793
100
AcDbEntity
  8
0
100
AcDbLine
 62
7
  6
CONTINUOUS
 10
-28.12618927
 20
90.2205582572
 11
-28.2086982084
 21
90.251222802
  0
LINE
  5
794
100
AcDbEntity
  8
0
100
AcDbLine
 62
7
  6
CONTINUOUS
 10
-26.9119505185
 20
93.7426111047
 11
-26.8294429431
 21
93.711946336
  0
LINE
  5
795
100
AcDbEntity
  8
0
100
AcDbLine
 62
7
  6
CONTINUOUS
 10
4.2737602539
 20
83.9589249256
 11
4.1427121905
 21
84.0148190611
  0
LINE
  5
796
100
AcDbEntity
  8
0
100
AcDbLine
 62
7
  6
CONTINUOUS
 10
-26.8294429431
 20
93.711946336
 11
-26.7484199052
 21
93.6773603003
  0
LINE
  5
797
100
AcDbEntity
  8
0
100
AcDbLine
 62
7
  6
CONTINUOUS
 10
6.6344170894
 20
89.4975526165
 11
6.7626740044
 21
89.4353886166
  0
LINE
  5
798
100
AcDbEntity
  8
0
100
AcDbLine
 62
7
  6
CONTINUOUS
 10
6.7626740044
 20
89.4353886166
 11
6.888000145
 21
89.3671052369
  0
LINE
  5
799
100
AcDbEntity
  8
0
100
AcDbLine
 62
7
  6
CONTINUOUS
 10
26.8450795543
 20
90.3664788532
 11
26.7695103184
 21
90.4124031904
  0
LINE
  5
79A
100
AcDbEntity
  8
0
100
AcDbLine
 62
7
  6
CONTINUOUS
 10
28.7002526637
 20
93.5966890954
 11
28.7758209995
 21
93.5507642413
  0
LINE
  5
79B
100
AcDbEntity
  8
0
100
AcDbLine
 62
7
  6
CONTINUOUS
 10
26.7695103184
 20
90.4124031904
 11
26.6961083954
 21
90.4619268015
  0
LINE
  5
79C
100
AcDbEntity
  8
0
100
AcDbLine
 62
7
  6
CONTINUOUS
 10
28.7758209995
 20
93.5507642413
 11
28.8492221284
 21
93.5012400468
  0
LINE
  5
79D
100
AcDbEntity
  8
0
100
AcDbLine
 62
7
  6
CONTINUOUS
 10
28.8492221284
 20
93.5012400468
 11
28.9202780827
 21
93.448227166
  0
LINE
  5
79E
100
AcDbEntity
  8
0
100
AcDbLine
 62
7
  6
CONTINUOUS
 10
37.5503690234
 20
99.6790826776
 11
36.8743594307
 21
100.1934793664
  0
LINE
  5
79F
100
AcDbEntity
  8
0
100
AcDbLine
 62
7
  6
CONTINUOUS
 10
36.622558192
 20
98.2398610624
 11
36.0681711237
 21
98.7352741258
  0
LINE
  5
7A0
100
AcDbEntity
  8
0
100
AcDbLine
 62
7
  6
CONTINUOUS
 10
46.2078293076
 20
-69.0379826733
 11
46.6406337416
 21
-66.860151297
  0
LINE
  5
7A1
100
AcDbEntity
  8
0
100
AcDbLine
 62
7
  6
CONTINUOUS
 10
41.5772712654
 20
-67.9544021693
 11
41.9414008656
 21
-66.1327327359
  0
LINE
  5
7A2
100
AcDbEntity
  8
0
100
AcDbLine
 62
7
  6
CONTINUOUS
 10
44.3165893215
 20
-68.6682431205
 11
44.7308330961
 21
-66.6124480968
  0
LINE
  5
7A3
100
AcDbEntity
  8
0
100
AcDbLine
 62
7
  6
CONTINUOUS
 10
38.3220124001
 20
-67.7243040303
 11
38.7109221537
 21
-65.9826215146
  0
LINE
  5
7A4
100
AcDbEntity
  8
0
100
AcDbLine
 62
7
  6
CONTINUOUS
 10
36.8525638592
 20
-67.4720068507
 11
37.2336181832
 21
-65.814245848
  0
LINE
  5
7A5
100
AcDbEntity
  8
0
100
AcDbLine
 62
7
  6
CONTINUOUS
 10
32.6765345695
 20
-63.8252939458
 11
32.7347969025
 21
-63.6179925107
  0
LINE
  5
7A6
100
AcDbEntity
  8
0
100
AcDbLine
 62
7
  6
CONTINUOUS
 10
25.9849431562
 20
-61.8096578444
 11
26.0116328294
 21
-61.7258209151
  0
LINE
  5
7A7
100
AcDbEntity
  8
0
100
AcDbLine
 62
7
  6
CONTINUOUS
 10
29.560375289
 20
-62.856222475
 11
29.5336855836
 21
-62.9400597115
  0
LINE
  5
7A8
100
AcDbEntity
  8
0
100
AcDbLine
 62
7
  6
CONTINUOUS
 10
14.2896900085
 20
-62.0504726878
 11
14.5929734406
 21
-61.2594522768
  0
LINE
  5
7A9
100
AcDbEntity
  8
0
100
AcDbLine
 62
7
  6
CONTINUOUS
 10
11.3690754404
 20
-40.7737102074
 11
11.3093128507
 21
-40.9180974349
  0
LINE
  5
7AA
100
AcDbEntity
  8
0
100
AcDbLine
 62
7
  6
CONTINUOUS
 10
6.878779978
 20
-39.8615692797
 11
6.8172856882
 21
-39.9976342042
  0
LINE
  5
7AB
100
AcDbEntity
  8
0
100
AcDbLine
 62
7
  6
CONTINUOUS
 10
11.3093128507
 20
-40.9180974349
 11
11.2441274889
 21
-41.0602774234
  0
LINE
  5
7AC
100
AcDbEntity
  8
0
100
AcDbLine
 62
7
  6
CONTINUOUS
 10
-6.3431011272
 20
-38.3037004326
 11
-6.2705483562
 21
-38.1706755925
  0
LINE
  5
7AD
100
AcDbEntity
  8
0
100
AcDbLine
 62
7
  6
CONTINUOUS
 10
9.6539486963
 20
-6.8941261993
 11
9.5146599621
 21
-7.1475069065
  0
LINE
  5
7AE
100
AcDbEntity
  8
0
100
AcDbLine
 62
7
  6
CONTINUOUS
 10
17.3646888454
 20
5.3830819913
 11
17.7869710151
 21
6.1304273515
  0
LINE
  5
7AF
100
AcDbEntity
  8
0
100
AcDbLine
 62
7
  6
CONTINUOUS
 10
-23.1446398859
 20
-65.002547933
 11
-23.0356617114
 21
-64.8156910003
  0
LINE
  5
7B0
100
AcDbEntity
  8
0
100
AcDbLine
 62
7
  6
CONTINUOUS
 10
-10.5408132306
 20
-37.2024897055
 11
-10.4638710114
 21
-37.0706754687
  0
LINE
  5
7B1
100
AcDbEntity
  8
0
100
AcDbLine
 62
7
  6
CONTINUOUS
 10
2.3819503541
 20
-0.7503508955
 11
2.3198647281
 21
-0.852498218
  0
LINE
  5
7B2
100
AcDbEntity
  8
0
100
AcDbLine
 62
7
  6
CONTINUOUS
 10
-29.1341837097
 20
-61.4053543954
 11
-29.0882591466
 21
-61.329785805
  0
LINE
  5
7B3
100
AcDbEntity
  8
0
100
AcDbLine
 62
7
  6
CONTINUOUS
 10
-25.9039735598
 20
-63.2605275699
 11
-25.9498981869
 21
-63.3360965552
  0
LINE
  5
7B4
100
AcDbEntity
  8
0
100
AcDbLine
 62
7
  6
CONTINUOUS
 10
-1.9220148312
 20
1.8590757027
 11
-1.8550657843
 21
1.9583017733
  0
LINE
  5
7B5
100
AcDbEntity
  8
0
100
AcDbLine
 62
7
  6
CONTINUOUS
 10
2.3198647281
 20
-0.852498218
 11
2.2529126775
 21
-0.9517184294
  0
LINE
  5
7B6
100
AcDbEntity
  8
0
100
AcDbLine
 62
7
  6
CONTINUOUS
 10
-17.4935332405
 20
-0.3432966423
 11
-18.0238338577
 21
-1.0244370611
  0
LINE
  5
7B7
100
AcDbEntity
  8
0
100
AcDbLine
 62
7
  6
CONTINUOUS
 10
5.0920133607
 20
41.2329942517
 11
4.9403822473
 21
41.0568019501
  0
LINE
  5
7B8
100
AcDbEntity
  8
0
100
AcDbLine
 62
7
  6
CONTINUOUS
 10
1.7682811635
 20
43.9357010451
 11
1.7019237938
 21
43.8624212653
  0
LINE
  5
7B9
100
AcDbEntity
  8
0
100
AcDbLine
 62
7
  6
CONTINUOUS
 10
4.9403822473
 20
41.0568019501
 11
4.8143941216
 21
40.9197536409
  0
LINE
  5
7BA
100
AcDbEntity
  8
0
100
AcDbLine
 62
7
  6
CONTINUOUS
 10
-4.3480395881
 20
49.7223749707
 11
-4.3089357675
 21
49.7621080181
  0
LINE
  5
7BB
100
AcDbEntity
  8
0
100
AcDbLine
 62
7
  6
CONTINUOUS
 10
-1.3040896836
 20
46.7151770615
 11
-1.234302144
 21
46.7852672945
  0
LINE
  5
7BC
100
AcDbEntity
  8
0
100
AcDbLine
 62
7
  6
CONTINUOUS
 10
1.7019237938
 20
43.8624212653
 11
1.6321306834
 21
43.7923278087
  0
LINE
  5
7BD
100
AcDbEntity
  8
0
100
AcDbLine
 62
7
  6
CONTINUOUS
 10
-8.9381566334
 20
40.1227022904
 11
-8.7406291101
 21
40.3201028959
  0
LINE
  5
7BE
100
AcDbEntity
  8
0
100
AcDbLine
 62
7
  6
CONTINUOUS
 10
-16.5305730571
 20
38.0687152981
 11
-16.8528023178
 21
37.7496444398
  0
LINE
  5
7BF
100
AcDbEntity
  8
0
100
AcDbLine
 62
7
  6
CONTINUOUS
 10
-4.3089357675
 20
49.7621080181
 11
-4.1404129957
 21
49.9257303176
  0
LINE
  5
7C0
100
AcDbEntity
  8
0
100
AcDbLine
 62
7
  6
CONTINUOUS
 10
-1.234302144
 20
46.7852672945
 11
-1.227699877
 21
46.7915635613
  0
LINE
  5
7C1
100
AcDbEntity
  8
0
100
AcDbLine
 62
7
  6
CONTINUOUS
 10
29.0546484705
 20
90.6309305054
 11
28.9888116651
 21
90.5713211881
  0
LINE
  5
7C2
100
AcDbEntity
  8
0
100
AcDbLine
 62
7
  6
CONTINUOUS
 10
-4.1404129957
 20
49.9257303176
 11
-3.9660454339
 21
50.0830043553
  0
LINE
  5
7C3
100
AcDbEntity
  8
0
100
AcDbLine
 62
7
  6
CONTINUOUS
 10
26.5565175209
 20
93.3918529227
 11
26.6250517361
 21
93.4482307688
  0
LINE
  5
7C4
100
AcDbEntity
  8
0
100
AcDbLine
 62
7
  6
CONTINUOUS
 10
28.9888116651
 20
90.5713211881
 11
28.9202780827
 21
90.5149426381
  0
LINE
  5
7C5
100
AcDbEntity
  8
0
100
AcDbLine
 62
7
  6
CONTINUOUS
 10
7.2435102066
 20
84.3854646688
 11
7.1286797102
 21
84.2997329024
  0
LINE
  5
7C6
100
AcDbEntity
  8
0
100
AcDbLine
 62
7
  6
CONTINUOUS
 10
26.6250517361
 20
93.4482307688
 11
26.6961083954
 21
93.5012430027
  0
LINE
  5
7C7
100
AcDbEntity
  8
0
100
AcDbLine
 62
7
  6
CONTINUOUS
 10
7.1286797102
 20
84.2997329024
 11
7.0100627165
 21
84.2196441789
  0
LINE
  5
7C8
100
AcDbEntity
  8
0
100
AcDbLine
 62
7
  6
CONTINUOUS
 10
3.6479469421
 20
89.213062028
 11
3.7666441062
 21
89.2930870022
  0
LINE
  5
7C9
100
AcDbEntity
  8
0
100
AcDbLine
 62
7
  6
CONTINUOUS
 10
3.7666441062
 20
89.2930870022
 11
3.8888510483
 21
89.3672973463
  0
LINE
  5
7CA
100
AcDbEntity
  8
0
100
AcDbLine
 62
7
  6
CONTINUOUS
 10
-26.591485629
 20
90.3664806341
 11
-26.6690444327
 21
90.3242533261
  0
LINE
  5
7CB
100
AcDbEntity
  8
0
100
AcDbLine
 62
7
  6
CONTINUOUS
 10
-28.3690989949
 20
93.638917774
 11
-28.2897224554
 21
93.6773612497
  0
LINE
  5
7CC
100
AcDbEntity
  8
0
100
AcDbLine
 62
7
  6
CONTINUOUS
 10
-26.6690444327
 20
90.3242533261
 11
-26.7484199052
 21
90.2858095039
  0
LINE
  5
7CD
100
AcDbEntity
  8
0
100
AcDbLine
 62
7
  6
CONTINUOUS
 10
0.9060409524
 20
-1.9130623031
 11
0.7911331733
 21
-1.9437060405
  0
LINE
  5
7CE
100
AcDbEntity
  8
0
100
AcDbLine
 62
7
  6
CONTINUOUS
 10
-20.667861994
 20
-2.7015875927
 11
-21.5015611781
 21
-2.8876614262
  0
LINE
  5
7CF
100
AcDbEntity
  8
0
100
AcDbLine
 62
7
  6
CONTINUOUS
 10
20.961386787
 20
8.4886724717
 11
21.7951218845
 21
8.6747451399
  0
LINE
  5
7D0
100
AcDbEntity
  8
0
100
AcDbLine
 62
7
  6
CONTINUOUS
 10
-0.393376975
 20
2.9503297089
 11
-0.2770745526
 21
2.9754875047
  0
LINE
  5
7D1
100
AcDbEntity
  8
0
100
AcDbLine
 62
7
  6
CONTINUOUS
 10
22.6479940809
 20
37.283978921
 11
18.803756317
 21
37.283978921
  0
LINE
  5
7D2
100
AcDbEntity
  8
0
100
AcDbLine
 62
7
  6
CONTINUOUS
 10
-18.5519211231
 20
37.283978921
 11
-22.3945912172
 21
37.283978921
  0
LINE
  5
7D3
100
AcDbEntity
  8
0
100
AcDbLine
 62
7
  6
CONTINUOUS
 10
-15.9565909621
 20
40.8034173886
 11
16.2102049974
 21
40.8034173886
  0
LINE
  5
7D4
100
AcDbEntity
  8
0
100
AcDbLine
 62
7
  6
CONTINUOUS
 10
-7.416743784
 20
40.8172923541
 11
7.8179683962
 21
40.8172923541
  0
LINE
  5
7D5
100
AcDbEntity
  8
0
100
AcDbLine
 62
7
  6
CONTINUOUS
 10
-41.3050863679
 20
43.6557901872
 11
-38.1921132477
 21
43.6557901872
  0
LINE
  5
7D6
100
AcDbEntity
  8
0
100
AcDbLine
 62
7
  6
CONTINUOUS
 10
38.8904377286
 20
43.6557901872
 11
42.0034108488
 21
43.6557901872
  0
LINE
  5
7D7
100
AcDbEntity
  8
0
100
AcDbLine
 62
7
  6
CONTINUOUS
 10
0.1988501099
 20
43.2164162668
 11
0.0998609886
 21
43.2187435398
  0
LINE
  5
7D8
100
AcDbEntity
  8
0
100
AcDbLine
 62
7
  6
CONTINUOUS
 10
0.1988501099
 20
47.3611176208
 11
0.2978368975
 21
47.3587903483
  0
LINE
  5
7D9
100
AcDbEntity
  8
0
100
AcDbLine
 62
7
  6
CONTINUOUS
 10
0.2978368975
 20
47.3587903483
 11
0.3961978898
 21
47.3518251521
  0
LINE
  5
7DA
100
AcDbEntity
  8
0
100
AcDbLine
 62
7
  6
CONTINUOUS
 10
4.5428321805
 20
83.8662303829
 11
4.4072172774
 21
83.9093663289
  0
LINE
  5
7DB
100
AcDbEntity
  8
0
100
AcDbLine
 62
7
  6
CONTINUOUS
 10
-28.0423514249
 20
90.1938686521
 11
-28.12618927
 21
90.2205582572
  0
LINE
  5
7DC
100
AcDbEntity
  8
0
100
AcDbLine
 62
7
  6
CONTINUOUS
 10
-26.9957868332
 20
93.7693008787
 11
-26.9119505185
 21
93.7426111047
  0
LINE
  5
7DD
100
AcDbEntity
  8
0
100
AcDbLine
 62
7
  6
CONTINUOUS
 10
4.4072172774
 20
83.9093663289
 11
4.2737602539
 21
83.9589249256
  0
LINE
  5
7DE
100
AcDbEntity
  8
0
100
AcDbLine
 62
7
  6
CONTINUOUS
 10
6.3701971358
 20
89.603059928
 11
6.5035034152
 21
89.553477207
  0
LINE
  5
7DF
100
AcDbEntity
  8
0
100
AcDbLine
 62
7
  6
CONTINUOUS
 10
27.083040225
 20
90.2512227733
 11
27.002015925
 21
90.285808513
  0
LINE
  5
7E0
100
AcDbEntity
  8
0
100
AcDbLine
 62
7
  6
CONTINUOUS
 10
6.5035034152
 20
89.553477207
 11
6.6344170894
 21
89.4975526165
  0
LINE
  5
7E1
100
AcDbEntity
  8
0
100
AcDbLine
 62
7
  6
CONTINUOUS
 10
27.002015925
 20
90.285808513
 11
26.9226393387
 21
90.3242519737
  0
LINE
  5
7E2
100
AcDbEntity
  8
0
100
AcDbLine
 62
7
  6
CONTINUOUS
 10
28.5433184753
 20
93.6773602589
 11
28.6226939009
 21
93.6389164216
  0
LINE
  5
7E3
100
AcDbEntity
  8
0
100
AcDbLine
 62
7
  6
CONTINUOUS
 10
26.9226393387
 20
90.3242519737
 11
26.8450795543
 21
90.3664788532
  0
LINE
  5
7E4
100
AcDbEntity
  8
0
100
AcDbLine
 62
7
  6
CONTINUOUS
 10
28.6226939009
 20
93.6389164216
 11
28.7002526637
 21
93.5966890954
  0
LINE
  5
7E5
100
AcDbEntity
  8
0
100
AcDbLine
 62
7
  6
CONTINUOUS
 10
36.0681711237
 20
98.7352741258
 11
35.4303099611
 21
99.1013923841
  0
LINE
  5
7E6
100
AcDbEntity
  8
0
100
AcDbLine
 62
7
  6
CONTINUOUS
 10
45.6052959676
 20
-71.1723399934
 11
46.2078293076
 21
-69.0379826733
  0
LINE
  5
7E7
100
AcDbEntity
  8
0
100
AcDbLine
 62
7
  6
CONTINUOUS
 10
41.0703695759
 20
-69.739344943
 11
41.5772712654
 21
-67.9544021693
  0
LINE
  5
7E8
100
AcDbEntity
  8
0
100
AcDbLine
 62
7
  6
CONTINUOUS
 10
43.7399576377
 20
-70.6820722525
 11
44.3165893215
 21
-68.6682431205
  0
LINE
  5
7E9
100
AcDbEntity
  8
0
100
AcDbLine
 62
7
  6
CONTINUOUS
 10
37.7811399625
 20
-69.4238483046
 11
38.3220124001
 21
-67.7243040303
  0
LINE
  5
7EA
100
AcDbEntity
  8
0
100
AcDbLine
 62
7
  6
CONTINUOUS
 10
32.6095420003
 20
-64.0299517032
 11
32.6765345695
 21
-63.8252939458
  0
LINE
  5
7EB
100
AcDbEntity
  8
0
100
AcDbLine
 62
7
  6
CONTINUOUS
 10
36.3227741103
 20
-69.0876362454
 11
36.8525638592
 21
-67.4720068507
  0
LINE
  5
7EC
100
AcDbEntity
  8
0
100
AcDbLine
 62
7
  6
CONTINUOUS
 10
34.6898803666
 20
-68.2606850184
 11
34.9974249624
 21
-67.3393120741
  0
LINE
  5
7ED
100
AcDbEntity
  8
0
100
AcDbLine
 62
7
  6
CONTINUOUS
 10
26.0116328294
 20
-61.7258209151
 11
26.0422974644
 21
-61.6433128289
  0
LINE
  5
7EE
100
AcDbEntity
  8
0
100
AcDbLine
 62
7
  6
CONTINUOUS
 10
29.5336855836
 20
-62.9400597115
 11
29.5030209051
 21
-63.0225681441
  0
LINE
  5
7EF
100
AcDbEntity
  8
0
100
AcDbLine
 62
7
  6
CONTINUOUS
 10
13.941817871
 20
-62.8239579544
 11
14.2896900085
 21
-62.0504726878
  0
LINE
  5
7F0
100
AcDbEntity
  8
0
100
AcDbLine
 62
7
  6
CONTINUOUS
 10
11.2441274889
 20
-41.0602774234
 11
11.1735966592
 21
-41.2000642546
  0
LINE
  5
7F1
100
AcDbEntity
  8
0
100
AcDbLine
 62
7
  6
CONTINUOUS
 10
6.8172856882
 20
-39.9976342042
 11
6.7447292317
 21
-40.1306502357
  0
LINE
  5
7F2
100
AcDbEntity
  8
0
100
AcDbLine
 62
7
  6
CONTINUOUS
 10
-12.4185802659
 20
-48.2108423755
 11
-12.8531915956
 21
-48.9423589731
  0
LINE
  5
7F3
100
AcDbEntity
  8
0
100
AcDbLine
 62
7
  6
CONTINUOUS
 10
-10.4638710114
 20
-37.0706754687
 11
-10.3820908552
 21
-36.9416049172
  0
LINE
  5
7F4
100
AcDbEntity
  8
0
100
AcDbLine
 62
7
  6
CONTINUOUS
 10
-23.261549286
 20
-65.1848589347
 11
-23.1446398859
 21
-65.002547933
  0
LINE
  5
7F5
100
AcDbEntity
  8
0
100
AcDbLine
 62
7
  6
CONTINUOUS
 10
-6.2705483562
 20
-38.1706755925
 11
-6.1870427968
 21
-38.0412722194
  0
LINE
  5
7F6
100
AcDbEntity
  8
0
100
AcDbLine
 62
7
  6
CONTINUOUS
 10
-29.0882591466
 20
-61.329785805
 11
-29.0387352738
 21
-61.2563844724
  0
LINE
  5
7F7
100
AcDbEntity
  8
0
100
AcDbLine
 62
7
  6
CONTINUOUS
 10
-25.9498981869
 20
-63.3360965552
 11
-25.9994221187
 21
-63.4094982785
  0
LINE
  5
7F8
100
AcDbEntity
  8
0
100
AcDbLine
 62
7
  6
CONTINUOUS
 10
-10.3820908552
 20
-36.9416049172
 11
-10.2955773748
 21
-36.8154580139
  0
LINE
  5
7F9
100
AcDbEntity
  8
0
100
AcDbLine
 62
7
  6
CONTINUOUS
 10
-1.8550657843
 20
1.9583017733
 11
-1.7834004576
 21
2.0543591524
  0
LINE
  5
7FA
100
AcDbEntity
  8
0
100
AcDbLine
 62
7
  6
CONTINUOUS
 10
2.2529126775
 20
-0.9517184294
 11
2.1812439204
 21
-1.0477705407
  0
LINE
  5
7FB
100
AcDbEntity
  8
0
100
AcDbLine
 62
7
  6
CONTINUOUS
 10
-1.7834004576
 20
2.0543591524
 11
-1.7071853415
 21
2.1470079335
  0
LINE
  5
7FC
100
AcDbEntity
  8
0
100
AcDbLine
 62
7
  6
CONTINUOUS
 10
1.6321306834
 20
43.7923278087
 11
1.6254869075
 21
43.7859923197
  0
LINE
  5
7FD
100
AcDbEntity
  8
0
100
AcDbLine
 62
7
  6
CONTINUOUS
 10
-1.227699877
 20
46.7915635613
 11
-1.1544104522
 21
46.8579212758
  0
LINE
  5
7FE
100
AcDbEntity
  8
0
100
AcDbLine
 62
7
  6
CONTINUOUS
 10
1.6254869075
 20
43.7859923197
 11
1.5521892051
 21
43.7196324888
  0
LINE
  5
7FF
100
AcDbEntity
  8
0
100
AcDbLine
 62
7
  6
CONTINUOUS
 10
-3.9660454339
 20
50.0830043553
 11
-3.7861017468
 21
50.2336970912
  0
LINE
  5
800
100
AcDbEntity
  8
0
100
AcDbLine
 62
7
  6
CONTINUOUS
 10
28.9202780827
 20
90.5149426381
 11
28.8492221284
 21
90.4619297573
  0
LINE
  5
801
100
AcDbEntity
  8
0
100
AcDbLine
 62
7
  6
CONTINUOUS
 10
28.8492221284
 20
90.4619297573
 11
28.7758209995
 21
90.4124055628
  0
LINE
  5
802
100
AcDbEntity
  8
0
100
AcDbLine
 62
7
  6
CONTINUOUS
 10
26.6961083954
 20
93.5012430027
 11
26.7695103184
 21
93.5507666138
  0
LINE
  5
803
100
AcDbEntity
  8
0
100
AcDbLine
 62
7
  6
CONTINUOUS
 10
7.0100627165
 20
84.2196441789
 11
6.8879477274
 21
84.1453775567
  0
LINE
  5
804
100
AcDbEntity
  8
0
100
AcDbLine
 62
7
  6
CONTINUOUS
 10
26.7695103184
 20
93.5507666138
 11
26.8450795543
 21
93.596690951
  0
LINE
  5
805
100
AcDbEntity
  8
0
100
AcDbLine
 62
7
  6
CONTINUOUS
 10
3.8888510483
 20
89.3672973463
 11
4.0142830225
 21
89.4355344923
  0
LINE
  5
806
100
AcDbEntity
  8
0
100
AcDbLine
 62
7
  6
CONTINUOUS
 10
-28.2897224554
 20
93.6773612497
 11
-28.2086982084
 21
93.7119470021
  0
LINE
  5
807
100
AcDbEntity
  8
0
100
AcDbLine
 62
7
  6
CONTINUOUS
 10
-26.7484199052
 20
90.2858095039
 11
-26.8294429431
 21
90.2512234681
  0
LINE
  5
808
100
AcDbEntity
  8
0
100
AcDbLine
 62
7
  6
CONTINUOUS
 10
-28.2086982084
 20
93.7119470021
 11
-28.12618927
 21
93.7426115469
  0
LINE
  5
809
100
AcDbEntity
  8
0
100
AcDbLine
 62
7
  6
CONTINUOUS
 10
-34.0404410994
 20
99.3253995547
 11
-34.7337976205
 21
99.1013923841
  0
LINE
  5
80A
100
AcDbEntity
  8
0
100
AcDbLine
 62
7
  6
CONTINUOUS
 10
-0.5082751216
 20
2.9196856009
 11
-0.393376975
 21
2.9503297089
  0
LINE
  5
80B
100
AcDbEntity
  8
0
100
AcDbLine
 62
7
  6
CONTINUOUS
 10
-17.8425892178
 20
37.3424886194
 11
-18.5519211231
 21
37.283978921
  0
LINE
  5
80C
100
AcDbEntity
  8
0
100
AcDbLine
 62
7
  6
CONTINUOUS
 10
-7.7043759661
 20
40.7967488243
 11
-7.416743784
 21
40.8172923541
  0
LINE
  5
80D
100
AcDbEntity
  8
0
100
AcDbLine
 62
7
  6
CONTINUOUS
 10
0.3961978898
 20
43.2257087361
 11
0.2978368975
 21
43.2187435398
  0
LINE
  5
80E
100
AcDbEntity
  8
0
100
AcDbLine
 62
7
  6
CONTINUOUS
 10
0.2978368975
 20
43.2187435398
 11
0.1988501099
 21
43.2164162668
  0
LINE
  5
80F
100
AcDbEntity
  8
0
100
AcDbLine
 62
7
  6
CONTINUOUS
 10
0.0998609886
 20
47.3587903483
 11
0.1988501099
 21
47.3611176208
  0
LINE
  5
810
100
AcDbEntity
  8
0
100
AcDbLine
 62
7
  6
CONTINUOUS
 10
-18.1801431906
 20
45.2887669438
 11
68.2514514175
 21
45.2887669438
  0
LINE
  5
811
100
AcDbEntity
  8
0
100
AcDbLine
 62
7
  6
CONTINUOUS
 10
16.3578488652
 20
46.8452535039
 11
12.0219050756
 21
46.8452535039
  0
LINE
  5
812
100
AcDbEntity
  8
0
100
AcDbLine
 62
7
  6
CONTINUOUS
 10
-11.770103169
 20
46.8452535039
 11
-16.1060136718
 21
46.8452535039
  0
LINE
  5
813
100
AcDbEntity
  8
0
100
AcDbLine
 62
7
  6
CONTINUOUS
 10
-41.3050863679
 20
47.5105403309
 11
-38.1921132477
 21
47.5105403309
  0
LINE
  5
814
100
AcDbEntity
  8
0
100
AcDbLine
 62
7
  6
CONTINUOUS
 10
38.8904377286
 20
47.5105403309
 11
42.0034108488
 21
47.5105403309
  0
LINE
  5
815
100
AcDbEntity
  8
0
100
AcDbLine
 62
7
  6
CONTINUOUS
 10
-9.583000854
 20
51.0700027381
 11
10.1319026252
 21
51.0700027381
  0
LINE
  5
816
100
AcDbEntity
  8
0
100
AcDbLine
 62
7
  6
CONTINUOUS
 10
4.8195975222
 20
83.7995086876
 11
4.6803669287
 21
83.8295905237
  0
LINE
  5
817
100
AcDbEntity
  8
0
100
AcDbLine
 62
7
  6
CONTINUOUS
 10
-27.8712709588
 20
90.1525879875
 11
-27.9573323419
 21
90.1711992079
  0
LINE
  5
818
100
AcDbEntity
  8
0
100
AcDbLine
 62
7
  6
CONTINUOUS
 10
4.6803669287
 20
83.8295905237
 11
4.5428321805
 21
83.8662303829
  0
LINE
  5
819
100
AcDbEntity
  8
0
100
AcDbLine
 62
7
  6
CONTINUOUS
 10
-27.9573323419
 20
90.1711992079
 11
-28.0423514249
 21
90.1938686521
  0
LINE
  5
81A
100
AcDbEntity
  8
0
100
AcDbLine
 62
7
  6
CONTINUOUS
 10
-27.0808042099
 20
93.7919704434
 11
-26.9957868332
 21
93.7693008787
  0
LINE
  5
81B
100
AcDbEntity
  8
0
100
AcDbLine
 62
7
  6
CONTINUOUS
 10
6.0974032127
 20
89.6828670837
 11
6.2347506595
 21
89.6462141537
  0
LINE
  5
81C
100
AcDbEntity
  8
0
100
AcDbLine
 62
7
  6
CONTINUOUS
 10
27.249387135
 20
90.19386864
 11
27.1655492229
 21
90.220558238
  0
LINE
  5
81D
100
AcDbEntity
  8
0
100
AcDbLine
 62
7
  6
CONTINUOUS
 10
6.2347506595
 20
89.6462141537
 11
6.3701971358
 21
89.603059928
  0
LINE
  5
81E
100
AcDbEntity
  8
0
100
AcDbLine
 62
7
  6
CONTINUOUS
 10
27.1655492229
 20
90.220558238
 11
27.083040225
 21
90.2512227733
  0
LINE
  5
81F
100
AcDbEntity
  8
0
100
AcDbLine
 62
7
  6
CONTINUOUS
 10
28.379787975
 20
93.7426110855
 11
28.4622954903
 21
93.7119463068
  0
LINE
  5
820
100
AcDbEntity
  8
0
100
AcDbLine
 62
7
  6
CONTINUOUS
 10
28.4622954903
 20
93.7119463068
 11
28.5433184753
 21
93.6773602589
  0
LINE
  5
821
100
AcDbEntity
  8
0
100
AcDbLine
 62
7
  6
CONTINUOUS
 10
36.8743594307
 20
100.1934793664
 11
36.1227030415
 21
100.5705008313
  0
LINE
  5
822
100
AcDbEntity
  8
0
100
AcDbLine
 62
7
  6
CONTINUOUS
 10
33.0050066879
 20
-67.8235097458
 11
33.1387132304
 21
-67.4558262107
  0
LINE
  5
823
100
AcDbEntity
  8
0
100
AcDbLine
 62
7
  6
CONTINUOUS
 10
32.533909787
 20
-64.2316765728
 11
32.6095420003
 21
-64.0299517032
  0
LINE
  5
824
100
AcDbEntity
  8
0
100
AcDbLine
 62
7
  6
CONTINUOUS
 10
32.8622365396
 20
-68.1867376892
 11
33.0050066879
 21
-67.8235097458
  0
LINE
  5
825
100
AcDbEntity
  8
0
100
AcDbLine
 62
7
  6
CONTINUOUS
 10
34.3296227557
 20
-69.163572391
 11
34.6898803666
 21
-68.2606850184
  0
LINE
  5
826
100
AcDbEntity
  8
0
100
AcDbLine
 62
7
  6
CONTINUOUS
 10
32.4497435389
 20
-64.4301655617
 11
32.533909787
 21
-64.2316765728
  0
LINE
  5
827
100
AcDbEntity
  8
0
100
AcDbLine
 62
7
  6
CONTINUOUS
 10
26.0422974644
 20
-61.6433128289
 11
26.0768833318
 21
-61.5622893735
  0
LINE
  5
828
100
AcDbEntity
  8
0
100
AcDbLine
 62
7
  6
CONTINUOUS
 10
29.5030209051
 20
-63.0225681441
 11
29.4684349843
 21
-63.1035919792
  0
LINE
  5
829
100
AcDbEntity
  8
0
100
AcDbLine
 62
7
  6
CONTINUOUS
 10
13.5502682912
 20
-63.5776697885
 11
13.941817871
 21
-62.8239579544
  0
LINE
  5
82A
100
AcDbEntity
  8
0
100
AcDbLine
 62
7
  6
CONTINUOUS
 10
11.1735966592
 20
-41.2000642546
 11
11.0978077599
 21
-41.3372671549
  0
LINE
  5
82B
100
AcDbEntity
  8
0
100
AcDbLine
 62
7
  6
CONTINUOUS
 10
11.0978077599
 20
-41.3372671549
 11
11.0168588052
 21
-41.4716915597
  0
LINE
  5
82C
100
AcDbEntity
  8
0
100
AcDbLine
 62
7
  6
CONTINUOUS
 10
6.7447292317
 20
-40.1306502357
 11
6.6612188366
 21
-40.2600466216
  0
LINE
  5
82D
100
AcDbEntity
  8
0
100
AcDbLine
 62
7
  6
CONTINUOUS
 10
-11.9424720788
 20
-47.5034662717
 11
-12.4185802659
 21
-48.2108423755
  0
LINE
  5
82E
100
AcDbEntity
  8
0
100
AcDbLine
 62
7
  6
CONTINUOUS
 10
-23.3861867294
 20
-65.3622795393
 11
-23.261549286
 21
-65.1848589347
  0
LINE
  5
82F
100
AcDbEntity
  8
0
100
AcDbLine
 62
7
  6
CONTINUOUS
 10
-10.2955773748
 20
-36.8154580139
 11
-10.2044449714
 21
-36.6924152912
  0
LINE
  5
830
100
AcDbEntity
  8
0
100
AcDbLine
 62
7
  6
CONTINUOUS
 10
-29.0387352738
 20
-61.2563844724
 11
-28.9857227409
 21
-61.1853283532
  0
LINE
  5
831
100
AcDbEntity
  8
0
100
AcDbLine
 62
7
  6
CONTINUOUS
 10
9.5146599621
 20
-7.1475069065
 11
9.3393968488
 21
-7.3800524317
  0
LINE
  5
832
100
AcDbEntity
  8
0
100
AcDbLine
 62
7
  6
CONTINUOUS
 10
17.7869710151
 20
6.1304273515
 11
18.3172817614
 21
6.8115508643
  0
LINE
  5
833
100
AcDbEntity
  8
0
100
AcDbLine
 62
7
  6
CONTINUOUS
 10
2.1812439204
 20
-1.0477705407
 11
2.1050249388
 21
-1.1404145996
  0
LINE
  5
834
100
AcDbEntity
  8
0
100
AcDbLine
 62
7
  6
CONTINUOUS
 10
-8.8688482829
 20
-19.8376713694
 11
-9.0678257307
 21
-20.0782853347
  0
LINE
  5
835
100
AcDbEntity
  8
0
100
AcDbLine
 62
7
  6
CONTINUOUS
 10
-1.7071853415
 20
2.1470079335
 11
-1.6266030434
 21
2.2360119866
  0
LINE
  5
836
100
AcDbEntity
  8
0
100
AcDbLine
 62
7
  6
CONTINUOUS
 10
-18.0238338577
 20
-1.0244370611
 11
-18.4418059177
 21
-1.4424182489
  0
LINE
  5
837
100
AcDbEntity
  8
0
100
AcDbLine
 62
7
  6
CONTINUOUS
 10
-1.1544104522
 20
46.8579212758
 11
-1.0781185243
 21
46.9206846349
  0
LINE
  5
838
100
AcDbEntity
  8
0
100
AcDbLine
 62
7
  6
CONTINUOUS
 10
1.5521892051
 20
43.7196324888
 11
1.475888741
 21
43.6568668133
  0
LINE
  5
839
100
AcDbEntity
  8
0
100
AcDbLine
 62
7
  6
CONTINUOUS
 10
-3.7861017468
 20
50.2336970912
 11
-3.6008571917
 21
50.3775886789
  0
LINE
  5
83A
100
AcDbEntity
  8
0
100
AcDbLine
 62
7
  6
CONTINUOUS
 10
-8.7406291101
 20
40.3201028959
 11
-8.5078365599
 21
40.4953211824
  0
LINE
  5
83B
100
AcDbEntity
  8
0
100
AcDbLine
 62
7
  6
CONTINUOUS
 10
-1.0781185243
 20
46.9206846349
 11
-0.9990190126
 21
46.9797027904
  0
LINE
  5
83C
100
AcDbEntity
  8
0
100
AcDbLine
 62
7
  6
CONTINUOUS
 10
-3.6008571917
 20
50.3775886789
 11
-3.410591729
 21
50.5144734005
  0
LINE
  5
83D
100
AcDbEntity
  8
0
100
AcDbLine
 62
7
  6
CONTINUOUS
 10
-10.368108681
 20
47.312159006
 11
-10.7171479902
 21
47.065115651
  0
LINE
  5
83E
100
AcDbEntity
  8
0
100
AcDbLine
 62
7
  6
CONTINUOUS
 10
28.7758209995
 20
90.4124055628
 11
28.7002526637
 21
90.3664807088
  0
LINE
  5
83F
100
AcDbEntity
  8
0
100
AcDbLine
 62
7
  6
CONTINUOUS
 10
6.8879477274
 20
84.1453775567
 11
6.7626213034
 21
84.0770918363
  0
LINE
  5
840
100
AcDbEntity
  8
0
100
AcDbLine
 62
7
  6
CONTINUOUS
 10
26.8450795543
 20
93.596690951
 11
26.9226393387
 21
93.6389178304
  0
LINE
  5
841
100
AcDbEntity
  8
0
100
AcDbLine
 62
7
  6
CONTINUOUS
 10
28.7002526637
 20
90.3664807088
 11
28.6226939009
 21
90.3242533825
  0
LINE
  5
842
100
AcDbEntity
  8
0
100
AcDbLine
 62
7
  6
CONTINUOUS
 10
6.7626213034
 20
84.0770918363
 11
6.6343650908
 21
84.0149259567
  0
LINE
  5
843
100
AcDbEntity
  8
0
100
AcDbLine
 62
7
  6
CONTINUOUS
 10
26.9226393387
 20
93.6389178304
 11
27.002015925
 21
93.6773612911
  0
LINE
  5
844
100
AcDbEntity
  8
0
100
AcDbLine
 62
7
  6
CONTINUOUS
 10
4.0142830225
 20
89.4355344923
 11
4.1426601223
 21
89.497659508
  0
LINE
  5
845
100
AcDbEntity
  8
0
100
AcDbLine
 62
7
  6
CONTINUOUS
 10
4.1426601223
 20
89.497659508
 11
4.2737099203
 21
89.5535521898
  0
LINE
  5
846
100
AcDbEntity
  8
0
100
AcDbLine
 62
7
  6
CONTINUOUS
 10
-26.8294429431
 20
90.2512234681
 11
-26.9119505185
 21
90.2205586994
  0
LINE
  5
847
100
AcDbEntity
  8
0
100
AcDbLine
 62
7
  6
CONTINUOUS
 10
-28.12618927
 20
93.7426115469
 11
-28.0423514249
 21
93.769301152
  0
LINE
  5
848
100
AcDbEntity
  8
0
100
AcDbLine
 62
7
  6
CONTINUOUS
 10
-34.6236224052
 20
100.8002342243
 11
-35.4261281678
 21
100.5704967948
  0
LINE
  5
849
100
AcDbEntity
  8
0
100
AcDbLine
 62
7
  6
CONTINUOUS
 10
0.4938176377
 20
43.237286388
 11
0.3961978898
 21
43.2257087361
  0
LINE
  5
84A
100
AcDbEntity
  8
0
100
AcDbLine
 62
7
  6
CONTINUOUS
 10
-11.1805928447
 20
46.9033119889
 11
-11.770103169
 21
46.8452535039
  0
LINE
  5
84B
100
AcDbEntity
  8
0
100
AcDbLine
 62
7
  6
CONTINUOUS
 10
0.0014992798
 20
47.3518252025
 11
0.0998609886
 21
47.3587903483
  0
LINE
  5
84C
100
AcDbEntity
  8
0
100
AcDbLine
 62
7
  6
CONTINUOUS
 10
4.9603145562
 20
83.7760375887
 11
4.8195975222
 21
83.7995086876
  0
LINE
  5
84D
100
AcDbEntity
  8
0
100
AcDbLine
 62
7
  6
CONTINUOUS
 10
-27.7842971307
 20
90.1380673126
 11
-27.8712709588
 21
90.1525879875
  0
LINE
  5
84E
100
AcDbEntity
  8
0
100
AcDbLine
 62
7
  6
CONTINUOUS
 10
27.4204677595
 20
90.1525879845
 11
27.3344062932
 21
90.1711992014
  0
LINE
  5
84F
100
AcDbEntity
  8
0
100
AcDbLine
 62
7
  6
CONTINUOUS
 10
-27.1668637005
 20
93.810581743
 11
-27.0808042099
 21
93.7919704434
  0
LINE
  5
850
100
AcDbEntity
  8
0
100
AcDbLine
 62
7
  6
CONTINUOUS
 10
5.9583798386
 20
89.7129575407
 11
6.0974032127
 21
89.6828670837
  0
LINE
  5
851
100
AcDbEntity
  8
0
100
AcDbLine
 62
7
  6
CONTINUOUS
 10
27.3344062932
 20
90.1711992014
 11
27.249387135
 21
90.19386864
  0
LINE
  5
852
100
AcDbEntity
  8
0
100
AcDbLine
 62
7
  6
CONTINUOUS
 10
28.2109344252
 20
93.7919704369
 11
28.2959517268
 21
93.7693008671
  0
LINE
  5
853
100
AcDbEntity
  8
0
100
AcDbLine
 62
7
  6
CONTINUOUS
 10
28.2959517268
 20
93.7693008671
 11
28.379787975
 21
93.7426110855
  0
LINE
  5
854
100
AcDbEntity
  8
0
100
AcDbLine
 62
7
  6
CONTINUOUS
 10
35.4303099611
 20
99.1013923841
 11
34.73695344
 21
99.3253995547
  0
LINE
  5
855
100
AcDbEntity
  8
0
100
AcDbLine
 62
7
  6
CONTINUOUS
 10
44.8357596483
 20
-73.2535261083
 11
45.6052959676
 21
-71.1723399934
  0
LINE
  5
856
100
AcDbEntity
  8
0
100
AcDbLine
 62
7
  6
CONTINUOUS
 10
40.4230142723
 20
-71.4793453963
 11
41.0703695759
 21
-69.739344943
  0
LINE
  5
857
100
AcDbEntity
  8
0
100
AcDbLine
 62
7
  6
CONTINUOUS
 10
43.0036150045
 20
-72.6444846322
 11
43.7399576377
 21
-70.6820722525
  0
LINE
  5
858
100
AcDbEntity
  8
0
100
AcDbLine
 62
7
  6
CONTINUOUS
 10
37.0913686889
 20
-71.07110311
 11
37.7811399625
 21
-69.4238483046
  0
LINE
  5
859
100
AcDbEntity
  8
0
100
AcDbLine
 62
7
  6
CONTINUOUS
 10
32.7105397445
 20
-68.5453730823
 11
32.8622365396
 21
-68.1867376892
  0
LINE
  5
85A
100
AcDbEntity
  8
0
100
AcDbLine
 62
7
  6
CONTINUOUS
 10
35.6474287889
 20
-70.6508088391
 11
36.3227741103
 21
-69.0876362454
  0
LINE
  5
85B
100
AcDbEntity
  8
0
100
AcDbLine
 62
7
  6
CONTINUOUS
 10
32.5500532616
 20
-68.8992789663
 11
32.7105397445
 21
-68.5453730823
  0
LINE
  5
85C
100
AcDbEntity
  8
0
100
AcDbLine
 62
7
  6
CONTINUOUS
 10
33.9175843226
 20
-70.0454127237
 11
34.3296227557
 21
-69.163572391
  0
LINE
  5
85D
100
AcDbEntity
  8
0
100
AcDbLine
 62
7
  6
CONTINUOUS
 10
32.3571657612
 20
-64.6251032933
 11
32.4497435389
 21
-64.4301655617
  0
LINE
  5
85E
100
AcDbEntity
  8
0
100
AcDbLine
 62
7
  6
CONTINUOUS
 10
26.0768833318
 20
-61.5622893735
 11
26.1153269492
 21
-61.4829135677
  0
LINE
  5
85F
100
AcDbEntity
  8
0
100
AcDbLine
 62
7
  6
CONTINUOUS
 10
29.4684349843
 20
-63.1035919792
 11
29.4299913043
 21
-63.1829681904
  0
LINE
  5
860
100
AcDbEntity
  8
0
100
AcDbLine
 62
7
  6
CONTINUOUS
 10
13.1161322154
 20
-64.3092817835
 11
13.5502682912
 21
-63.5776697885
  0
LINE
  5
861
100
AcDbEntity
  8
0
100
AcDbLine
 62
7
  6
CONTINUOUS
 10
11.0168588052
 20
-41.4716915597
 11
10.9308587804
 21
-41.6031403032
  0
LINE
  5
862
100
AcDbEntity
  8
0
100
AcDbLine
 62
7
  6
CONTINUOUS
 10
-25.9994221187
 20
-63.4094982785
 11
-26.0524346989
 21
-63.4805547759
  0
LINE
  5
863
100
AcDbEntity
  8
0
100
AcDbLine
 62
7
  6
CONTINUOUS
 10
-6.1870427968
 20
-38.0412722194
 11
-6.0927587628
 21
-37.9161228851
  0
LINE
  5
864
100
AcDbEntity
  8
0
100
AcDbLine
 62
7
  6
CONTINUOUS
 10
-11.426322283
 20
-46.8226379125
 11
-11.9424720788
 21
-47.5034662717
  0
LINE
  5
865
100
AcDbEntity
  8
0
100
AcDbLine
 62
7
  6
CONTINUOUS
 10
-23.5183274466
 20
-65.5344647882
 11
-23.3861867294
 21
-65.3622795393
  0
LINE
  5
866
100
AcDbEntity
  8
0
100
AcDbLine
 62
7
  6
CONTINUOUS
 10
-10.2044449714
 20
-36.6924152912
 11
-10.108817737
 21
-36.572656666
  0
LINE
  5
867
100
AcDbEntity
  8
0
100
AcDbLine
 62
7
  6
CONTINUOUS
 10
-28.9857227409
 20
-61.1853283532
 11
-28.9293445575
 21
-61.1167946296
  0
LINE
  5
868
100
AcDbEntity
  8
0
100
AcDbLine
 62
7
  6
CONTINUOUS
 10
2.1050249388
 20
-1.1404145996
 11
2.0244383341
 21
-1.2294144342
  0
LINE
  5
869
100
AcDbEntity
  8
0
100
AcDbLine
 62
7
  6
CONTINUOUS
 10
-1.6266030434
 20
2.2360119866
 11
-1.6189128892
 21
2.244076009
  0
LINE
  5
86A
100
AcDbEntity
  8
0
100
AcDbLine
 62
7
  6
CONTINUOUS
 10
2.0244383341
 20
-1.2294144342
 11
2.0167532994
 21
-1.2374723045
  0
LINE
  5
86B
100
AcDbEntity
  8
0
100
AcDbLine
 62
7
  6
CONTINUOUS
 10
-1.6189128892
 20
2.244076009
 11
-1.5337875575
 21
2.3288322103
  0
LINE
  5
86C
100
AcDbEntity
  8
0
100
AcDbLine
 62
7
  6
CONTINUOUS
 10
1.475888741
 20
43.6568668133
 11
1.3967805462
 21
43.5978462436
  0
LINE
  5
86D
100
AcDbEntity
  8
0
100
AcDbLine
 62
7
  6
CONTINUOUS
 10
-0.9990190126
 20
46.9797027904
 11
-0.9173100866
 21
47.0348381492
  0
LINE
  5
86E
100
AcDbEntity
  8
0
100
AcDbLine
 62
7
  6
CONTINUOUS
 10
1.3967805462
 20
43.5978462436
 11
1.3150629166
 21
43.542708468
  0
LINE
  5
86F
100
AcDbEntity
  8
0
100
AcDbLine
 62
7
  6
CONTINUOUS
 10
-3.410591729
 20
50.5144734005
 11
-3.2155880899
 21
50.6441603418
  0
LINE
  5
870
100
AcDbEntity
  8
0
100
AcDbLine
 62
7
  6
CONTINUOUS
 10
-3.2155880899
 20
50.6441603418
 11
-3.016129849
 21
50.7664737913
  0
LINE
  5
871
100
AcDbEntity
  8
0
100
AcDbLine
 62
7
  6
CONTINUOUS
 10
28.6226939009
 20
90.3242533825
 11
28.5433184753
 21
90.2858095452
  0
LINE
  5
872
100
AcDbEntity
  8
0
100
AcDbLine
 62
7
  6
CONTINUOUS
 10
6.6343650908
 20
84.0149259567
 11
6.5034531507
 21
83.9589999104
  0
LINE
  5
873
100
AcDbEntity
  8
0
100
AcDbLine
 62
7
  6
CONTINUOUS
 10
27.002015925
 20
93.6773612911
 11
27.083040225
 21
93.7119470308
  0
LINE
  5
874
100
AcDbEntity
  8
0
100
AcDbLine
 62
7
  6
CONTINUOUS
 10
28.5433184753
 20
90.2858095452
 11
28.4622954903
 21
90.2512234974
  0
LINE
  5
875
100
AcDbEntity
  8
0
100
AcDbLine
 62
7
  6
CONTINUOUS
 10
6.5034531507
 20
83.9589999104
 11
6.3701496613
 21
83.9094161104
  0
LINE
  5
876
100
AcDbEntity
  8
0
100
AcDbLine
 62
7
  6
CONTINUOUS
 10
27.083040225
 20
93.7119470308
 11
27.1655492229
 21
93.7426115661
  0
LINE
  5
877
100
AcDbEntity
  8
0
100
AcDbLine
 62
7
  6
CONTINUOUS
 10
4.2737099203
 20
89.5535521898
 11
4.4071697358
 21
89.6031097089
  0
LINE
  5
878
100
AcDbEntity
  8
0
100
AcDbLine
 62
7
  6
CONTINUOUS
 10
-26.9119505185
 20
90.2205586994
 11
-26.9957868332
 21
90.1938689254
  0
LINE
  5
879
100
AcDbEntity
  8
0
100
AcDbLine
 62
7
  6
CONTINUOUS
 10
0.5905708147
 20
43.2534491795
 11
0.4938176377
 21
43.237286388
  0
LINE
  5
87A
100
AcDbEntity
  8
0
100
AcDbLine
 62
7
  6
CONTINUOUS
 10
-0.1928706186
 20
47.324085279
 11
-0.0961196623
 21
47.3402477205
  0
LINE
  5
87B
100
AcDbEntity
  8
0
100
AcDbLine
 62
7
  6
CONTINUOUS
 10
-0.0961196623
 20
47.3402477205
 11
0.0014992798
 21
47.3518252025
  0
LINE
  5
87C
100
AcDbEntity
  8
0
100
AcDbLine
 62
7
  6
CONTINUOUS
 10
5.2454440003
 20
83.7491060671
 11
5.1023233965
 21
83.7592230119
  0
LINE
  5
87D
100
AcDbEntity
  8
0
100
AcDbLine
 62
7
  6
CONTINUOUS
 10
5.1023233965
 20
83.7592230119
 11
4.9603145562
 21
83.7760375887
  0
LINE
  5
87E
100
AcDbEntity
  8
0
100
AcDbLine
 62
7
  6
CONTINUOUS
 10
-27.6965315245
 20
90.1276651932
 11
-27.7842971307
 21
90.1380673126
  0
LINE
  5
87F
100
AcDbEntity
  8
0
100
AcDbLine
 62
7
  6
CONTINUOUS
 10
-27.3415987626
 20
93.8355046049
 11
-27.2538354421
 21
93.8251024638
  0
LINE
  5
880
100
AcDbEntity
  8
0
100
AcDbLine
 62
7
  6
CONTINUOUS
 10
5.6761315549
 20
89.7532506192
 11
5.8178908309
 21
89.7364336709
  0
LINE
  5
881
100
AcDbEntity
  8
0
100
AcDbLine
 62
7
  6
CONTINUOUS
 10
-27.2538354421
 20
93.8251024638
 11
-27.1668637005
 21
93.810581743
  0
LINE
  5
882
100
AcDbEntity
  8
0
100
AcDbLine
 62
7
  6
CONTINUOUS
 10
27.5074416783
 20
90.1380673116
 11
27.4204677595
 21
90.1525879845
  0
LINE
  5
883
100
AcDbEntity
  8
0
100
AcDbLine
 62
7
  6
CONTINUOUS
 10
28.037903367
 20
93.8251024628
 11
28.1248750172
 21
93.8105817395
  0
LINE
  5
884
100
AcDbEntity
  8
0
100
AcDbLine
 62
7
  6
CONTINUOUS
 10
5.8178908309
 20
89.7364336709
 11
5.9583798386
 21
89.7129575407
  0
LINE
  5
885
100
AcDbEntity
  8
0
100
AcDbLine
 62
7
  6
CONTINUOUS
 10
28.1248750172
 20
93.8105817395
 11
28.2109344252
 21
93.7919704369
  0
LINE
  5
886
100
AcDbEntity
  8
0
100
AcDbLine
 62
7
  6
CONTINUOUS
 10
36.1227030415
 20
100.5705008313
 11
35.3201825138
 21
100.8002342243
  0
LINE
  5
887
100
AcDbEntity
  8
0
100
AcDbLine
 62
7
  6
CONTINUOUS
 10
39.6382760713
 20
-73.1653626987
 11
40.4230142723
 21
-71.4793453963
  0
LINE
  5
888
100
AcDbEntity
  8
0
100
AcDbLine
 62
7
  6
CONTINUOUS
 10
42.111115731
 20
-74.5450790932
 11
43.0036150045
 21
-72.6444846322
  0
LINE
  5
889
100
AcDbEntity
  8
0
100
AcDbLine
 62
7
  6
CONTINUOUS
 10
32.3809140491
 20
-69.2483183819
 11
32.5500532616
 21
-68.8992789663
  0
LINE
  5
88A
100
AcDbEntity
  8
0
100
AcDbLine
 62
7
  6
CONTINUOUS
 10
32.2032590668
 20
-69.5923543698
 11
32.3809140491
 21
-69.2483183819
  0
LINE
  5
88B
100
AcDbEntity
  8
0
100
AcDbLine
 62
7
  6
CONTINUOUS
 10
32.2563174945
 20
-64.8161637815
 11
32.3571657612
 21
-64.6251032933
  0
LINE
  5
88C
100
AcDbEntity
  8
0
100
AcDbLine
 62
7
  6
CONTINUOUS
 10
26.1153269492
 20
-61.4829135677
 11
26.1575540178
 21
-61.4053545023
  0
LINE
  5
88D
100
AcDbEntity
  8
0
100
AcDbLine
 62
7
  6
CONTINUOUS
 10
29.4299913043
 20
-63.1829681904
 11
29.3877641677
 21
-63.2605276773
  0
LINE
  5
88E
100
AcDbEntity
  8
0
100
AcDbLine
 62
7
  6
CONTINUOUS
 10
10.9308587804
 20
-41.6031403032
 11
10.8399278198
 21
-41.7314149059
  0
LINE
  5
88F
100
AcDbEntity
  8
0
100
AcDbLine
 62
7
  6
CONTINUOUS
 10
6.6612188366
 20
-40.2600466216
 11
6.5669287942
 21
-40.3851905082
  0
LINE
  5
890
100
AcDbEntity
  8
0
100
AcDbLine
 62
7
  6
CONTINUOUS
 10
10.8399278198
 20
-41.7314149059
 11
10.7441971857
 21
-41.8563169449
  0
LINE
  5
891
100
AcDbEntity
  8
0
100
AcDbLine
 62
7
  6
CONTINUOUS
 10
-26.0524346989
 20
-63.4805547759
 11
-26.1088129101
 21
-63.549088854
  0
LINE
  5
892
100
AcDbEntity
  8
0
100
AcDbLine
 62
7
  6
CONTINUOUS
 10
-23.6577254831
 20
-65.7010723028
 11
-23.5183274466
 21
-65.5344647882
  0
LINE
  5
893
100
AcDbEntity
  8
0
100
AcDbLine
 62
7
  6
CONTINUOUS
 10
-10.871791295
 20
-46.1707649369
 11
-11.426322283
 21
-46.8226379125
  0
LINE
  5
894
100
AcDbEntity
  8
0
100
AcDbLine
 62
7
  6
CONTINUOUS
 10
-10.108817737
 20
-36.572656666
 11
-10.0088291926
 21
-36.4563602319
  0
LINE
  5
895
100
AcDbEntity
  8
0
100
AcDbLine
 62
7
  6
CONTINUOUS
 10
-6.0927587628
 20
-37.9161228851
 11
-5.9879514187
 21
-37.7959118717
  0
LINE
  5
896
100
AcDbEntity
  8
0
100
AcDbLine
 62
7
  6
CONTINUOUS
 10
-28.9293445575
 20
-61.1167946296
 11
-28.8697356164
 21
-61.0509576946
  0
LINE
  5
897
100
AcDbEntity
  8
0
100
AcDbLine
 62
7
  6
CONTINUOUS
 10
-10.0088291926
 20
-36.4563602319
 11
-9.9046218501
 21
-36.3437010424
  0
LINE
  5
898
100
AcDbEntity
  8
0
100
AcDbLine
 62
7
  6
CONTINUOUS
 10
18.3172817614
 20
6.8115508643
 11
18.7352629416
 21
7.2295229323
  0
LINE
  5
899
100
AcDbEntity
  8
0
100
AcDbLine
 62
7
  6
CONTINUOUS
 10
-8.8162394056
 20
-19.7850955107
 11
-8.8688482829
 21
-19.8376713694
  0
LINE
  5
89A
100
AcDbEntity
  8
0
100
AcDbLine
 62
7
  6
CONTINUOUS
 10
2.0167532994
 20
-1.2374723045
 11
1.9316234669
 21
-1.3222250376
  0
LINE
  5
89B
100
AcDbEntity
  8
0
100
AcDbLine
 62
7
  6
CONTINUOUS
 10
-1.5337875575
 20
2.3288322103
 11
-1.4447883683
 21
2.409418337
  0
LINE
  5
89C
100
AcDbEntity
  8
0
100
AcDbLine
 62
7
  6
CONTINUOUS
 10
1.9316234669
 20
-1.3222250376
 11
1.8426193301
 21
-1.4028081268
  0
LINE
  5
89D
100
AcDbEntity
  8
0
100
AcDbLine
 62
7
  6
CONTINUOUS
 10
-0.9173100866
 20
47.0348381492
 11
-0.8331908975
 21
47.0859669333
  0
LINE
  5
89E
100
AcDbEntity
  8
0
100
AcDbLine
 62
7
  6
CONTINUOUS
 10
1.3150629166
 20
43.542708468
 11
1.2309351429
 21
43.4915773502
  0
LINE
  5
89F
100
AcDbEntity
  8
0
100
AcDbLine
 62
7
  6
CONTINUOUS
 10
-16.8528023178
 20
37.7496444398
 11
-17.2820089361
 21
37.5043683116
  0
LINE
  5
8A0
100
AcDbEntity
  8
0
100
AcDbLine
 62
7
  6
CONTINUOUS
 10
-3.016129849
 20
50.7664737913
 11
-2.8124995443
 21
50.8812533707
  0
LINE
  5
8A1
100
AcDbEntity
  8
0
100
AcDbLine
 62
7
  6
CONTINUOUS
 10
-0.8331908975
 20
47.0859669333
 11
-0.7468593782
 21
47.1329793201
  0
LINE
  5
8A2
100
AcDbEntity
  8
0
100
AcDbLine
 62
7
  6
CONTINUOUS
 10
-2.8124995443
 20
50.8812533707
 11
-2.6049768831
 21
50.9883539003
  0
LINE
  5
8A3
100
AcDbEntity
  8
0
100
AcDbLine
 62
7
  6
CONTINUOUS
 10
28.4622954903
 20
90.2512234974
 11
28.379787975
 21
90.2205587186
  0
LINE
  5
8A4
100
AcDbEntity
  8
0
100
AcDbLine
 62
7
  6
CONTINUOUS
 10
6.3701496613
 20
83.9094161104
 11
6.2347070378
 21
83.8662611283
  0
LINE
  5
8A5
100
AcDbEntity
  8
0
100
AcDbLine
 62
7
  6
CONTINUOUS
 10
27.1655492229
 20
93.7426115661
 11
27.249387135
 21
93.7693011641
  0
LINE
  5
8A6
100
AcDbEntity
  8
0
100
AcDbLine
 62
7
  6
CONTINUOUS
 10
28.379787975
 20
90.2205587186
 11
28.2959517268
 21
90.193868937
  0
LINE
  5
8A7
100
AcDbEntity
  8
0
100
AcDbLine
 62
7
  6
CONTINUOUS
 10
4.4071697358
 20
89.6031097089
 11
4.5427884938
 21
89.6462448996
  0
LINE
  5
8A8
100
AcDbEntity
  8
0
100
AcDbLine
 62
7
  6
CONTINUOUS
 10
0.7809250158
 20
43.299402581
 11
0.6863218901
 21
43.2741664417
  0
LINE
  5
8A9
100
AcDbEntity
  8
0
100
AcDbLine
 62
7
  6
CONTINUOUS
 10
-17.5447376524
 20
37.4117904496
 11
-17.8425892178
 21
37.3424886194
  0
LINE
  5
8AA
100
AcDbEntity
  8
0
100
AcDbLine
 62
7
  6
CONTINUOUS
 10
-7.9847644675
 20
40.7355645187
 11
-7.7043759661
 21
40.7967488243
  0
LINE
  5
8AB
100
AcDbEntity
  8
0
100
AcDbLine
 62
7
  6
CONTINUOUS
 10
0.6863218901
 20
43.2741664417
 11
0.5905708147
 21
43.2534491795
  0
LINE
  5
8AC
100
AcDbEntity
  8
0
100
AcDbLine
 62
7
  6
CONTINUOUS
 10
-0.288618178
 20
47.3033685956
 11
-0.1928706186
 21
47.324085279
  0
LINE
  5
8AD
100
AcDbEntity
  8
0
100
AcDbLine
 62
7
  6
CONTINUOUS
 10
-41.120991845
 20
78.1973399268
 11
-38.2303740207
 21
78.1973399268
  0
LINE
  5
8AE
100
AcDbEntity
  8
0
100
AcDbLine
 62
7
  6
CONTINUOUS
 10
39.0937417162
 20
78.1973399268
 11
41.9843595405
 21
78.1973399268
  0
LINE
  5
8AF
100
AcDbEntity
  8
0
100
AcDbLine
 62
7
  6
CONTINUOUS
 10
-41.120991845
 20
82.1997339382
 11
-38.2303740207
 21
82.1997339382
  0
LINE
  5
8B0
100
AcDbEntity
  8
0
100
AcDbLine
 62
7
  6
CONTINUOUS
 10
39.0937417162
 20
82.1997339382
 11
41.9843595405
 21
82.1997339382
  0
LINE
  5
8B1
100
AcDbEntity
  8
0
100
AcDbLine
 62
7
  6
CONTINUOUS
 10
-9.546550997
 20
83.4226876636
 11
10.354257848
 21
83.4226876636
  0
LINE
  5
8B2
100
AcDbEntity
  8
0
100
AcDbLine
 62
7
  6
CONTINUOUS
 10
5.3895104322
 20
83.7457253318
 11
5.2454440003
 21
83.7491060671
  0
LINE
  5
8B3
100
AcDbEntity
  8
0
100
AcDbLine
 62
7
  6
CONTINUOUS
 10
-27.6080857281
 20
90.1214067277
 11
-27.6965315245
 21
90.1276651932
  0
LINE
  5
8B4
100
AcDbEntity
  8
0
100
AcDbLine
 62
7
  6
CONTINUOUS
 10
5.5332826334
 20
89.7633682548
 11
5.6761315549
 21
89.7532506192
  0
LINE
  5
8B5
100
AcDbEntity
  8
0
100
AcDbLine
 62
7
  6
CONTINUOUS
 10
-27.4300420696
 20
93.8417630764
 11
-27.3415987626
 21
93.8355046049
  0
LINE
  5
8B6
100
AcDbEntity
  8
0
100
AcDbLine
 62
7
  6
CONTINUOUS
 10
27.6836532902
 20
90.1214067277
 11
27.5952073844
 21
90.1276651927
  0
LINE
  5
8B7
100
AcDbEntity
  8
0
100
AcDbLine
 62
7
  6
CONTINUOUS
 10
27.8616969487
 20
93.8417630764
 11
27.9501401468
 21
93.8355046044
  0
LINE
  5
8B8
100
AcDbEntity
  8
0
100
AcDbLine
 62
7
  6
CONTINUOUS
 10
27.5952073844
 20
90.1276651927
 11
27.5074416783
 21
90.1380673116
  0
LINE
  5
8B9
100
AcDbEntity
  8
0
100
AcDbLine
 62
7
  6
CONTINUOUS
 10
27.9501401468
 20
93.8355046044
 11
28.037903367
 21
93.8251024628
  0
LINE
  5
8BA
100
AcDbEntity
  8
0
100
AcDbLine
 62
7
  6
CONTINUOUS
 10
43.9028260293
 20
-75.270871864
 11
44.8357596483
 21
-73.2535261083
  0
LINE
  5
8BB
100
AcDbEntity
  8
0
100
AcDbLine
 62
7
  6
CONTINUOUS
 10
36.2568743569
 20
-72.6548871752
 11
37.0913686889
 21
-71.07110311
  0
LINE
  5
8BC
100
AcDbEntity
  8
0
100
AcDbLine
 62
7
  6
CONTINUOUS
 10
33.4548979927
 20
-70.903515593
 11
33.9175843226
 21
-70.0454127237
  0
LINE
  5
8BD
100
AcDbEntity
  8
0
100
AcDbLine
 62
7
  6
CONTINUOUS
 10
34.8308905785
 20
-72.1501529519
 11
35.6474287889
 21
-70.6508088391
  0
LINE
  5
8BE
100
AcDbEntity
  8
0
100
AcDbLine
 62
7
  6
CONTINUOUS
 10
32.0172252729
 20
-69.9312499723
 11
32.2032590668
 21
-69.5923543698
  0
LINE
  5
8BF
100
AcDbEntity
  8
0
100
AcDbLine
 62
7
  6
CONTINUOUS
 10
31.8229496268
 20
-70.2648682296
 11
32.0172252729
 21
-69.9312499723
  0
LINE
  5
8C0
100
AcDbEntity
  8
0
100
AcDbLine
 62
7
  6
CONTINUOUS
 10
32.1473596489
 20
-65.003012553
 11
32.2563174945
 21
-64.8161637815
  0
LINE
  5
8C1
100
AcDbEntity
  8
0
100
AcDbLine
 62
7
  6
CONTINUOUS
 10
26.1575540178
 20
-61.4053545023
 11
26.2034785784
 21
-61.329785929
  0
LINE
  5
8C2
100
AcDbEntity
  8
0
100
AcDbLine
 62
7
  6
CONTINUOUS
 10
29.3877641677
 20
-63.2605276773
 11
29.3418395381
 21
-63.3360966792
  0
LINE
  5
8C3
100
AcDbEntity
  8
0
100
AcDbLine
 62
7
  6
CONTINUOUS
 10
12.6406936657
 20
-65.0164086256
 11
13.1161322154
 21
-64.3092817835
  0
LINE
  5
8C4
100
AcDbEntity
  8
0
100
AcDbLine
 62
7
  6
CONTINUOUS
 10
10.7441971857
 20
-41.8563169449
 11
10.6438090473
 21
-41.9776494703
  0
LINE
  5
8C5
100
AcDbEntity
  8
0
100
AcDbLine
 62
7
  6
CONTINUOUS
 10
6.5669287942
 20
-40.3851905082
 11
6.4621143216
 21
-40.5053972986
  0
LINE
  5
8C6
100
AcDbEntity
  8
0
100
AcDbLine
 62
7
  6
CONTINUOUS
 10
-26.1088129101
 20
-63.549088854
 11
-26.1684218482
 21
-63.6149261096
  0
LINE
  5
8C7
100
AcDbEntity
  8
0
100
AcDbLine
 62
7
  6
CONTINUOUS
 10
-23.804114608
 20
-65.8617654056
 11
-23.6577254831
 21
-65.7010723028
  0
LINE
  5
8C8
100
AcDbEntity
  8
0
100
AcDbLine
 62
7
  6
CONTINUOUS
 10
-10.2807375693
 20
-45.5502164088
 11
-10.871791295
 21
-46.1707649369
  0
LINE
  5
8C9
100
AcDbEntity
  8
0
100
AcDbLine
 62
7
  6
CONTINUOUS
 10
-28.8697356164
 20
-61.0509576946
 11
-28.8640289447
 21
-61.0449738824
  0
LINE
  5
8CA
100
AcDbEntity
  8
0
100
AcDbLine
 62
7
  6
CONTINUOUS
 10
-26.1684218482
 20
-63.6149261096
 11
-26.1741192338
 21
-63.6209002581
  0
LINE
  5
8CB
100
AcDbEntity
  8
0
100
AcDbLine
 62
7
  6
CONTINUOUS
 10
-9.9046218501
 20
-36.3437010424
 11
-9.805218697
 21
-36.243476407
  0
LINE
  5
8CC
100
AcDbEntity
  8
0
100
AcDbLine
 62
7
  6
CONTINUOUS
 10
9.3393968488
 20
-7.3800524317
 11
9.1418375957
 21
-7.5774820288
  0
LINE
  5
8CD
100
AcDbEntity
  8
0
100
AcDbLine
 62
7
  6
CONTINUOUS
 10
-1.4447883683
 20
2.409418337
 11
-1.3521449725
 21
2.4856368275
  0
LINE
  5
8CE
100
AcDbEntity
  8
0
100
AcDbLine
 62
7
  6
CONTINUOUS
 10
1.8426193301
 20
-1.4028081268
 11
1.7499705379
 21
-1.4790239751
  0
LINE
  5
8CF
100
AcDbEntity
  8
0
100
AcDbLine
 62
7
  6
CONTINUOUS
 10
-18.4418059177
 20
-1.4424182489
 11
-19.1229294133
 21
-1.9727290017
  0
LINE
  5
8D0
100
AcDbEntity
  8
0
100
AcDbLine
 62
7
  6
CONTINUOUS
 10
-8.5078365599
 20
40.4953211824
 11
-8.2541254095
 21
40.6346060355
  0
LINE
  5
8D1
100
AcDbEntity
  8
0
100
AcDbLine
 62
7
  6
CONTINUOUS
 10
1.2309351429
 20
43.4915773502
 11
1.1445953046
 21
43.4445627851
  0
LINE
  5
8D2
100
AcDbEntity
  8
0
100
AcDbLine
 62
7
  6
CONTINUOUS
 10
-0.7468593782
 20
47.1329793201
 11
-0.6585101783
 21
47.1757791987
  0
LINE
  5
8D3
100
AcDbEntity
  8
0
100
AcDbLine
 62
7
  6
CONTINUOUS
 10
-10.7171479902
 20
47.065115651
 11
-10.9338471906
 21
46.9724021332
  0
LINE
  5
8D4
100
AcDbEntity
  8
0
100
AcDbLine
 62
7
  6
CONTINUOUS
 10
-10.9338471906
 20
46.9724021332
 11
-11.1805928447
 21
46.9033119889
  0
LINE
  5
8D5
100
AcDbEntity
  8
0
100
AcDbLine
 62
7
  6
CONTINUOUS
 10
-0.3832166198
 20
47.2781333004
 11
-0.288618178
 21
47.3033685956
  0
LINE
  5
8D6
100
AcDbEntity
  8
0
100
AcDbLine
 62
7
  6
CONTINUOUS
 10
5.6761134653
 20
83.7592237007
 11
5.5332732036
 21
83.7491060671
  0
LINE
  5
8D7
100
AcDbEntity
  8
0
100
AcDbLine
 62
7
  6
CONTINUOUS
 10
5.5332732036
 20
83.7491060671
 11
5.3895104322
 21
83.7457253318
  0
LINE
  5
8D8
100
AcDbEntity
  8
0
100
AcDbLine
 62
7
  6
CONTINUOUS
 10
27.8616969487
 20
90.1214067277
 11
27.7726765861
 21
90.1193154394
  0
LINE
  5
8D9
100
AcDbEntity
  8
0
100
AcDbLine
 62
7
  6
CONTINUOUS
 10
5.2454345509
 20
89.7633682548
 11
5.3895104322
 21
89.7667489982
  0
LINE
  5
8DA
100
AcDbEntity
  8
0
100
AcDbLine
 62
7
  6
CONTINUOUS
 10
-27.4300420696
 20
90.1214067277
 11
-27.5190625508
 21
90.1193154394
  0
LINE
  5
8DB
100
AcDbEntity
  8
0
100
AcDbLine
 62
7
  6
CONTINUOUS
 10
10.1319026252
 20
90.4268771839
 11
-9.8800674318
 21
90.4268771839
  0
LINE
  5
8DC
100
AcDbEntity
  8
0
100
AcDbLine
 62
7
  6
CONTINUOUS
 10
-27.5190625508
 20
90.1193154394
 11
-27.6080857281
 21
90.1214067277
  0
LINE
  5
8DD
100
AcDbEntity
  8
0
100
AcDbLine
 62
7
  6
CONTINUOUS
 10
5.3895104322
 20
89.7667489982
 11
5.5332826334
 21
89.7633682548
  0
LINE
  5
8DE
100
AcDbEntity
  8
0
100
AcDbLine
 62
7
  6
CONTINUOUS
 10
27.7726765861
 20
90.1193154394
 11
27.6836532902
 21
90.1214067277
  0
LINE
  5
8DF
100
AcDbEntity
  8
0
100
AcDbLine
 62
7
  6
CONTINUOUS
 10
-27.5190625508
 20
93.8438543647
 11
-27.4300420696
 21
93.8417630764
  0
LINE
  5
8E0
100
AcDbEntity
  8
0
100
AcDbLine
 62
7
  6
CONTINUOUS
 10
27.7726765861
 20
93.8438543647
 11
27.8616969487
 21
93.8417630764
  0
LINE
  5
8E1
100
AcDbEntity
  8
0
100
AcDbLine
 62
7
  6
CONTINUOUS
 10
35.3201825138
 20
100.8002342243
 11
34.4867194995
 21
100.877572658
  0
LINE
  5
8E2
100
AcDbEntity
  8
0
100
AcDbLine
 62
7
  6
CONTINUOUS
 10
34.73695344
 20
99.3253995547
 11
34.0107014506
 21
99.4009560943
  0
LINE
  5
8E3
100
AcDbEntity
  8
0
100
AcDbLine
 62
7
  6
CONTINUOUS
 10
42.8112211723
 20
-77.2128885829
 11
43.9028260293
 21
-75.270871864
  0
LINE
  5
8E4
100
AcDbEntity
  8
0
100
AcDbLine
 62
7
  6
CONTINUOUS
 10
38.720183107
 20
-74.787662737
 11
39.6382760713
 21
-73.1653626987
  0
LINE
  5
8E5
100
AcDbEntity
  8
0
100
AcDbLine
 62
7
  6
CONTINUOUS
 10
41.0671289896
 20
-76.3726607698
 11
42.111115731
 21
-74.5450790932
  0
LINE
  5
8E6
100
AcDbEntity
  8
0
100
AcDbLine
 62
7
  6
CONTINUOUS
 10
32.9429191816
 20
-71.7350925558
 11
33.4548979927
 21
-70.903515593
  0
LINE
  5
8E7
100
AcDbEntity
  8
0
100
AcDbLine
 62
7
  6
CONTINUOUS
 10
31.6205690876
 20
-70.5930721829
 11
31.8229496268
 21
-70.2648682296
  0
LINE
  5
8E8
100
AcDbEntity
  8
0
100
AcDbLine
 62
7
  6
CONTINUOUS
 10
32.0304739726
 20
-65.1853090947
 11
32.1473596489
 21
-65.003012553
  0
LINE
  5
8E9
100
AcDbEntity
  8
0
100
AcDbLine
 62
7
  6
CONTINUOUS
 10
31.4102206137
 20
-70.9157248734
 11
31.6205690876
 21
-70.5930721829
  0
LINE
  5
8EA
100
AcDbEntity
  8
0
100
AcDbLine
 62
7
  6
CONTINUOUS
 10
26.2034785784
 20
-61.329785929
 11
26.2530024486
 21
-61.2563846141
  0
LINE
  5
8EB
100
AcDbEntity
  8
0
100
AcDbLine
 62
7
  6
CONTINUOUS
 10
29.3418395381
 20
-63.3360966792
 11
29.2923156032
 21
-63.4094984202
  0
LWPOLYLINE
  5
8EC
100
AcDbEntity
  8
0
100
AcDbPolyline
 62
7
  6
CONTINUOUS
 90
13
 70
0
 43
0.3500000006
 10
63.1453061371
 20
-0.8158688736
 10
62.9310216522
 20
-1.1015822754
 10
62.2881636658
 20
-1.1015822754
 10
61.859594696
 20
-0.8158688736
 10
61.859594696
 20
-0.1730108871
 10
62.2881636658
 20
0.1127025146
 10
62.9310216522
 20
0.1127025146
 10
63.1453061371
 20
-0.1730108871
 10
63.5738796387
 20
0.2555603485
 10
64.43102211
 20
0.2555603485
 10
64.8595956116
 20
-0.1730108871
 10
64.8595956116
 20
-0.8158688736
 10
64.43102211
 20
-1.2444401093
  0
LINE
  5
8ED
100
AcDbEntity
  8
0
100
AcDbLine
 62
7
  6
CONTINUOUS
 10
12.125436276
 20
-65.6966399072
 11
12.6406936657
 21
-65.0164086256
  0
LINE
  5
8EE
100
AcDbEntity
  8
0
100
AcDbLine
 62
7
  6
CONTINUOUS
 10
10.6438090473
 20
-41.9776494703
 11
10.5389160487
 21
-42.0952184423
  0
LINE
  5
8EF
100
AcDbEntity
  8
0
100
AcDbLine
 62
7
  6
CONTINUOUS
 10
-23.9572097197
 20
-66.0162161926
 11
-23.804114608
 21
-65.8617654056
  0
LINE
  5
8F0
100
AcDbEntity
  8
0
100
AcDbLine
 62
7
  6
CONTINUOUS
 10
-5.9879514187
 20
-37.7959118717
 11
-5.8729677366
 21
-37.6813607668
  0
LINE
  5
8F1
100
AcDbEntity
  8
0
100
AcDbLine
 62
7
  6
CONTINUOUS
 10
-28.8640289447
 20
-61.0449738824
 11
-28.8010580088
 21
-60.9822805076
  0
LINE
  5
8F2
100
AcDbEntity
  8
0
100
AcDbLine
 62
7
  6
CONTINUOUS
 10
-26.1741192338
 20
-63.6209002581
 11
-26.2370896765
 21
-63.683594361
  0
LINE
  5
8F3
100
AcDbEntity
  8
0
100
AcDbLine
 62
7
  6
CONTINUOUS
 10
-10.0718094358
 20
-45.3467684464
 11
-10.2807375693
 21
-45.5502164088
  0
LINE
  5
8F4
100
AcDbEntity
  8
0
100
AcDbLine
 62
7
  6
CONTINUOUS
 10
-9.805218697
 20
-36.243476407
 11
-9.6933725438
 21
-36.1382993627
  0
LINE
  5
8F5
100
AcDbEntity
  8
0
100
AcDbLine
 62
7
  6
CONTINUOUS
 10
-8.5753807611
 20
-19.5861705057
 11
-8.8162394056
 21
-19.7850955107
  0
LINE
  5
8F6
100
AcDbEntity
  8
0
100
AcDbLine
 62
7
  6
CONTINUOUS
 10
18.7352629416
 20
7.2295229323
 11
19.4164033433
 21
7.7598235556
  0
LINE
  5
8F7
100
AcDbEntity
  8
0
100
AcDbLine
 62
7
  6
CONTINUOUS
 10
-1.3521449725
 20
2.4856368275
 11
-1.2560935207
 21
2.5573050965
  0
LINE
  5
8F8
100
AcDbEntity
  8
0
100
AcDbLine
 62
7
  6
CONTINUOUS
 10
1.7499705379
 20
-1.4790239751
 11
1.65391324
 21
-1.5506899664
  0
LINE
  5
8F9
100
AcDbEntity
  8
0
100
AcDbLine
 62
7
  6
CONTINUOUS
 10
-1.2560935207
 20
2.5573050965
 11
-1.1568739422
 21
2.6242566781
  0
LINE
  5
8FA
100
AcDbEntity
  8
0
100
AcDbLine
 62
7
  6
CONTINUOUS
 10
1.1445953046
 20
43.4445627851
 11
1.0562382053
 21
43.401760943
  0
LINE
  5
8FB
100
AcDbEntity
  8
0
100
AcDbLine
 62
7
  6
CONTINUOUS
 10
-0.6585101783
 20
47.1757791987
 11
-0.5683328109
 21
47.2142835522
  0
LINE
  5
8FC
100
AcDbEntity
  8
0
100
AcDbLine
 62
7
  6
CONTINUOUS
 10
1.0562382053
 20
43.401760943
 11
0.9660535133
 21
43.3632548826
  0
LINE
  5
8FD
100
AcDbEntity
  8
0
100
AcDbLine
 62
7
  6
CONTINUOUS
 10
5.8178649282
 20
83.7760406938
 11
5.6761134653
 21
83.7592237007
  0
LINE
  5
8FE
100
AcDbEntity
  8
0
100
AcDbLine
 62
7
  6
CONTINUOUS
 10
28.037903367
 20
90.1380673414
 11
27.9501401468
 21
90.1276651998
  0
LINE
  5
8FF
100
AcDbEntity
  8
0
100
AcDbLine
 62
7
  6
CONTINUOUS
 10
27.9501401468
 20
90.1276651998
 11
27.8616969487
 21
90.1214067277
  0
LINE
  5
900
100
AcDbEntity
  8
0
100
AcDbLine
 62
7
  6
CONTINUOUS
 10
27.5952073844
 20
93.8355046114
 11
27.6836532902
 21
93.8417630764
  0
LINE
  5
901
100
AcDbEntity
  8
0
100
AcDbLine
 62
7
  6
CONTINUOUS
 10
-27.3415987626
 20
90.1276651993
 11
-27.4300420696
 21
90.1214067277
  0
LINE
  5
902
100
AcDbEntity
  8
0
100
AcDbLine
 62
7
  6
CONTINUOUS
 10
-27.6965315245
 20
93.8355046109
 11
-27.6080857281
 21
93.8417630764
  0
LINE
  5
903
100
AcDbEntity
  8
0
100
AcDbLine
 62
7
  6
CONTINUOUS
 10
5.1023052722
 20
89.753251308
 11
5.2454345509
 21
89.7633682548
  0
LINE
  5
904
100
AcDbEntity
  8
0
100
AcDbLine
 62
7
  6
CONTINUOUS
 10
27.6836532902
 20
93.8417630764
 11
27.7726765861
 21
93.8438543647
  0
LINE
  5
905
100
AcDbEntity
  8
0
100
AcDbLine
 62
7
  6
CONTINUOUS
 10
-27.6080857281
 20
93.8417630764
 11
-27.5190625508
 21
93.8438543647
  0
LINE
  5
906
100
AcDbEntity
  8
0
100
AcDbLine
 62
7
  6
CONTINUOUS
 10
-32.7269934521
 20
96.2081129782
 11
32.9789732425
 21
96.2081129782
  0
LINE
  5
907
100
AcDbEntity
  8
0
100
AcDbLine
 62
7
  6
CONTINUOUS
 10
-44.2252485618
 20
97.337321742
 11
-38.3415359573
 21
97.337321742
  0
LINE
  5
908
100
AcDbEntity
  8
0
100
AcDbLine
 62
7
  6
CONTINUOUS
 10
39.0467802943
 20
97.337321742
 11
44.9304772271
 21
97.337321742
  0
LINE
  5
909
100
AcDbEntity
  8
0
100
AcDbLine
 62
7
  6
CONTINUOUS
 10
34.0107014506
 20
99.4009560943
 11
-33.3141891095
 21
99.4009560943
  0
LINE
  5
90A
100
AcDbEntity
  8
0
100
AcDbLine
 62
7
  6
CONTINUOUS
 10
-21.5919617301
 20
99.4045137776
 11
-23.0529405443
 21
99.4045137776
  0
LINE
  5
90B
100
AcDbEntity
  8
0
100
AcDbLine
 62
7
  6
CONTINUOUS
 10
-23.0529405443
 20
100.8654765338
 11
-21.5919617301
 21
100.8654765338
  0
LINE
  5
90C
100
AcDbEntity
  8
0
100
AcDbLine
 62
7
  6
CONTINUOUS
 10
34.4867194995
 20
100.877572658
 11
-33.7902071589
 21
100.877572658
  0
LINE
  5
90D
100
AcDbEntity
  8
0
100
AcDbLine
 62
7
  6
CONTINUOUS
 10
-45.9016135345
 20
103.1011248865
 11
46.89344691
 21
103.1011248865
  0
LINE
  5
90E
100
AcDbEntity
  8
0
100
AcDbLine
 62
7
  6
CONTINUOUS
 10
35.2832181948
 20
-74.1632332668
 11
36.2568743569
 21
-72.6548871752
  0
LINE
  5
90F
100
AcDbEntity
  8
0
100
AcDbLine
 62
7
  6
CONTINUOUS
 10
33.8789866506
 20
-73.5735244399
 11
34.8308905785
 21
-72.1501529519
  0
LINE
  5
910
100
AcDbEntity
  8
0
100
AcDbLine
 62
7
  6
CONTINUOUS
 10
37.6738793236
 20
-76.3360221385
 11
38.720183107
 21
-74.787662737
  0
LINE
  5
911
100
AcDbEntity
  8
0
100
AcDbLine
 62
7
  6
CONTINUOUS
 10
31.1920411638
 20
-71.2326893424
 11
31.4102206137
 21
-70.9157248734
  0
LINE
  5
912
100
AcDbEntity
  8
0
100
AcDbLine
 62
7
  6
CONTINUOUS
 10
32.3832401094
 20
-72.5372947904
 11
32.9429191816
 21
-71.7350925558
  0
LINE
  5
913
100
AcDbEntity
  8
0
100
AcDbLine
 62
7
  6
CONTINUOUS
 10
31.9058635968
 20
-65.3627095676
 11
32.0304739726
 21
-65.1853090947
  0
LINE
  5
914
100
AcDbEntity
  8
0
100
AcDbLine
 62
7
  6
CONTINUOUS
 10
30.9661676978
 20
-71.54382863
 11
31.1920411638
 21
-71.2326893424
  0
LINE
  5
915
100
AcDbEntity
  8
0
100
AcDbLine
 62
7
  6
CONTINUOUS
 10
26.2530024486
 20
-61.2563846141
 11
26.306014979
 21
-61.185328511
  0
LINE
  5
916
100
AcDbEntity
  8
0
100
AcDbLine
 62
7
  6
CONTINUOUS
 10
29.2923156032
 20
-63.4094984202
 11
29.239303021
 21
-63.4805549343
  0
LINE
  5
917
100
AcDbEntity
  8
0
100
AcDbLine
 62
7
  6
CONTINUOUS
 10
31.7737531158
 20
-65.5348697352
 11
31.9058635968
 21
-65.3627095676
  0
LINE
  5
918
100
AcDbEntity
  8
0
100
AcDbLine
 62
7
  6
CONTINUOUS
 10
26.306014979
 20
-61.185328511
 11
26.3623931614
 21
-61.1167948035
  0
LINE
  5
919
100
AcDbEntity
  8
0
100
AcDbLine
 62
7
  6
CONTINUOUS
 10
11.5720420395
 20
-66.3475771485
 11
12.125436276
 21
-65.6966399072
  0
LINE
  5
91A
100
AcDbEntity
  8
0
100
AcDbLine
 62
7
  6
CONTINUOUS
 10
10.5389160487
 20
-42.0952184423
 11
10.4296806767
 21
-42.2088341457
  0
LINE
  5
91B
100
AcDbEntity
  8
0
100
AcDbLine
 62
7
  6
CONTINUOUS
 10
6.4621143216
 20
-40.5053972986
 11
6.3471225213
 21
-40.619945075
  0
LINE
  5
91C
100
AcDbEntity
  8
0
100
AcDbLine
 62
7
  6
CONTINUOUS
 10
10.4296806767
 20
-42.2088341457
 11
10.3237885248
 21
-42.3113075412
  0
LINE
  5
91D
100
AcDbEntity
  8
0
100
AcDbLine
 62
7
  6
CONTINUOUS
 10
-23.9901125661
 20
-66.0477603307
 11
-23.9572097197
 21
-66.0162161926
  0
LINE
  5
91E
100
AcDbEntity
  8
0
100
AcDbLine
 62
7
  6
CONTINUOUS
 10
-24.1508157093
 20
-66.1941538652
 11
-23.9901125661
 21
-66.0477603307
  0
LINE
  5
91F
100
AcDbEntity
  8
0
100
AcDbLine
 62
7
  6
CONTINUOUS
 10
-28.8010580088
 20
-60.9822805076
 11
-28.7352206498
 21
-60.9226719134
  0
LINE
  5
920
100
AcDbEntity
  8
0
100
AcDbLine
 62
7
  6
CONTINUOUS
 10
-26.2370896765
 20
-63.683594361
 11
-26.3029265056
 21
-63.7432036475
  0
LINE
  5
921
100
AcDbEntity
  8
0
100
AcDbLine
 62
7
  6
CONTINUOUS
 10
-9.4353569862
 20
-44.7720357958
 11
-10.0718094358
 21
-45.3467684464
  0
LINE
  5
922
100
AcDbEntity
  8
0
100
AcDbLine
 62
7
  6
CONTINUOUS
 10
-9.6933725438
 20
-36.1382993627
 11
-9.5778194043
 21
-36.0372812724
  0
LINE
  5
923
100
AcDbEntity
  8
0
100
AcDbLine
 62
7
  6
CONTINUOUS
 10
-5.8729677366
 20
-37.6813607668
 11
-5.7482523082
 21
-37.5732107119
  0
LINE
  5
924
100
AcDbEntity
  8
0
100
AcDbLine
 62
7
  6
CONTINUOUS
 10
-9.5778194043
 20
-36.0372812724
 11
-9.4587332842
 21
-35.9405683367
  0
LINE
  5
925
100
AcDbEntity
  8
0
100
AcDbLine
 62
7
  6
CONTINUOUS
 10
9.1418375957
 20
-7.5774820288
 11
8.9090241206
 21
-7.7527160471
  0
LINE
  5
926
100
AcDbEntity
  8
0
100
AcDbLine
 62
7
  6
CONTINUOUS
 10
1.65391324
 20
-1.5506899664
 11
1.554687362
 21
-1.6176396027
  0
LINE
  5
927
100
AcDbEntity
  8
0
100
AcDbLine
 62
7
  6
CONTINUOUS
 10
-1.1568739422
 20
2.6242566781
 11
-1.054727202
 21
2.6863418675
  0
LINE
  5
928
100
AcDbEntity
  8
0
100
AcDbLine
 62
7
  6
CONTINUOUS
 10
-19.1229294133
 20
-1.9727290017
 11
-19.8702747509
 21
-2.3950111739
  0
LINE
  5
929
100
AcDbEntity
  8
0
100
AcDbLine
 62
7
  6
CONTINUOUS
 10
-8.2541254095
 20
40.6346060355
 11
-7.9847644675
 21
40.7355645187
  0
LINE
  5
92A
100
AcDbEntity
  8
0
100
AcDbLine
 62
7
  6
CONTINUOUS
 10
-0.5683328109
 20
47.2142835522
 11
-0.4765100508
 21
47.2484215377
  0
LINE
  5
92B
100
AcDbEntity
  8
0
100
AcDbLine
 62
7
  6
CONTINUOUS
 10
0.9660535133
 20
43.3632548826
 11
0.8742241588
 21
43.3291154737
  0
LINE
  5
92C
100
AcDbEntity
  8
0
100
AcDbLine
 62
7
  6
CONTINUOUS
 10
-17.2820089361
 20
37.5043683116
 11
-17.5447376524
 21
37.4117904496
  0
LINE
  5
92D
100
AcDbEntity
  8
0
100
AcDbLine
 62
7
  6
CONTINUOUS
 10
-0.4765100508
 20
47.2484215377
 11
-0.3832166198
 21
47.2781333004
  0
LINE
  5
92E
100
AcDbEntity
  8
0
100
AcDbLine
 62
7
  6
CONTINUOUS
 10
6.0973644927
 20
83.8296077067
 11
5.9583470399
 21
83.7995169627
  0
LINE
  5
92F
100
AcDbEntity
  8
0
100
AcDbLine
 62
7
  6
CONTINUOUS
 10
28.2109344252
 20
90.1711993673
 11
28.1248750172
 21
90.1525880647
  0
LINE
  5
930
100
AcDbEntity
  8
0
100
AcDbLine
 62
7
  6
CONTINUOUS
 10
5.9583470399
 20
83.7995169627
 11
5.8178649282
 21
83.7760406938
  0
LINE
  5
931
100
AcDbEntity
  8
0
100
AcDbLine
 62
7
  6
CONTINUOUS
 10
28.1248750172
 20
90.1525880647
 11
28.037903367
 21
90.1380673414
  0
LINE
  5
932
100
AcDbEntity
  8
0
100
AcDbLine
 62
7
  6
CONTINUOUS
 10
27.4204677595
 20
93.8105818196
 11
27.5074416783
 21
93.8251024925
  0
LINE
  5
933
100
AcDbEntity
  8
0
100
AcDbLine
 62
7
  6
CONTINUOUS
 10
4.8195646686
 20
89.7129658163
 11
4.9602886071
 21
89.7364367765
  0
LINE
  5
934
100
AcDbEntity
  8
0
100
AcDbLine
 62
7
  6
CONTINUOUS
 10
27.5074416783
 20
93.8251024925
 11
27.5952073844
 21
93.8355046114
  0
LINE
  5
935
100
AcDbEntity
  8
0
100
AcDbLine
 62
7
  6
CONTINUOUS
 10
-27.2538354421
 20
90.1380673404
 11
-27.3415987626
 21
90.1276651993
  0
LINE
  5
936
100
AcDbEntity
  8
0
100
AcDbLine
 62
7
  6
CONTINUOUS
 10
-27.7842971307
 20
93.8251024915
 11
-27.6965315245
 21
93.8355046109
  0
LINE
  5
937
100
AcDbEntity
  8
0
100
AcDbLine
 62
7
  6
CONTINUOUS
 10
4.9602886071
 20
89.7364367765
 11
5.1023052722
 21
89.753251308
  0
LINE
  5
938
100
AcDbEntity
  8
0
100
AcDbLine
 62
7
  6
CONTINUOUS
 10
46.9889528861
 20
109.7717815725
 11
-46.2924405455
 21
109.7717815725
  0
LINE
  5
939
100
AcDbEntity
  8
0
100
AcDbLine
 62
7
  6
CONTINUOUS
 10
41.5669784079
 20
-79.0675045207
 11
42.8112211723
 21
-77.2128885829
  0
LINE
  5
93A
100
AcDbEntity
  8
0
100
AcDbLine
 62
7
  6
CONTINUOUS
 10
39.8776202962
 20
-78.1154822006
 11
41.0671289896
 21
-76.3726607698
  0
LINE
  5
93B
100
AcDbEntity
  8
0
100
AcDbLine
 62
7
  6
CONTINUOUS
 10
30.7327371738
 20
-71.8490057786
 11
30.9661676978
 21
-71.54382863
  0
LINE
  5
93C
100
AcDbEntity
  8
0
100
AcDbLine
 62
7
  6
CONTINUOUS
 10
34.1775233407
 20
-75.5837445062
 11
35.2832181948
 21
-74.1632332668
  0
LINE
  5
93D
100
AcDbEntity
  8
0
100
AcDbLine
 62
7
  6
CONTINUOUS
 10
31.7776951534
 20
-73.3072560679
 11
32.3832401094
 21
-72.5372947904
  0
LINE
  5
93E
100
AcDbEntity
  8
0
100
AcDbLine
 62
7
  6
CONTINUOUS
 10
30.4918865512
 20
-72.1480838284
 11
30.7327371738
 21
-71.8490057786
  0
LINE
  5
93F
100
AcDbEntity
  8
0
100
AcDbLine
 62
7
  6
CONTINUOUS
 10
29.239303021
 20
-63.4805549343
 11
29.1829248083
 21
-63.5490890274
  0
LINE
  5
940
100
AcDbEntity
  8
0
100
AcDbLine
 62
7
  6
CONTINUOUS
 10
31.634388176
 20
-65.7014480181
 11
31.7737531158
 21
-65.5348697352
  0
LINE
  5
941
100
AcDbEntity
  8
0
100
AcDbLine
 62
7
  6
CONTINUOUS
 10
26.3623931614
 20
-61.1167948035
 11
26.4220021025
 21
-61.0509578822
  0
LINE
  5
942
100
AcDbEntity
  8
0
100
AcDbLine
 62
7
  6
CONTINUOUS
 10
10.9823817909
 20
-66.9668722529
 11
11.5720420395
 21
-66.3475771485
  0
LINE
  5
943
100
AcDbEntity
  8
0
100
AcDbLine
 62
7
  6
CONTINUOUS
 10
10.3237885248
 20
-42.3113075412
 11
10.2067208244
 21
-42.4166926369
  0
LINE
  5
944
100
AcDbEntity
  8
0
100
AcDbLine
 62
7
  6
CONTINUOUS
 10
6.3471225213
 20
-40.619945075
 11
6.222398194
 21
-40.7280923641
  0
LINE
  5
945
100
AcDbEntity
  8
0
100
AcDbLine
 62
7
  6
CONTINUOUS
 10
-24.317437095
 20
-66.3335591537
 11
-24.1508157093
 21
-66.1941538652
  0
LINE
  5
946
100
AcDbEntity
  8
0
100
AcDbLine
 62
7
  6
CONTINUOUS
 10
-28.7352206498
 20
-60.9226719134
 11
-28.6666864598
 21
-60.8662940386
  0
LINE
  5
947
100
AcDbEntity
  8
0
100
AcDbLine
 62
7
  6
CONTINUOUS
 10
-26.3029265056
 20
-63.7432036475
 11
-26.3714601132
 21
-63.7995821693
  0
LINE
  5
948
100
AcDbEntity
  8
0
100
AcDbLine
 62
7
  6
CONTINUOUS
 10
-5.7482523082
 20
-37.5732107119
 11
-5.6143471476
 21
-37.4722024775
  0
LINE
  5
949
100
AcDbEntity
  8
0
100
AcDbLine
 62
7
  6
CONTINUOUS
 10
-9.4587332842
 20
-35.9405683367
 11
-9.3362919034
 21
-35.8482981082
  0
LINE
  5
94A
100
AcDbEntity
  8
0
100
AcDbLine
 62
7
  6
CONTINUOUS
 10
1.554687362
 20
-1.6176396027
 11
1.4525338661
 21
-1.6797231502
  0
LINE
  5
94B
100
AcDbEntity
  8
0
100
AcDbLine
 62
7
  6
CONTINUOUS
 10
19.4164033433
 20
7.7598235556
 11
20.1637709369
 21
8.1820993577
  0
LINE
  5
94C
100
AcDbEntity
  8
0
100
AcDbLine
 62
7
  6
CONTINUOUS
 10
-1.054727202
 20
2.6863418675
 11
-0.9498926467
 21
2.7434278668
  0
LINE
  5
94D
100
AcDbEntity
  8
0
100
AcDbLine
 62
7
  6
CONTINUOUS
 10
0.8742241588
 20
43.3291154737
 11
0.7809250158
 21
43.299402581
  0
LINE
  5
94E
100
AcDbEntity
  8
0
100
AcDbLine
 62
7
  6
CONTINUOUS
 10
6.2347070378
 20
83.8662611283
 11
6.0973644927
 21
83.8296077067
  0
LINE
  5
94F
100
AcDbEntity
  8
0
100
AcDbLine
 62
7
  6
CONTINUOUS
 10
28.2959517268
 20
90.193868937
 11
28.2109344252
 21
90.1711993673
  0
LINE
  5
950
100
AcDbEntity
  8
0
100
AcDbLine
 62
7
  6
CONTINUOUS
 10
27.249387135
 20
93.7693011641
 11
27.3344062932
 21
93.7919706028
  0
LINE
  5
951
100
AcDbEntity
  8
0
100
AcDbLine
 62
7
  6
CONTINUOUS
 10
27.3344062932
 20
93.7919706028
 11
27.4204677595
 21
93.8105818196
  0
LINE
  5
952
100
AcDbEntity
  8
0
100
AcDbLine
 62
7
  6
CONTINUOUS
 10
4.6803281477
 20
89.6828842671
 11
4.8195646686
 21
89.7129658163
  0
LINE
  5
953
100
AcDbEntity
  8
0
100
AcDbLine
 62
7
  6
CONTINUOUS
 10
-27.1668637005
 20
90.1525880611
 11
-27.2538354421
 21
90.1380673404
  0
LINE
  5
954
100
AcDbEntity
  8
0
100
AcDbLine
 62
7
  6
CONTINUOUS
 10
-27.8712709588
 20
93.8105818161
 11
-27.7842971307
 21
93.8251024915
  0
LINE
  5
955
100
AcDbEntity
  8
0
100
AcDbLine
 62
7
  6
CONTINUOUS
 10
-33.3141891095
 20
99.4009560943
 11
-34.0404410994
 21
99.3253995547
  0
LINE
  5
956
100
AcDbEntity
  8
0
100
AcDbLine
 62
7
  6
CONTINUOUS
 10
-33.7902071589
 20
100.877572658
 11
-34.6236224052
 21
100.8002342243
  0
LINE
  5
957
100
AcDbEntity
  8
0
100
AcDbLine
 62
7
  6
CONTINUOUS
 10
40.1775439824
 20
-80.8223755688
 11
41.5669784079
 21
-79.0675045207
  0
LINE
  5
958
100
AcDbEntity
  8
0
100
AcDbLine
 62
7
  6
CONTINUOUS
 10
36.5057123713
 20
-77.7999957735
 11
37.6738793236
 21
-76.3360221385
  0
LINE
  5
959
100
AcDbEntity
  8
0
100
AcDbLine
 62
7
  6
CONTINUOUS
 10
38.5499490578
 20
-79.7615581501
 11
39.8776202962
 21
-78.1154822006
  0
LINE
  5
95A
100
AcDbEntity
  8
0
100
AcDbLine
 62
7
  6
CONTINUOUS
 10
32.7991782539
 20
-74.9084009804
 11
33.8789866506
 21
-73.5735244399
  0
LINE
  5
95B
100
AcDbEntity
  8
0
100
AcDbLine
 62
7
  6
CONTINUOUS
 10
30.2437527882
 20
-72.440925821
 11
30.4918865512
 21
-72.1480838284
  0
LINE
  5
95C
100
AcDbEntity
  8
0
100
AcDbLine
 62
7
  6
CONTINUOUS
 10
31.1283562099
 20
-74.0421391259
 11
31.7776951534
 21
-73.3072560679
  0
LINE
  5
95D
100
AcDbEntity
  8
0
100
AcDbLine
 62
7
  6
CONTINUOUS
 10
29.9884728446
 20
-72.7273947972
 11
30.2437527882
 21
-72.440925821
  0
LINE
  5
95E
100
AcDbEntity
  8
0
100
AcDbLine
 62
7
  6
CONTINUOUS
 10
29.1829248083
 20
-63.5490890274
 11
29.1233158707
 21
-63.6149262972
  0
LINE
  5
95F
100
AcDbEntity
  8
0
100
AcDbLine
 62
7
  6
CONTINUOUS
 10
31.488034557
 20
-65.8621086
 11
31.634388176
 21
-65.7014480181
  0
LINE
  5
960
100
AcDbEntity
  8
0
100
AcDbLine
 62
7
  6
CONTINUOUS
 10
26.4220021025
 20
-61.0509578822
 11
26.4277091806
 21
-61.0449736464
  0
LINE
  5
961
100
AcDbEntity
  8
0
100
AcDbLine
 62
7
  6
CONTINUOUS
 10
29.1233158707
 20
-63.6149262972
 11
29.1176188921
 21
-63.6209000222
  0
LINE
  5
962
100
AcDbEntity
  8
0
100
AcDbLine
 62
7
  6
CONTINUOUS
 10
26.4277091806
 20
-61.0449736464
 11
26.4906801382
 21
-60.9822803039
  0
LINE
  5
963
100
AcDbEntity
  8
0
100
AcDbLine
 62
7
  6
CONTINUOUS
 10
10.4413597159
 20
-67.4782501654
 11
10.9823817909
 21
-66.9668722529
  0
LINE
  5
964
100
AcDbEntity
  8
0
100
AcDbLine
 62
7
  6
CONTINUOUS
 10
10.2067208244
 20
-42.4166926369
 11
10.0858950524
 21
-42.5175671351
  0
LINE
  5
965
100
AcDbEntity
  8
0
100
AcDbLine
 62
7
  6
CONTINUOUS
 10
10.0858950524
 20
-42.5175671351
 11
9.9615057942
 21
-42.6137781936
  0
LINE
  5
966
100
AcDbEntity
  8
0
100
AcDbLine
 62
7
  6
CONTINUOUS
 10
-24.489639785
 20
-66.4657095164
 11
-24.317437095
 21
-66.3335591537
  0
LINE
  5
967
100
AcDbEntity
  8
0
100
AcDbLine
 62
7
  6
CONTINUOUS
 10
6.222398194
 20
-40.7280923641
 11
6.088483631
 21
-40.8290980828
  0
LINE
  5
968
100
AcDbEntity
  8
0
100
AcDbLine
 62
7
  6
CONTINUOUS
 10
-28.6666864598
 20
-60.8662940386
 11
-28.5956298288
 21
-60.813281779
  0
LINE
  5
969
100
AcDbEntity
  8
0
100
AcDbLine
 62
7
  6
CONTINUOUS
 10
-26.3714601132
 20
-63.7995821693
 11
-26.4425160958
 21
-63.8525950239
  0
LINE
  5
96A
100
AcDbEntity
  8
0
100
AcDbLine
 62
7
  6
CONTINUOUS
 10
-8.3088477833
 20
-19.4274268338
 11
-8.5753807611
 21
-19.5861705057
  0
LINE
  5
96B
100
AcDbEntity
  8
0
100
AcDbLine
 62
7
  6
CONTINUOUS
 10
8.9090241206
 20
-7.7527160471
 11
8.6552981845
 21
-7.8920126928
  0
LINE
  5
96C
100
AcDbEntity
  8
0
100
AcDbLine
 62
7
  6
CONTINUOUS
 10
1.4525338661
 20
-1.6797231502
 11
1.3476920935
 21
-1.7368077851
  0
LINE
  5
96D
100
AcDbEntity
  8
0
100
AcDbLine
 62
7
  6
CONTINUOUS
 10
-0.9498926467
 20
2.7434278668
 11
-0.8426055221
 21
2.7953984572
  0
LINE
  5
96E
100
AcDbEntity
  8
0
100
AcDbLine
 62
7
  6
CONTINUOUS
 10
1.3476920935
 20
-1.7368077851
 11
1.2403972854
 21
-1.7887772605
  0
LINE
  5
96F
100
AcDbEntity
  8
0
100
AcDbLine
 62
7
  6
CONTINUOUS
 10
-26.9957868332
 20
90.1938689254
 11
-27.0808042099
 21
90.1711993607
  0
LINE
  5
970
100
AcDbEntity
  8
0
100
AcDbLine
 62
7
  6
CONTINUOUS
 10
4.5427884938
 20
89.6462448996
 11
4.6803281477
 21
89.6828842671
  0
LINE
  5
971
100
AcDbEntity
  8
0
100
AcDbLine
 62
7
  6
CONTINUOUS
 10
-27.0808042099
 20
90.1711993607
 11
-27.1668637005
 21
90.1525880611
  0
LINE
  5
972
100
AcDbEntity
  8
0
100
AcDbLine
 62
7
  6
CONTINUOUS
 10
-27.9573323419
 20
93.7919705962
 11
-27.8712709588
 21
93.8105818161
  0
LINE
  5
973
100
AcDbEntity
  8
0
100
AcDbLine
 62
7
  6
CONTINUOUS
 10
32.9485156156
 20
-76.90403628
 11
34.1775233407
 21
-75.5837445062
  0
LINE
  5
974
100
AcDbEntity
  8
0
100
AcDbLine
 62
7
  6
CONTINUOUS
 10
29.7261836787
 20
-73.0073537978
 11
29.9884728446
 21
-72.7273947972
  0
LINE
  5
975
100
AcDbEntity
  8
0
100
AcDbLine
 62
7
  6
CONTINUOUS
 10
31.6005766754
 20
-76.1423633234
 11
32.7991782539
 21
-74.9084009804
  0
LINE
  5
976
100
AcDbEntity
  8
0
100
AcDbLine
 62
7
  6
CONTINUOUS
 10
30.5471670999
 20
-74.6337756944
 11
31.1283562099
 21
-74.0421391259
  0
LINE
  5
977
100
AcDbEntity
  8
0
100
AcDbLine
 62
7
  6
CONTINUOUS
 10
29.4570222497
 20
-73.2806658644
 11
29.7261836787
 21
-73.0073537978
  0
LINE
  5
978
100
AcDbEntity
  8
0
100
AcDbLine
 62
7
  6
CONTINUOUS
 10
31.334976766
 20
-66.016524479
 11
31.488034557
 21
-65.8621086
  0
LINE
  5
979
100
AcDbEntity
  8
0
100
AcDbLine
 62
7
  6
CONTINUOUS
 10
29.1176188921
 20
-63.6209000222
 11
29.0546484705
 21
-63.6835941573
  0
LINE
  5
97A
100
AcDbEntity
  8
0
100
AcDbLine
 62
7
  6
CONTINUOUS
 10
31.3019943669
 20
-66.0481442671
 11
31.334976766
 21
-66.016524479
  0
LINE
  5
97B
100
AcDbEntity
  8
0
100
AcDbLine
 62
7
  6
CONTINUOUS
 10
26.4906801382
 20
-60.9822803039
 11
26.5565175209
 21
-60.92267174
  0
LINE
  5
97C
100
AcDbEntity
  8
0
100
AcDbLine
 62
7
  6
CONTINUOUS
 10
9.7904151284
 20
-68.0316415665
 11
10.4413597159
 21
-67.4782501654
  0
LINE
  5
97D
100
AcDbEntity
  8
0
100
AcDbLine
 62
7
  6
CONTINUOUS
 10
9.9615057942
 20
-42.6137781936
 11
9.8337507106
 21
-42.7051834012
  0
LINE
  5
97E
100
AcDbEntity
  8
0
100
AcDbLine
 62
7
  6
CONTINUOUS
 10
-24.6670809686
 20
-66.5903584776
 11
-24.489639785
 21
-66.4657095164
  0
LINE
  5
97F
100
AcDbEntity
  8
0
100
AcDbLine
 62
7
  6
CONTINUOUS
 10
-26.4425160958
 20
-63.8525950239
 11
-26.5159172569
 21
-63.9021191952
  0
LINE
  5
980
100
AcDbEntity
  8
0
100
AcDbLine
 62
7
  6
CONTINUOUS
 10
-28.5956298288
 20
-60.813281779
 11
-28.522227938
 21
-60.7637581447
  0
LINE
  5
981
100
AcDbEntity
  8
0
100
AcDbLine
 62
7
  6
CONTINUOUS
 10
-5.6143471476
 20
-37.4722024775
 11
-5.4718851848
 21
-37.3790558798
  0
LINE
  5
982
100
AcDbEntity
  8
0
100
AcDbLine
 62
7
  6
CONTINUOUS
 10
-0.8426055221
 20
2.7953984572
 11
-0.7330947471
 21
2.842153231
  0
LINE
  5
983
100
AcDbEntity
  8
0
100
AcDbLine
 62
7
  6
CONTINUOUS
 10
1.2403972854
 20
-1.7887772605
 11
1.1308783513
 21
-1.8355311434
  0
LINE
  5
984
100
AcDbEntity
  8
0
100
AcDbLine
 62
7
  6
CONTINUOUS
 10
-19.8702747509
 20
-2.3950111739
 11
-20.667861994
 21
-2.7015875927
  0
LINE
  5
985
100
AcDbEntity
  8
0
100
AcDbLine
 62
7
  6
CONTINUOUS
 10
-28.0423514249
 20
93.769301152
 11
-27.9573323419
 21
93.7919705962
  0
LINE
  5
986
100
AcDbEntity
  8
0
100
AcDbLine
 62
7
  6
CONTINUOUS
 10
37.5839391056
 20
-80.8079522886
 11
38.5499490578
 21
-79.7615581501
  0
LINE
  5
987
100
AcDbEntity
  8
0
100
AcDbLine
 62
7
  6
CONTINUOUS
 10
38.7501415982
 20
-82.3668863896
 11
40.1775439824
 21
-80.8223755688
  0
LINE
  5
988
100
AcDbEntity
  8
0
100
AcDbLine
 62
7
  6
CONTINUOUS
 10
35.223232297
 20
-79.1692285712
 11
36.5057123713
 21
-77.7999957735
  0
LINE
  5
989
100
AcDbEntity
  8
0
100
AcDbLine
 62
7
  6
CONTINUOUS
 10
29.181125517
 20
-73.5471940378
 11
29.4570222497
 21
-73.2806658644
  0
LINE
  5
98A
100
AcDbEntity
  8
0
100
AcDbLine
 62
7
  6
CONTINUOUS
 10
28.8986304382
 20
-73.8068013592
 11
29.181125517
 21
-73.5471940378
  0
LINE
  5
98B
100
AcDbEntity
  8
0
100
AcDbLine
 62
7
  6
CONTINUOUS
 10
29.8237901283
 20
-75.2962642078
 11
30.5471670999
 21
-74.6337756944
  0
LINE
  5
98C
100
AcDbEntity
  8
0
100
AcDbLine
 62
7
  6
CONTINUOUS
 10
31.1413289579
 20
-66.1944951656
 11
31.3019943669
 21
-66.0481442671
  0
LINE
  5
98D
100
AcDbEntity
  8
0
100
AcDbLine
 62
7
  6
CONTINUOUS
 10
29.0546484705
 20
-63.6835941573
 11
28.9888116651
 21
-63.7432034741
  0
LINE
  5
98E
100
AcDbEntity
  8
0
100
AcDbLine
 62
7
  6
CONTINUOUS
 10
26.5565175209
 20
-60.92267174
 11
26.6250517361
 21
-60.8662938939
  0
LINE
  5
98F
100
AcDbEntity
  8
0
100
AcDbLine
 62
7
  6
CONTINUOUS
 10
9.8337507106
 20
-42.7051834012
 11
9.7028291017
 21
-42.7916512389
  0
LINE
  5
990
100
AcDbEntity
  8
0
100
AcDbLine
 62
7
  6
CONTINUOUS
 10
6.088483631
 20
-40.8290980828
 11
5.9460120932
 21
-40.9222421341
  0
LINE
  5
991
100
AcDbEntity
  8
0
100
AcDbLine
 62
7
  6
CONTINUOUS
 10
-24.8494150861
 20
-66.7072807041
 11
-24.6670809686
 21
-66.5903584776
  0
LINE
  5
992
100
AcDbEntity
  8
0
100
AcDbLine
 62
7
  6
CONTINUOUS
 10
-28.522227938
 20
-60.7637581447
 11
-28.4466587384
 21
-60.7178337864
  0
LINE
  5
993
100
AcDbEntity
  8
0
100
AcDbLine
 62
7
  6
CONTINUOUS
 10
-5.4718851848
 20
-37.3790558798
 11
-5.3885784225
 21
-37.3305536398
  0
LWPOLYLINE
  5
994
100
AcDbEntity
  8
0
100
AcDbPolyline
 62
7
  6
CONTINUOUS
 90
10
 70
0
 43
0.3500000006
 10
64.359595459
 20
4.1127037354
 10
64.502448761
 20
4.1841326523
 10
64.5738799438
 20
4.1841326523
 10
64.7167377777
 20
4.0412748184
 10
64.7167377777
 20
3.9698459015
 10
64.6453065948
 20
3.8984169846
 10
64.5738799438
 20
3.8984169846
 10
64.43102211
 20
3.9698459015
 10
64.359595459
 20
4.0412748184
 10
64.359595459
 20
4.1127037354
  0
LINE
  5
995
100
AcDbEntity
  8
0
100
AcDbLine
 62
7
  6
CONTINUOUS
 10
20.1637709369
 20
8.1820993577
 11
20.961386787
 21
8.4886724717
  0
LINE
  5
996
100
AcDbEntity
  8
0
100
AcDbLine
 62
7
  6
CONTINUOUS
 10
-0.7330947471
 20
2.842153231
 11
-0.6215809941
 21
2.8836064501
  0
LINE
  5
997
100
AcDbEntity
  8
0
100
AcDbLine
 62
7
  6
CONTINUOUS
 10
1.1308783513
 20
-1.8355311434
 11
1.0193559571
 21
-1.8769836712
  0
LINE
  5
998
100
AcDbEntity
  8
0
100
AcDbLine
 62
7
  6
CONTINUOUS
 10
-0.6215809941
 20
2.8836064501
 11
-0.5082751216
 21
2.9196856009
  0
LINE
  5
999
100
AcDbEntity
  8
0
100
AcDbLine
 62
7
  6
CONTINUOUS
 10
36.0464665915
 20
-82.2650407309
 11
37.5839391056
 21
-80.8079522886
  0
LINE
  5
99A
100
AcDbEntity
  8
0
100
AcDbLine
 62
7
  6
CONTINUOUS
 10
37.1072709343
 20
-83.8926494993
 11
38.7501415982
 21
-82.3668863896
  0
LINE
  5
99B
100
AcDbEntity
  8
0
100
AcDbLine
 62
7
  6
CONTINUOUS
 10
34.0851977489
 20
-80.2204896208
 11
35.223232297
 21
-79.1692285712
  0
LINE
  5
99C
100
AcDbEntity
  8
0
100
AcDbLine
 62
7
  6
CONTINUOUS
 10
31.8686530923
 20
-77.8926148761
 11
32.9485156156
 21
-76.90403628
  0
LINE
  5
99D
100
AcDbEntity
  8
0
100
AcDbLine
 62
7
  6
CONTINUOUS
 10
31.1934527138
 20
-76.5141217388
 11
31.6005766754
 21
-76.1423633234
  0
LINE
  5
99E
100
AcDbEntity
  8
0
100
AcDbLine
 62
7
  6
CONTINUOUS
 10
28.6096739732
 20
-74.0593508693
 11
28.8986304382
 21
-73.8068013592
  0
LINE
  5
99F
100
AcDbEntity
  8
0
100
AcDbLine
 62
7
  6
CONTINUOUS
 10
30.9747451259
 20
-66.3338579735
 11
31.1413289579
 21
-66.1944951656
  0
LINE
  5
9A0
100
AcDbEntity
  8
0
100
AcDbLine
 62
7
  6
CONTINUOUS
 10
28.3143930808
 20
-74.3047056099
 11
28.6096739732
 21
-74.0593508693
  0
LINE
  5
9A1
100
AcDbEntity
  8
0
100
AcDbLine
 62
7
  6
CONTINUOUS
 10
28.9888116651
 20
-63.7432034741
 11
28.9202780827
 21
-63.7995820246
  0
LINE
  5
9A2
100
AcDbEntity
  8
0
100
AcDbLine
 62
7
  6
CONTINUOUS
 10
9.1101752212
 20
-68.5468970543
 11
9.7904151284
 21
-68.0316415665
  0
LINE
  5
9A3
100
AcDbEntity
  8
0
100
AcDbLine
 62
7
  6
CONTINUOUS
 10
26.6250517361
 20
-60.8662938939
 11
26.6961083954
 21
-60.81328166
  0
LINE
  5
9A4
100
AcDbEntity
  8
0
100
AcDbLine
 62
7
  6
CONTINUOUS
 10
-26.5159172569
 20
-63.9021191952
 11
-26.591485629
 21
-63.9480440286
  0
LINE
  5
9A5
100
AcDbEntity
  8
0
100
AcDbLine
 62
7
  6
CONTINUOUS
 10
-25.0362969075
 20
-66.816272434
 11
-24.8494150861
 21
-66.7072807041
  0
LINE
  5
9A6
100
AcDbEntity
  8
0
100
AcDbLine
 62
7
  6
CONTINUOUS
 10
5.9460120932
 20
-40.9222421341
 11
5.8627782065
 21
-40.9706992458
  0
LINE
  5
9A7
100
AcDbEntity
  8
0
100
AcDbLine
 62
7
  6
CONTINUOUS
 10
-28.4466587384
 20
-60.7178337864
 11
-28.3690989949
 21
-60.6756068887
  0
LINE
  5
9A8
100
AcDbEntity
  8
0
100
AcDbLine
 62
7
  6
CONTINUOUS
 10
-5.3885784225
 20
-37.3305536398
 11
-5.2343827671
 21
-37.2510923005
  0
LINE
  5
9A9
100
AcDbEntity
  8
0
100
AcDbLine
 62
7
  6
CONTINUOUS
 10
-8.0232081929
 20
-19.3121017161
 11
-8.3088477833
 21
-19.4274268338
  0
LINE
  5
9AA
100
AcDbEntity
  8
0
100
AcDbLine
 62
7
  6
CONTINUOUS
 10
8.6552981845
 20
-7.8920126928
 11
8.3859349381
 21
-7.9929777533
  0
LINE
  5
9AB
100
AcDbEntity
  8
0
100
AcDbLine
 62
7
  6
CONTINUOUS
 10
1.0193559571
 20
-1.8769836712
 11
0.9060409524
 21
-1.9130623031
  0
LINE
  5
9AC
100
AcDbEntity
  8
0
100
AcDbLine
 62
7
  6
CONTINUOUS
 10
29.064482669
 20
-75.9156367653
 11
29.8237901283
 21
-75.2962642078
  0
LINE
  5
9AD
100
AcDbEntity
  8
0
100
AcDbLine
 62
7
  6
CONTINUOUS
 10
29.8585399675
 20
-77.5939535856
 11
31.1934527138
 21
-76.5141217388
  0
LINE
  5
9AE
100
AcDbEntity
  8
0
100
AcDbLine
 62
7
  6
CONTINUOUS
 10
32.6211802597
 20
-81.388672566
 11
34.0851977489
 21
-80.2204896208
  0
LINE
  5
9AF
100
AcDbEntity
  8
0
100
AcDbLine
 62
7
  6
CONTINUOUS
 10
28.0129247202
 20
-74.5427286217
 11
28.3143930808
 21
-74.3047056099
  0
LINE
  5
9B0
100
AcDbEntity
  8
0
100
AcDbLine
 62
7
  6
CONTINUOUS
 10
30.4481423007
 20
-78.9983094831
 11
31.8686530923
 21
-77.8926148761
  0
LINE
  5
9B1
100
AcDbEntity
  8
0
100
AcDbLine
 62
7
  6
CONTINUOUS
 10
30.8025786962
 20
-66.4659668551
 11
30.9747451259
 21
-66.3338579735
  0
LINE
  5
9B2
100
AcDbEntity
  8
0
100
AcDbLine
 62
7
  6
CONTINUOUS
 10
27.7054058496
 20
-74.7732829454
 11
28.0129247202
 21
-74.5427286217
  0
LINE
  5
9B3
100
AcDbEntity
  8
0
100
AcDbLine
 62
7
  6
CONTINUOUS
 10
28.9202780827
 20
-63.7995820246
 11
28.8492221284
 21
-63.8525949049
  0
LINE
  5
9B4
100
AcDbEntity
  8
0
100
AcDbLine
 62
7
  6
CONTINUOUS
 10
30.6251712738
 20
-66.5905761014
 11
30.8025786962
 21
-66.4659668551
  0
LINE
  5
9B5
100
AcDbEntity
  8
0
100
AcDbLine
 62
7
  6
CONTINUOUS
 10
28.8492221284
 20
-63.8525949049
 11
28.7758209995
 21
-63.9021190999
  0
LINE
  5
9B6
100
AcDbEntity
  8
0
100
AcDbLine
 62
7
  6
CONTINUOUS
 10
26.6961083954
 20
-60.81328166
 11
26.7695103184
 21
-60.7637580489
  0
LINE
  5
9B7
100
AcDbEntity
  8
0
100
AcDbLine
 62
7
  6
CONTINUOUS
 10
8.403038546
 20
-69.0223344816
 11
9.1101752212
 21
-68.5468970543
  0
LINE
  5
9B8
100
AcDbEntity
  8
0
100
AcDbLine
 62
7
  6
CONTINUOUS
 10
-26.591485629
 20
-63.9480440286
 11
-26.6690444327
 21
-63.9902713366
  0
LINE
  5
9B9
100
AcDbEntity
  8
0
100
AcDbLine
 62
7
  6
CONTINUOUS
 10
-25.2273844849
 20
-66.9171514114
 11
-25.0362969075
 21
-66.816272434
  0
LINE
  5
9BA
100
AcDbEntity
  8
0
100
AcDbLine
 62
7
  6
CONTINUOUS
 10
5.8627782065
 20
-40.9706992458
 11
5.708577601
 21
-41.0501620781
  0
LINE
  5
9BB
100
AcDbEntity
  8
0
100
AcDbLine
 62
7
  6
CONTINUOUS
 10
-28.3690989949
 20
-60.6756068887
 11
-28.2897224554
 21
-60.637163413
  0
LINE
  5
9BC
100
AcDbEntity
  8
0
100
AcDbLine
 62
7
  6
CONTINUOUS
 10
-5.2343827671
 20
-37.2510923005
 11
-5.0738554157
 21
-37.1812004193
  0
LINE
  5
9BD
100
AcDbEntity
  8
0
100
AcDbLine
 62
7
  6
CONTINUOUS
 10
34.4003910192
 20
-83.5927117772
 11
36.0464665915
 21
-82.2650407309
  0
LINE
  5
9BE
100
AcDbEntity
  8
0
100
AcDbLine
 62
7
  6
CONTINUOUS
 10
35.3524034592
 20
-85.2820817722
 11
37.1072709343
 21
-83.8926494993
  0
LINE
  5
9BF
100
AcDbEntity
  8
0
100
AcDbLine
 62
7
  6
CONTINUOUS
 10
28.2720623836
 20
-76.489752305
 11
29.064482669
 21
-75.9156367653
  0
LINE
  5
9C0
100
AcDbEntity
  8
0
100
AcDbLine
 62
7
  6
CONTINUOUS
 10
27.3919734284
 20
-74.9962316228
 11
27.7054058496
 21
-74.7732829454
  0
LINE
  5
9C1
100
AcDbEntity
  8
0
100
AcDbLine
 62
7
  6
CONTINUOUS
 10
27.0727644149
 20
-75.2114376945
 11
27.3919734284
 21
-74.9962316228
  0
LINE
  5
9C2
100
AcDbEntity
  8
0
100
AcDbLine
 62
7
  6
CONTINUOUS
 10
30.4428671363
 20
-66.7074610516
 11
30.6251712738
 21
-66.5905761014
  0
LINE
  5
9C3
100
AcDbEntity
  8
0
100
AcDbLine
 62
7
  6
CONTINUOUS
 10
26.7695103184
 20
-60.7637580489
 11
26.8450795543
 21
-60.7178337117
  0
LINE
  5
9C4
100
AcDbEntity
  8
0
100
AcDbLine
 62
7
  6
CONTINUOUS
 10
28.7758209995
 20
-63.9021190999
 11
28.7002526637
 21
-63.9480439534
  0
LINE
  5
9C5
100
AcDbEntity
  8
0
100
AcDbLine
 62
7
  6
CONTINUOUS
 10
7.6714156307
 20
-69.4564700515
 11
8.403038546
 21
-69.0223344816
  0
LINE
  5
9C6
100
AcDbEntity
  8
0
100
AcDbLine
 62
7
  6
CONTINUOUS
 10
-26.6690444327
 20
-63.9902713366
 11
-26.7484199052
 21
-64.0287151588
  0
LINE
  5
9C7
100
AcDbEntity
  8
0
100
AcDbLine
 62
7
  6
CONTINUOUS
 10
-25.4223418909
 20
-67.0097563519
 11
-25.2273844849
 21
-66.9171514114
  0
LINE
  5
9C8
100
AcDbEntity
  8
0
100
AcDbLine
 62
7
  6
CONTINUOUS
 10
5.708577601
 20
-41.0501620781
 11
5.5480458541
 21
-41.1200552335
  0
LINE
  5
9C9
100
AcDbEntity
  8
0
100
AcDbLine
 62
7
  6
CONTINUOUS
 10
-28.2897224554
 20
-60.637163413
 11
-28.2086982084
 21
-60.6025776606
  0
LINE
  5
9CA
100
AcDbEntity
  8
0
100
AcDbLine
 62
7
  6
CONTINUOUS
 10
-5.0738554157
 20
-37.1812004193
 11
-4.9078221643
 21
-37.1213257672
  0
LINE
  5
9CB
100
AcDbEntity
  8
0
100
AcDbLine
 62
7
  6
CONTINUOUS
 10
32.6575700881
 20
-84.7822202174
 11
34.4003910192
 21
-83.5927117772
  0
LINE
  5
9CC
100
AcDbEntity
  8
0
100
AcDbLine
 62
7
  6
CONTINUOUS
 10
31.0727643397
 20
-82.434998893
 11
32.6211802597
 21
-81.388672566
  0
LINE
  5
9CD
100
AcDbEntity
  8
0
100
AcDbLine
 62
7
  6
CONTINUOUS
 10
28.4351190202
 20
-78.54588696
 11
29.8585399675
 21
-77.5939535856
  0
LINE
  5
9CE
100
AcDbEntity
  8
0
100
AcDbLine
 62
7
  6
CONTINUOUS
 10
28.9397967894
 20
-79.9719653406
 11
30.4481423007
 21
-78.9983094831
  0
LINE
  5
9CF
100
AcDbEntity
  8
0
100
AcDbLine
 62
7
  6
CONTINUOUS
 10
27.4493898019
 20
-77.0167040002
 11
28.2720623836
 21
-76.489752305
  0
LINE
  5
9D0
100
AcDbEntity
  8
0
100
AcDbLine
 62
7
  6
CONTINUOUS
 10
26.7479157692
 20
-75.4187642014
 11
27.0727644149
 21
-75.2114376945
  0
LINE
  5
9D1
100
AcDbEntity
  8
0
100
AcDbLine
 62
7
  6
CONTINUOUS
 10
26.4175644492
 20
-75.618074185
 11
26.7479157692
 21
-75.4187642014
  0
LINE
  5
9D2
100
AcDbEntity
  8
0
100
AcDbLine
 62
7
  6
CONTINUOUS
 10
30.2560101785
 20
-66.8164185039
 11
30.4428671363
 21
-66.7074610516
  0
LINE
  5
9D3
100
AcDbEntity
  8
0
100
AcDbLine
 62
7
  6
CONTINUOUS
 10
26.8450795543
 20
-60.7178337117
 11
26.9226393387
 21
-60.6756068318
  0
LINE
  5
9D4
100
AcDbEntity
  8
0
100
AcDbLine
 62
7
  6
CONTINUOUS
 10
28.7002526637
 20
-63.9480439534
 11
28.6226939009
 21
-63.9902712797
  0
LINE
  5
9D5
100
AcDbEntity
  8
0
100
AcDbLine
 62
7
  6
CONTINUOUS
 10
6.917691954
 20
-69.8480195764
 11
7.6714156307
 21
-69.4564700515
  0
LINE
  5
9D6
100
AcDbEntity
  8
0
100
AcDbLine
 62
7
  6
CONTINUOUS
 10
-26.7484199052
 20
-64.0287151588
 11
-26.8294429431
 21
-64.0633011946
  0
LINE
  5
9D7
100
AcDbEntity
  8
0
100
AcDbLine
 62
7
  6
CONTINUOUS
 10
-25.6208416866
 20
-67.0939459791
 11
-25.4223418909
 21
-67.0097563519
  0
LINE
  5
9D8
100
AcDbEntity
  8
0
100
AcDbLine
 62
7
  6
CONTINUOUS
 10
-28.2086982084
 20
-60.6025776606
 11
-28.12618927
 21
-60.5719131158
  0
LINE
  5
9D9
100
AcDbEntity
  8
0
100
AcDbLine
 62
7
  6
CONTINUOUS
 10
5.5480458541
 20
-41.1200552335
 11
5.3820090801
 21
-41.1799308685
  0
LINE
  5
9DA
100
AcDbEntity
  8
0
100
AcDbLine
 62
7
  6
CONTINUOUS
 10
-4.9078221643
 20
-37.1213257672
 11
-4.7370980184
 21
-37.0718370237
  0
LINE
  5
9DB
100
AcDbEntity
  8
0
100
AcDbLine
 62
7
  6
CONTINUOUS
 10
33.4977921942
 20
-86.5263218556
 11
35.3524034592
 21
-85.2820817722
  0
LINE
  5
9DC
100
AcDbEntity
  8
0
100
AcDbLine
 62
7
  6
CONTINUOUS
 10
26.0818474142
 20
-75.8092306862
 11
26.4175644492
 21
-75.618074185
  0
LINE
  5
9DD
100
AcDbEntity
  8
0
100
AcDbLine
 62
7
  6
CONTINUOUS
 10
26.5993213976
 20
-77.4948269368
 11
27.4493898019
 21
-77.0167040002
  0
LINE
  5
9DE
100
AcDbEntity
  8
0
100
AcDbLine
 62
7
  6
CONTINUOUS
 10
26.9357190115
 20
-79.3624555181
 11
28.4351190202
 21
-78.54588696
  0
LINE
  5
9DF
100
AcDbEntity
  8
0
100
AcDbLine
 62
7
  6
CONTINUOUS
 10
25.7409016229
 20
-75.9920967462
 11
26.0818474142
 21
-75.8092306862
  0
LINE
  5
9E0
100
AcDbEntity
  8
0
100
AcDbLine
 62
7
  6
CONTINUOUS
 10
30.0649409852
 20
-66.917266641
 11
30.2560101785
 21
-66.8164185039
  0
LINE
  5
9E1
100
AcDbEntity
  8
0
100
AcDbLine
 62
7
  6
CONTINUOUS
 10
26.9226393387
 20
-60.6756068318
 11
27.002015925
 21
-60.6371633711
  0
LINE
  5
9E2
100
AcDbEntity
  8
0
100
AcDbLine
 62
7
  6
CONTINUOUS
 10
28.6226939009
 20
-63.9902712797
 11
28.5433184753
 21
-64.028715117
  0
LINE
  5
9E3
100
AcDbEntity
  8
0
100
AcDbLine
 62
7
  6
CONTINUOUS
 10
29.8699941112
 20
-67.0098444853
 11
30.0649409852
 21
-66.917266641
  0
LINE
  5
9E4
100
AcDbEntity
  8
0
100
AcDbLine
 62
7
  6
CONTINUOUS
 10
6.1441941273
 20
-70.1958919549
 11
6.917691954
 21
-69.8480195764
  0
LINE
  5
9E5
100
AcDbEntity
  8
0
100
AcDbLine
 62
7
  6
CONTINUOUS
 10
27.002015925
 20
-60.6371633711
 11
27.083040225
 21
-60.6025776313
  0
LINE
  5
9E6
100
AcDbEntity
  8
0
100
AcDbLine
 62
7
  6
CONTINUOUS
 10
-25.8225670686
 20
-67.1695976933
 11
-25.6208416866
 21
-67.0939459791
  0
LINE
  5
9E7
100
AcDbEntity
  8
0
100
AcDbLine
 62
7
  6
CONTINUOUS
 10
-26.8294429431
 20
-64.0633011946
 11
-26.9119505185
 21
-64.0939659633
  0
LINE
  5
9E8
100
AcDbEntity
  8
0
100
AcDbLine
 62
7
  6
CONTINUOUS
 10
-28.12618927
 20
-60.5719131158
 11
-28.0423514249
 21
-60.5452235107
  0
LINE
  5
9E9
100
AcDbEntity
  8
0
100
AcDbLine
 62
7
  6
CONTINUOUS
 10
5.3820090801
 20
-41.1799308685
 11
5.2112825638
 21
-41.2294202861
  0
LINE
  5
9EA
100
AcDbEntity
  8
0
100
AcDbLine
 62
7
  6
CONTINUOUS
 10
30.8299889843
 20
-85.8262066825
 11
32.6575700881
 21
-84.7822202174
  0
LINE
  5
9EB
100
AcDbEntity
  8
0
100
AcDbLine
 62
7
  6
CONTINUOUS
 10
29.4503997935
 20
-83.3531170783
 11
31.0727643397
 21
-82.434998893
  0
LINE
  5
9EC
100
AcDbEntity
  8
0
100
AcDbLine
 62
7
  6
CONTINUOUS
 10
31.5557807658
 20
-87.6179238763
 11
33.4977921942
 21
-86.5263218556
  0
LINE
  5
9ED
100
AcDbEntity
  8
0
100
AcDbLine
 62
7
  6
CONTINUOUS
 10
27.3560133631
 20
-80.8064593626
 11
28.9397967894
 21
-79.9719653406
  0
LINE
  5
9EE
100
AcDbEntity
  8
0
100
AcDbLine
 62
7
  6
CONTINUOUS
 10
25.3948640346
 20
-76.1665354062
 11
25.7409016229
 21
-75.9920967462
  0
LINE
  5
9EF
100
AcDbEntity
  8
0
100
AcDbLine
 62
7
  6
CONTINUOUS
 10
25.7246654158
 20
-77.9226956044
 11
26.5993213976
 21
-77.4948269368
  0
LINE
  5
9F0
100
AcDbEntity
  8
0
100
AcDbLine
 62
7
  6
CONTINUOUS
 10
25.043871608
 20
-76.332409707
 11
25.3948640346
 21
-76.1665354062
  0
LINE
  5
9F1
100
AcDbEntity
  8
0
100
AcDbLine
 62
7
  6
CONTINUOUS
 10
28.5433184753
 20
-64.028715117
 11
28.4622954903
 21
-64.0633011653
  0
LINE
  5
9F2
100
AcDbEntity
  8
0
100
AcDbLine
 62
7
  6
CONTINUOUS
 10
29.6714956365
 20
-67.0940109351
 11
29.8699941112
 21
-67.0098444853
  0
LINE
  5
9F3
100
AcDbEntity
  8
0
100
AcDbLine
 62
7
  6
CONTINUOUS
 10
5.3531606752
 20
-70.4991757838
 11
6.1441941273
 21
-70.1958919549
  0
LINE
  5
9F4
100
AcDbEntity
  8
0
100
AcDbLine
 62
7
  6
CONTINUOUS
 10
27.083040225
 20
-60.6025776313
 11
27.1655492229
 21
-60.5719130961
  0
LINE
  5
9F5
100
AcDbEntity
  8
0
100
AcDbLine
 62
7
  6
CONTINUOUS
 10
-26.0272136611
 20
-67.2366059276
 11
-25.8225670686
 21
-67.1695976933
  0
LINE
  5
9F6
100
AcDbEntity
  8
0
100
AcDbLine
 62
7
  6
CONTINUOUS
 10
-26.9119505185
 20
-64.0939659633
 11
-26.9957868332
 21
-64.1206557373
  0
LINE
  5
9F7
100
AcDbEntity
  8
0
100
AcDbLine
 62
7
  6
CONTINUOUS
 10
28.9293951052
 20
-86.7187056943
 11
30.8299889843
 21
-85.8262066825
  0
LINE
  5
9F8
100
AcDbEntity
  8
0
100
AcDbLine
 62
7
  6
CONTINUOUS
 10
27.7643164339
 20
-84.1378795155
 11
29.4503997935
 21
-83.3531170783
  0
LINE
  5
9F9
100
AcDbEntity
  8
0
100
AcDbLine
 62
7
  6
CONTINUOUS
 10
24.6880613015
 20
-76.4895826897
 11
25.043871608
 21
-76.332409707
  0
LINE
  5
9FA
100
AcDbEntity
  8
0
100
AcDbLine
 62
7
  6
CONTINUOUS
 10
25.3724935242
 20
-80.0378275107
 11
26.9357190115
 21
-79.3624555181
  0
LINE
  5
9FB
100
AcDbEntity
  8
0
100
AcDbLine
 62
7
  6
CONTINUOUS
 10
24.8281425153
 20
-78.2991120667
 11
25.7246654158
 21
-77.9226956044
  0
LINE
  5
9FC
100
AcDbEntity
  8
0
100
AcDbLine
 62
7
  6
CONTINUOUS
 10
25.7087591577
 20
-81.4962303664
 11
27.3560133631
 21
-80.8064593626
  0
LINE
  5
9FD
100
AcDbEntity
  8
0
100
AcDbLine
 62
7
  6
CONTINUOUS
 10
24.3275700753
 20
-76.6379173951
 11
24.6880613015
 21
-76.4895826897
  0
LINE
  5
9FE
100
AcDbEntity
  8
0
100
AcDbLine
 62
7
  6
CONTINUOUS
 10
23.9625348872
 20
-76.7772768649
 11
24.3275700753
 21
-76.6379173951
  0
LINE
  5
9FF
100
AcDbEntity
  8
0
100
AcDbLine
 62
7
  6
CONTINUOUS
 10
29.4697610401
 20
-67.1696434293
 11
29.6714956365
 21
-67.0940109351
  0
LINE
  5
A00
100
AcDbEntity
  8
0
100
AcDbLine
 62
7
  6
CONTINUOUS
 10
28.4622954903
 20
-64.0633011653
 11
28.379787975
 21
-64.0939659441
  0
LINE
  5
A01
100
AcDbEntity
  8
0
100
AcDbLine
 62
7
  6
CONTINUOUS
 10
4.5467183727
 20
-70.7571203865
 11
5.3531606752
 21
-70.4991757838
  0
LINE
  5
A02
100
AcDbEntity
  8
0
100
AcDbLine
 62
7
  6
CONTINUOUS
 10
27.1655492229
 20
-60.5719130961
 11
27.249387135
 21
-60.5452234986
  0
LINE
  5
A03
100
AcDbEntity
  8
0
100
AcDbLine
 62
7
  6
CONTINUOUS
 10
28.379787975
 20
-64.0939659441
 11
28.2959517268
 21
-64.1206557252
  0
LINE
  5
A04
100
AcDbEntity
  8
0
100
AcDbLine
 62
7
  6
CONTINUOUS
 10
29.5384402653
 20
-88.5508548546
 11
31.5557807658
 21
-87.6179238763
  0
LINE
  5
A05
100
AcDbEntity
  8
0
100
AcDbLine
 62
7
  6
CONTINUOUS
 10
26.0242561658
 20
-84.7852551465
 11
27.7643164339
 21
-84.1378795155
  0
LINE
  5
A06
100
AcDbEntity
  8
0
100
AcDbLine
 62
7
  6
CONTINUOUS
 10
23.5930926965
 20
-76.9075241399
 11
23.9625348872
 21
-76.7772768649
  0
LINE
  5
A07
100
AcDbEntity
  8
0
100
AcDbLine
 62
7
  6
CONTINUOUS
 10
29.2650934274
 20
-67.2366363085
 11
29.4697610401
 21
-67.1696434293
  0
LINE
  5
A08
100
AcDbEntity
  8
0
100
AcDbLine
 62
7
  6
CONTINUOUS
 10
26.9669832342
 20
-87.4550481096
 11
28.9293951052
 21
-86.7187056943
  0
LINE
  5
A09
100
AcDbEntity
  8
0
100
AcDbLine
 62
7
  6
CONTINUOUS
 10
27.4572585831
 20
-89.3203890021
 11
29.5384402653
 21
-88.5508548546
  0
LINE
  5
A0A
100
AcDbEntity
  8
0
100
AcDbLine
 62
7
  6
CONTINUOUS
 10
23.7568255089
 20
-80.5676370701
 11
25.3724935242
 21
-80.0378275107
  0
LINE
  5
A0B
100
AcDbEntity
  8
0
100
AcDbLine
 62
7
  6
CONTINUOUS
 10
24.0092153287
 20
-82.0371026049
 11
25.7087591577
 21
-81.4962303664
  0
LINE
  5
A0C
100
AcDbEntity
  8
0
100
AcDbLine
 62
7
  6
CONTINUOUS
 10
24.9531544496
 20
-88.0316796382
 11
26.9669832342
 21
-87.4550481096
  0
CIRCLE
  5
A0D
100
AcDbEntity
  8
0
100
AcDbCircle
 62
7
  6
CONTINUOUS
 10
0.1988501099
 20
45.2887669438
 40
4.3698137818
  0
CIRCLE
  5
A0E
100
AcDbEntity
  8
0
100
AcDbCircle
 62
7
  6
CONTINUOUS
 10
0.348264495
 20
-56.2546373884
 40
4.1934457283
  0
CIRCLE
  5
A0F
100
AcDbEntity
  8
0
100
AcDbCircle
 62
7
  6
CONTINUOUS
 10
-22.9261010979
 20
-73.1536343258
 40
2.6022716267
  0
CIRCLE
  5
A10
100
AcDbEntity
  8
0
100
AcDbCircle
 62
7
  6
CONTINUOUS
 10
23.3915542519
 20
-73.1536343258
 40
2.6022697736
  0
CIRCLE
  5
A11
100
AcDbEntity
  8
0
100
AcDbCircle
 62
7
  6
CONTINUOUS
 10
0.348264495
 20
-56.2546373884
 40
2.3069840415
  0
ENDSEC
  0
SECTION
  2
OBJECTS
  0
DICTIONARY
  5
C
100
AcDbDictionary
280
0
281
1
  3
ACAD_GROUP
350
D
  3
ACAD_MLINESTYLE
350
17
  3
ACAD_LAYOUT
350
1A
  3
ACAD_PLOTSETTINGS
350
19
  3
ACAD_PLOTSTYLENAME
350
E
  0
DICTIONARY
  5
D
102
{ACAD_REACTORS
330
C
102
}
100
AcDbDictionary
280
0
281
1
  0
ACDBDICTIONARYWDFLT
  5
E
102
{ACAD_REACTORS
330
C
102
}
100
AcDbDictionary
281
1
  3
Normal
350
F
100
AcDbDictionaryWithDefault
340
F
  0
DICTIONARY
  5
17
102
{ACAD_REACTORS
330
C
102
}
100
AcDbDictionary
280
0
281
1
  3
Standard
350
18
  0
DICTIONARY
  5
19
102
{ACAD_REACTORS
330
C
102
}
100
AcDbDictionary
281
1
  0
DICTIONARY
  5
1A
102
{ACAD_REACTORS
330
C
102
}
100
AcDbDictionary
281
1
  3
Model
350
A12
  3
Layout1
350
A13
  0
ACDBPLACEHOLDER
  5
F
102
{ACAD_REACTORS
330
E
102
}
  0
MLINESTYLE
  5
18
102
{ACAD_REACTORS
330
17
102
}
100
AcDbMlineStyle
  2
STANDARD
 70
0
  3

 62
256
 51
90.0
 52
90.0
 71
2
 49
0.5
 62
256
  6
BYLAYER
 49
-0.5
 62
256
  6
BYLAYER
  0
LAYOUT
  5
A12
102
{ACAD_REACTORS
330
1A
102
}
100
AcDbPlotSettings
  1

  2
none_device
  4
ISO_A4_(297.00_x_210.00_MM)
  6

 40
0.0
 41
0.0
 42
0.0
 43
0.0
 44
297.0
 45
210.0
 46
0.0
 47
0.0
 48
0.0
 49
0.0
140
0.0
141
0.0
142
1.0
143
1.0
 70
1024
 72
1
 73
0
 74
0
  7

 75
0
147
1.0
148
0.0
149
0.0
100
AcDbLayout
  1
Model
 70
0
 71
0
 10
0.0
 20
0.0
 11
297.0
 21
210.0
 12
0.0
 22
0.0
 32
0.0
 14
0.0
 24
0.0
 34
0.0
 15
0.0
 25
0.0
 35
0.0
146
0.0
 13
0.0
 23
0.0
 33
0.0
 16
1.0
 26
0.0
 36
0.0
 17
0.0
 27
1.0
 37
0.0
 76
0
330
201
345
0
346
0
  0
LAYOUT
  5
A13
102
{ACAD_REACTORS
330
1A
102
}
100
AcDbPlotSettings
  1

  2
none_device
  4
ISO_A4_(297.00_x_210.00_MM)
  6

 40
0.0
 41
0.0
 42
0.0
 43
0.0
 44
297.0
 45
210.0
 46
0.0
 47
0.0
 48
0.0
 49
0.0
140
0.0
141
0.0
142
1.0
143
1.0
 70
0
 72
1
 73
0
 74
0
  7

 75
0
147
1.0
148
0.0
149
0.0
100
AcDbLayout
  1
Layout1
 70
0
 71
1
 10
0.0
 20
0.0
 11
297.0
 21
210.0
 12
0.0
 22
0.0
 32
0.0
 14
0.0
 24
0.0
 34
0.0
 15
0.0
 25
0.0
 35
0.0
146
0.0
 13
0.0
 23
0.0
 33
0.0
 16
1.0
 26
0.0
 36
0.0
 17
0.0
 27
1.0
 37
0.0
 76
0
330
202
345
0
346
0
  0
ENDSEC
  0
EOF
